  0
SECTION
  2
HEADER
  9
$ACADVER
  1
AC1015
  9
$ACADMAINTVER
 70
    20
  9
$DWGCODEPAGE
  3
ANSI_932
  9
$INSBASE
 10
0.0
 20
0.0
 30
0.0
  9
$EXTMIN
 10
-18.0107103413618
 20
-28.26084821978225
 30
-0.0000000349181948
  9
$EXTMAX
 10
230.7809477124982
 20
54.01574901774512
 30
0.0000000814935746
  9
$LIMMIN
 10
0.0
 20
0.0
  9
$LIMMAX
 10
297.0
 20
210.0
  9
$ORTHOMODE
 70
     0
  9
$REGENMODE
 70
     1
  9
$FILLMODE
 70
     1
  9
$QTEXTMODE
 70
     0
  9
$MIRRTEXT
 70
     1
  9
$LTSCALE
 40
10.0
  9
$ATTMODE
 70
     1
  9
$TEXTSIZE
 40
3.0
  9
$TRACEWID
 40
1.0
  9
$TEXTSTYLE
  7
YOKO
  9
$CLAYER
  8
245
  9
$CELTYPE
  6
BYLAYER
  9
$CECOLOR
 62
   256
  9
$CELTSCALE
 40
1.0
  9
$DISPSILH
 70
     0
  9
$DIMSCALE
 40
1.0
  9
$DIMASZ
 40
2.0
  9
$DIMEXO
 40
0.5
  9
$DIMDLI
 40
2.5
  9
$DIMRND
 40
0.0
  9
$DIMDLE
 40
0.0
  9
$DIMEXE
 40
1.0
  9
$DIMTP
 40
0.0
  9
$DIMTM
 40
0.0
  9
$DIMTXT
 40
2.799999999999999
  9
$DIMCEN
 40
0.0
  9
$DIMTSZ
 40
0.0
  9
$DIMTOL
 70
     0
  9
$DIMLIM
 70
     0
  9
$DIMTIH
 70
     0
  9
$DIMTOH
 70
     0
  9
$DIMSE1
 70
     0
  9
$DIMSE2
 70
     0
  9
$DIMTAD
 70
     3
  9
$DIMZIN
 70
     8
  9
$DIMBLK
  1

  9
$DIMASO
 70
     1
  9
$DIMSHO
 70
     1
  9
$DIMPOST
  1

  9
$DIMAPOST
  1

  9
$DIMALT
 70
     0
  9
$DIMALTD
 70
     2
  9
$DIMALTF
 40
25.4
  9
$DIMLFAC
 40
1.0
  9
$DIMTOFL
 70
     1
  9
$DIMTVP
 40
0.0
  9
$DIMTIX
 70
     1
  9
$DIMSOXD
 70
     0
  9
$DIMSAH
 70
     1
  9
$DIMBLK1
  1
Open
  9
$DIMBLK2
  1
Open
  9
$DIMSTYLE
  2
BIGT
  9
$DIMCLRD
 70
   256
  9
$DIMCLRE
 70
   256
  9
$DIMCLRT
 70
    40
  9
$DIMTFAC
 40
1.0
  9
$DIMGAP
 40
1.0
  9
$DIMJUST
 70
     0
  9
$DIMSD1
 70
     0
  9
$DIMSD2
 70
     0
  9
$DIMTOLJ
 70
     1
  9
$DIMTZIN
 70
     8
  9
$DIMALTZ
 70
     0
  9
$DIMALTTZ
 70
     0
  9
$DIMUPT
 70
     0
  9
$DIMDEC
 70
     3
  9
$DIMTDEC
 70
     3
  9
$DIMALTU
 70
     2
  9
$DIMALTTD
 70
     2
  9
$DIMTXSTY
  7
STANDARD
  9
$DIMAUNIT
 70
     0
  9
$DIMADEC
 70
     3
  9
$DIMALTRND
 40
0.0
  9
$DIMAZIN
 70
     2
  9
$DIMDSEP
 70
    46
  9
$DIMATFIT
 70
     2
  9
$DIMFRAC
 70
     0
  9
$DIMLDRBLK
  1
Open
  9
$DIMLUNIT
 70
     2
  9
$DIMLWD
 70
    -1
  9
$DIMLWE
 70
    -1
  9
$DIMTMOVE
 70
     0
  9
$LUNITS
 70
     2
  9
$LUPREC
 70
     3
  9
$SKETCHINC
 40
1.0
  9
$FILLETRAD
 40
1.3
  9
$AUNITS
 70
     0
  9
$AUPREC
 70
     3
  9
$MENU
  1
.
  9
$ELEVATION
 40
0.0
  9
$PELEVATION
 40
0.0
  9
$THICKNESS
 40
0.0
  9
$LIMCHECK
 70
     0
  9
$CHAMFERA
 40
10.0
  9
$CHAMFERB
 40
10.0
  9
$CHAMFERC
 40
0.0
  9
$CHAMFERD
 40
0.0
  9
$SKPOLY
 70
     0
  9
$TDCREATE
 40
2456727.572636713
  9
$TDUCREATE
 40
2456727.197636713
  9
$TDUPDATE
 40
2456727.579456377
  9
$TDUUPDATE
 40
2456727.204456377
  9
$TDINDWG
 40
0.0068236458
  9
$TDUSRTIMER
 40
0.0068236458
  9
$USRTIMER
 70
     1
  9
$ANGBASE
 50
0.0
  9
$ANGDIR
 70
     0
  9
$PDMODE
 70
     1
  9
$PDSIZE
 40
-5.0
  9
$PLINEWID
 40
0.0
  9
$SPLFRAME
 70
     0
  9
$SPLINETYPE
 70
     6
  9
$SPLINESEGS
 70
     8
  9
$HANDSEED
  5
C4F
  9
$SURFTAB1
 70
     6
  9
$SURFTAB2
 70
     6
  9
$SURFTYPE
 70
     6
  9
$SURFU
 70
     6
  9
$SURFV
 70
     6
  9
$UCSBASE
  2

  9
$UCSNAME
  2

  9
$UCSORG
 10
0.0
 20
0.0
 30
0.0
  9
$UCSXDIR
 10
1.0
 20
0.0
 30
0.0
  9
$UCSYDIR
 10
0.0
 20
1.0
 30
0.0
  9
$UCSORTHOREF
  2

  9
$UCSORTHOVIEW
 70
     0
  9
$UCSORGTOP
 10
0.0
 20
0.0
 30
0.0
  9
$UCSORGBOTTOM
 10
0.0
 20
0.0
 30
0.0
  9
$UCSORGLEFT
 10
0.0
 20
0.0
 30
0.0
  9
$UCSORGRIGHT
 10
0.0
 20
0.0
 30
0.0
  9
$UCSORGFRONT
 10
0.0
 20
0.0
 30
0.0
  9
$UCSORGBACK
 10
0.0
 20
0.0
 30
0.0
  9
$PUCSBASE
  2

  9
$PUCSNAME
  2

  9
$PUCSORG
 10
0.0
 20
0.0
 30
0.0
  9
$PUCSXDIR
 10
1.0
 20
0.0
 30
0.0
  9
$PUCSYDIR
 10
0.0
 20
1.0
 30
0.0
  9
$PUCSORTHOREF
  2

  9
$PUCSORTHOVIEW
 70
     0
  9
$PUCSORGTOP
 10
0.0
 20
0.0
 30
0.0
  9
$PUCSORGBOTTOM
 10
0.0
 20
0.0
 30
0.0
  9
$PUCSORGLEFT
 10
0.0
 20
0.0
 30
0.0
  9
$PUCSORGRIGHT
 10
0.0
 20
0.0
 30
0.0
  9
$PUCSORGFRONT
 10
0.0
 20
0.0
 30
0.0
  9
$PUCSORGBACK
 10
0.0
 20
0.0
 30
0.0
  9
$USERI1
 70
     1
  9
$USERI2
 70
     0
  9
$USERI3
 70
     0
  9
$USERI4
 70
     0
  9
$USERI5
 70
     0
  9
$USERR1
 40
0.0
  9
$USERR2
 40
0.0
  9
$USERR3
 40
0.0
  9
$USERR4
 40
0.0
  9
$USERR5
 40
0.0
  9
$WORLDVIEW
 70
     1
  9
$SHADEDGE
 70
     3
  9
$SHADEDIF
 70
    70
  9
$TILEMODE
 70
     1
  9
$MAXACTVP
 70
    16
  9
$PINSBASE
 10
0.0
 20
0.0
 30
0.0
  9
$PLIMCHECK
 70
     0
  9
$PEXTMIN
 10
1.000000000000000E+20
 20
1.000000000000000E+20
 30
1.000000000000000E+20
  9
$PEXTMAX
 10
-1.000000000000000E+20
 20
-1.000000000000000E+20
 30
-1.000000000000000E+20
  9
$PLIMMIN
 10
0.0
 20
0.0
  9
$PLIMMAX
 10
420.0
 20
297.0
  9
$UNITMODE
 70
     0
  9
$VISRETAIN
 70
     0
  9
$PLINEGEN
 70
     0
  9
$PSLTSCALE
 70
     1
  9
$TREEDEPTH
 70
  3020
  9
$CMLSTYLE
  2
STANDARD
  9
$CMLJUST
 70
     0
  9
$CMLSCALE
 40
1.0
  9
$PROXYGRAPHICS
 70
     1
  9
$MEASUREMENT
 70
     1
  9
$CELWEIGHT
370
    -1
  9
$ENDCAPS
280
     0
  9
$JOINSTYLE
280
     0
  9
$LWDISPLAY
290
     0
  9
$INSUNITS
 70
     0
  9
$HYPERLINKBASE
  1

  9
$STYLESHEET
  1
big.ctb
  9
$XEDIT
290
     1
  9
$CEPSNTYPE
380
     0
  9
$PSTYLEMODE
290
     1
  9
$FINGERPRINTGUID
  2
{C4E3E1D5-1552-4F03-8D46-72A9110924D8}
  9
$VERSIONGUID
  2
{0ACB385E-4BE5-4B58-8C7A-1DF61A9ACAE1}
  9
$EXTNAMES
290
     1
  9
$PSVPSCALE
 40
0.0
  9
$OLESTARTUP
290
     0
  0
ENDSEC
  0
SECTION
  2
CLASSES
  0
CLASS
  1
ACDBDICTIONARYWDFLT
  2
AcDbDictionaryWithDefault
  3
ObjectDBX Classes
 90
        0
280
     0
281
     0
  0
CLASS
  1
ACDBPLACEHOLDER
  2
AcDbPlaceHolder
  3
ObjectDBX Classes
 90
        0
280
     0
281
     0
  0
CLASS
  1
LAYOUT
  2
AcDbLayout
  3
ObjectDBX Classes
 90
        0
280
     0
281
     0
  0
CLASS
  1
PLOTSETTINGS
  2
AcDbPlotSettings
  3
ObjectDBX Classes
 90
        0
280
     0
281
     0
  0
CLASS
  1
MATERIAL
  2
AcDbMaterial
  3
ObjectDBX Classes
 90
     1024
280
     0
281
     0
  0
CLASS
  1
VISUALSTYLE
  2
AcDbVisualStyle
  3
ObjectDBX Classes
 90
     4095
280
     0
281
     0
  0
CLASS
  1
TABLESTYLE
  2
AcDbTableStyle
  3
ObjectDBX Classes
 90
     4095
280
     0
281
     0
  0
CLASS
  1
SORTENTSTABLE
  2
AcDbSortentsTable
  3
ObjectDBX Classes
 90
        0
280
     0
281
     0
  0
CLASS
  1
DICTIONARYVAR
  2
AcDbDictionaryVar
  3
ObjectDBX Classes
 90
        0
280
     0
281
     0
  0
ENDSEC
  0
SECTION
  2
TABLES
  0
TABLE
  2
VPORT
  5
8
330
0
100
AcDbSymbolTable
 70
     1
  0
VPORT
  5
77A
330
8
100
AcDbSymbolTableRecord
100
AcDbViewportTableRecord
  2
*Active
 70
     0
 10
0.0
 20
0.0
 11
1.0
 21
1.0
 12
106.3851186855682
 22
12.87745039898144
 13
0.0
 23
0.0
 14
7.0
 24
7.0
 15
7.0
 25
7.0
 16
0.0
 26
0.0
 36
1.0
 17
0.0
 27
0.0
 37
0.0
 40
173.9594385327333
 41
1.436127744510978
 42
50.0
 43
0.0
 44
0.0
 50
0.0
 51
0.0
 71
     0
 72
 20000
 73
     1
 74
     0
 75
     0
 76
     0
 77
     0
 78
     0
281
     0
 65
     1
110
0.0
120
0.0
130
0.0
111
1.0
121
0.0
131
0.0
112
0.0
122
1.0
132
0.0
 79
     0
146
0.0
  0
ENDTAB
  0
TABLE
  2
LTYPE
  5
5
330
0
100
AcDbSymbolTable
 70
    39
  0
LTYPE
  5
14
330
5
100
AcDbSymbolTableRecord
100
AcDbLinetypeTableRecord
  2
BYBLOCK
 70
     0
  3

 72
    65
 73
     0
 40
0.0
  0
LTYPE
  5
15
330
5
100
AcDbSymbolTableRecord
100
AcDbLinetypeTableRecord
  2
BYLAYER
 70
     0
  3

 72
    65
 73
     0
 40
0.0
  0
LTYPE
  5
16
330
5
100
AcDbSymbolTableRecord
100
AcDbLinetypeTableRecord
  2
CONTINUOUS
 70
     0
  3
Solid line
 72
    65
 73
     0
 40
0.0
  0
LTYPE
  5
258
330
5
100
AcDbSymbolTableRecord
100
AcDbLinetypeTableRecord
  2
CENTER2
 70
     0
  3
___ _ ___ _ ___ _ ___ _ ___ _ ___ _ ___ _ ___ _
 72
    65
 73
     4
 40
1.125
 49
0.75
 74
     0
 49
-0.125
 74
     0
 49
0.125
 74
     0
 49
-0.125
 74
     0
  0
LTYPE
  5
25C
330
5
100
AcDbSymbolTableRecord
100
AcDbLinetypeTableRecord
  2
HIDDEN2
 70
     0
  3
_ _ _ _ _ _ _ _ _ _ _ _ _ _ _ _ _ _ _ _ _ _ _ _
 72
    65
 73
     2
 40
0.1875
 49
0.125
 74
     0
 49
-0.0625
 74
     0
  0
ENDTAB
  0
TABLE
  2
LAYER
  5
2
102
{ACAD_XDICTIONARY
360
79D
102
}
330
0
100
AcDbSymbolTable
 70
    32
  0
LAYER
  5
F
330
2
100
AcDbSymbolTableRecord
100
AcDbLayerTableRecord
  2
0
 70
     0
 62
     7
  6
CONTINUOUS
370
    -3
390
564
  0
LAYER
  5
1AA
330
2
100
AcDbSymbolTableRecord
100
AcDbLayerTableRecord
  2
240
 70
     0
 62
     4
  6
CONTINUOUS
370
    -3
390
564
  0
LAYER
  5
1AB
330
2
100
AcDbSymbolTableRecord
100
AcDbLayerTableRecord
  2
241
 70
     0
 62
   211
  6
CONTINUOUS
370
    -3
390
564
  0
LAYER
  5
1AC
330
2
100
AcDbSymbolTableRecord
100
AcDbLayerTableRecord
  2
242
 70
     0
 62
     3
  6
CONTINUOUS
370
    -3
390
564
  0
LAYER
  5
1AF
330
2
100
AcDbSymbolTableRecord
100
AcDbLayerTableRecord
  2
245
 70
     0
 62
     2
  6
CENTER2
370
    -3
390
564
  0
LAYER
  5
21E
330
2
100
AcDbSymbolTableRecord
100
AcDbLayerTableRecord
  2
250
 70
     0
 62
     3
  6
CONTINUOUS
370
    -3
390
564
  0
LAYER
  5
21F
330
2
100
AcDbSymbolTableRecord
100
AcDbLayerTableRecord
  2
251
 70
     0
 62
    40
  6
CONTINUOUS
370
    -3
390
564
  0
LAYER
  5
5C4
330
2
100
AcDbSymbolTableRecord
100
AcDbLayerTableRecord
  2
Defpoints
 70
     0
 62
     7
  6
CONTINUOUS
290
     0
370
    -3
390
564
  0
ENDTAB
  0
TABLE
  2
STYLE
  5
3
330
0
100
AcDbSymbolTable
 70
     3
  0
STYLE
  5
10
330
3
100
AcDbSymbolTableRecord
100
AcDbTextStyleTableRecord
  2
STANDARD
 70
     0
 40
0.0
 41
1.0
 50
0.0
 71
     0
 42
2.799999999999999
  3
romans.shx
  4
BIGFONT.SHX
  0
STYLE
  5
339
330
3
100
AcDbSymbolTableRecord
100
AcDbTextStyleTableRecord
  2
YOKO
 70
     0
 40
0.0
 41
1.0
 50
0.0
 71
     0
 42
3.0
  3
romans.shx
  4
extfont.shx
  0
ENDTAB
  0
TABLE
  2
VIEW
  5
6
330
0
100
AcDbSymbolTable
 70
     0
  0
ENDTAB
  0
TABLE
  2
UCS
  5
7
330
0
100
AcDbSymbolTable
 70
     0
  0
ENDTAB
  0
TABLE
  2
APPID
  5
9
330
0
100
AcDbSymbolTable
 70
    11
  0
APPID
  5
11
330
9
100
AcDbSymbolTableRecord
100
AcDbRegAppTableRecord
  2
ACAD
 70
     0
  0
APPID
  5
1B1
330
9
100
AcDbSymbolTableRecord
100
AcDbRegAppTableRecord
  2
GLOBAL
 70
     0
  0
APPID
  5
2A4
330
9
100
AcDbSymbolTableRecord
100
AcDbRegAppTableRecord
  2
DETAIL
 70
     0
  0
APPID
  5
5FD
330
9
100
AcDbSymbolTableRecord
100
AcDbRegAppTableRecord
  2
GRPNAME
 70
     0
  0
APPID
  5
5FE
330
9
100
AcDbSymbolTableRecord
100
AcDbRegAppTableRecord
  2
GPARA
 70
     0
  0
APPID
  5
6C4
330
9
100
AcDbSymbolTableRecord
100
AcDbRegAppTableRecord
  2
DCO15
 70
     0
  0
APPID
  5
6C5
330
9
100
AcDbSymbolTableRecord
100
AcDbRegAppTableRecord
  2
ITEMNAME
 70
     0
  0
APPID
  5
6C6
330
9
100
AcDbSymbolTableRecord
100
AcDbRegAppTableRecord
  2
GRADE_0
 70
     0
  0
APPID
  5
79A
330
9
100
AcDbSymbolTableRecord
100
AcDbRegAppTableRecord
  2
ASK_MEN_XD
 70
     0
  0
APPID
  5
79B
330
9
100
AcDbSymbolTableRecord
100
AcDbRegAppTableRecord
  2
ASKOBJSC
 70
     0
  0
APPID
  5
79C
330
9
100
AcDbSymbolTableRecord
100
AcDbRegAppTableRecord
  2
ASKDWGSC
 70
     0
  0
ENDTAB
  0
TABLE
  2
DIMSTYLE
  5
A
330
0
100
AcDbSymbolTable
 70
    12
100
AcDbDimStyleTable
 71
     1
340
725
  0
DIMSTYLE
105
725
102
{ACAD_REACTORS
330
A83
330
A84
102
}
330
A
100
AcDbSymbolTableRecord
100
AcDbDimStyleTableRecord
  2
BIGT
 70
     0
 41
2.229999999999999
 42
0.5
 43
2.5
 44
1.0
 73
     0
 74
     0
 77
     3
 78
     8
 79
     2
140
2.799999999999999
141
0.0
147
1.0
172
     1
173
     1
174
     1
176
   256
177
   256
178
    40
179
     3
271
     3
272
     3
284
     8
289
     2
340
10
341
594
343
594
344
594
371
    -1
372
    -1
  0
DIMSTYLE
105
8F6
102
{ACAD_REACTORS
330
8F9
330
8FA
330
903
330
904
330
934
102
}
330
A
100
AcDbSymbolTableRecord
100
AcDbDimStyleTableRecord
  2
BIGT$0
 70
     0
  4
"
 41
2.229999999999999
 42
0.5
 43
7.0
 44
1.0
 47
0.1
 48
0.1
 73
     0
 74
     0
 77
     3
 78
     8
140
3.0
141
0.0
143
0.0393701
146
0.71
147
1.0
172
     1
176
     3
177
     3
178
    40
271
     3
272
     3
284
     8
340
10
341
594
342
594
  0
ENDTAB
  0
TABLE
  2
BLOCK_RECORD
  5
1
330
0
100
AcDbSymbolTable
 70
    25
  0
BLOCK_RECORD
  5
1A
102
{ACAD_XDICTIONARY
360
8D8
102
}
330
1
100
AcDbSymbolTableRecord
100
AcDbBlockTableRecord
  2
*MODEL_SPACE
340
567
  0
BLOCK_RECORD
  5
17
330
1
100
AcDbSymbolTableRecord
100
AcDbBlockTableRecord
  2
*PAPER_SPACE
340
568
  0
BLOCK_RECORD
  5
594
330
1
100
AcDbSymbolTableRecord
100
AcDbBlockTableRecord
  2
_Open
340
0
102
{BLKREFS
331
8E3
331
8E4
331
8EF
331
8F0
331
A2E
331
A39
331
A3A
331
B94
331
B95
331
B9D
331
B9E
331
BA6
331
BA7
331
BAF
331
BB7
331
BB8
102
}
  0
BLOCK_RECORD
  5
6E3
330
1
100
AcDbSymbolTableRecord
100
AcDbBlockTableRecord
  2
矢印なし
340
0
102
{BLKREFS
331
6E6
331
A2D
331
BAE
102
}
  0
BLOCK_RECORD
  5
908
330
1
100
AcDbSymbolTableRecord
100
AcDbBlockTableRecord
  2
*D16
340
0
  0
BLOCK_RECORD
  5
914
330
1
100
AcDbSymbolTableRecord
100
AcDbBlockTableRecord
  2
*D17
340
0
  0
BLOCK_RECORD
  5
935
330
1
100
AcDbSymbolTableRecord
100
AcDbBlockTableRecord
  2
*D18
340
0
  0
BLOCK_RECORD
  5
ABE
330
1
100
AcDbSymbolTableRecord
100
AcDbBlockTableRecord
  2
*D22
340
0
  0
BLOCK_RECORD
  5
AC9
330
1
100
AcDbSymbolTableRecord
100
AcDbBlockTableRecord
  2
*D23
340
0
  0
BLOCK_RECORD
  5
BBD
330
1
100
AcDbSymbolTableRecord
100
AcDbBlockTableRecord
  2
1
340
0
310
2800000020000000200000000100080000000000000400000000000000000000000000000000000000000000000080000080000000808000800000008000800080800000C0C0C000C0DCC000F0CAA6000020400000206000002080000020A0000020C0000020E00000400000004020000040400000406000004080000040A0
310
000040C0000040E00000600000006020000060400000606000006080000060A0000060C0000060E00000800000008020000080400000806000008080000080A0000080C0000080E00000A0000000A0200000A0400000A0600000A0800000A0A00000A0C00000A0E00000C0000000C0200000C0400000C0600000C0800000C0
310
A00000C0C00000C0E00000E0000000E0200000E0400000E0600000E0800000E0A00000E0C00000E0E00040000000400020004000400040006000400080004000A0004000C0004000E00040200000402020004020400040206000402080004020A0004020C0004020E000404000004040200040404000404060004040800040
310
40A0004040C0004040E00040600000406020004060400040606000406080004060A0004060C0004060E00040800000408020004080400040806000408080004080A0004080C0004080E00040A0000040A0200040A0400040A0600040A0800040A0A00040A0C00040A0E00040C0000040C0200040C0400040C0600040C08000
310
40C0A00040C0C00040C0E00040E0000040E0200040E0400040E0600040E0800040E0A00040E0C00040E0E00080000000800020008000400080006000800080008000A0008000C0008000E00080200000802020008020400080206000802080008020A0008020C0008020E00080400000804020008040400080406000804080
310
008040A0008040C0008040E00080600000806020008060400080606000806080008060A0008060C0008060E00080800000808020008080400080806000808080008080A0008080C0008080E00080A0000080A0200080A0400080A0600080A0800080A0A00080A0C00080A0E00080C0000080C0200080C0400080C0600080C0
310
800080C0A00080C0C00080C0E00080E0000080E0200080E0400080E0600080E0800080E0A00080E0C00080E0E000C0000000C0002000C0004000C0006000C0008000C000A000C000C000C000E000C0200000C0202000C0204000C0206000C0208000C020A000C020C000C020E000C0400000C0402000C0404000C0406000C0
310
408000C040A000C040C000C040E000C0600000C0602000C0604000C0606000C0608000C060A000C060C000C060E000C0800000C0802000C0804000C0806000C0808000C080A000C080C000C080E000C0A00000C0A02000C0A04000C0A06000C0A08000C0A0A000C0A0C000C0A0E000C0C00000C0C02000C0C04000C0C06000
310
C0C08000C0C0A000F0FBFF00A4A0A000808080000000FF0000FF000000FFFF00FF000000FF00FF00FFFF0000FFFFFF0000000000000000000000000000000000000000000000000000000000000000000000000000000000000000000000000000000000000000000000000000000000000000000000000000000000000000
310
00000000000000000000000000000000000000000000000000000000000000000000000000000000000000000000000000000000000000000000000000000000000000000000000000000000000000000000000000000000000000000000000000000000000000000000000000000000000000000000000000000000000000
310
00000000000000000000000000000000000000000000000000000000000000000000000000000000000000000000000000000000000000000000000000000000000000000000000000000000000000000000000000000000000000000000000000000000000000000000000000000000000000000000000000000000000000
310
00000000000000000000000000000000000000000000000000000000000000000000000000000000000000000000000000000000000000000000000000000000000000000000000000000000000000000000000000FEFEFEFEFEFEFEFEFEFEFEFEFEFEFEFEFEFEFEFEFEFEE7FEFEFEE7E700000000FE000000000000000000
310
000000000000000000000000E7E7E7E700FE00000000FE00000000000000000000000000FBFBFBFBFBFBFBFBE7E7E7E7E7FEFB0000FBFEFBFBFBFBFBFBFBFBFBFBFBFBFB0000000000000000E7E7E7E7E7E700000000FE000000000000000000000000000000000000000000E7E7E7E7E7E700000000FEFEFEFEFEFEFEFEFE
310
FEFEFEFEFEFEFEFEFEFEFEFEFEE7E7E7E7E7E7000000000000000000000000000000000000000000000000000000000000000000000000000000000000000000000000000000000000000000000000000000000000000000000000000000000000000000000000000000000000000000000000000000000000000000000000
310
00000000000000000000000000000000000000000000000000000000000000000000000000000000000000000000000000000000000000000000000000000000000000000000000000000000000000000000000000000000000000000000000000000000000000000000000000000000000000000000000000000000000000
310
00000000000000000000000000000000000000000000000000000000000000000000000000000000000000000000000000000000000000000000000000000000000000000000000000000000000000000000000000000000000000000000000000000000000000000000000000000000000000000000000000000000000000
310
0000000000000000000000000000000000000000000000000000000000000000000000000000000000000000000000000000000000000000
102
{BLKREFS
331
C0B
102
}
  0
ENDTAB
  0
ENDSEC
  0
SECTION
  2
BLOCKS
  0
BLOCK
  5
1B
330
1A
100
AcDbEntity
  8
0
100
AcDbBlockBegin
  2
*MODEL_SPACE
 70
     0
 10
0.0
 20
0.0
 30
0.0
  3
*MODEL_SPACE
  1

  0
ENDBLK
  5
1C
330
1A
100
AcDbEntity
  8
0
100
AcDbBlockEnd
  0
BLOCK
  5
18
330
17
100
AcDbEntity
 67
     1
  8
0
100
AcDbBlockBegin
  2
*PAPER_SPACE
 70
     0
 10
0.0
 20
0.0
 30
0.0
  3
*PAPER_SPACE
  1

  0
ENDBLK
  5
19
330
17
100
AcDbEntity
 67
     1
  8
0
100
AcDbBlockEnd
  0
BLOCK
  5
598
330
594
100
AcDbEntity
  8
0
100
AcDbBlockBegin
  2
_Open
 70
     0
 10
0.0
 20
0.0
 30
0.0
  3
_Open
  1

  0
LINE
  5
595
330
594
100
AcDbEntity
  8
0
  6
ByBlock
 62
     0
370
    -2
100
AcDbLine
 10
-1.0
 20
0.1666666666666666
 30
0.0
 11
0.0
 21
0.0
 31
0.0
  0
LINE
  5
596
330
594
100
AcDbEntity
  8
0
  6
ByBlock
 62
     0
370
    -2
100
AcDbLine
 10
-1.0
 20
-0.1666666666666666
 30
0.0
 11
0.0
 21
0.0
 31
0.0
  0
LINE
  5
597
330
594
100
AcDbEntity
  8
0
  6
ByBlock
 62
     0
370
    -2
100
AcDbLine
 10
0.0
 20
0.0
 30
0.0
 11
-1.0
 21
0.0
 31
0.0
  0
ENDBLK
  5
599
330
594
100
AcDbEntity
  8
0
100
AcDbBlockEnd
  0
BLOCK
  5
6E4
330
6E3
100
AcDbEntity
  8
0
100
AcDbBlockBegin
  2
矢印なし
 70
     0
 10
0.0
 20
0.0
 30
0.0
  3
矢印なし
  1

  0
ENDBLK
  5
6E5
330
6E3
100
AcDbEntity
  8
0
100
AcDbBlockEnd
  0
BLOCK
  5
912
330
908
100
AcDbEntity
  8
0
100
AcDbBlockBegin
  2
*D16
 70
     1
 10
0.0
 20
0.0
 30
0.0
  3
*D16
  1

  0
LINE
  5
B91
330
908
100
AcDbEntity
  8
Defpoints
  6
Continuous
 62
     3
370
    -2
100
AcDbLine
 10
0.0
 20
15.2
 30
0.0
 11
0.0000000000000013
 21
36.0
 31
0.0
  0
LINE
  5
B92
330
908
100
AcDbEntity
  8
Defpoints
  6
Continuous
 62
     3
370
    -2
100
AcDbLine
 10
199.9999999999986
 20
12.84529946162084
 30
0.0
 11
199.9999999999986
 21
36.0
 31
0.0
  0
LINE
  5
B93
330
908
100
AcDbEntity
  8
Defpoints
  6
Continuous
 62
     3
370
    -2
100
AcDbLine
 10
2.230000000000001
 20
35.0
 30
0.0
 11
197.7699999999986
 21
35.0
 31
0.0
  0
INSERT
  5
B94
330
908
100
AcDbEntity
  8
Defpoints
  6
Continuous
 62
     3
370
    -2
100
AcDbBlockReference
  2
_Open
 10
0.0000000000000012
 20
35.0
 30
0.0
 41
2.229999999999999
 42
2.229999999999999
 43
2.229999999999999
 50
180.0
  0
INSERT
  5
B95
330
908
100
AcDbEntity
  8
Defpoints
  6
Continuous
 62
     3
370
    -2
100
AcDbBlockReference
  2
_Open
 10
199.9999999999986
 20
35.0
 30
0.0
 41
2.229999999999999
 42
2.229999999999999
 43
2.229999999999999
  0
MTEXT
  5
B96
330
908
100
AcDbEntity
  8
Defpoints
  6
Continuous
 62
    40
100
AcDbMText
 10
102.3923867423261
 20
37.5
 30
0.0
 40
3.0
 41
0.0
 71
     5
 72
     1
  1
\A1;200
 73
     1
 44
1.0
1001
ACAD
1000
MTEXTBEGIN
1070
    73
1070
     1
1070
    44
1040
1.0
1070
    74
1070
     0
1000
MTEXTEND
  0
POINT
  5
B97
330
908
100
AcDbEntity
  8
Defpoints
  6
Continuous
 62
     0
100
AcDbPoint
 10
0.0
 20
14.7
 30
0.0
  0
POINT
  5
B98
330
908
100
AcDbEntity
  8
Defpoints
  6
Continuous
 62
     0
100
AcDbPoint
 10
199.9999999999986
 20
12.34529946162084
 30
0.0
  0
POINT
  5
B99
330
908
100
AcDbEntity
  8
Defpoints
  6
Continuous
 62
     0
100
AcDbPoint
 10
199.9999999999986
 20
35.0
 30
0.0
  0
ENDBLK
  5
913
330
908
100
AcDbEntity
  8
0
100
AcDbBlockEnd
  0
BLOCK
  5
91E
330
914
100
AcDbEntity
  8
0
100
AcDbBlockBegin
  2
*D17
 70
     1
 10
0.0
 20
0.0
 30
0.0
  3
*D17
  1

  0
LINE
  5
B9A
330
914
100
AcDbEntity
  8
250
  6
Continuous
 62
     3
370
    -2
100
AcDbLine
 10
0.7000000000000029
 20
-16.0
 30
0.0
 11
-15.00000000000001
 21
-15.99999999999999
 31
0.0
  0
LINE
  5
B9B
330
914
100
AcDbEntity
  8
250
  6
Continuous
 62
     3
370
    -2
100
AcDbLine
 10
0.7000000000000029
 20
16.0
 30
0.0
 11
-15.0
 21
16.0
 31
0.0
  0
LINE
  5
B9C
330
914
100
AcDbEntity
  8
250
  6
Continuous
 62
     3
370
    -2
100
AcDbLine
 10
-14.00000000000001
 20
-13.76999999999999
 30
0.0
 11
-14.0
 21
13.77
 31
0.0
  0
INSERT
  5
B9D
330
914
100
AcDbEntity
  8
250
  6
Continuous
 62
     3
370
    -2
100
AcDbBlockReference
  2
_Open
 10
-14.00000000000001
 20
-15.99999999999999
 30
0.0
 41
2.229999999999999
 42
2.229999999999999
 43
2.229999999999999
 50
270.0
  0
INSERT
  5
B9E
330
914
100
AcDbEntity
  8
250
  6
Continuous
 62
     3
370
    -2
100
AcDbBlockReference
  2
_Open
 10
-14.0
 20
16.0
 30
0.0
 41
2.229999999999999
 42
2.229999999999999
 43
2.229999999999999
 50
90.0
  0
MTEXT
  5
B9F
330
914
100
AcDbEntity
  8
250
  6
Continuous
 62
    40
100
AcDbMText
 10
-16.5
 20
0.0000000000000021
 30
0.0
 40
3.0
 41
0.0
 71
     5
 72
     1
  1
\A1;{\H3;\U+2205}32
 11
0.0000000000000001
 21
1.0
 31
0.0
 73
     1
 44
1.0
1001
ACAD
1000
MTEXTBEGIN
1070
    73
1070
     1
1070
    44
1040
1.0
1070
    74
1070
     0
1000
MTEXTEND
  0
POINT
  5
BA0
330
914
100
AcDbEntity
  8
Defpoints
  6
Continuous
 62
     0
100
AcDbPoint
 10
1.200000000000002
 20
-16.0
 30
0.0
  0
POINT
  5
BA1
330
914
100
AcDbEntity
  8
Defpoints
  6
Continuous
 62
     0
100
AcDbPoint
 10
1.200000000000002
 20
16.0
 30
0.0
  0
POINT
  5
BA2
330
914
100
AcDbEntity
  8
Defpoints
  6
Continuous
 62
     0
100
AcDbPoint
 10
-14.0
 20
16.0
 30
0.0
  0
ENDBLK
  5
91F
330
914
100
AcDbEntity
  8
0
100
AcDbBlockEnd
  0
BLOCK
  5
93F
330
935
100
AcDbEntity
  8
0
370
    -3
100
AcDbBlockBegin
  2
*D18
 70
     1
 10
0.0
 20
0.0
 30
0.0
  3
*D18
  1

  0
LINE
  5
BA3
330
935
100
AcDbEntity
  8
250
  6
Continuous
 62
     3
370
    -2
100
AcDbLine
 10
135.0000000000003
 20
6.199999999999903
 30
0.0
 11
135.0000000000003
 21
29.0
 31
0.0
  0
LINE
  5
BA4
330
935
100
AcDbEntity
  8
250
  6
Continuous
 62
     3
370
    -2
100
AcDbLine
 10
199.9999999999986
 20
12.84529946162078
 30
0.0
 11
199.9999999999986
 21
29.0
 31
0.0
  0
LINE
  5
BA5
330
935
100
AcDbEntity
  8
250
  6
Continuous
 62
     3
370
    -2
100
AcDbLine
 10
137.0000000000002
 20
28.0
 30
0.0
 11
197.9999999999986
 21
28.0
 31
0.0
  0
INSERT
  5
BA6
330
935
100
AcDbEntity
  8
250
  6
Continuous
 62
     3
370
    -2
100
AcDbBlockReference
  2
_Open
 10
135.0000000000003
 20
28.0
 30
0.0
 41
2.0
 42
2.0
 43
2.0
 50
180.0
  0
INSERT
  5
BA7
330
935
100
AcDbEntity
  8
250
  6
Continuous
 62
     3
370
    -2
100
AcDbBlockReference
  2
_Open
 10
199.9999999999986
 20
28.0
 30
0.0
 41
2.0
 42
2.0
 43
2.0
  0
MTEXT
  5
BA8
330
935
100
AcDbEntity
  8
250
  6
Continuous
 62
    40
370
    -3
100
AcDbMText
 10
167.4999999999994
 20
30.5
 30
0.0
 40
3.0
 41
0.0
 71
     5
 72
     1
  1
\A1;（max.65）
 73
     1
 44
1.0
1001
ACAD
1000
MTEXTBEGIN
1070
    73
1070
     1
1070
    44
1040
1.0
1070
    74
1070
     0
1000
MTEXTEND
  0
POINT
  5
BA9
330
935
100
AcDbEntity
  8
Defpoints
  6
Continuous
 62
     0
100
AcDbPoint
 10
135.0000000000003
 20
5.699999999999903
 30
0.0
  0
POINT
  5
BAA
330
935
100
AcDbEntity
  8
Defpoints
  6
Continuous
 62
     0
100
AcDbPoint
 10
199.9999999999986
 20
12.34529946162078
 30
0.0
  0
POINT
  5
BAB
330
935
100
AcDbEntity
  8
Defpoints
  6
Continuous
 62
     0
100
AcDbPoint
 10
199.9999999999986
 20
28.0
 30
0.0
  0
ENDBLK
  5
940
330
935
100
AcDbEntity
  8
0
370
    -3
100
AcDbBlockEnd
  0
BLOCK
  5
AC7
330
ABE
100
AcDbEntity
  8
0
100
AcDbBlockBegin
  2
*D22
 70
     1
 10
0.0
 20
0.0
 30
0.0
  3
*D22
  1

  0
LINE
  5
BAC
330
ABE
100
AcDbEntity
  8
250
  6
Continuous
100
AcDbLine
 10
200.5000000000006
 20
5.999999999999857
 30
0.0
 11
211.0000000000013
 21
5.999999999999854
 31
0.0
  0
LINE
  5
BAD
330
ABE
100
AcDbEntity
  8
250
  6
Continuous
100
AcDbLine
 10
210.0000000000013
 20
-4.000000000000259
 30
0.0
 11
210.0000000000013
 21
3.999999999999854
 31
0.0
  0
INSERT
  5
BAE
330
ABE
100
AcDbEntity
  8
250
  6
Continuous
100
AcDbBlockReference
  2
矢印なし
 10
210.0000000000013
 20
-6.000000000000259
 30
0.0
 41
2.0
 42
2.0
 43
2.0
 50
270.0
  0
INSERT
  5
BAF
330
ABE
100
AcDbEntity
  8
250
  6
Continuous
100
AcDbBlockReference
  2
_Open
 10
210.0000000000013
 20
5.999999999999854
 30
0.0
 41
2.0
 42
2.0
 43
2.0
 50
90.0
  0
MTEXT
  5
BB0
330
ABE
100
AcDbEntity
  8
250
  6
Continuous
 62
    40
370
    -3
100
AcDbMText
 10
207.6000000000013
 20
-0.000000000000168
 30
0.0
 40
2.799999999999999
 41
0.0
 71
     5
 72
     1
  1
\A1;{\H2.8;%%C}12
 11
0.0000000000000001
 21
1.0
 31
0.0
 73
     1
 44
1.0
1001
ACAD
1000
MTEXTBEGIN
1070
    73
1070
     1
1070
    44
1040
1.0
1070
    74
1070
     0
1000
MTEXTEND
  0
POINT
  5
BB1
330
ABE
100
AcDbEntity
  8
Defpoints
  6
Continuous
 62
     0
100
AcDbPoint
 10
200.0000000000005
 20
-6.000000000000255
 30
0.0
  0
POINT
  5
BB2
330
ABE
100
AcDbEntity
  8
Defpoints
  6
Continuous
 62
     0
100
AcDbPoint
 10
200.0000000000006
 20
5.999999999999857
 30
0.0
  0
POINT
  5
BB3
330
ABE
100
AcDbEntity
  8
Defpoints
  6
Continuous
 62
     0
100
AcDbPoint
 10
210.0000000000013
 20
5.999999999999854
 30
0.0
  0
ENDBLK
  5
AC8
330
ABE
100
AcDbEntity
  8
0
100
AcDbBlockEnd
  0
BLOCK
  5
AD3
330
AC9
100
AcDbEntity
  8
0
100
AcDbBlockBegin
  2
*D23
 70
     1
 10
0.0
 20
0.0
 30
0.0
  3
*D23
  1

  0
LINE
  5
BB4
330
AC9
100
AcDbEntity
  8
250
  6
Continuous
100
AcDbLine
 10
195.6339745962157
 20
-16.00000000000013
 30
0.0
 11
218.0000000000013
 21
-16.00000000000013
 31
0.0
  0
LINE
  5
BB5
330
AC9
100
AcDbEntity
  8
250
  6
Continuous
100
AcDbLine
 10
195.6339745962157
 20
15.99999999999976
 30
0.0
 11
218.0000000000013
 21
15.99999999999975
 31
0.0
  0
LINE
  5
BB6
330
AC9
100
AcDbEntity
  8
250
  6
Continuous
100
AcDbLine
 10
217.0000000000013
 20
-14.00000000000013
 30
0.0
 11
217.0000000000013
 21
13.99999999999975
 31
0.0
  0
INSERT
  5
BB7
330
AC9
100
AcDbEntity
  8
250
  6
Continuous
100
AcDbBlockReference
  2
_Open
 10
217.0000000000013
 20
-16.00000000000013
 30
0.0
 41
2.0
 42
2.0
 43
2.0
 50
270.0
  0
INSERT
  5
BB8
330
AC9
100
AcDbEntity
  8
250
  6
Continuous
100
AcDbBlockReference
  2
_Open
 10
217.0000000000013
 20
15.99999999999975
 30
0.0
 41
2.0
 42
2.0
 43
2.0
 50
90.0
  0
MTEXT
  5
BB9
330
AC9
100
AcDbEntity
  8
250
  6
Continuous
 62
    40
370
    -3
100
AcDbMText
 10
214.6000000000013
 20
-0.000000000000156
 30
0.0
 40
2.799999999999999
 41
0.0
 71
     5
 72
     1
  1
\A1;{\H2.8;%%C}32
 11
0.0000000000000001
 21
1.0
 31
0.0
 73
     1
 44
1.0
1001
ACAD
1000
MTEXTBEGIN
1070
    73
1070
     1
1070
    44
1040
1.0
1070
    74
1070
     0
1000
MTEXTEND
  0
POINT
  5
BBA
330
AC9
100
AcDbEntity
  8
Defpoints
  6
Continuous
 62
     0
100
AcDbPoint
 10
195.1339745962157
 20
-16.00000000000013
 30
0.0
  0
POINT
  5
BBB
330
AC9
100
AcDbEntity
  8
Defpoints
  6
Continuous
 62
     0
100
AcDbPoint
 10
195.1339745962157
 20
15.99999999999976
 30
0.0
  0
POINT
  5
BBC
330
AC9
100
AcDbEntity
  8
Defpoints
  6
Continuous
 62
     0
100
AcDbPoint
 10
217.0000000000013
 20
15.99999999999975
 30
0.0
  0
ENDBLK
  5
AD4
330
AC9
100
AcDbEntity
  8
0
100
AcDbBlockEnd
  0
BLOCK
  5
BBE
330
BBD
100
AcDbEntity
  8
0
100
AcDbBlockBegin
  2
1
 70
     0
 10
0.0
 20
0.0
 30
0.0
  3
1
  1

  0
LINE
  5
BC0
330
BBD
100
AcDbEntity
  8
245
  6
CENTER2
100
AcDbLine
 10
-1.000000000000071
 20
0.0
 30
0.0
 11
200.9999999999995
 21
-0.0000000000002416
 31
0.0
  0
LINE
  5
BC1
330
BBD
100
AcDbEntity
  8
240
  6
Continuous
100
AcDbLine
 10
1.300000000000011
 20
15.99999999999997
 30
0.0
 11
159.9999999999997
 21
16.0
 31
0.0
  0
ARC
  5
BC2
330
BBD
100
AcDbEntity
  8
240
  6
Continuous
100
AcDbCircle
 10
1.300000000000011
 20
14.69999999999997
 30
0.0
 40
1.3
100
AcDbArc
 50
90.0
 51
180.0
  0
LINE
  5
BC3
330
BBD
100
AcDbEntity
  8
240
  6
Continuous
100
AcDbLine
 10
1.300000000000011
 20
-16.0
 30
0.0
 11
160.0
 21
-15.99999999999997
 31
0.0
  0
LINE
  5
BC4
330
BBD
100
AcDbEntity
  8
240
  6
Continuous
100
AcDbLine
 10
0.0000000000000142
 20
-14.7
 30
0.0
 11
0.0
 21
0.0
 31
0.0
  0
ARC
  5
BC5
330
BBD
100
AcDbEntity
  8
240
  6
Continuous
100
AcDbCircle
 10
1.300000000000011
 20
-14.7
 30
0.0
 40
1.3
100
AcDbArc
 50
180.0
 51
270.0
  0
LINE
  5
BC6
330
BBD
100
AcDbEntity
  8
240
  6
Continuous
100
AcDbLine
 10
0.0000000000000142
 20
14.69999999999997
 30
0.0
 11
-0.0000000000000142
 21
0.0
 31
0.0
  0
LINE
  5
BC7
330
BBD
100
AcDbEntity
  8
240
100
AcDbLine
 10
164.5000000000004
 20
17.49999999999997
 30
0.0
 11
160.8
 21
17.49999999999997
 31
0.0
  0
LINE
  5
BC8
330
BBD
100
AcDbEntity
  8
240
100
AcDbLine
 10
164.5000000000004
 20
-17.49999999999997
 30
0.0
 11
160.8
 21
-17.49999999999997
 31
0.0
  0
LINE
  5
BC9
330
BBD
100
AcDbEntity
  8
240
100
AcDbLine
 10
160.0
 20
-16.69999999999999
 30
0.0
 11
160.0
 21
-15.99999999999997
 31
0.0
  0
ARC
  5
BCA
330
BBD
100
AcDbEntity
  8
240
100
AcDbCircle
 10
160.8
 20
-16.69999999999999
 30
0.0
 40
0.8
100
AcDbArc
 50
180.0
 51
270.0
1001
ASK_MEN_XD
1005
BC8
1070
     1
1005
BC9
1070
     1
  0
LINE
  5
BCB
330
BBD
100
AcDbEntity
  8
240
100
AcDbLine
 10
160.0
 20
16.69999999999996
 30
0.0
 11
159.9999999999997
 21
16.0
 31
0.0
  0
ARC
  5
BCC
330
BBD
100
AcDbEntity
  8
240
100
AcDbCircle
 10
160.8
 20
16.69999999999996
 30
0.0
 40
0.8
100
AcDbArc
 50
90.0
 51
180.0
1001
ASK_MEN_XD
1005
BC8
1070
     1
1005
BC9
1070
     1
  0
LINE
  5
BCD
330
BBD
100
AcDbEntity
  8
241
100
AcDbLine
 10
164.9999999999997
 20
-0.0000000000001705
 30
0.0
 11
165.0
 21
-17.49999999999987
 31
0.0
  0
LINE
  5
BCE
330
BBD
100
AcDbEntity
  8
240
100
AcDbLine
 10
168.4857864376255
 20
-17.50000000000024
 30
0.0
 11
160.8
 21
-17.50000000000017
 31
0.0
  0
LINE
  5
BCF
330
BBD
100
AcDbEntity
  8
240
100
AcDbLine
 10
168.4857864376277
 20
17.49999999999985
 30
0.0
 11
160.8
 21
17.49999999999985
 31
0.0
  0
LINE
  5
BD0
330
BBD
100
AcDbEntity
  8
241
  6
HIDDEN2
100
AcDbLine
 10
159.3660254037836
 20
5.999999999999857
 30
0.0
 11
199.999999999999
 21
6.000000000000838
 31
0.0
  0
LINE
  5
BD1
330
BBD
100
AcDbEntity
  8
241
  6
HIDDEN2
100
AcDbLine
 10
158.4999999999991
 20
7.249999999999801
 30
0.0
 11
199.9999999999989
 21
7.24999999999737
 31
0.0
  0
HATCH
  5
BD2
330
BBD
100
AcDbEntity
  8
242
  6
Continuous
100
AcDbHatch
 10
0.0
 20
0.0
 30
0.0
210
0.0
220
0.0
230
1.0
  2
ANSI37,_O
 70
     0
 71
     0
 91
        1
 92
        7
 72
     0
 73
     1
 93
        4
 10
172.1000000000007
 20
5.999999999999829
 10
172.1000000000006
 20
-0.0000000000002274
 10
179.5000000000007
 20
-0.0000000000002274
 10
179.5000000000002
 20
5.999999999999829
 97
        0
 75
     1
 76
     1
 52
0.0
 41
0.5
 77
     0
 78
     2
 53
45.0
 43
-22.99999999999903
 44
-112.0000000000002
 45
-1.122532015133643
 46
1.122532015133643
 79
     0
 53
135.0
 43
-22.99999999999903
 44
-112.0000000000002
 45
-1.122532015133643
 46
-1.122532015133643
 79
     0
 47
0.1169718845527542
 98
        1
 10
176.5958961748073
 20
4.285876269862541
1001
ACAD
1010
0.0
1020
0.0
1030
0.0
  0
HATCH
  5
BD3
330
BBD
100
AcDbEntity
  8
242
  6
Continuous
100
AcDbHatch
 10
0.0
 20
0.0
 30
0.0
210
0.0
220
0.0
230
1.0
  2
ANSI37,_O
 70
     0
 71
     0
 91
        1
 92
        7
 72
     0
 73
     1
 93
        6
 10
179.5000000000007
 20
-0.0000000000002274
 10
172.1000000000007
 20
-0.0000000000002274
 10
172.1000000000007
 20
-16.00000000000037
 10
172.6000000000006
 20
-16.50000000000031
 10
178.7999999999993
 20
-16.50000000000031
 10
179.4999999999993
 20
-15.80000000000028
 97
        0
 75
     1
 76
     1
 52
0.0
 41
0.5
 77
     0
 78
     2
 53
45.0
 43
-22.99999999999903
 44
-112.0000000000002
 45
-1.122532015133643
 46
1.122532015133643
 79
     0
 53
135.0
 43
-22.99999999999903
 44
-112.0000000000002
 45
-1.122532015133643
 46
-1.122532015133643
 79
     0
 47
0.1169718845527542
 98
        1
 10
176.9469185064246
 20
-4.370043612732757
1001
ACAD
1010
0.0
1020
0.0
1030
0.0
  0
LINE
  5
BD4
330
BBD
100
AcDbEntity
  8
240
100
AcDbLine
 10
199.9999999999997
 20
12.34529946162082
 30
0.0
 11
200.000000000001
 21
-0.000000000000199
 31
0.0
  0
HATCH
  5
BD5
330
BBD
100
AcDbEntity
  8
242
  6
Continuous
100
AcDbHatch
 10
0.0
 20
0.0
 30
0.0
210
0.0
220
0.0
230
1.0
  2
ANSI37,_O
 70
     0
 71
     0
 91
        1
 92
        7
 72
     0
 73
     1
 93
        4
 10
172.1000000000007
 20
7.249999999999815
 10
172.1000000000007
 20
5.999999999999829
 10
179.5000000000002
 20
5.999999999999829
 10
179.5000000000001
 20
7.249999999999815
 97
        0
 75
     1
 76
     1
 52
0.0
 41
0.5
 77
     0
 78
     2
 53
45.0
 43
-22.99999999999903
 44
-112.0000000000002
 45
-1.122532015133643
 46
1.122532015133643
 79
     0
 53
135.0
 43
-22.99999999999903
 44
-112.0000000000002
 45
-1.122532015133643
 46
-1.122532015133643
 79
     0
 47
0.1169718845527542
 98
        1
 10
176.5958961748073
 20
6.625313756899544
1001
ACAD
1010
0.0
1020
0.0
1030
0.0
  0
HATCH
  5
BD6
330
BBD
100
AcDbEntity
  8
242
  6
Continuous
100
AcDbHatch
 10
0.0
 20
0.0
 30
0.0
210
0.0
220
0.0
230
1.0
  2
ANSI37,_O
 70
     0
 71
     0
 91
        1
 92
        7
 72
     0
 73
     1
 93
        6
 10
179.4999999999993
 20
15.79999999999991
 10
178.7999999999994
 20
16.49999999999986
 10
172.6000000000007
 20
16.5
 10
172.1000000000007
 20
16.0
 10
172.1000000000007
 20
7.249999999999815
 10
179.5000000000001
 20
7.249999999999815
 97
        0
 75
     1
 76
     1
 52
0.0
 41
0.5
 77
     0
 78
     2
 53
45.0
 43
-22.99999999999903
 44
-112.0000000000002
 45
-1.122532015133643
 46
1.122532015133643
 79
     0
 53
135.0
 43
-22.99999999999903
 44
-112.0000000000002
 45
-1.122532015133643
 46
-1.122532015133643
 79
     0
 47
0.1169718845527542
 98
        1
 10
177.8829766445437
 20
11.30418922287285
1001
ACAD
1010
0.0
1020
0.0
1030
0.0
  0
ARC
  5
BD7
330
BBD
100
AcDbEntity
  8
240
100
AcDbCircle
 10
168.4857864376255
 20
-16.50000000000012
 30
0.0
 40
1.0
100
AcDbArc
 50
270.0
 51
314.9999999999476
  0
ARC
  5
BD8
330
BBD
100
AcDbEntity
  8
240
100
AcDbCircle
 10
168.4857864376276
 20
16.49999999999983
 30
0.0
 40
1.0
100
AcDbArc
 50
44.99999999999942
 51
90.0
  0
LINE
  5
BD9
330
BBD
100
AcDbEntity
  8
240
100
AcDbLine
 10
195.1339745962154
 20
15.99999999999974
 30
0.0
 11
181.1464101615128
 21
15.99999999999974
 31
0.0
  0
LINE
  5
BDA
330
BBD
100
AcDbEntity
  8
240
100
AcDbLine
 10
195.1339745962154
 20
-16.0000000000002
 30
0.0
 11
181.1464101615132
 21
-16.00000000000025
 31
0.0
  0
LINE
  5
BDB
330
BBD
100
AcDbEntity
  8
241
  6
HIDDEN2
100
AcDbLine
 10
192.9000000000007
 20
14.49999999999974
 30
0.0
 11
182.9000000000006
 21
14.49999999999974
 31
0.0
  0
LINE
  5
BDC
330
BBD
100
AcDbEntity
  8
241
100
AcDbLine
 10
190.9000000000006
 20
-2.000000000000198
 30
0.0
 11
184.9000000000006
 21
-2.000000000000198
 31
0.0
  0
ARC
  5
BDD
330
BBD
100
AcDbEntity
  8
241
100
AcDbCircle
 10
190.9000000000006
 20
-0.000000000000199
 30
0.0
 40
2.0
100
AcDbArc
 50
270.0
 51
0.0
  0
ARC
  5
BDE
330
BBD
100
AcDbEntity
  8
241
100
AcDbCircle
 10
184.9000000000006
 20
-0.000000000000199
 30
0.0
 40
2.0
100
AcDbArc
 50
180.0
 51
270.0
  0
LINE
  5
BDF
330
BBD
100
AcDbEntity
  8
241
  6
HIDDEN2
100
AcDbLine
 10
192.9000000000007
 20
-14.50000000000014
 30
0.0
 11
182.9000000000006
 21
-14.50000000000008
 31
0.0
  0
LINE
  5
BE0
330
BBD
100
AcDbEntity
  8
241
  6
HIDDEN2
100
AcDbLine
 10
182.9000000000006
 20
-14.50000000000008
 30
0.0
 11
182.9000000000006
 21
-16.00000000000031
 31
0.0
  0
LINE
  5
BE1
330
BBD
100
AcDbEntity
  8
241
  6
HIDDEN2
100
AcDbLine
 10
192.9000000000007
 20
-14.50000000000014
 30
0.0
 11
192.9000000000007
 21
-16.00000000000008
 31
0.0
  0
LINE
  5
BE2
330
BBD
100
AcDbEntity
  8
241
100
AcDbLine
 10
168.899999999998
 20
-0.0000000000002274
 30
0.0
 11
168.8999999999981
 21
-17.41017972112479
 31
0.0
  0
LINE
  5
BE3
330
BBD
100
AcDbEntity
  8
241
100
AcDbLine
 10
170.4000000000006
 20
-16.00000000000037
 30
0.0
 11
170.4000000000006
 21
-0.000000000000199
 31
0.0
  0
LINE
  5
BE4
330
BBD
100
AcDbEntity
  8
241
  6
HIDDEN2
100
AcDbLine
 10
182.9000000000006
 20
14.4999999999998
 30
0.0
 11
182.9000000000011
 21
15.9999999999998
 31
0.0
  0
LINE
  5
BE5
330
BBD
100
AcDbEntity
  8
241
  6
HIDDEN2
100
AcDbLine
 10
192.9000000000007
 20
14.49999999999974
 30
0.0
 11
192.9000000000016
 21
15.9999999999998
 31
0.0
  0
LINE
  5
BE6
330
BBD
100
AcDbEntity
  8
241
100
AcDbLine
 10
172.1000000000007
 20
-16.00000000000037
 30
0.0
 11
172.1000000000006
 21
-0.0000000000002558
 31
0.0
  0
ARC
  5
BE7
330
BBD
100
AcDbEntity
  8
240
100
AcDbCircle
 10
195.1339745962154
 20
13.9999999999998
 30
0.0
 40
2.0
100
AcDbArc
 50
59.99999999999804
 51
90.0
1001
ASK_MEN_XD
1005
BE8
1070
     1
1005
0
1070
     1
  0
LINE
  5
BE8
330
BBD
100
AcDbEntity
  8
240
100
AcDbLine
 10
198.9999999999997
 20
14.07735026918939
 30
0.0
 11
196.1339745962154
 21
15.73205080756858
 31
0.0
  0
ARC
  5
BE9
330
BBD
100
AcDbEntity
  8
240
100
AcDbCircle
 10
197.9999999999997
 20
12.34529946162061
 30
0.0
 40
2.0
100
AcDbArc
 50
0.0000000000032569
 51
59.99999999999804
1001
ASK_MEN_XD
1005
0
1070
     1
1005
BE8
1070
     1
  0
ARC
  5
BEA
330
BBD
100
AcDbEntity
  8
240
100
AcDbCircle
 10
195.1339745962154
 20
-14.00000000000014
 30
0.0
 40
2.0
100
AcDbArc
 50
270.0
 51
300.0000000000001
1001
ASK_MEN_XD
1005
BE8
1070
     1
1005
0
1070
     1
  0
LINE
  5
BEB
330
BBD
100
AcDbEntity
  8
240
100
AcDbLine
 10
198.9999999999997
 20
-14.07735026918979
 30
0.0
 11
196.1339745962154
 21
-15.73205080756898
 31
0.0
  0
ARC
  5
BEC
330
BBD
100
AcDbEntity
  8
240
100
AcDbCircle
 10
197.9999999999997
 20
-12.34529946162095
 30
0.0
 40
2.0
100
AcDbArc
 50
300.0000000000001
 51
359.9999999999968
1001
ASK_MEN_XD
1005
0
1070
     1
1005
BE8
1070
     1
  0
LINE
  5
BED
330
BBD
100
AcDbEntity
  8
241
100
AcDbLine
 10
195.6698729810775
 20
-15.92686608800474
 30
0.0
 11
195.6698729810775
 21
-0.000000000000199
 31
0.0
1001
ASKOBJSC
1000
2/1
1001
ASKDWGSC
1040
1.0
  0
LINE
  5
BEE
330
BBD
100
AcDbEntity
  8
240
100
AcDbLine
 10
172.6000000000006
 20
-16.50000000000031
 30
0.0
 11
178.7999999999993
 21
-16.50000000000031
 31
0.0
  0
LINE
  5
BEF
330
BBD
100
AcDbEntity
  8
241
100
AcDbLine
 10
179.5000000000007
 20
-0.000000000000199
 30
0.0
 11
179.4999999999993
 21
-15.80000000000026
 31
0.0
  0
LINE
  5
BF0
330
BBD
100
AcDbEntity
  8
240
100
AcDbLine
 10
179.4999999999993
 20
-15.80000000000026
 30
0.0
 11
178.7999999999993
 21
-16.50000000000031
 31
0.0
  0
LINE
  5
BF1
330
BBD
100
AcDbEntity
  8
240
100
AcDbLine
 10
172.1000000000007
 20
-16.00000000000037
 30
0.0
 11
172.6000000000006
 21
-16.50000000000031
 31
0.0
  0
LINE
  5
BF2
330
BBD
100
AcDbEntity
  8
240
100
AcDbLine
 10
172.1000000000007
 20
-16.00000000000037
 30
0.0
 11
170.4000000000006
 21
-16.00000000000037
 31
0.0
  0
LINE
  5
BF3
330
BBD
100
AcDbEntity
  8
240
100
AcDbLine
 10
170.4000000000006
 20
-16.00000000000031
 30
0.0
 11
169.1928932188114
 21
-17.20710678118732
 31
0.0
  0
LINE
  5
BF4
330
BBD
100
AcDbEntity
  8
241
100
AcDbLine
 10
180.7999999999992
 20
-15.80000000000026
 30
0.0
 11
180.8000000000004
 21
-0.000000000000199
 31
0.0
  0
LINE
  5
BF5
330
BBD
100
AcDbEntity
  8
240
100
AcDbLine
 10
180.7999999999992
 20
-15.80000000000026
 30
0.0
 11
181.1464101615131
 21
-16.00000000000025
 31
0.0
  0
LINE
  5
BF6
330
BBD
100
AcDbEntity
  8
240
100
AcDbLine
 10
180.7999999999994
 20
-15.80000000000026
 30
0.0
 11
179.4999999999993
 21
-15.80000000000026
 31
0.0
  0
LINE
  5
BF7
330
BBD
100
AcDbEntity
  8
240
100
AcDbLine
 10
172.6000000000006
 20
16.5
 30
0.0
 11
178.7999999999993
 21
16.49999999999986
 31
0.0
  0
LINE
  5
BF8
330
BBD
100
AcDbEntity
  8
240
100
AcDbLine
 10
179.4999999999993
 20
15.79999999999992
 30
0.0
 11
178.7999999999993
 21
16.49999999999986
 31
0.0
  0
LINE
  5
BF9
330
BBD
100
AcDbEntity
  8
240
100
AcDbLine
 10
172.1000000000007
 20
15.99999999999998
 30
0.0
 11
172.6000000000007
 21
16.5
 31
0.0
  0
LINE
  5
BFA
330
BBD
100
AcDbEntity
  8
240
100
AcDbLine
 10
172.1000000000007
 20
15.99999999999998
 30
0.0
 11
170.4000000000006
 21
15.99999999999998
 31
0.0
  0
LINE
  5
BFB
330
BBD
100
AcDbEntity
  8
240
100
AcDbLine
 10
170.4000000000006
 20
15.99999999999998
 30
0.0
 11
169.1928932188142
 21
17.20710678118635
 31
0.0
  0
LINE
  5
BFC
330
BBD
100
AcDbEntity
  8
240
100
AcDbLine
 10
180.7999999999992
 20
15.79999999999992
 30
0.0
 11
181.1464101615128
 21
15.99999999999974
 31
0.0
  0
LINE
  5
BFD
330
BBD
100
AcDbEntity
  8
240
100
AcDbLine
 10
180.7999999999994
 20
15.79999999999992
 30
0.0
 11
179.4999999999993
 21
15.79999999999992
 31
0.0
  0
LINE
  5
BFE
330
BBD
100
AcDbEntity
  8
241
100
AcDbLine
 10
190.9000000000006
 20
1.999999999999744
 30
0.0
 11
184.9000000000006
 21
1.999999999999744
 31
0.0
  0
ARC
  5
BFF
330
BBD
100
AcDbEntity
  8
241
100
AcDbCircle
 10
190.9000000000006
 20
-0.0000000000002558
 30
0.0
 40
2.0
100
AcDbArc
 50
0.0
 51
90.0
  0
ARC
  5
C00
330
BBD
100
AcDbEntity
  8
241
100
AcDbCircle
 10
184.9000000000006
 20
-0.0000000000002558
 30
0.0
 40
2.0
100
AcDbArc
 50
90.0
 51
180.0
  0
LINE
  5
C01
330
BBD
100
AcDbEntity
  8
241
100
AcDbLine
 10
168.9000000000007
 20
17.41017972112428
 30
0.0
 11
168.9000000000008
 21
-0.0000000000002274
 31
0.0
  0
LINE
  5
C02
330
BBD
100
AcDbEntity
  8
241
100
AcDbLine
 10
170.4000000000006
 20
15.99999999999993
 30
0.0
 11
170.4000000000006
 21
-0.0000000000002558
 31
0.0
  0
LINE
  5
C03
330
BBD
100
AcDbEntity
  8
241
100
AcDbLine
 10
172.1000000000007
 20
15.99999999999993
 30
0.0
 11
172.1000000000006
 21
-0.000000000000199
 31
0.0
  0
LINE
  5
C04
330
BBD
100
AcDbEntity
  8
241
100
AcDbLine
 10
195.6698729810775
 20
15.92686608800423
 30
0.0
 11
195.6698729810775
 21
-0.0000000000003126
 31
0.0
1001
ASKOBJSC
1000
2/1
1001
ASKDWGSC
1040
1.0
  0
LINE
  5
C05
330
BBD
100
AcDbEntity
  8
241
100
AcDbLine
 10
179.5000000000007
 20
-0.0000000000002558
 30
0.0
 11
179.4999999999993
 21
15.79999999999981
 31
0.0
  0
LINE
  5
C06
330
BBD
100
AcDbEntity
  8
241
100
AcDbLine
 10
180.7999999999994
 20
15.79999999999981
 30
0.0
 11
180.8000000000004
 21
-0.0000000000002558
 31
0.0
  0
LINE
  5
C07
330
BBD
100
AcDbEntity
  8
240
100
AcDbLine
 10
199.9999999999997
 20
-12.34529946162129
 30
0.0
 11
200.000000000001
 21
-0.00000000000027
 31
0.0
  0
LINE
  5
C08
330
BBD
100
AcDbEntity
  8
241
100
AcDbLine
 10
164.9999999999997
 20
-0.0000000000001563
 30
0.0
 11
165.0000000000001
 21
17.49999999999954
 31
0.0
  0
LINE
  5
C09
330
BBD
100
AcDbEntity
  8
241
100
AcDbLine
 10
160.0
 20
-15.99999999999994
 30
0.0
 11
160.0
 21
-0.0000000000001563
 31
0.0
  0
LINE
  5
C0A
330
BBD
100
AcDbEntity
  8
241
100
AcDbLine
 10
160.0000000000001
 20
15.99999999999963
 30
0.0
 11
160.0
 21
-0.0000000000001563
 31
0.0
  0
ENDBLK
  5
BBF
330
BBD
100
AcDbEntity
  8
0
100
AcDbBlockEnd
  0
ENDSEC
  0
SECTION
  2
ENTITIES
  0
INSERT
  5
6E6
330
1A
100
AcDbEntity
  8
245
100
AcDbBlockReference
  2
矢印なし
 10
175.6238269664377
 20
90.55123571690598
 30
0.0
  0
TEXT
  5
902
330
1A
100
AcDbEntity
  8
241
100
AcDbText
 10
0.0
 20
49.0
 30
0.0
 40
5.0
  1
ST32-HMC12J-200
  7
YOKO
 11
0.0
 21
49.0
 31
0.0
100
AcDbText
 73
     1
  0
DIMENSION
  5
903
330
1A
100
AcDbEntity
  8
Defpoints
  6
Continuous
100
AcDbDimension
  2
*D16
 10
199.9999999999986
 20
35.0
 30
0.0
 11
102.3923867423261
 21
35.0
 31
0.0
 70
   160
 71
     5
 42
199.9999999999986
  3
BIGT$0
100
AcDbAlignedDimension
 13
0.0
 23
14.7
 33
0.0
 14
199.9999999999986
 24
12.34529946162084
 34
0.0
100
AcDbRotatedDimension
  0
DIMENSION
  5
904
330
1A
100
AcDbEntity
  8
250
  6
Continuous
100
AcDbDimension
  2
*D17
 10
-14.0
 20
16.0
 30
0.0
 11
-16.5
 21
0.0000000000000021
 31
0.0
 70
    32
  1
{\H3;\U+2205}<>
 71
     5
 42
32.0
  3
BIGT$0
100
AcDbAlignedDimension
 13
1.200000000000002
 23
-16.0
 33
0.0
 14
1.200000000000002
 24
16.0
 34
0.0
 50
90.0
100
AcDbRotatedDimension
  0
LEADER
  5
905
330
1A
100
AcDbEntity
  8
250
  6
Continuous
100
AcDbLeader
  3
BIGT
 76
     2
 10
25.13302912
 20
-16.0
 30
0.0
 10
18.05606604
 20
-28.25765962
 30
0.0
1001
ACAD
1000
DSTYLE
1002
{
1070
     6
1000
OPEN
1070
   343
1005
594
1002
}
  0
LINE
  5
906
330
1A
100
AcDbEntity
  8
250
  6
Continuous
100
AcDbLine
 10
18.05606604
 20
-28.25765962
 30
0.0
 11
3.122732709999993
 21
-28.25765962
 31
0.0
1001
ITEMNAME
1000
LNSP2
  0
MTEXT
  5
907
330
1A
100
AcDbEntity
  8
251
  6
Continuous
100
AcDbMText
 10
5.922732710000005
 20
-27.25765962
 30
0.0
 40
2.799999999999999
 41
0.0
 71
     7
 72
     1
  1
ST32
  7
YOKO
 73
     1
 44
1.0
1001
ITEMNAME
1000
LNSP3
1001
ACAD
1000
MTEXTBEGIN
1070
    73
1070
     1
1070
    44
1040
1.0
1070
    74
1070
     0
1000
MTEXTEND
  0
DIMENSION
  5
934
330
1A
100
AcDbEntity
  8
250
  6
Continuous
370
    -3
100
AcDbDimension
  2
*D18
 10
199.9999999999986
 20
28.0
 30
0.0
 11
167.4999999999994
 21
30.5
 31
0.0
 70
    32
  1
（max.<>）
 71
     5
 42
64.99999999999835
  3
BIGT$0
100
AcDbAlignedDimension
 13
135.0000000000003
 23
5.699999999999903
 33
0.0
 14
199.9999999999986
 24
12.34529946162078
 34
0.0
100
AcDbRotatedDimension
1001
ACAD
1000
DSTYLE
1002
{
1070
    41
1040
2.0
1002
}
  0
LEADER
  5
A82
330
1A
100
AcDbEntity
  8
250
  6
Continuous
370
    -3
100
AcDbLeader
  3
BIGT
 76
     2
 10
195.5590883743052
 20
-15.95429738670418
 30
0.0
 10
195.5627115557484
 20
-15.97095357239951
 30
0.0
1001
ACAD
1000
DSTYLE
1002
{
1070
    41
1040
2.0
1002
}
1001
ITEMNAME
1000
DI100
  0
DIMENSION
  5
A83
330
1A
100
AcDbEntity
  8
250
  6
Continuous
370
    -3
100
AcDbDimension
  2
*D22
 10
210.0000000000013
 20
5.999999999999854
 30
0.0
 11
207.6000000000013
 21
-0.000000000000168
 31
0.0
 70
    32
  1
{\H2.8;%%C}<>
 71
     5
 42
12.00000000000011
  3
BIGT
100
AcDbAlignedDimension
 13
200.0000000000005
 23
-6.000000000000255
 33
0.0
 14
200.0000000000006
 24
5.999999999999857
 34
0.0
 50
90.0
100
AcDbRotatedDimension
1001
ACAD
1000
DSTYLE
1002
{
1070
    41
1040
2.0
1070
    75
1070
     1
1070
   343
1005
6E3
1002
}
  0
DIMENSION
  5
A84
330
1A
100
AcDbEntity
  8
250
  6
Continuous
370
    -3
100
AcDbDimension
  2
*D23
 10
217.0000000000013
 20
15.99999999999975
 30
0.0
 11
214.6000000000013
 21
-0.000000000000156
 31
0.0
 70
    32
  1
{\H2.8;%%C}<>
 71
     5
 42
31.99999999999989
  3
BIGT
100
AcDbAlignedDimension
 13
195.1339745962157
 23
-16.00000000000013
 33
0.0
 14
195.1339745962157
 24
15.99999999999976
 34
0.0
 50
90.0
100
AcDbRotatedDimension
1001
ACAD
1000
DSTYLE
1002
{
1070
    41
1040
2.0
1002
}
  0
LEADER
  5
A85
330
1A
100
AcDbEntity
  8
250
  6
Continuous
370
    -3
100
AcDbLeader
  3
BIGT
 76
     2
 10
194.3073895894423
 20
7.249999999999857
 30
0.0
 10
206.3103711156464
 20
28.03977384569586
 30
0.0
1001
ACAD
1000
DSTYLE
1002
{
1070
    41
1040
2.0
1002
}
  0
MTEXT
  5
A86
330
1A
100
AcDbEntity
  8
250
  6
Continuous
 62
    40
370
    -3
100
AcDbMText
 10
209.1103711156464
 20
29.03977384569586
 30
0.0
 40
2.799999999999998
 41
0.0
 71
     7
 72
     1
  1
クーラント溝
  7
YOKO
 73
     1
 44
1.0
1001
ITEMNAME
1000
LNSP3
1001
ACAD
1000
MTEXTBEGIN
1070
    73
1070
     1
1070
    44
1040
1.0
1070
    74
1070
     0
1000
MTEXTEND
  0
LINE
  5
A87
330
1A
100
AcDbEntity
  8
250
  6
Continuous
370
    -3
100
AcDbLine
 10
206.3103711156464
 20
28.03977384569586
 30
0.0
 11
230.7637044489798
 21
28.03977384569586
 31
0.0
1001
ITEMNAME
1000
LNSP2
  0
INSERT
  5
C0B
330
1A
100
AcDbEntity
  8
245
100
AcDbBlockReference
  2
1
 10
0.0
 20
0.0
 30
0.0
  0
VIEWPORT
  5
22
102
{ACAD_XDICTIONARY
360
C31
102
}
330
17
100
AcDbEntity
 67
     1
  8
0
100
AcDbViewport
 10
261.5176991150442
 20
148.5
 30
0.0
 40
523.0353982300885
 41
297.0
 68
     1
 69
     1
 12
261.5176991150442
 22
148.5
 13
0.0
 23
0.0
 14
1.0
 24
1.0
 15
10.0
 25
10.0
 16
0.0
 26
0.0
 36
1.0
 17
0.0
 27
0.0
 37
0.0
 42
50.0
 43
0.0
 44
0.0
 45
297.0
 50
0.0
 51
0.0
 72
   100
 90
    32800
  1

281
     0
 71
     1
 74
     0
110
0.0
120
0.0
130
0.0
111
1.0
121
0.0
131
0.0
112
0.0
122
1.0
132
0.0
 79
     0
146
0.0
  0
ENDSEC
  0
SECTION
  2
OBJECTS
  0
DICTIONARY
  5
C
330
0
100
AcDbDictionary
281
     1
  3
ACAD_COLOR
350
791
  3
ACAD_GROUP
350
D
  3
ACAD_LAYOUT
350
565
  3
ACAD_MATERIAL
350
77C
  3
ACAD_MLINESTYLE
350
E
  3
ACAD_PLOTSETTINGS
350
566
  3
ACAD_PLOTSTYLENAME
350
563
  3
ACAD_TABLESTYLE
350
792
  3
ACAD_VISUALSTYLE
350
780
  3
AcDbVariableDictionary
350
C0C
  3
DWGPROPS
350
C30
  3
GRADE_DWG
350
540
  0
DICTIONARY
  5
79D
330
2
100
AcDbDictionary
280
     1
281
     1
  3
ACAD_LAYERSTATES
360
79E
  0
DICTIONARY
  5
8D8
330
1A
100
AcDbDictionary
280
     1
281
     1
  3
ACAD_SORTENTS
360
8D9
  0
DICTIONARY
  5
C31
330
22
100
AcDbDictionary
280
     1
281
     1
  3
ACAD_XREC_ROUNDTRIP
360
C32
  0
DICTIONARY
  5
791
102
{ACAD_REACTORS
330
C
102
}
330
C
100
AcDbDictionary
281
     1
  0
DICTIONARY
  5
D
102
{ACAD_REACTORS
330
C
102
}
330
C
100
AcDbDictionary
281
     1
  3
*A1
350
6C7
  3
*A2
350
6C8
  3
*A3
350
6D4
  3
*A4
350
6D5
  3
DM500-1
350
8A9
  3
DREC-1
350
5FC
  3
DREC-2
350
654
  3
DREC-3
350
673
  0
DICTIONARY
  5
565
102
{ACAD_REACTORS
330
C
102
}
330
C
100
AcDbDictionary
281
     1
  3
Model
350
567
  3
ﾚｲｱｳﾄ1
350
568
  0
DICTIONARY
  5
77C
102
{ACAD_REACTORS
330
C
102
}
330
C
100
AcDbDictionary
281
     1
  3
ByBlock
350
77E
  3
ByLayer
350
77D
  3
Global
350
77F
  0
DICTIONARY
  5
E
102
{ACAD_REACTORS
330
C
102
}
330
C
100
AcDbDictionary
281
     1
  3
STANDARD
350
13
  0
DICTIONARY
  5
566
102
{ACAD_REACTORS
330
C
102
}
330
C
100
AcDbDictionary
281
     1
  3
A3(0.5倍)
350
772
  3
A3(1倍)
350
773
  3
A3(1倍)(2000)
350
774
  3
A3(2倍)
350
775
  3
A4(0.5倍)
350
776
  3
A4(1倍)
350
777
  3
A4(1倍)(2000)
350
778
  3
A4(2倍)
350
779
  0
ACDBDICTIONARYWDFLT
  5
563
102
{ACAD_REACTORS
330
C
102
}
330
C
100
AcDbDictionary
281
     1
  3
Normal
350
564
100
AcDbDictionaryWithDefault
340
564
  0
DICTIONARY
  5
792
102
{ACAD_REACTORS
330
C
102
}
330
C
100
AcDbDictionary
281
     1
  3
Standard
350
793
  0
DICTIONARY
  5
780
102
{ACAD_REACTORS
330
C
102
}
330
C
100
AcDbDictionary
281
     1
  3
2dWireframe
350
786
  3
3D Hidden
350
788
  3
3dWireframe
350
787
  3
Basic
350
785
  3
Brighten
350
78C
  3
ColorChange
350
790
  3
Conceptual
350
789
  3
Dim
350
78B
  3
Facepattern
350
78F
  3
Flat
350
781
  3
FlatWithEdges
350
782
  3
Gouraud
350
783
  3
GouraudWithEdges
350
784
  3
Linepattern
350
78E
  3
Realistic
350
78A
  3
Thicken
350
78D
  0
DICTIONARY
  5
C0C
102
{ACAD_REACTORS
330
C
102
}
330
C
100
AcDbDictionary
281
     1
  3
CTABLESTYLE
350
C0D
  3
DIMASSOC
350
C10
  3
INDEXCTL
350
C0F
  3
SORTENTS
350
C0E
  0
XRECORD
  5
C30
102
{ACAD_REACTORS
330
C
102
}
330
C
100
AcDbXrecord
280
     1
  1
DWGPROPS COOKIE
  2

  3

  4

  6

  7

  8
AWTEC
  9

300
=
301
=
302
=
303
=
304
=
305
=
306
=
307
=
308
=
309
=
 40
0.006823275462963
 41
2456727.572636713
 42
2456727.579456377
  1

 90
        0
  0
DICTIONARY
  5
540
102
{ACAD_REACTORS
330
C
102
}
330
C
100
AcDbDictionary
281
     1
  3
VERSION
350
560
  0
DICTIONARY
  5
79E
102
{ACAD_REACTORS
330
79D
102
}
330
79D
100
AcDbDictionary
281
     1
  0
SORTENTSTABLE
  5
8D9
102
{ACAD_REACTORS
330
8D8
102
}
330
8D8
100
AcDbSortentsTable
330
1A
331
6E6
  5
6E6
  0
XRECORD
  5
C32
102
{ACAD_REACTORS
330
C31
102
}
330
C31
100
AcDbXrecord
280
     1
102
SHADEPLOT
 70
     0
  0
GROUP
  5
6C7
102
{ACAD_REACTORS
330
D
102
}
330
D
100
AcDbGroup
300

 70
     0
 71
     1
1001
GRPNAME
1000
DMA00
  0
GROUP
  5
6C8
102
{ACAD_REACTORS
330
D
102
}
330
D
100
AcDbGroup
300

 70
     0
 71
     1
1001
GRPNAME
1000
DMA00
  0
GROUP
  5
6D4
102
{ACAD_REACTORS
330
D
102
}
330
D
100
AcDbGroup
300

 70
     0
 71
     1
1001
GRPNAME
1000
DMA00
  0
GROUP
  5
6D5
102
{ACAD_REACTORS
330
D
102
}
330
D
100
AcDbGroup
300

 70
     0
 71
     1
1001
GRPNAME
1000
DMA00
  0
GROUP
  5
8A9
102
{ACAD_REACTORS
330
D
102
}
330
D
100
AcDbGroup
300

 70
     0
 71
     1
  0
GROUP
  5
5FC
102
{ACAD_REACTORS
330
D
102
}
330
D
100
AcDbGroup
300

 70
     0
 71
     1
1001
GRPNAME
1000
DREC-
1001
GPARA
1000
xsiz
1000
44.182
1000
ysiz
1000
40.677
1000
angl
1000
0
1000
ctyp
1000
0
1000
csiz
1000
5
1000
lfnt
1000
cont
1000
hcnt
1000
hoff
1000
vcnt
1000
voff
1000
opnt
1000
4
1000
dxpt
1000
0
1000
dypt
1000
0
  0
GROUP
  5
654
102
{ACAD_REACTORS
330
D
102
}
330
D
100
AcDbGroup
300

 70
     0
 71
     1
1001
GRPNAME
1000
DREC-
1001
GPARA
1000
xsiz
1000
54.592
1000
ysiz
1000
53.036
1000
angl
1000
0
1000
ctyp
1000
0
1000
csiz
1000
5
1000
lfnt
1000
cont
1000
hcnt
1000
hoff
1000
vcnt
1000
voff
1000
opnt
1000
4
1000
dxpt
1000
0
1000
dypt
1000
0
  0
GROUP
  5
673
102
{ACAD_REACTORS
330
D
102
}
330
D
100
AcDbGroup
300

 70
     0
 71
     1
1001
GRPNAME
1000
DREC-
1001
GPARA
1000
xsiz
1000
30.363
1000
ysiz
1000
36.175
1000
angl
1000
0
1000
ctyp
1000
0
1000
csiz
1000
5
1000
lfnt
1000
cont
1000
hcnt
1000
hoff
1000
vcnt
1000
voff
1000
opnt
1000
4
1000
dxpt
1000
0
1000
dypt
1000
0
  0
LAYOUT
  5
567
102
{ACAD_XDICTIONARY
360
C33
102
}
102
{ACAD_REACTORS
330
565
102
}
330
565
100
AcDbPlotSettings
  1
A3(1倍)
  2
Canon LBP5600.pc3
  4
A3
  6

 40
5.873749732971191
 41
5.873747825622558
 42
5.873748779296875
 43
5.873748779296875
 44
296.9259948730469
 45
419.9466552734374
 46
37.59
 47
55.6
 48
0.0
 49
0.0
140
0.0
141
0.0
142
1.0
143
1.0
 70
 11956
 72
     1
 73
     1
 74
     2
  7
big.ctb
 75
    16
147
1.0
148
0.0
149
0.0
100
AcDbLayout
  1
Model
 70
     1
 71
     0
 10
0.0
 20
0.0
 11
12.0
 21
9.0
 12
0.0
 22
0.0
 32
0.0
 14
0.0
 24
0.0
 34
0.0
 15
0.0
 25
0.0
 35
0.0
146
0.0
 13
0.0
 23
0.0
 33
0.0
 16
1.0
 26
0.0
 36
0.0
 17
0.0
 27
1.0
 37
0.0
 76
     0
330
1A
331
77A
  0
LAYOUT
  5
568
102
{ACAD_XDICTIONARY
360
C35
102
}
102
{ACAD_REACTORS
330
565
102
}
330
565
100
AcDbPlotSettings
  1

  2
\\ICHIRO\FX Able Model-PRII ART4-ADV
  4

  6

 40
0.0
 41
0.0
 42
0.0
 43
0.0
 44
0.0
 45
0.0
 46
0.0
 47
0.0
 48
0.0
 49
0.0
140
0.0
141
0.0
142
1.0
143
1.0
 70
   688
 72
     0
 73
     0
 74
     5
  7
big.ctb
 75
    16
147
1.0
148
0.0
149
0.0
100
AcDbLayout
  1
ﾚｲｱｳﾄ1
 70
     1
 71
     1
 10
0.0
 20
0.0
 11
420.0
 21
297.0
 12
0.0
 22
0.0
 32
0.0
 14
1.000000000000000E+20
 24
1.000000000000000E+20
 34
1.000000000000000E+20
 15
-1.000000000000000E+20
 25
-1.000000000000000E+20
 35
-1.000000000000000E+20
146
0.0
 13
0.0
 23
0.0
 33
0.0
 16
1.0
 26
0.0
 36
0.0
 17
0.0
 27
1.0
 37
0.0
 76
     0
330
17
331
22
  0
MATERIAL
  5
77E
102
{ACAD_XDICTIONARY
360
C49
102
}
102
{ACAD_REACTORS
330
77C
102
}
330
77C
100
AcDbMaterial
  1
ByBlock
  0
MATERIAL
  5
77D
102
{ACAD_XDICTIONARY
360
C47
102
}
102
{ACAD_REACTORS
330
77C
102
}
330
77C
100
AcDbMaterial
  1
ByLayer
  0
MATERIAL
  5
77F
102
{ACAD_XDICTIONARY
360
C4B
102
}
102
{ACAD_REACTORS
330
77C
102
}
330
77C
100
AcDbMaterial
  1
Global
  0
MLINESTYLE
  5
13
102
{ACAD_REACTORS
330
E
102
}
330
E
100
AcDbMlineStyle
  2
STANDARD
 70
     0
  3

 62
     0
 51
90.0
 52
90.0
 71
     2
 49
0.5
 62
   256
  6
BYLAYER
 49
-0.5
 62
   256
  6
BYLAYER
  0
PLOTSETTINGS
  5
772
102
{ACAD_XDICTIONARY
360
C37
102
}
102
{ACAD_REACTORS
330
566
102
}
330
566
100
AcDbPlotSettings
  1
A3(0.5倍)
  2
Canon LBP5600.pc3
  4
A3
  6

 40
5.873749732971191
 41
5.873747825622558
 42
5.873748779296875
 43
5.873748779296875
 44
296.9259948730469
 45
419.9466552734374
 46
90.09
 47
129.85
 48
0.0
 49
0.0
140
0.0
141
0.0
142
1.0
143
2.0
 70
  1716
 72
     1
 73
     1
 74
     2
  7
big.ctb
 75
    17
147
0.5
148
0.0
149
0.0
  0
PLOTSETTINGS
  5
773
102
{ACAD_XDICTIONARY
360
C39
102
}
102
{ACAD_REACTORS
330
566
102
}
330
566
100
AcDbPlotSettings
  1
A3(1倍)
  2
Canon LBP5600.pc3
  4
A3
  6

 40
5.873749732971191
 41
5.873747825622558
 42
5.873748779296875
 43
5.873748779296875
 44
296.9259948730469
 45
419.9466552734374
 46
37.59
 47
55.6
 48
0.0
 49
0.0
140
0.0
141
0.0
142
1.0
143
1.0
 70
  1716
 72
     1
 73
     1
 74
     2
  7
big.ctb
 75
    16
147
1.0
148
0.0
149
0.0
  0
PLOTSETTINGS
  5
774
102
{ACAD_XDICTIONARY
360
C3B
102
}
102
{ACAD_REACTORS
330
566
102
}
330
566
100
AcDbPlotSettings
  1
A3(1倍)(2000)
  2
Canon LBP5600.pc3
  4
A3
  6

 40
5.873749732971191
 41
5.873747825622558
 42
5.873748779296875
 43
5.873748779296875
 44
296.9259948730469
 45
419.9466552734374
 46
37.59
 47
55.6
 48
0.0
 49
0.0
140
0.0
141
0.0
142
1.0
143
1.0
 70
  1716
 72
     1
 73
     1
 74
     2
  7
big.ctb
 75
    16
147
1.0
148
0.0
149
0.0
  0
PLOTSETTINGS
  5
775
102
{ACAD_XDICTIONARY
360
C3D
102
}
102
{ACAD_REACTORS
330
566
102
}
330
566
100
AcDbPlotSettings
  1
A3(2倍)
  2
Canon LBP5600.pc3
  4
A3
  6

 40
5.873749732971191
 41
5.873747825622558
 42
5.873748779296875
 43
5.873748779296875
 44
296.9259948730469
 45
419.9466552734374
 46
-67.40999999999999
 47
-92.9
 48
0.0
 49
0.0
140
0.0
141
0.0
142
1.0
143
0.5
 70
  1716
 72
     1
 73
     1
 74
     2
  7
big.ctb
 75
    27
147
2.0
148
0.0
149
0.0
  0
PLOTSETTINGS
  5
776
102
{ACAD_XDICTIONARY
360
C3F
102
}
102
{ACAD_REACTORS
330
566
102
}
330
566
100
AcDbPlotSettings
  1
A4(0.5倍)
  2
Canon LBP5600.pc3
  4
A3
  6

 40
5.873749732971191
 41
5.873747825622558
 42
5.873748779296875
 43
5.873748779296875
 44
296.9259948730469
 45
419.9466552734374
 46
90.09
 47
129.85
 48
0.0
 49
0.0
140
0.0
141
0.0
142
1.0
143
2.0
 70
  1716
 72
     1
 73
     1
 74
     2
  7
big.ctb
 75
    17
147
0.5
148
0.0
149
0.0
  0
PLOTSETTINGS
  5
777
102
{ACAD_XDICTIONARY
360
C41
102
}
102
{ACAD_REACTORS
330
566
102
}
330
566
100
AcDbPlotSettings
  1
A4(1倍)
  2
Canon LBP5600.pc3
  4
A3
  6

 40
5.873749732971191
 41
5.873747825622558
 42
5.873748779296875
 43
5.873748779296875
 44
296.9259948730469
 45
419.9466552734374
 46
37.59
 47
55.6
 48
0.0
 49
0.0
140
0.0
141
0.0
142
1.0
143
1.0
 70
  1716
 72
     1
 73
     1
 74
     2
  7
big.ctb
 75
    16
147
1.0
148
0.0
149
0.0
  0
PLOTSETTINGS
  5
778
102
{ACAD_XDICTIONARY
360
C43
102
}
102
{ACAD_REACTORS
330
566
102
}
330
566
100
AcDbPlotSettings
  1
A4(1倍)(2000)
  2
Canon LBP5600.pc3
  4
A3
  6

 40
5.873749732971191
 41
5.873747825622558
 42
5.873748779296875
 43
5.873748779296875
 44
296.9259948730469
 45
419.9466552734374
 46
37.59
 47
55.6
 48
0.0
 49
0.0
140
0.0
141
0.0
142
1.0
143
1.0
 70
  1716
 72
     1
 73
     1
 74
     2
  7
big.ctb
 75
    16
147
1.0
148
0.0
149
0.0
  0
PLOTSETTINGS
  5
779
102
{ACAD_XDICTIONARY
360
C45
102
}
102
{ACAD_REACTORS
330
566
102
}
330
566
100
AcDbPlotSettings
  1
A4(2倍)
  2
Canon LBP5600.pc3
  4
A3
  6

 40
5.873749732971191
 41
5.873747825622558
 42
5.873748779296875
 43
5.873748779296875
 44
296.9259948730469
 45
419.9466552734374
 46
-67.40999999999999
 47
-92.9
 48
0.0
 49
0.0
140
0.0
141
0.0
142
1.0
143
0.5
 70
  1716
 72
     1
 73
     1
 74
     2
  7
big.ctb
 75
    27
147
2.0
148
0.0
149
0.0
  0
ACDBPLACEHOLDER
  5
564
102
{ACAD_REACTORS
330
563
102
}
330
563
  0
TABLESTYLE
  5
793
102
{ACAD_XDICTIONARY
360
C4D
102
}
102
{ACAD_REACTORS
330
792
102
}
330
792
100
AcDbTableStyle
  3
Standard
 70
     0
 71
     0
 40
1.5
 41
1.5
280
     0
281
     0
  7
STANDARD
140
4.5
170
     2
 62
     0
 63
     7
283
     0
274
    -2
284
     1
 64
     0
275
    -2
285
     1
 65
     0
276
    -2
286
     1
 66
     0
277
    -2
287
     1
 67
     0
278
    -2
288
     1
 68
     0
279
    -2
289
     1
 69
     0
  7
STANDARD
140
6.0
170
     5
 62
     0
 63
     7
283
     0
274
    -2
284
     1
 64
     0
275
    -2
285
     1
 65
     0
276
    -2
286
     1
 66
     0
277
    -2
287
     1
 67
     0
278
    -2
288
     1
 68
     0
279
    -2
289
     1
 69
     0
  7
STANDARD
140
4.5
170
     5
 62
     0
 63
     7
283
     0
274
    -2
284
     1
 64
     0
275
    -2
285
     1
 65
     0
276
    -2
286
     1
 66
     0
277
    -2
287
     1
 67
     0
278
    -2
288
     1
 68
     0
279
    -2
289
     1
 69
     0
  0
VISUALSTYLE
  5
786
102
{ACAD_REACTORS
330
780
102
}
330
780
100
AcDbVisualStyle
  2
2dWireframe
 70
     4
 71
     0
 72
     2
 73
     0
 90
        0
 40
-0.6
 41
-30.0
 62
     5
 63
     7
 74
     1
 91
        4
 64
     7
 65
   257
 75
     1
175
     1
 42
1.0
 92
        0
 66
   257
 43
1.0
 76
     1
 77
     6
 78
     2
 67
     7
 79
     5
170
     0
171
     0
290
     0
174
     0
 93
        1
 44
0.0
173
     0
291
     0
 45
0.0
1001
ACAD
1000
AcDbSavedByObjectVersion
1070
     0
  0
VISUALSTYLE
  5
788
102
{ACAD_REACTORS
330
780
102
}
330
780
100
AcDbVisualStyle
  2
3D Hidden
 70
     6
 71
     1
 72
     2
 73
     2
 90
        0
 40
-0.6
 41
-30.0
 62
     5
 63
     7
 74
     2
 91
        2
 64
     7
 65
   257
 75
     2
175
     1
 42
40.0
 92
        0
 66
   257
 43
1.0
 76
     1
 77
     6
 78
     2
 67
     7
 79
     3
170
     0
171
     0
290
     0
174
     0
 93
        1
 44
0.0
173
     0
291
     0
 45
0.0
1001
ACAD
1000
AcDbSavedByObjectVersion
1070
     0
  0
VISUALSTYLE
  5
787
102
{ACAD_REACTORS
330
780
102
}
330
780
100
AcDbVisualStyle
  2
3dWireframe
 70
     5
 71
     0
 72
     2
 73
     0
 90
        0
 40
-0.6
 41
-30.0
 62
     5
 63
     7
 74
     1
 91
        4
 64
     7
 65
   257
 75
     1
175
     1
 42
1.0
 92
        0
 66
   257
 43
1.0
 76
     1
 77
     6
 78
     2
 67
     7
 79
     5
170
     0
171
     0
290
     0
174
     0
 93
        1
 44
0.0
173
     0
291
     0
 45
0.0
1001
ACAD
1000
AcDbSavedByObjectVersion
1070
     0
  0
VISUALSTYLE
  5
785
102
{ACAD_REACTORS
330
780
102
}
330
780
100
AcDbVisualStyle
  2
Basic
 70
     7
 71
     1
 72
     0
 73
     1
 90
        0
 40
-0.6
 41
-30.0
 62
     5
 63
     7
 74
     0
 91
        4
 64
     7
 65
   257
 75
     1
175
     1
 42
1.0
 92
        8
 66
     7
 43
1.0
 76
     1
 77
     6
 78
     2
 67
     7
 79
     5
170
     0
171
     0
290
     0
174
     0
 93
        1
 44
0.0
173
     0
291
     1
 45
0.0
1001
ACAD
1000
AcDbSavedByObjectVersion
1070
     0
  0
VISUALSTYLE
  5
78C
102
{ACAD_REACTORS
330
780
102
}
330
780
100
AcDbVisualStyle
  2
Brighten
 70
    12
 71
     2
 72
     2
 73
     0
 90
        0
 40
-0.6
 41
-30.0
 62
     5
 63
     7
 74
     1
 91
        4
 64
     7
 65
   257
 75
     1
175
     1
 42
1.0
 92
        8
 66
     7
 43
1.0
 76
     1
 77
     6
 78
     2
 67
     7
 79
     5
170
     0
171
     0
290
     0
174
     0
 93
        1
 44
50.0
173
     0
291
     1
 45
0.0
1001
ACAD
1000
AcDbSavedByObjectVersion
1070
     0
  0
VISUALSTYLE
  5
790
102
{ACAD_REACTORS
330
780
102
}
330
780
100
AcDbVisualStyle
  2
ColorChange
 70
    16
 71
     2
 72
     2
 73
     3
 90
        0
 40
-0.6
 41
-30.0
 62
     5
 63
     8
 74
     1
 91
        4
 64
     7
 65
   257
 75
     1
175
     1
 42
1.0
 92
        8
 66
     8
 43
1.0
 76
     1
 77
     6
 78
     2
 67
     7
 79
     5
170
     0
171
     0
290
     0
174
     0
 93
        1
 44
0.0
173
     0
291
     1
 45
0.0
1001
ACAD
1000
AcDbSavedByObjectVersion
1070
     0
  0
VISUALSTYLE
  5
789
102
{ACAD_REACTORS
330
780
102
}
330
780
100
AcDbVisualStyle
  2
Conceptual
 70
     9
 71
     3
 72
     2
 73
     0
 90
        0
 40
-0.6
 41
-30.0
 62
     5
 63
     7
 74
     2
 91
        2
 64
     7
 65
   257
 75
     1
175
     1
 42
40.0
 92
        8
 66
     7
 43
1.0
 76
     1
 77
     6
 78
     2
 67
     7
 79
     3
170
     0
171
     0
290
     0
174
     0
 93
        1
 44
0.0
173
     0
291
     0
 45
0.0
1001
ACAD
1000
AcDbSavedByObjectVersion
1070
     0
  0
VISUALSTYLE
  5
78B
102
{ACAD_REACTORS
330
780
102
}
330
780
100
AcDbVisualStyle
  2
Dim
 70
    11
 71
     2
 72
     2
 73
     0
 90
        0
 40
-0.6
 41
-30.0
 62
     5
 63
     7
 74
     1
 91
        4
 64
     7
 65
   257
 75
     1
175
     1
 42
1.0
 92
        8
 66
     7
 43
1.0
 76
     1
 77
     6
 78
     2
 67
     7
 79
     5
170
     0
171
     0
290
     0
174
     0
 93
        1
 44
-50.0
173
     0
291
     1
 45
0.0
1001
ACAD
1000
AcDbSavedByObjectVersion
1070
     0
  0
VISUALSTYLE
  5
78F
102
{ACAD_REACTORS
330
780
102
}
330
780
100
AcDbVisualStyle
  2
Facepattern
 70
    15
 71
     2
 72
     2
 73
     0
 90
        0
 40
-0.6
 41
-30.0
 62
     5
 63
     7
 74
     1
 91
        4
 64
     7
 65
   257
 75
     1
175
     1
 42
1.0
 92
        8
 66
     7
 43
1.0
 76
     1
 77
     6
 78
     2
 67
     7
 79
     5
170
     0
171
     0
290
     0
174
     0
 93
        1
 44
0.0
173
     0
291
     1
 45
0.0
1001
ACAD
1000
AcDbSavedByObjectVersion
1070
     0
  0
VISUALSTYLE
  5
781
102
{ACAD_REACTORS
330
780
102
}
330
780
100
AcDbVisualStyle
  2
Flat
 70
     0
 71
     2
 72
     1
 73
     1
 90
        2
 40
-0.6
 41
30.0
 62
     5
 63
     7
 74
     0
 91
        4
 64
     7
 65
   257
 75
     1
175
     1
 42
1.0
 92
        8
 66
     7
 43
1.0
 76
     1
 77
     6
 78
     2
 67
     7
 79
     5
170
     0
171
     0
290
     0
174
     0
 93
       13
 44
0.0
173
     0
291
     1
 45
0.0
1001
ACAD
1000
AcDbSavedByObjectVersion
1070
     0
  0
VISUALSTYLE
  5
782
102
{ACAD_REACTORS
330
780
102
}
330
780
100
AcDbVisualStyle
  2
FlatWithEdges
 70
     1
 71
     2
 72
     1
 73
     1
 90
        2
 40
-0.6
 41
30.0
 62
     5
 63
     7
 74
     1
 91
        4
 64
     7
 65
   257
 75
     1
175
     1
 42
1.0
 92
        0
 66
   257
 43
1.0
 76
     1
 77
     6
 78
     2
 67
     7
 79
     5
170
     0
171
     0
290
     0
174
     0
 93
       13
 44
0.0
173
     0
291
     1
 45
0.0
1001
ACAD
1000
AcDbSavedByObjectVersion
1070
     0
  0
VISUALSTYLE
  5
783
102
{ACAD_REACTORS
330
780
102
}
330
780
100
AcDbVisualStyle
  2
Gouraud
 70
     2
 71
     2
 72
     2
 73
     1
 90
        2
 40
-0.6
 41
30.0
 62
     5
 63
     7
 74
     0
 91
        4
 64
     7
 65
   257
 75
     1
175
     1
 42
1.0
 92
        0
 66
     7
 43
1.0
 76
     1
 77
     6
 78
     2
 67
     7
 79
     5
170
     0
171
     0
290
     0
174
     0
 93
       13
 44
0.0
173
     0
291
     1
 45
0.0
1001
ACAD
1000
AcDbSavedByObjectVersion
1070
     0
  0
VISUALSTYLE
  5
784
102
{ACAD_REACTORS
330
780
102
}
330
780
100
AcDbVisualStyle
  2
GouraudWithEdges
 70
     3
 71
     2
 72
     2
 73
     1
 90
        2
 40
-0.6
 41
30.0
 62
     5
 63
     7
 74
     1
 91
        4
 64
     7
 65
   257
 75
     1
175
     1
 42
1.0
 92
        0
 66
   257
 43
1.0
 76
     1
 77
     6
 78
     2
 67
     7
 79
     5
170
     0
171
     0
290
     0
174
     0
 93
       13
 44
0.0
173
     0
291
     1
 45
0.0
1001
ACAD
1000
AcDbSavedByObjectVersion
1070
     0
  0
VISUALSTYLE
  5
78E
102
{ACAD_REACTORS
330
780
102
}
330
780
100
AcDbVisualStyle
  2
Linepattern
 70
    14
 71
     2
 72
     2
 73
     0
 90
        0
 40
-0.6
 41
-30.0
 62
     5
 63
     7
 74
     1
 91
        4
 64
     7
 65
   257
 75
     7
175
     7
 42
1.0
 92
        8
 66
     7
 43
1.0
 76
     1
 77
     6
 78
     2
 67
     7
 79
     5
170
     0
171
     0
290
     0
174
     0
 93
        1
 44
0.0
173
     0
291
     1
 45
0.0
1001
ACAD
1000
AcDbSavedByObjectVersion
1070
     0
  0
VISUALSTYLE
  5
78A
102
{ACAD_REACTORS
330
780
102
}
330
780
100
AcDbVisualStyle
  2
Realistic
 70
     8
 71
     2
 72
     2
 73
     0
 90
        0
 40
-0.6
 41
-30.0
 62
     5
 63
     7
 74
     1
 91
        0
 64
     7
 65
   257
 75
     1
175
     1
 42
1.0
 92
        8
 66
     8
 43
1.0
 76
     1
 77
     6
 78
     2
 67
     7
 79
     5
170
     0
171
     0
290
     0
174
     0
 93
       13
 44
0.0
173
     0
291
     0
 45
0.0
1001
ACAD
1000
AcDbSavedByObjectVersion
1070
     0
  0
VISUALSTYLE
  5
78D
102
{ACAD_REACTORS
330
780
102
}
330
780
100
AcDbVisualStyle
  2
Thicken
 70
    13
 71
     2
 72
     2
 73
     0
 90
        0
 40
-0.6
 41
-30.0
 62
     5
 63
     7
 74
     1
 91
        4
 64
     7
 65
   257
 75
     1
175
     1
 42
1.0
 92
       12
 66
     7
 43
1.0
 76
     1
 77
     6
 78
     2
 67
     7
 79
     5
170
     0
171
     0
290
     0
174
     0
 93
        1
 44
0.0
173
     0
291
     1
 45
0.0
1001
ACAD
1000
AcDbSavedByObjectVersion
1070
     0
  0
DICTIONARYVAR
  5
C0D
102
{ACAD_REACTORS
330
C0C
102
}
330
C0C
100
DictionaryVariables
280
     0
  1
STANDARD
  0
DICTIONARYVAR
  5
C10
102
{ACAD_REACTORS
330
C0C
102
}
330
C0C
100
DictionaryVariables
280
     0
  1
1
  0
DICTIONARYVAR
  5
C0F
102
{ACAD_REACTORS
330
C0C
102
}
330
C0C
100
DictionaryVariables
280
     0
  1
0
  0
DICTIONARYVAR
  5
C0E
102
{ACAD_REACTORS
330
C0C
102
}
330
C0C
100
DictionaryVariables
280
     0
  1
127
  0
XRECORD
  5
560
102
{ACAD_REACTORS
330
540
102
}
330
540
100
AcDbXrecord
280
     1
  1
2.0.0
  0
DICTIONARY
  5
C33
330
567
100
AcDbDictionary
280
     1
281
     1
  3
ACAD_XREC_ROUNDTRIP
360
C34
  0
DICTIONARY
  5
C35
330
568
100
AcDbDictionary
280
     1
281
     1
  3
ACAD_XREC_ROUNDTRIP
360
C36
  0
DICTIONARY
  5
C49
330
77E
100
AcDbDictionary
280
     1
281
     1
  3
ACAD_XREC_ROUNDTRIP
360
C4A
  0
DICTIONARY
  5
C47
330
77D
100
AcDbDictionary
280
     1
281
     1
  3
ACAD_XREC_ROUNDTRIP
360
C48
  0
DICTIONARY
  5
C4B
330
77F
100
AcDbDictionary
280
     1
281
     1
  3
ACAD_XREC_ROUNDTRIP
360
C4C
  0
DICTIONARY
  5
C37
330
772
100
AcDbDictionary
280
     1
281
     1
  3
ACAD_XREC_ROUNDTRIP
360
C38
  0
DICTIONARY
  5
C39
330
773
100
AcDbDictionary
280
     1
281
     1
  3
ACAD_XREC_ROUNDTRIP
360
C3A
  0
DICTIONARY
  5
C3B
330
774
100
AcDbDictionary
280
     1
281
     1
  3
ACAD_XREC_ROUNDTRIP
360
C3C
  0
DICTIONARY
  5
C3D
330
775
100
AcDbDictionary
280
     1
281
     1
  3
ACAD_XREC_ROUNDTRIP
360
C3E
  0
DICTIONARY
  5
C3F
330
776
100
AcDbDictionary
280
     1
281
     1
  3
ACAD_XREC_ROUNDTRIP
360
C40
  0
DICTIONARY
  5
C41
330
777
100
AcDbDictionary
280
     1
281
     1
  3
ACAD_XREC_ROUNDTRIP
360
C42
  0
DICTIONARY
  5
C43
330
778
100
AcDbDictionary
280
     1
281
     1
  3
ACAD_XREC_ROUNDTRIP
360
C44
  0
DICTIONARY
  5
C45
330
779
100
AcDbDictionary
280
     1
281
     1
  3
ACAD_XREC_ROUNDTRIP
360
C46
  0
DICTIONARY
  5
C4D
330
793
100
AcDbDictionary
280
     1
281
     1
  3
ACAD_XREC_ROUNDTRIP
360
C4E
  0
XRECORD
  5
C34
102
{ACAD_REACTORS
330
C33
102
}
330
C33
100
AcDbXrecord
280
     1
102
SHADEPLOT
 70
     0
102
SHADEPLOTRESLEVEL
 70
     2
102
SHADEPLOTCUSTOMDPI
 70
   300
  0
XRECORD
  5
C36
102
{ACAD_REACTORS
330
C35
102
}
330
C35
100
AcDbXrecord
280
     1
102
SHADEPLOT
 70
     0
102
SHADEPLOTRESLEVEL
 70
     2
102
SHADEPLOTCUSTOMDPI
 70
   300
  0
XRECORD
  5
C4A
102
{ACAD_REACTORS
330
C49
102
}
330
C49
100
AcDbXrecord
280
     1
102
MATERIAL
148
0.0
149
0.0
149
0.0
 93
        0
 94
       63
282
     0
 72
     1
 77
     1
171
     1
175
     1
179
     1
273
     0
  0
XRECORD
  5
C48
102
{ACAD_REACTORS
330
C47
102
}
330
C47
100
AcDbXrecord
280
     1
102
MATERIAL
148
0.0
149
0.0
149
0.0
 93
        0
 94
       63
282
     0
 72
     1
 77
     1
171
     1
175
     1
179
     1
273
     0
  0
XRECORD
  5
C4C
102
{ACAD_REACTORS
330
C4B
102
}
330
C4B
100
AcDbXrecord
280
     1
102
MATERIAL
148
0.0
149
0.0
149
0.0
 93
        0
 94
       63
282
     0
 72
     1
 77
     1
171
     1
175
     1
179
     1
273
     0
  0
XRECORD
  5
C38
102
{ACAD_REACTORS
330
C37
102
}
330
C37
100
AcDbXrecord
280
     1
102
SHADEPLOT
 70
     0
102
SHADEPLOTRESLEVEL
 70
     2
102
SHADEPLOTCUSTOMDPI
 70
   300
  0
XRECORD
  5
C3A
102
{ACAD_REACTORS
330
C39
102
}
330
C39
100
AcDbXrecord
280
     1
102
SHADEPLOT
 70
     0
102
SHADEPLOTRESLEVEL
 70
     2
102
SHADEPLOTCUSTOMDPI
 70
   300
  0
XRECORD
  5
C3C
102
{ACAD_REACTORS
330
C3B
102
}
330
C3B
100
AcDbXrecord
280
     1
102
SHADEPLOT
 70
     0
102
SHADEPLOTRESLEVEL
 70
     2
102
SHADEPLOTCUSTOMDPI
 70
   300
  0
XRECORD
  5
C3E
102
{ACAD_REACTORS
330
C3D
102
}
330
C3D
100
AcDbXrecord
280
     1
102
SHADEPLOT
 70
     0
102
SHADEPLOTRESLEVEL
 70
     2
102
SHADEPLOTCUSTOMDPI
 70
   300
  0
XRECORD
  5
C40
102
{ACAD_REACTORS
330
C3F
102
}
330
C3F
100
AcDbXrecord
280
     1
102
SHADEPLOT
 70
     0
102
SHADEPLOTRESLEVEL
 70
     2
102
SHADEPLOTCUSTOMDPI
 70
   300
  0
XRECORD
  5
C42
102
{ACAD_REACTORS
330
C41
102
}
330
C41
100
AcDbXrecord
280
     1
102
SHADEPLOT
 70
     0
102
SHADEPLOTRESLEVEL
 70
     2
102
SHADEPLOTCUSTOMDPI
 70
   300
  0
XRECORD
  5
C44
102
{ACAD_REACTORS
330
C43
102
}
330
C43
100
AcDbXrecord
280
     1
102
SHADEPLOT
 70
     0
102
SHADEPLOTRESLEVEL
 70
     2
102
SHADEPLOTCUSTOMDPI
 70
   300
  0
XRECORD
  5
C46
102
{ACAD_REACTORS
330
C45
102
}
330
C45
100
AcDbXrecord
280
     1
102
SHADEPLOT
 70
     0
102
SHADEPLOTRESLEVEL
 70
     2
102
SHADEPLOTCUSTOMDPI
 70
   300
  0
XRECORD
  5
C4E
102
{ACAD_REACTORS
330
C4D
102
}
330
C4D
100
AcDbXrecord
280
     1
102
ACAD_ROUNDTRIP_PRE2007_TABLESTYLE
 90
      512
 91
        0
  1

 92
      512
 93
        0
  2

 94
      512
 95
        0
  3

  0
ENDSEC
  0
EOF
