  0
SECTION
  2
HEADER
  9
$ACADVER
  1
AC1014
  9
$ACADMAINTVER
 70
     9
  9
$DWGCODEPAGE
  3
ANSI_932
  9
$INSBASE
 10
0.0
 20
0.0
 30
0.0
  9
$EXTMIN
 10
-48.51429639
 20
-11.07006072
 30
-0.00152582
  9
$EXTMAX
 10
88.02668833
 20
40.00231253
 30
0.00000003
  9
$LIMMIN
 10
0.0
 20
0.0
  9
$LIMMAX
 10
420.0
 20
297.0
  9
$ORTHOMODE
 70
     0
  9
$REGENMODE
 70
     1
  9
$FILLMODE
 70
     1
  9
$QTEXTMODE
 70
     0
  9
$MIRRTEXT
 70
     1
  9
$DRAGMODE
 70
     2
  9
$LTSCALE
 40
10.0
  9
$OSMODE
 70
   549
  9
$ATTMODE
 70
     1
  9
$TEXTSIZE
 40
3.0
  9
$TRACEWID
 40
1.0
  9
$TEXTSTYLE
  7
YOKO
  9
$CLAYER
  8
245
  9
$CELTYPE
  6
BYLAYER
  9
$CECOLOR
 62
   256
  9
$CELTSCALE
 40
1.0
  9
$DELOBJ
 70
     1
  9
$DISPSILH
 70
     0
  9
$DIMSCALE
 40
1.0
  9
$DIMASZ
 40
2.0
  9
$DIMEXO
 40
2.0
  9
$DIMDLI
 40
2.5
  9
$DIMRND
 40
0.0
  9
$DIMDLE
 40
0.0
  9
$DIMEXE
 40
2.0
  9
$DIMTP
 40
0.0
  9
$DIMTM
 40
0.0
  9
$DIMTXT
 40
4.0
  9
$DIMCEN
 40
0.0
  9
$DIMTSZ
 40
0.0
  9
$DIMTOL
 70
     0
  9
$DIMLIM
 70
     0
  9
$DIMTIH
 70
     0
  9
$DIMTOH
 70
     0
  9
$DIMSE1
 70
     0
  9
$DIMSE2
 70
     0
  9
$DIMTAD
 70
     3
  9
$DIMZIN
 70
     8
  9
$DIMBLK
  1

  9
$DIMASO
 70
     1
  9
$DIMSHO
 70
     1
  9
$DIMPOST
  1

  9
$DIMAPOST
  1

  9
$DIMALT
 70
     0
  9
$DIMALTD
 70
     2
  9
$DIMALTF
 40
25.4
  9
$DIMLFAC
 40
1.0
  9
$DIMTOFL
 70
     1
  9
$DIMTVP
 40
0.0
  9
$DIMTIX
 70
     1
  9
$DIMSOXD
 70
     0
  9
$DIMSAH
 70
     1
  9
$DIMBLK1
  1
OPEN
  9
$DIMBLK2
  1
OPEN
  9
$DIMSTYLE
  2
BIGT
  9
$DIMCLRD
 70
   256
  9
$DIMCLRE
 70
   256
  9
$DIMCLRT
 70
    40
  9
$DIMTFAC
 40
1.0
  9
$DIMGAP
 40
1.0
  9
$DIMJUST
 70
     0
  9
$DIMSD1
 70
     0
  9
$DIMSD2
 70
     0
  9
$DIMTOLJ
 70
     1
  9
$DIMTZIN
 70
     8
  9
$DIMALTZ
 70
     0
  9
$DIMALTTZ
 70
     0
  9
$DIMFIT
 70
     3
  9
$DIMUPT
 70
     0
  9
$DIMUNIT
 70
     2
  9
$DIMDEC
 70
     3
  9
$DIMTDEC
 70
     3
  9
$DIMALTU
 70
     2
  9
$DIMALTTD
 70
     2
  9
$DIMTXSTY
  7
STANDARD
  9
$DIMAUNIT
 70
     0
  9
$LUNITS
 70
     2
  9
$LUPREC
 70
     3
  9
$SKETCHINC
 40
1.0
  9
$FILLETRAD
 40
0.0
  9
$AUNITS
 70
     0
  9
$AUPREC
 70
     3
  9
$MENU
  1
.
  9
$ELEVATION
 40
0.0
  9
$PELEVATION
 40
0.0
  9
$THICKNESS
 40
0.0
  9
$LIMCHECK
 70
     0
  9
$BLIPMODE
 70
     0
  9
$CHAMFERA
 40
10.0
  9
$CHAMFERB
 40
10.0
  9
$CHAMFERC
 40
0.0
  9
$CHAMFERD
 40
0.0
  9
$SKPOLY
 70
     0
  9
$TDCREATE
 40
2455128.458208912
  9
$TDUPDATE
 40
2455316.432948495
  9
$TDINDWG
 40
0.0027539005
  9
$TDUSRTIMER
 40
0.0027539005
  9
$USRTIMER
 70
     1
  9
$ANGBASE
 50
0.0
  9
$ANGDIR
 70
     0
  9
$PDMODE
 70
     1
  9
$PDSIZE
 40
-5.0
  9
$PLINEWID
 40
0.0
  9
$COORDS
 70
     0
  9
$SPLFRAME
 70
     0
  9
$SPLINETYPE
 70
     6
  9
$SPLINESEGS
 70
     8
  9
$ATTDIA
 70
     0
  9
$ATTREQ
 70
     1
  9
$HANDLING
 70
-16383
  9
$HANDSEED
  5
100D
  9
$SURFTAB1
 70
     6
  9
$SURFTAB2
 70
     6
  9
$SURFTYPE
 70
     6
  9
$SURFU
 70
     6
  9
$SURFV
 70
     6
  9
$UCSNAME
  2

  9
$UCSORG
 10
0.0
 20
0.0
 30
0.0
  9
$UCSXDIR
 10
1.0
 20
0.0
 30
0.0
  9
$UCSYDIR
 10
0.0
 20
1.0
 30
0.0
  9
$PUCSNAME
  2

  9
$PUCSORG
 10
0.0
 20
0.0
 30
0.0
  9
$PUCSXDIR
 10
1.0
 20
0.0
 30
0.0
  9
$PUCSYDIR
 10
0.0
 20
1.0
 30
0.0
  9
$USERI1
 70
     1
  9
$USERI2
 70
     0
  9
$USERI3
 70
     0
  9
$USERI4
 70
     0
  9
$USERI5
 70
     0
  9
$USERR1
 40
0.0
  9
$USERR2
 40
0.0
  9
$USERR3
 40
0.0
  9
$USERR4
 40
0.0
  9
$USERR5
 40
0.0
  9
$WORLDVIEW
 70
     1
  9
$SHADEDGE
 70
     3
  9
$SHADEDIF
 70
    70
  9
$TILEMODE
 70
     1
  9
$MAXACTVP
 70
    16
  9
$PINSBASE
 10
0.0
 20
0.0
 30
0.0
  9
$PLIMCHECK
 70
     0
  9
$PEXTMIN
 10
1.00000000E+20
 20
1.00000000E+20
 30
1.00000000E+20
  9
$PEXTMAX
 10
-1.00000000E+20
 20
-1.00000000E+20
 30
-1.00000000E+20
  9
$PLIMMIN
 10
0.0
 20
0.0
  9
$PLIMMAX
 10
420.0
 20
297.0
  9
$UNITMODE
 70
     0
  9
$VISRETAIN
 70
     0
  9
$PLINEGEN
 70
     0
  9
$PSLTSCALE
 70
     1
  9
$TREEDEPTH
 70
  3020
  9
$PICKSTYLE
 70
     0
  9
$CMLSTYLE
  2
STANDARD
  9
$CMLJUST
 70
     0
  9
$CMLSCALE
 40
1.0
  9
$PROXYGRAPHICS
 70
     1
  9
$MEASUREMENT
 70
     1
  0
ENDSEC
  0
SECTION
  2
CLASSES
  0
CLASS
  1
XRECORD
  2
AcDbXrecord
  3
AutoCAD 2000
 90
        0
280
     0
281
     0
  0
CLASS
  1
ACDBDICTIONARYWDFLT
  2
AcDbDictionaryWithDefault
  3
AutoCAD 2000
 90
        0
280
     0
281
     0
  0
CLASS
  1
ACDBPLACEHOLDER
  2
AcDbPlaceHolder
  3
AutoCAD 2000
 90
        0
280
     0
281
     0
  0
CLASS
  1
LAYOUT
  2
AcDbLayout
  3
AutoCAD 2000
 90
        0
280
     0
281
     0
  0
CLASS
  1
PLOTSETTINGS
  2
AcDbPlotSettings
  3
AutoCAD 2000
 90
        0
280
     0
281
     0
  0
CLASS
  1
LONG_TRANSACTION
  2
AcDbLongTransaction
  3
AutoCAD 2000
 90
        0
280
     0
281
     0
  0
CLASS
  1
LWPOLYLINE
  2
AcDbPolyline
  3
AutoCAD 2000
 90
        0
280
     0
281
     1
  0
CLASS
  1
HATCH
  2
AcDbHatch
  3
AutoCAD 2000
 90
        0
280
     0
281
     1
  0
CLASS
  1
XRECORD
  2
AcDbXrecord
  3
AutoCAD 2000
 90
        0
280
     0
281
     0
  0
CLASS
  1
LONG_TRANSACTION
  2
AcDbLongTransaction
  3
AutoCAD 2000
 90
        0
280
     0
281
     0
  0
CLASS
  1
LWPOLYLINE
  2
AcDbPolyline
  3
AutoCAD 2000
 90
        0
280
     0
281
     1
  0
CLASS
  1
HATCH
  2
AcDbHatch
  3
AutoCAD 2000
 90
        0
280
     0
281
     1
  0
CLASS
  1
XRECORD
  2
AcDbXrecord
  3
AutoCAD 2000
 90
        0
280
     0
281
     0
  0
ENDSEC
  0
SECTION
  2
TABLES
  0
TABLE
  2
VPORT
  5
8
330
0
100
AcDbSymbolTable
 70
     2
  0
VPORT
  5
FE8
330
8
100
AcDbSymbolTableRecord
100
AcDbViewportTableRecord
  2
*ACTIVE
 70
     0
 10
0.0
 20
0.0
 11
1.0
 21
1.0
 12
19.75619597
 22
14.4661259
 13
0.0
 23
0.0
 14
7.0
 24
7.0
 15
7.0
 25
7.0
 16
0.0
 26
0.0
 36
1.0
 17
0.0
 27
0.0
 37
0.0
 40
95.86842103
 41
1.43184713
 42
50.0
 43
0.0
 44
0.0
 50
0.0
 51
0.0
 71
     0
 72
  2000
 73
     1
 74
     0
 75
     0
 76
     0
 77
     0
 78
     0
  0
ENDTAB
  0
TABLE
  2
LTYPE
  5
5
330
0
100
AcDbSymbolTable
 70
     3
  0
LTYPE
  5
14
330
5
100
AcDbSymbolTableRecord
100
AcDbLinetypeTableRecord
  2
BYBLOCK
 70
     0
  3

 72
    65
 73
     0
 40
0.0
  0
LTYPE
  5
15
330
5
100
AcDbSymbolTableRecord
100
AcDbLinetypeTableRecord
  2
BYLAYER
 70
     0
  3

 72
    65
 73
     0
 40
0.0
  0
LTYPE
  5
16
330
5
100
AcDbSymbolTableRecord
100
AcDbLinetypeTableRecord
  2
CONTINUOUS
 70
     0
  3
Solid line
 72
    65
 73
     0
 40
0.0
  0
LTYPE
  5
258
330
5
100
AcDbSymbolTableRecord
100
AcDbLinetypeTableRecord
  2
CENTER2
 70
     0
  3
___ _ ___ _ ___ _ ___ _ ___ _ ___ _ ___ _ ___ _
 72
    65
 73
     4
 40
1.125
 49
0.75
 74
     0
 49
-0.125
 74
     0
 49
0.125
 74
     0
 49
-0.125
 74
     0
  0
LTYPE
  5
25C
330
5
100
AcDbSymbolTableRecord
100
AcDbLinetypeTableRecord
  2
HIDDEN2
 70
     0
  3
_ _ _ _ _ _ _ _ _ _ _ _ _ _ _ _ _ _ _ _ _ _ _ _
 72
    65
 73
     2
 40
0.1875
 49
0.125
 74
     0
 49
-0.0625
 74
     0
  0
ENDTAB
  0
TABLE
  2
LAYER
  5
2
330
0
100
AcDbSymbolTable
 70
    12
  0
LAYER
  5
F
330
2
100
AcDbSymbolTableRecord
100
AcDbLayerTableRecord
  2
0
 70
     0
 62
     7
  6
CONTINUOUS
  0
LAYER
  5
1AA
330
2
100
AcDbSymbolTableRecord
100
AcDbLayerTableRecord
  2
240
 70
     0
 62
     4
  6
CONTINUOUS
  0
LAYER
  5
1AB
330
2
100
AcDbSymbolTableRecord
100
AcDbLayerTableRecord
  2
241
 70
     0
 62
   211
  6
CONTINUOUS
  0
LAYER
  5
1AC
330
2
100
AcDbSymbolTableRecord
100
AcDbLayerTableRecord
  2
242
 70
     0
 62
     3
  6
CONTINUOUS
  0
LAYER
  5
1AD
330
2
100
AcDbSymbolTableRecord
100
AcDbLayerTableRecord
  2
243
 70
     0
 62
   211
  6
HIDDEN2
  0
LAYER
  5
1AF
330
2
100
AcDbSymbolTableRecord
100
AcDbLayerTableRecord
  2
245
 70
     0
 62
     2
  6
CENTER2
  0
LAYER
  5
21E
330
2
100
AcDbSymbolTableRecord
100
AcDbLayerTableRecord
  2
250
 70
     0
 62
     3
  6
CONTINUOUS
  0
LAYER
  5
21F
330
2
100
AcDbSymbolTableRecord
100
AcDbLayerTableRecord
  2
251
 70
     0
 62
    40
  6
CONTINUOUS
  0
LAYER
  5
5C4
330
2
100
AcDbSymbolTableRecord
100
AcDbLayerTableRecord
  2
DEFPOINTS
 70
     0
 62
     7
  6
CONTINUOUS
  0
LAYER
  5
8B9
330
2
100
AcDbSymbolTableRecord
100
AcDbLayerTableRecord
  2
AM_7
 70
     0
 62
     2
  6
CENTER2
  0
ENDTAB
  0
TABLE
  2
STYLE
  5
3
330
0
100
AcDbSymbolTable
 70
     2
  0
STYLE
  5
10
330
3
100
AcDbSymbolTableRecord
100
AcDbTextStyleTableRecord
  2
STANDARD
 70
     0
 40
0.0
 41
1.0
 50
0.0
 71
     0
 42
3.0
  3
romans.shx
  4
BIGFONT.SHX
  0
STYLE
  5
339
330
3
100
AcDbSymbolTableRecord
100
AcDbTextStyleTableRecord
  2
YOKO
 70
     0
 40
0.0
 41
1.0
 50
0.0
 71
     0
 42
3.0
  3
romans.shx
  4
extfont.shx
  0
ENDTAB
  0
TABLE
  2
VIEW
  5
6
330
0
100
AcDbSymbolTable
 70
     0
  0
ENDTAB
  0
TABLE
  2
UCS
  5
7
330
0
100
AcDbSymbolTable
 70
     0
  0
ENDTAB
  0
TABLE
  2
APPID
  5
9
330
0
100
AcDbSymbolTable
 70
    15
  0
APPID
  5
11
330
9
100
AcDbSymbolTableRecord
100
AcDbRegAppTableRecord
  2
ACAD
 70
     0
  0
APPID
  5
1B1
330
9
100
AcDbSymbolTableRecord
100
AcDbRegAppTableRecord
  2
GLOBAL
 70
     0
  0
APPID
  5
2A4
330
9
100
AcDbSymbolTableRecord
100
AcDbRegAppTableRecord
  2
DETAIL
 70
     0
  0
APPID
  5
5FD
330
9
100
AcDbSymbolTableRecord
100
AcDbRegAppTableRecord
  2
GRPNAME
 70
     0
  0
APPID
  5
5FE
330
9
100
AcDbSymbolTableRecord
100
AcDbRegAppTableRecord
  2
GPARA
 70
     0
  0
APPID
  5
6C4
330
9
100
AcDbSymbolTableRecord
100
AcDbRegAppTableRecord
  2
DCO15
 70
     0
  0
APPID
  5
6C5
330
9
100
AcDbSymbolTableRecord
100
AcDbRegAppTableRecord
  2
ITEMNAME
 70
     0
  0
APPID
  5
6C6
330
9
100
AcDbSymbolTableRecord
100
AcDbRegAppTableRecord
  2
GRADE_0
 70
     0
  0
APPID
  5
8BA
330
9
100
AcDbSymbolTableRecord
100
AcDbRegAppTableRecord
  2
GENIUS_GENOREF_13
 70
     0
  0
APPID
  5
8BB
330
9
100
AcDbSymbolTableRecord
100
AcDbRegAppTableRecord
  2
HATCH_TYPE
 70
     0
  0
APPID
  5
8BC
330
9
100
AcDbSymbolTableRecord
100
AcDbRegAppTableRecord
  2
HATCH_DISPLAY
 70
     0
  0
APPID
  5
8BD
330
9
100
AcDbSymbolTableRecord
100
AcDbRegAppTableRecord
  2
HATCH_DISTANCE
 70
     0
  0
APPID
  5
8BE
330
9
100
AcDbSymbolTableRecord
100
AcDbRegAppTableRecord
  2
GENIUS_GENODEF_13
 70
     0
  0
APPID
  5
8BF
330
9
100
AcDbSymbolTableRecord
100
AcDbRegAppTableRecord
  2
GENIUS_GENOBJ-N-FIL_13
 70
     0
  0
APPID
  5
C00
330
9
100
AcDbSymbolTableRecord
100
AcDbRegAppTableRecord
  2
CONTENTBLOCKICON
 70
     0
  0
ENDTAB
  0
TABLE
  2
DIMSTYLE
  5
A
330
0
100
AcDbSymbolTable
 70
     1
  0
DIMSTYLE
105
725
102
{ACAD_REACTORS
330
D55
330
E50
102
}
330
A
100
AcDbSymbolTableRecord
100
AcDbDimStyleTableRecord
  2
BIGT
 70
     0
  3

  4

  5

  6
OPEN
  7
OPEN
 40
1.0
 41
2.23
 42
0.5
 43
2.5
 44
1.0
 45
0.0
 46
0.0
 47
0.0
 48
0.0
140
2.8
141
0.0
142
0.0
143
25.4
144
1.0
145
0.0
146
1.0
147
1.0
 71
     0
 72
     0
 73
     0
 74
     0
 75
     0
 76
     0
 77
     3
 78
     8
170
     0
171
     2
172
     1
173
     1
174
     1
175
     0
176
   256
177
   256
178
    40
270
     2
271
     3
272
     3
273
     2
274
     2
340
10
275
     0
280
     0
281
     0
282
     0
283
     1
284
     8
285
     0
286
     0
287
     3
288
     0
  0
ENDTAB
  0
TABLE
  2
BLOCK_RECORD
  5
1
330
0
100
AcDbSymbolTable
 70
    10
  0
BLOCK_RECORD
  5
1A
102
{ACAD_XDICTIONARY
360
BFE
102
}
330
1
100
AcDbSymbolTableRecord
100
AcDbBlockTableRecord
  2
*MODEL_SPACE
  0
BLOCK_RECORD
  5
17
102
{ACAD_XDICTIONARY
360
BFC
102
}
330
1
100
AcDbSymbolTableRecord
100
AcDbBlockTableRecord
  2
*PAPER_SPACE
  0
BLOCK_RECORD
  5
594
330
1
100
AcDbSymbolTableRecord
100
AcDbBlockTableRecord
  2
_OPEN
  0
BLOCK_RECORD
  5
6E3
330
1
100
AcDbSymbolTableRecord
100
AcDbBlockTableRecord
  2
矢印なし
  0
BLOCK_RECORD
  5
762
330
1
100
AcDbSymbolTableRecord
100
AcDbBlockTableRecord
  2
1
1001
CONTENTBLOCKICON
1071
        0
1004
2800000020000000200000000100080000000000000400000000000000000000000000000000000000000000000080000080000000808000800000008000800080800000C0C0C000C0DCC000F0CAA6000020400000206000002080000020A0000020C0000020E00000400000004020000040400000406000004080000040A0
1004
000040C0000040E00000600000006020000060400000606000006080000060A0000060C0000060E00000800000008020000080400000806000008080000080A0000080C0000080E00000A0000000A0200000A0400000A0600000A0800000A0A00000A0C00000A0E00000C0000000C0200000C0400000C0600000C0800000C0
1004
A00000C0C00000C0E00000E0000000E0200000E0400000E0600000E0800000E0A00000E0C00000E0E00040000000400020004000400040006000400080004000A0004000C0004000E00040200000402020004020400040206000402080004020A0004020C0004020E000404000004040200040404000404060004040800040
1004
40A0004040C0004040E00040600000406020004060400040606000406080004060A0004060C0004060E00040800000408020004080400040806000408080004080A0004080C0004080E00040A0000040A0200040A0400040A0600040A0800040A0A00040A0C00040A0E00040C0000040C0200040C0400040C0600040C08000
1004
40C0A00040C0C00040C0E00040E0000040E0200040E0400040E0600040E0800040E0A00040E0C00040E0E00080000000800020008000400080006000800080008000A0008000C0008000E00080200000802020008020400080206000802080008020A0008020C0008020E00080400000804020008040400080406000804080
1004
008040A0008040C0008040E00080600000806020008060400080606000806080008060A0008060C0008060E00080800000808020008080400080806000808080008080A0008080C0008080E00080A0000080A0200080A0400080A0600080A0800080A0A00080A0C00080A0E00080C0000080C0200080C0400080C0600080C0
1004
800080C0A00080C0C00080C0E00080E0000080E0200080E0400080E0600080E0800080E0A00080E0C00080E0E000C0000000C0002000C0004000C0006000C0008000C000A000C000C000C000E000C0200000C0202000C0204000C0206000C0208000C020A000C020C000C020E000C0400000C0402000C0404000C0406000C0
1004
408000C040A000C040C000C040E000C0600000C0602000C0604000C0606000C0608000C060A000C060C000C060E000C0800000C0802000C0804000C0806000C0808000C080A000C080C000C080E000C0A00000C0A02000C0A04000C0A06000C0A08000C0A0A000C0A0C000C0A0E000C0C00000C0C02000C0C04000C0C06000
1004
C0C08000C0C0A000F0FBFF00A4A0A000808080000000FF0000FF000000FFFF00FF000000FF00FF00FFFF0000FFFFFF0000000000000000000000000000000000000000000000000000000000000000000000000000000000000000000000000000000000000000000000000000000000000000000000000000000000000000
1004
00000000000000000000000000000000000000000000000000000000000000000000000000000000000000000000000000000000000000000000000000000000000000000000000000000000000000000000000000000000000000000000000000000000000000000000000000000000000000000000000000000000000000
1004
00000000000000000000000000000000000000000000000000000000000000000000000000000000000000000000000000000000000000000000000000000000000000000000000000000000000000000000000000000000000000000000000000000000000000000000000000000000000000000000000000000000000000
1004
000000000000000000000000000000000000000000000000000000000000000000000000000000000000000000000000000000000000000000000000000000000000000000000000000000000000000000000000000000000000000000FEFEFEFE0000000000000000000000000000000000000000FEFEFEE7FEFEFEFEFEFE
1004
E7FEFEFEFEFEFEFEFEFEFEFEFEFEFEFEFEFE00000000FE00E7E700E7FBFBE7E7E7E70000000000000000000000E7E70000FE000000FBFEFBE7E7FBE7FBE7E7E7E7E7FFFFFFFBFBFBFBFBFBFBE7E7E7E7E7FEFB000000FEFEFEE7FEFEFEFEFEFEE7FEFEFFFFFEFEFEFEFEFEFEFEFEE7FEFEFE000000000000000000000000FE
1004
FEFEFE00000000000000000000000000000000000000000000000000000000000000000000000000000000000000000000000000000000000000000000000000000000000000000000000000000000000000000000000000000000000000000000000000000000000000000000000000000000000000000000000000000000
1004
00000000000000000000000000000000000000000000000000000000000000000000000000000000000000000000000000000000000000000000000000000000000000000000000000000000000000000000000000000000000000000000000000000000000000000000000000000000000000000000000000000000000000
1004
00000000000000000000000000000000000000000000000000000000000000000000000000000000000000000000000000000000000000000000000000000000000000000000000000000000000000000000000000000000000000000000000000000000000000000000000000000000000000000000000000000000000000
1004
0000000000000000000000000000000000000000000000000000000000000000000000000000000000000000000000000000000000000000
  0
BLOCK_RECORD
  5
E79
330
1
100
AcDbSymbolTableRecord
100
AcDbBlockTableRecord
  2
*D8
  0
BLOCK_RECORD
  5
E85
330
1
100
AcDbSymbolTableRecord
100
AcDbBlockTableRecord
  2
*D9
  0
ENDTAB
  0
ENDSEC
  0
SECTION
  2
BLOCKS
  0
BLOCK
  5
1B
330
1A
100
AcDbEntity
  8
0
100
AcDbBlockBegin
  2
*MODEL_SPACE
 70
     0
 10
0.0
 20
0.0
 30
0.0
  3
*MODEL_SPACE
  1

  0
ENDBLK
  5
1C
330
1A
100
AcDbEntity
  8
0
100
AcDbBlockEnd
  0
BLOCK
  5
18
330
17
100
AcDbEntity
 67
     1
  8
0
100
AcDbBlockBegin
  2
*PAPER_SPACE
 70
     0
 10
0.0
 20
0.0
 30
0.0
  3
*PAPER_SPACE
  1

  0
ENDBLK
  5
19
330
17
100
AcDbEntity
 67
     1
  8
0
100
AcDbBlockEnd
  0
BLOCK
  5
598
330
594
100
AcDbEntity
  8
0
100
AcDbBlockBegin
  2
_OPEN
 70
     0
 10
0.0
 20
0.0
 30
0.0
  3
_OPEN
  1

  0
LINE
  5
595
330
594
100
AcDbEntity
  8
0
  6
BYBLOCK
 62
     0
100
AcDbLine
 10
-1.0
 20
0.16666667
 30
0.0
 11
0.0
 21
0.0
 31
0.0
  0
LINE
  5
596
330
594
100
AcDbEntity
  8
0
  6
BYBLOCK
 62
     0
100
AcDbLine
 10
-1.0
 20
-0.16666667
 30
0.0
 11
0.0
 21
0.0
 31
0.0
  0
LINE
  5
597
330
594
100
AcDbEntity
  8
0
  6
BYBLOCK
 62
     0
100
AcDbLine
 10
0.0
 20
0.0
 30
0.0
 11
-1.0
 21
0.0
 31
0.0
  0
ENDBLK
  5
599
330
594
100
AcDbEntity
  8
0
100
AcDbBlockEnd
  0
BLOCK
  5
6E4
330
6E3
100
AcDbEntity
  8
0
100
AcDbBlockBegin
  2
矢印なし
 70
     0
 10
0.0
 20
0.0
 30
0.0
  3
矢印なし
  1

  0
ENDBLK
  5
6E5
330
6E3
100
AcDbEntity
  8
0
100
AcDbBlockEnd
  0
BLOCK
  5
89F
330
762
100
AcDbEntity
  8
0
100
AcDbBlockBegin
  2
1
 70
     0
 10
0.0
 20
0.0
 30
0.0
  3
1
  1

  0
TEXT
  5
EC8
330
762
100
AcDbEntity
  8
0
100
AcDbText
 10
16.2303669
 20
2.28708889
 30
0.0
 40
2.5
  1
MGT6-M5-70
  7
YOKO
100
AcDbText
  0
LINE
  5
EC9
330
762
100
AcDbEntity
  8
240
100
AcDbLine
 10
50.0
 20
8.0
 30
0.0
 11
1.57117457
 21
8.0
 31
0.0
  0
LINE
  5
ECA
330
762
100
AcDbEntity
  8
240
100
AcDbLine
 10
50.0
 20
-8.0
 30
0.0
 11
1.57117457
 21
-8.0
 31
0.0
  0
LINE
  5
ECB
330
762
100
AcDbEntity
  8
AM_7
100
AcDbLine
 10
-48.5
 20
0.0
 30
0.0
 11
71.0
 21
0.0
 31
0.0
1001
GENIUS_GENOREF_13
1005
0
  0
LINE
  5
ECC
330
762
100
AcDbEntity
  8
240
100
AcDbLine
 10
-34.0
 20
-6.0
 30
0.0
 11
-29.0
 21
-6.0
 31
0.0
  0
LINE
  5
ECD
330
762
100
AcDbEntity
  8
240
100
AcDbLine
 10
-34.0
 20
6.0
 30
0.0
 11
-29.0
 21
6.0
 31
0.0
  0
LINE
  5
ECE
330
762
100
AcDbEntity
  8
AM_7
100
AcDbLine
 10
-34.0
 20
-8.0
 30
0.0
 11
-34.0
 21
8.0
 31
0.0
  0
LINE
  5
ECF
330
762
100
AcDbEntity
  8
243
100
AcDbLine
 10
-36.5
 20
6.0
 30
0.0
 11
-36.5
 21
-6.0
 31
0.0
  0
LINE
  5
ED0
330
762
100
AcDbEntity
  8
240
100
AcDbLine
 10
-47.5
 20
-7.0
 30
0.0
 11
-47.5
 21
0.0
 31
0.0
  0
LINE
  5
ED1
330
762
100
AcDbEntity
  8
240
100
AcDbLine
 10
-46.5
 20
-8.0
 30
0.0
 11
-41.0
 21
-8.0
 31
0.0
  0
ARC
  5
ED2
330
762
100
AcDbEntity
  8
240
100
AcDbCircle
 10
-46.5
 20
-7.0
 30
0.0
 40
1.0
100
AcDbArc
 50
180.0
 51
270.0
  0
LINE
  5
ED3
330
762
100
AcDbEntity
  8
240
100
AcDbLine
 10
-39.0
 20
-6.0
 30
0.0
 11
-41.0
 21
-8.0
 31
0.0
  0
LINE
  5
ED4
330
762
100
AcDbEntity
  8
240
100
AcDbLine
 10
-39.0
 20
-6.0
 30
0.0
 11
-34.0
 21
-6.0
 31
0.0
  0
LINE
  5
ED5
330
762
100
AcDbEntity
  8
240
100
AcDbLine
 10
-46.5
 20
8.0
 30
0.0
 11
-41.0
 21
8.0
 31
0.0
  0
LINE
  5
ED6
330
762
100
AcDbEntity
  8
240
100
AcDbLine
 10
-47.5
 20
7.0
 30
0.0
 11
-47.5
 21
0.0
 31
0.0
  0
ARC
  5
ED7
330
762
100
AcDbEntity
  8
240
100
AcDbCircle
 10
-46.5
 20
7.0
 30
0.0
 40
1.0
100
AcDbArc
 50
90.0
 51
180.0
  0
LINE
  5
ED8
330
762
100
AcDbEntity
  8
240
100
AcDbLine
 10
-39.0
 20
6.0
 30
0.0
 11
-34.0
 21
6.0
 31
0.0
  0
LINE
  5
ED9
330
762
100
AcDbEntity
  8
240
100
AcDbLine
 10
-39.0
 20
6.0
 30
0.0
 11
-41.0
 21
8.0
 31
0.0
  0
LINE
  5
EDA
330
762
100
AcDbEntity
  8
243
100
AcDbLine
 10
-31.5
 20
6.0
 30
0.0
 11
-31.5
 21
-6.0
 31
0.0
  0
ELLIPSE
  5
EDB
330
762
100
AcDbEntity
  8
241
100
AcDbEllipse
 10
-20.0
 20
-2.64927664
 30
0.0
 11
-2.000000000000023
 21
0.0
 31
0.0
210
0.0
220
0.0
230
1.0
 40
0.93969262
 41
0.0
 42
6.283185307179584
  0
LINE
  5
EDC
330
762
100
AcDbEntity
  8
241
100
AcDbLine
 10
-25.5
 20
-7.0
 30
0.0
 11
-25.5
 21
0.0
 31
0.0
  0
LINE
  5
EDD
330
762
100
AcDbEntity
  8
241
100
AcDbLine
 10
-23.5
 20
-7.0
 30
0.0
 11
-23.5
 21
0.0
 31
0.0
  0
LINE
  5
EDE
330
762
100
AcDbEntity
  8
241
100
AcDbLine
 10
-16.5
 20
-7.0
 30
0.0
 11
-16.5
 21
0.0
 31
0.0
  0
LINE
  5
EDF
330
762
100
AcDbEntity
  8
241
100
AcDbLine
 10
-14.5
 20
-7.0
 30
0.0
 11
-14.5
 21
0.0
 31
0.0
  0
LINE
  5
EE0
330
762
100
AcDbEntity
  8
241
100
AcDbLine
 10
-4.0
 20
-10.0
 30
0.0
 11
-4.0
 21
0.0
 31
0.0
  0
LINE
  5
EE1
330
762
100
AcDbEntity
  8
241
100
AcDbLine
 10
-2.0
 20
-10.0
 30
0.0
 11
-2.0
 21
0.0
 31
0.0
  0
LINE
  5
EE2
330
762
100
AcDbEntity
  8
241
100
AcDbLine
 10
0.0
 20
-10.64125603
 30
0.0
 11
0.0
 21
0.0
 31
0.0
  0
LINE
  5
EE3
330
762
100
AcDbEntity
  8
AM_7
100
AcDbLine
 10
-20.0
 20
-0.7698914
 30
0.0
 11
-20.0
 21
-4.52866188
 31
0.0
  0
LINE
  5
EE4
330
762
100
AcDbEntity
  8
241
100
AcDbLine
 10
-11.0
 20
-8.0
 30
0.0
 11
-11.0
 21
0.0
 31
0.0
  0
LINE
  5
EE5
330
762
100
AcDbEntity
  8
241
  6
CONTINUOUS
100
AcDbLine
 10
-6.5
 20
-10.50000001
 30
0.0
 11
-6.5
 21
0.0
 31
0.0
  0
LINE
  5
EE6
330
762
100
AcDbEntity
  8
241
100
AcDbLine
 10
-5.12626129
 20
-11.0
 30
0.0
 11
-5.12626129
 21
0.0
 31
0.0
  0
LINE
  5
EE7
330
762
100
AcDbEntity
  8
241
100
AcDbLine
 10
0.80384758
 20
-8.35874397
 30
0.0
 11
0.80384758
 21
0.0
 31
0.0
  0
ARC
  5
EE8
330
762
100
AcDbEntity
  8
240
100
AcDbCircle
 10
-15.5
 20
-7.0
 30
0.0
 40
1.000000000003004
100
AcDbArc
 50
180.0
 51
0.0
  0
ARC
  5
EE9
330
762
100
AcDbEntity
  8
240
100
AcDbCircle
 10
-24.5
 20
-7.0
 30
0.0
 40
1.000000000003004
100
AcDbArc
 50
180.0
 51
0.0
  0
LINE
  5
EEA
330
762
100
AcDbEntity
  8
240
100
AcDbLine
 10
-29.0
 20
-6.0
 30
0.0
 11
-27.0
 21
-8.0
 31
0.0
  0
LINE
  5
EEB
330
762
100
AcDbEntity
  8
240
100
AcDbLine
 10
-25.5
 20
-7.0
 30
0.0
 11
-25.5
 21
-8.0
 31
0.0
  0
LINE
  5
EEC
330
762
100
AcDbEntity
  8
240
100
AcDbLine
 10
-27.0
 20
-8.0
 30
0.0
 11
-25.5
 21
-8.0
 31
0.0
  0
LINE
  5
EED
330
762
100
AcDbEntity
  8
240
100
AcDbLine
 10
-23.5
 20
-7.0
 30
0.0
 11
-23.5
 21
-8.0
 31
0.0
  0
LINE
  5
EEE
330
762
100
AcDbEntity
  8
240
100
AcDbLine
 10
-16.5
 20
-7.0
 30
0.0
 11
-16.5
 21
-8.0
 31
0.0
  0
LINE
  5
EEF
330
762
100
AcDbEntity
  8
240
100
AcDbLine
 10
-23.5
 20
-8.0
 30
0.0
 11
-16.5
 21
-8.0
 31
0.0
  0
LINE
  5
EF0
330
762
100
AcDbEntity
  8
AM_7
100
AcDbLine
 10
-21.99786162
 20
-2.73616115
 30
0.0
 11
-18.00213838
 21
-2.73616115
 31
0.0
  0
LINE
  5
EF1
330
762
100
AcDbEntity
  8
240
100
AcDbLine
 10
-6.5
 20
-10.50000001
 30
0.0
 11
-5.12626128
 21
-11.0
 31
0.0
  0
LINE
  5
EF2
330
762
100
AcDbEntity
  8
240
100
AcDbLine
 10
-14.5
 20
-7.0
 30
0.0
 11
-14.5
 21
-8.0
 31
0.0
  0
LINE
  5
EF3
330
762
100
AcDbEntity
  8
240
100
AcDbLine
 10
-10.7
 20
-7.7
 30
0.0
 11
-11.0
 21
-8.0
 31
0.0
  0
LINE
  5
EF4
330
762
100
AcDbEntity
  8
240
100
AcDbLine
 10
-14.5
 20
-8.0
 30
0.0
 11
-11.0
 21
-8.0
 31
0.0
  0
LINE
  5
EF5
330
762
100
AcDbEntity
  8
241
100
AcDbLine
 10
-6.5
 20
-8.2
 30
0.0
 11
-9.5
 21
-8.2
 31
0.0
  0
LINE
  5
EF6
330
762
100
AcDbEntity
  8
240
100
AcDbLine
 10
-9.5
 20
-8.5
 30
0.0
 11
-10.0
 21
-9.0
 31
0.0
  0
LINE
  5
EF7
330
762
100
AcDbEntity
  8
240
100
AcDbLine
 10
-10.7
 20
-7.7
 30
0.0
 11
-9.5
 21
-7.7
 31
0.0
  0
LINE
  5
EF8
330
762
100
AcDbEntity
  8
240
100
AcDbLine
 10
-9.5
 20
-8.5
 30
0.0
 11
-9.5
 21
-7.7
 31
0.0
  0
LINE
  5
EF9
330
762
100
AcDbEntity
  8
240
100
AcDbLine
 10
-10.0
 20
-10.5
 30
0.0
 11
-10.0
 21
-9.0
 31
0.0
  0
LINE
  5
EFA
330
762
100
AcDbEntity
  8
240
100
AcDbLine
 10
-6.50000001
 20
-10.5
 30
0.0
 11
-10.0
 21
-10.5
 31
0.0
  0
LINE
  5
EFB
330
762
100
AcDbEntity
  8
240
100
AcDbLine
 10
-0.63567449
 20
-11.0
 30
0.0
 11
-2.0
 21
-11.0
 31
0.0
  0
ARC
  5
EFC
330
762
100
AcDbEntity
  8
240
100
AcDbCircle
 10
-3.0
 20
-10.0
 30
0.0
 40
1.000000000000075
100
AcDbArc
 50
180.0
 51
0.0
  0
LINE
  5
EFD
330
762
100
AcDbEntity
  8
240
100
AcDbLine
 10
-2.0
 20
-10.0
 30
0.0
 11
-2.0
 21
-11.0
 31
0.0
  0
LINE
  5
EFE
330
762
100
AcDbEntity
  8
240
100
AcDbLine
 10
-4.0
 20
-10.0
 30
0.0
 11
-4.0
 21
-11.0
 31
0.0
  0
LINE
  5
EFF
330
762
100
AcDbEntity
  8
240
100
AcDbLine
 10
-4.0
 20
-11.0
 30
0.0
 11
-5.12626129
 21
-11.0
 31
0.0
  0
LINE
  5
F00
330
762
100
AcDbEntity
  8
240
100
AcDbLine
 10
-0.50850794
 20
-10.96592583
 30
0.0
 11
-0.63567449
 21
-11.0
 31
0.0
  0
ARC
  5
F01
330
762
100
AcDbEntity
  8
240
100
AcDbCircle
 10
-0.76732699
 20
-10.0
 30
0.0
 40
1.0
100
AcDbArc
 50
285.0
 51
345.0
1001
GENIUS_GENOBJ-N-FIL_13
1002
{
1000
OWNER
1000
GEN
1002
}
1001
GENIUS_GENODEF_13
1002
{
1000
HIER
1070
     0
1002
}
1002
{
1000
MANEDIT
1070
     0
1002
}
1002
{
1000
NOSEL
1070
     0
1002
}
1002
{
1000
BEHIND
1070
     0
1002
}
1002
{
1000
OTHER
1070
     0
1002
}
1002
{
1000
REACTOR
1002
}
  0
LINE
  5
F02
330
762
100
AcDbEntity
  8
240
100
AcDbLine
 10
0.19859884
 20
-10.25881905
 30
0.0
 11
0.60524874
 21
-8.74118096
 31
0.0
  0
ARC
  5
F03
330
762
100
AcDbEntity
  8
240
100
AcDbCircle
 10
1.57117457
 20
-9.0
 30
0.0
 40
1.0
100
AcDbArc
 50
90.0
 51
165.00000008
  0
ARC
  5
F04
330
762
100
AcDbEntity
  8
240
100
AcDbCircle
 10
-15.5
 20
7.0
 30
0.0
 40
1.000000000003004
100
AcDbArc
 50
0.0
 51
180.0
  0
ARC
  5
F05
330
762
100
AcDbEntity
  8
240
100
AcDbCircle
 10
-24.5
 20
7.0
 30
0.0
 40
1.000000000003004
100
AcDbArc
 50
0.0
 51
180.0
  0
LINE
  5
F06
330
762
100
AcDbEntity
  8
241
100
AcDbLine
 10
-25.5
 20
7.0
 30
0.0
 11
-25.5
 21
0.0
 31
0.0
  0
LINE
  5
F07
330
762
100
AcDbEntity
  8
240
100
AcDbLine
 10
-29.0
 20
6.0
 30
0.0
 11
-27.0
 21
8.0
 31
0.0
  0
LINE
  5
F08
330
762
100
AcDbEntity
  8
240
100
AcDbLine
 10
-25.5
 20
7.0
 30
0.0
 11
-25.5
 21
8.0
 31
0.0
  0
LINE
  5
F09
330
762
100
AcDbEntity
  8
240
100
AcDbLine
 10
-27.0
 20
8.0
 30
0.0
 11
-25.5
 21
8.0
 31
0.0
  0
LINE
  5
F0A
330
762
100
AcDbEntity
  8
241
100
AcDbLine
 10
-23.5
 20
7.0
 30
0.0
 11
-23.5
 21
0.0
 31
0.0
  0
LINE
  5
F0B
330
762
100
AcDbEntity
  8
241
100
AcDbLine
 10
-16.5
 20
7.0
 30
0.0
 11
-16.5
 21
0.0
 31
0.0
  0
LINE
  5
F0C
330
762
100
AcDbEntity
  8
240
100
AcDbLine
 10
-23.5
 20
8.0
 30
0.0
 11
-16.5
 21
8.0
 31
0.0
  0
LINE
  5
F0D
330
762
100
AcDbEntity
  8
240
100
AcDbLine
 10
-23.5
 20
7.0
 30
0.0
 11
-23.5
 21
8.0
 31
0.0
  0
LINE
  5
F0E
330
762
100
AcDbEntity
  8
240
100
AcDbLine
 10
-16.5
 20
7.0
 30
0.0
 11
-16.5
 21
8.0
 31
0.0
  0
LINE
  5
F0F
330
762
100
AcDbEntity
  8
240
100
AcDbLine
 10
-4.0
 20
10.0
 30
0.0
 11
-4.0
 21
11.0
 31
0.0
  0
LINE
  5
F10
330
762
100
AcDbEntity
  8
240
100
AcDbLine
 10
-2.0
 20
10.0
 30
0.0
 11
-2.0
 21
11.0
 31
0.0
  0
ARC
  5
F11
330
762
100
AcDbEntity
  8
240
100
AcDbCircle
 10
-3.0
 20
10.0
 30
0.0
 40
1.000000000000075
100
AcDbArc
 50
0.0
 51
180.0
  0
ARC
  5
F12
330
762
100
AcDbEntity
  8
240
100
AcDbCircle
 10
-0.76732699
 20
10.0
 30
0.0
 40
1.0
100
AcDbArc
 50
15.0
 51
75.0
1001
GENIUS_GENOBJ-N-FIL_13
1002
{
1000
OWNER
1000
GEN
1002
}
1001
GENIUS_GENODEF_13
1002
{
1000
HIER
1070
     0
1002
}
1002
{
1000
MANEDIT
1070
     0
1002
}
1002
{
1000
NOSEL
1070
     0
1002
}
1002
{
1000
BEHIND
1070
     0
1002
}
1002
{
1000
OTHER
1070
     0
1002
}
1002
{
1000
REACTOR
1002
}
  0
LINE
  5
F13
330
762
100
AcDbEntity
  8
240
100
AcDbLine
 10
-6.50000001
 20
10.5
 30
0.0
 11
-5.12626128
 21
11.0
 31
0.0
  0
LINE
  5
F14
330
762
100
AcDbEntity
  8
241
100
AcDbLine
 10
-5.12626129
 20
11.0
 30
0.0
 11
-5.12626129
 21
0.0
 31
0.0
  0
LINE
  5
F15
330
762
100
AcDbEntity
  8
241
100
AcDbLine
 10
0.0
 20
10.64125603
 30
0.0
 11
0.0
 21
0.0
 31
0.0
  0
LINE
  5
F16
330
762
100
AcDbEntity
  8
241
  6
CONTINUOUS
100
AcDbLine
 10
-6.5
 20
10.50000001
 30
0.0
 11
-6.5
 21
0.0
 31
0.0
  0
LINE
  5
F17
330
762
100
AcDbEntity
  8
241
100
AcDbLine
 10
-11.0
 20
8.0
 30
0.0
 11
-11.0
 21
0.0
 31
0.0
  0
LINE
  5
F18
330
762
100
AcDbEntity
  8
241
100
AcDbLine
 10
-14.5
 20
7.0
 30
0.0
 11
-14.5
 21
0.0
 31
0.0
  0
LINE
  5
F19
330
762
100
AcDbEntity
  8
240
100
AcDbLine
 10
-10.7
 20
7.7
 30
0.0
 11
-11.0
 21
8.0
 31
0.0
  0
LINE
  5
F1A
330
762
100
AcDbEntity
  8
240
100
AcDbLine
 10
-14.5
 20
7.0
 30
0.0
 11
-14.5
 21
8.0
 31
0.0
  0
LINE
  5
F1B
330
762
100
AcDbEntity
  8
240
100
AcDbLine
 10
-14.5
 20
8.0
 30
0.0
 11
-11.0
 21
8.0
 31
0.0
  0
LINE
  5
F1C
330
762
100
AcDbEntity
  8
241
100
AcDbLine
 10
-6.5
 20
8.2
 30
0.0
 11
-9.5
 21
8.2
 31
0.0
  0
LINE
  5
F1D
330
762
100
AcDbEntity
  8
240
100
AcDbLine
 10
-9.5
 20
8.5
 30
0.0
 11
-10.0
 21
9.0
 31
0.0
  0
LINE
  5
F1E
330
762
100
AcDbEntity
  8
240
100
AcDbLine
 10
-9.5
 20
8.5
 30
0.0
 11
-9.5
 21
7.7
 31
0.0
  0
LINE
  5
F1F
330
762
100
AcDbEntity
  8
240
100
AcDbLine
 10
-10.7
 20
7.7
 30
0.0
 11
-9.5
 21
7.7
 31
0.0
  0
LINE
  5
F20
330
762
100
AcDbEntity
  8
240
100
AcDbLine
 10
-10.0
 20
10.5
 30
0.0
 11
-10.0
 21
9.0
 31
0.0
  0
LINE
  5
F21
330
762
100
AcDbEntity
  8
240
100
AcDbLine
 10
-6.50000001
 20
10.5
 30
0.0
 11
-10.0
 21
10.5
 31
0.0
  0
LINE
  5
F22
330
762
100
AcDbEntity
  8
241
100
AcDbLine
 10
0.80384758
 20
8.35874397
 30
0.0
 11
0.80384758
 21
0.0
 31
0.0
  0
LINE
  5
F23
330
762
100
AcDbEntity
  8
241
100
AcDbLine
 10
-2.0
 20
10.0
 30
0.0
 11
-2.0
 21
0.0
 31
0.0
  0
LINE
  5
F24
330
762
100
AcDbEntity
  8
241
100
AcDbLine
 10
-4.0
 20
10.0
 30
0.0
 11
-4.0
 21
0.0
 31
0.0
  0
ARC
  5
F25
330
762
100
AcDbEntity
  8
240
100
AcDbCircle
 10
1.57117457
 20
9.0
 30
0.0
 40
1.0
100
AcDbArc
 50
194.99999992
 51
270.0
  0
LINE
  5
F26
330
762
100
AcDbEntity
  8
240
100
AcDbLine
 10
0.19859884
 20
10.25881905
 30
0.0
 11
0.60524874
 21
8.74118096
 31
0.0
  0
LINE
  5
F27
330
762
100
AcDbEntity
  8
240
100
AcDbLine
 10
-0.63567449
 20
11.0
 30
0.0
 11
-2.0
 21
11.0
 31
0.0
  0
LINE
  5
F28
330
762
100
AcDbEntity
  8
240
100
AcDbLine
 10
-4.0
 20
11.0
 30
0.0
 11
-5.12626129
 21
11.0
 31
0.0
  0
LINE
  5
F29
330
762
100
AcDbEntity
  8
240
100
AcDbLine
 10
-0.50850794
 20
10.96592583
 30
0.0
 11
-0.63567449
 21
11.0
 31
0.0
  0
LINE
  5
F2A
330
762
100
AcDbEntity
  8
0
100
AcDbLine
 10
11.71126195
 20
1.87215967
 30
0.0
 11
12.00627205
 21
2.16716977
 31
0.0
  0
LINE
  5
F2B
330
762
100
AcDbEntity
  8
0
100
AcDbLine
 10
11.59636569
 20
2.74047645
 30
0.0
 11
12.13376626
 21
3.27787702
 31
0.0
  0
LINE
  5
F2C
330
762
100
AcDbEntity
  8
0
100
AcDbLine
 10
11.74800605
 20
2.56437913
 30
0.0
 11
12.06044371
 21
2.87681679
 31
0.0
  0
LINE
  5
F2D
330
762
100
AcDbEntity
  8
0
100
AcDbLine
 10
11.59060046
 20
4.04566193
 30
0.0
 11
12.50997906
 21
4.96504054
 31
0.0
  0
LINE
  5
F2E
330
762
100
AcDbEntity
  8
0
100
AcDbLine
 10
11.4817939
 20
3.60911769
 30
0.0
 11
12.81834715
 21
4.94567094
 31
0.0
  0
LINE
  5
F2F
330
762
100
AcDbEntity
  8
0
100
AcDbLine
 10
11.43535517
 20
3.23494129
 30
0.0
 11
12.39728514
 21
4.19687126
 31
0.0
  0
LINE
  5
F30
330
762
100
AcDbEntity
  8
0
100
AcDbLine
 10
11.48749334
 20
2.95934178
 30
0.0
 11
12.2655257
 21
3.73737414
 31
0.0
  0
LINE
  5
F31
330
762
100
AcDbEntity
  8
0
100
AcDbLine
 10
7.9279509
 20
1.87215967
 30
0.0
 11
13.91661808
 21
1.87215967
 31
0.0
  0
LINE
  5
F32
330
762
100
AcDbEntity
  8
0
100
AcDbLine
 10
7.9279509
 20
2.16716977
 30
0.0
 11
13.91661808
 21
2.16716977
 31
0.0
  0
ARC
  5
F33
330
762
100
AcDbEntity
  8
0
100
AcDbCircle
 10
12.39336447
 20
3.27344685
 30
0.0
 40
0.9587828249999999
100
AcDbArc
 50
163.9997507
 51
304.96387329
  0
ARC
  5
F34
330
762
100
AcDbEntity
  8
0
100
AcDbCircle
 10
12.60484332
 20
4.0109721
 30
0.0
 40
0.9587730796874998
100
AcDbArc
 50
53.4440122
 51
164.00018439
  0
LINE
  5
F35
330
762
100
AcDbEntity
  8
0
100
AcDbLine
 10
9.71147248
 20
4.46069772
 30
0.0
 11
10.07932828
 21
4.82855352
 31
0.0
  0
LINE
  5
F36
330
762
100
AcDbEntity
  8
0
100
AcDbLine
 10
9.7492844
 20
4.17077196
 30
0.0
 11
10.24295532
 21
4.66444288
 31
0.0
  0
LINE
  5
F37
330
762
100
AcDbEntity
  8
0
100
AcDbLine
 10
8.68599465
 20
4.41843293
 30
0.0
 11
9.2373055
 21
4.96974379
 31
0.0
  0
LINE
  5
F38
330
762
100
AcDbEntity
  8
0
100
AcDbLine
 10
8.55423607
 20
3.95893667
 30
0.0
 11
9.56504319
 21
4.96974379
 31
0.0
  0
ARC
  5
F39
330
762
100
AcDbEntity
  8
0
100
AcDbCircle
 10
9.31622914
 20
4.26172177
 30
0.0
 40
0.4425027943359379
100
AcDbArc
 50
261.66260169
 51
66.3381551
  0
LINE
  5
F3A
330
762
100
AcDbEntity
  8
0
100
AcDbLine
 10
9.49382348
 20
4.66702286
 30
0.0
 11
9.25206602
 21
3.82389553
 31
0.0
  0
ARC
  5
F3B
330
762
100
AcDbEntity
  8
0
100
AcDbCircle
 10
7.9279509
 20
3.4209519
 30
0.0
 40
1.253781787499995
100
AcDbArc
 50
90.0
 51
270.0
  0
LINE
  5
F3C
330
762
100
AcDbEntity
  8
0
100
AcDbLine
 10
8.08275102
 20
2.31467481
 30
0.0
 11
8.75948779
 21
4.67473369
 31
0.0
  0
LINE
  5
F3D
330
762
100
AcDbEntity
  8
0
100
AcDbLine
 10
10.20033503
 20
2.31467481
 30
0.0
 11
10.86861844
 21
4.64524159
 31
0.0
  0
LINE
  5
F3E
330
762
100
AcDbEntity
  8
0
100
AcDbLine
 10
10.86861844
 20
4.64524159
 30
0.0
 11
10.20033503
 21
2.31467481
 31
0.0
  0
LINE
  5
F3F
330
762
100
AcDbEntity
  8
0
100
AcDbLine
 10
10.86861844
 20
4.64524159
 30
0.0
 11
10.20033503
 21
2.31467481
 31
0.0
1001
HATCH_DISTANCE
1040
1.0
1001
HATCH_DISPLAY
1070
     0
1001
HATCH_TYPE
1070
     7
  0
LINE
  5
F40
330
762
100
AcDbEntity
  8
0
100
AcDbLine
 10
10.73259303
 20
4.17086756
 30
0.0
 11
11.53146927
 21
4.96974379
 31
0.0
  0
LINE
  5
F41
330
762
100
AcDbEntity
  8
0
100
AcDbLine
 10
10.60083352
 20
3.71137035
 30
0.0
 11
11.52592423
 21
4.63646106
 31
0.0
  0
LINE
  5
F42
330
762
100
AcDbEntity
  8
0
100
AcDbLine
 10
10.86016509
 20
2.31467481
 30
0.0
 11
11.62149117
 21
4.96974379
 31
0.0
  0
LINE
  5
F43
330
762
100
AcDbEntity
  8
0
100
AcDbLine
 10
10.86016509
 20
2.31467481
 30
0.0
 11
11.62149117
 21
4.96974379
 31
0.0
1001
HATCH_DISTANCE
1040
1.0
1001
HATCH_DISPLAY
1070
     0
1001
HATCH_TYPE
1070
     7
  0
LINE
  5
F44
330
762
100
AcDbEntity
  8
0
100
AcDbLine
 10
10.86016509
 20
2.31467481
 30
0.0
 11
11.62149117
 21
4.96974379
 31
0.0
  0
ARC
  5
F45
330
762
100
AcDbEntity
  8
0
100
AcDbCircle
 10
9.64535341
 20
4.23222967
 30
0.0
 40
0.73752037734375
100
AcDbArc
 50
287.66957755
 51
90.23615984
  0
LINE
  5
F46
330
762
100
AcDbEntity
  8
0
100
AcDbLine
 10
6.42538196
 20
3.79650864
 30
0.0
 11
7.55239417
 21
4.92352085
 31
0.0
  0
ARC
  5
F47
330
762
100
AcDbEntity
  8
0
100
AcDbCircle
 10
7.9279509
 20
3.4209519
 30
0.0
 40
1.548791887499996
100
AcDbArc
 50
90.0
 51
270.0
  0
LINE
  5
F48
330
762
100
AcDbEntity
  8
0
100
AcDbLine
 10
7.26975259
 20
2.01897783
 30
0.0
 11
7.49505074
 21
2.24427598
 31
0.0
  0
LINE
  5
F49
330
762
100
AcDbEntity
  8
0
100
AcDbLine
 10
6.71963426
 20
2.45207255
 30
0.0
 11
6.92979511
 21
2.66223339
 31
0.0
  0
LINE
  5
F4A
330
762
100
AcDbEntity
  8
0
100
AcDbLine
 10
6.87783016
 20
2.28253075
 30
0.0
 11
7.08664352
 21
2.49134411
 31
0.0
  0
LINE
  5
F4B
330
762
100
AcDbEntity
  8
0
100
AcDbLine
 10
7.06074614
 20
2.13770906
 30
0.0
 11
7.27416227
 21
2.35112519
 31
0.0
  0
LINE
  5
F4C
330
762
100
AcDbEntity
  8
0
100
AcDbLine
 10
6.58655612
 20
2.64673208
 30
0.0
 11
6.80438574
 21
2.86456169
 31
0.0
  0
LINE
  5
F4D
330
762
100
AcDbEntity
  8
0
100
AcDbLine
 10
6.48091417
 20
2.86882782
 30
0.0
 11
6.71514027
 21
3.10305391
 31
0.0
  0
LINE
  5
F4E
330
762
100
AcDbEntity
  8
0
100
AcDbLine
 10
6.37915984
 20
3.42254884
 30
0.0
 11
6.72257248
 21
3.76596148
 31
0.0
  0
LINE
  5
F4F
330
762
100
AcDbEntity
  8
0
100
AcDbLine
 10
6.40796756
 20
3.12361888
 30
0.0
 11
6.67454637
 21
3.39019769
 31
0.0
  0
ARC
  5
F50
330
762
100
AcDbEntity
  8
0
100
AcDbCircle
 10
13.96092304
 20
3.22303852
 30
0.0
 40
2.509011449999999
100
AcDbArc
 50
155.20517737
 51
172.79482596
  0
LINE
  5
F51
330
762
100
AcDbEntity
  8
0
100
AcDbLine
 10
11.38352428
 20
1.87215967
 30
0.0
 11
11.67853436
 21
2.16716977
 31
0.0
  0
LINE
  5
F52
330
762
100
AcDbEntity
  8
0
100
AcDbLine
 10
9.41017033
 20
3.17618253
 30
0.0
 11
10.37752089
 21
4.14353309
 31
0.0
  0
LINE
  5
F53
330
762
100
AcDbEntity
  8
0
100
AcDbLine
 10
8.42247748
 20
3.4994404
 30
0.0
 11
9.45513533
 21
4.53209825
 31
0.0
  0
LINE
  5
F54
330
762
100
AcDbEntity
  8
0
100
AcDbLine
 10
8.29071889
 20
3.03994413
 30
0.0
 11
9.3233811
 21
4.07260633
 31
0.0
  0
LINE
  5
F55
330
762
100
AcDbEntity
  8
0
100
AcDbLine
 10
9.29576677
 20
3.38951664
 30
0.0
 11
10.35145413
 21
4.44520402
 31
0.0
  0
LINE
  5
F56
330
762
100
AcDbEntity
  8
0
100
AcDbLine
 10
9.41709819
 20
1.87215967
 30
0.0
 11
9.71210829
 21
2.16716977
 31
0.0
  0
LINE
  5
F57
330
762
100
AcDbEntity
  8
0
100
AcDbLine
 10
9.74483587
 20
1.87215967
 30
0.0
 11
10.03984596
 21
2.16716977
 31
0.0
  0
LINE
  5
F58
330
762
100
AcDbEntity
  8
0
100
AcDbLine
 10
10.07257355
 20
1.87215967
 30
0.0
 11
10.36758365
 21
2.16716977
 31
0.0
  0
LINE
  5
F59
330
762
100
AcDbEntity
  8
0
100
AcDbLine
 10
10.40031123
 20
1.87215967
 30
0.0
 11
10.69532133
 21
2.16716977
 31
0.0
  0
LINE
  5
F5A
330
762
100
AcDbEntity
  8
0
100
AcDbLine
 10
10.72804891
 20
1.87215967
 30
0.0
 11
11.023059
 21
2.16716977
 31
0.0
  0
LINE
  5
F5B
330
762
100
AcDbEntity
  8
0
100
AcDbLine
 10
10.20033503
 20
2.31467481
 30
0.0
 11
10.86016509
 21
2.31467481
 31
0.0
  0
LINE
  5
F5C
330
762
100
AcDbEntity
  8
0
100
AcDbLine
 10
10.5150887
 20
2.31467481
 30
0.0
 11
10.99889334
 21
2.79847946
 31
0.0
  0
LINE
  5
F5D
330
762
100
AcDbEntity
  8
0
100
AcDbLine
 10
10.84282637
 20
2.31467481
 30
0.0
 11
10.86713562
 21
2.33898406
 31
0.0
  0
LINE
  5
F5E
330
762
100
AcDbEntity
  8
0
100
AcDbLine
 10
10.20033503
 20
2.31467481
 30
0.0
 11
10.86016509
 21
2.31467481
 31
0.0
  0
LINE
  5
F5F
330
762
100
AcDbEntity
  8
0
100
AcDbLine
 10
10.20033503
 20
2.31467481
 30
0.0
 11
10.86016509
 21
2.31467481
 31
0.0
1001
HATCH_DISTANCE
1040
1.0
1001
HATCH_DISPLAY
1070
     0
1001
HATCH_TYPE
1070
     7
  0
LINE
  5
F60
330
762
100
AcDbEntity
  8
0
100
AcDbLine
 10
9.58717105
 20
2.3699702
 30
0.0
 11
9.98920409
 21
2.77200325
 31
0.0
  0
LINE
  5
F61
330
762
100
AcDbEntity
  8
0
100
AcDbLine
 10
8.76162283
 20
1.87215967
 30
0.0
 11
9.05663293
 21
2.16716977
 31
0.0
  0
LINE
  5
F62
330
762
100
AcDbEntity
  8
0
100
AcDbLine
 10
8.08275102
 20
2.31467481
 30
0.0
 11
9.30698502
 21
2.31467481
 31
0.0
  0
LINE
  5
F63
330
762
100
AcDbEntity
  8
0
100
AcDbLine
 10
8.54866262
 20
2.31467481
 30
0.0
 11
8.92811135
 21
2.69412354
 31
0.0
  0
LINE
  5
F64
330
762
100
AcDbEntity
  8
0
100
AcDbLine
 10
7.50854121
 20
1.93002876
 30
0.0
 11
7.75734431
 21
2.17883187
 31
0.0
  0
LINE
  5
F65
330
762
100
AcDbEntity
  8
0
100
AcDbLine
 10
7.7850195
 20
1.87876938
 30
0.0
 11
8.07341988
 21
2.16716977
 31
0.0
  0
LINE
  5
F66
330
762
100
AcDbEntity
  8
0
100
AcDbLine
 10
8.10614747
 20
1.87215967
 30
0.0
 11
8.40115757
 21
2.16716977
 31
0.0
  0
LINE
  5
F67
330
762
100
AcDbEntity
  8
0
100
AcDbLine
 10
8.43388516
 20
1.87215967
 30
0.0
 11
8.72889524
 21
2.16716977
 31
0.0
  0
LINE
  5
F68
330
762
100
AcDbEntity
  8
0
100
AcDbLine
 10
9.08936052
 20
1.87215967
 30
0.0
 11
9.3843706
 21
2.16716977
 31
0.0
  0
LINE
  5
F69
330
762
100
AcDbEntity
  8
0
100
AcDbLine
 10
8.22092494
 20
2.31467481
 30
0.0
 11
9.05986315
 21
3.15361302
 31
0.0
  0
LINE
  5
F6A
330
762
100
AcDbEntity
  8
0
100
AcDbLine
 10
8.1589603
 20
2.58044787
 30
0.0
 11
9.40717896
 21
3.82866652
 31
0.0
  0
ARC
  5
F6B
330
762
100
AcDbEntity
  8
0
100
AcDbCircle
 10
9.30698502
 20
3.05218927
 30
0.0
 40
0.7375141125000005
100
AcDbArc
 50
270.0
 51
40.32984065
  0
LINE
  5
F6C
330
762
100
AcDbEntity
  8
0
100
AcDbLine
 10
10.20555497
 20
2.33287876
 30
0.0
 11
11.13065107
 21
3.25797486
 31
0.0
  0
LINE
  5
F6D
330
762
100
AcDbEntity
  8
0
100
AcDbLine
 10
9.20413798
 20
2.31467481
 30
0.0
 11
10.03815789
 21
3.14869472
 31
0.0
  0
LINE
  5
F6E
330
762
100
AcDbEntity
  8
0
100
AcDbLine
 10
8.87640029
 20
2.31467481
 30
0.0
 11
9.95885942
 21
3.39713395
 31
0.0
  0
ARC
  5
F6F
330
762
100
AcDbEntity
  8
0
100
AcDbCircle
 10
8.97786076
 20
3.08169251
 30
0.0
 40
0.4425154545410158
100
AcDbArc
 50
261.66285421
 51
66.33819216
  0
LINE
  5
F70
330
762
100
AcDbEntity
  8
0
100
AcDbLine
 10
9.15545861
 20
3.48700588
 30
0.0
 11
8.91369718
 21
2.64385354
 31
0.0
  0
LINE
  5
F71
330
762
100
AcDbEntity
  8
0
100
AcDbLine
 10
10.46907401
 20
3.25187316
 30
0.0
 11
11.39416651
 21
4.17696566
 31
0.0
  0
LINE
  5
F72
330
762
100
AcDbEntity
  8
0
100
AcDbLine
 10
11.05578659
 20
1.87215967
 30
0.0
 11
11.35079669
 21
2.16716977
 31
0.0
  0
LINE
  5
F73
330
762
100
AcDbEntity
  8
0
100
AcDbLine
 10
10.33731449
 20
2.79237596
 30
0.0
 11
11.26240879
 21
3.71747027
 31
0.0
  0
LINE
  5
F74
330
762
100
AcDbEntity
  8
0
100
AcDbLine
 10
10.85425108
 20
4.96974379
 30
0.0
 11
10.76119726
 21
4.64524159
 31
0.0
  0
LINE
  5
F75
330
762
100
AcDbEntity
  8
0
100
AcDbLine
 10
10.85425108
 20
4.96974379
 30
0.0
 11
10.76119726
 21
4.64524159
 31
0.0
1001
HATCH_DISTANCE
1040
1.0
1001
HATCH_DISPLAY
1070
     0
1001
HATCH_TYPE
1070
     7
  0
LINE
  5
F76
330
762
100
AcDbEntity
  8
0
100
AcDbLine
 10
10.76119726
 20
4.64524159
 30
0.0
 11
10.85425108
 21
4.96974379
 31
0.0
  0
LINE
  5
F77
330
762
100
AcDbEntity
  8
0
100
AcDbLine
 10
9.5564078
 20
4.63337072
 30
0.0
 11
9.86065987
 21
4.93762278
 31
0.0
  0
LINE
  5
F78
330
762
100
AcDbEntity
  8
0
100
AcDbLine
 10
10.76119726
 20
4.64524159
 30
0.0
 11
10.86861844
 21
4.64524159
 31
0.0
  0
LINE
  5
F79
330
762
100
AcDbEntity
  8
0
100
AcDbLine
 10
10.76119726
 20
4.64524159
 30
0.0
 11
10.86861844
 21
4.64524159
 31
0.0
1001
HATCH_DISTANCE
1040
1.0
1001
HATCH_DISPLAY
1070
     0
1001
HATCH_TYPE
1070
     7
  0
LINE
  5
F7A
330
762
100
AcDbEntity
  8
0
100
AcDbLine
 10
10.76119726
 20
4.64524159
 30
0.0
 11
10.86861844
 21
4.64524159
 31
0.0
  0
LINE
  5
F7B
330
762
100
AcDbEntity
  8
0
100
AcDbLine
 10
10.84550937
 20
4.93925924
 30
0.0
 11
10.87599391
 21
4.96974379
 31
0.0
  0
LINE
  5
F7C
330
762
100
AcDbEntity
  8
0
100
AcDbLine
 10
8.61455773
 20
4.67473369
 30
0.0
 11
8.90956783
 21
4.96974379
 31
0.0
  0
LINE
  5
F7D
330
762
100
AcDbEntity
  8
0
100
AcDbLine
 10
8.69062463
 20
4.96974379
 30
0.0
 11
8.60603533
 21
4.67473369
 31
0.0
  0
LINE
  5
F7E
330
762
100
AcDbEntity
  8
0
100
AcDbLine
 10
8.5371833
 20
4.96974379
 30
0.0
 11
8.45259398
 21
4.67473369
 31
0.0
  0
LINE
  5
F7F
330
762
100
AcDbEntity
  8
0
100
AcDbLine
 10
7.58294133
 20
4.62633033
 30
0.0
 11
7.92635396
 21
4.96974296
 31
0.0
  0
LINE
  5
F80
330
762
100
AcDbEntity
  8
0
100
AcDbLine
 10
7.95908237
 20
4.67473369
 30
0.0
 11
8.25409247
 21
4.96974379
 31
0.0
  0
LINE
  5
F81
330
762
100
AcDbEntity
  8
0
100
AcDbLine
 10
8.28682005
 20
4.67473369
 30
0.0
 11
8.51923523
 21
4.90714886
 31
0.0
  0
LINE
  5
F82
330
762
100
AcDbEntity
  8
0
100
AcDbLine
 10
8.60603533
 20
4.67473369
 30
0.0
 11
8.75948779
 21
4.67473369
 31
0.0
  0
LINE
  5
F83
330
762
100
AcDbEntity
  8
0
100
AcDbLine
 10
7.9279509
 20
4.67473369
 30
0.0
 11
8.45259398
 21
4.67473369
 31
0.0
  0
LINE
  5
F84
330
762
100
AcDbEntity
  8
0
100
AcDbLine
 10
7.9279509
 20
4.96974379
 30
0.0
 11
8.5371833
 21
4.96974379
 31
0.0
  0
LINE
  5
F85
330
762
100
AcDbEntity
  8
0
100
AcDbLine
 10
8.69062463
 20
4.96974379
 30
0.0
 11
9.64231353
 21
4.96974379
 31
0.0
  0
LINE
  5
F86
330
762
100
AcDbEntity
  8
0
100
AcDbLine
 10
10.86435255
 20
4.63036475
 30
0.0
 11
11.20373159
 21
4.96974379
 31
0.0
  0
LINE
  5
F87
330
762
100
AcDbEntity
  8
0
100
AcDbLine
 10
11.62149117
 20
4.96974379
 30
0.0
 11
10.85425108
 21
4.96974379
 31
0.0
  0
LINE
  5
F88
330
762
100
AcDbEntity
  8
0
100
AcDbLine
 10
11.62149117
 20
4.96974379
 30
0.0
 11
10.85425108
 21
4.96974379
 31
0.0
1001
HATCH_DISTANCE
1040
1.0
1001
HATCH_DISPLAY
1070
     0
1001
HATCH_TYPE
1070
     7
  0
LINE
  5
F89
330
762
100
AcDbEntity
  8
0
100
AcDbLine
 10
10.85425108
 20
4.96974379
 30
0.0
 11
11.62149117
 21
4.96974379
 31
0.0
  0
ARC
  5
F8A
330
762
100
AcDbEntity
  8
0
100
AcDbCircle
 10
13.91661808
 20
3.4209519
 30
0.0
 40
1.253781787499995
100
AcDbArc
 50
270.0
 51
104.1274365
  0
ARC
  5
F8B
330
762
100
AcDbEntity
  8
0
100
AcDbCircle
 10
13.91661808
 20
3.4209519
 30
0.0
 40
1.548791887499996
100
AcDbArc
 50
270.0
 51
104.77079397
  0
LINE
  5
F8C
330
762
100
AcDbEntity
  8
0
100
AcDbLine
 10
14.62338389
 20
4.45654392
 30
0.0
 11
14.83495447
 21
4.6681145
 31
0.0
  0
LINE
  5
F8D
330
762
100
AcDbEntity
  8
0
100
AcDbLine
 10
13.02417968
 20
4.49602812
 30
0.0
 11
13.38617453
 21
4.85802297
 31
0.0
  0
LINE
  5
F8E
330
762
100
AcDbEntity
  8
0
100
AcDbLine
 10
14.41187444
 20
4.57277216
 30
0.0
 11
14.63313712
 21
4.79403484
 31
0.0
  0
LINE
  5
F8F
330
762
100
AcDbEntity
  8
0
100
AcDbLine
 10
13.43403015
 20
4.57814091
 30
0.0
 11
13.4647453
 21
4.60885605
 31
0.0
  0
ARC
  5
F90
330
762
100
AcDbEntity
  8
0
100
AcDbCircle
 10
13.91661808
 20
3.4209519
 30
0.0
 40
1.253785267968747
100
AcDbArc
 50
110.8721834
 51
132.54194894
  0
ARC
  5
F91
330
762
100
AcDbEntity
  8
0
100
AcDbCircle
 10
12.7592759
 20
4.33547429
 30
0.0
 40
0.3097604570800781
100
AcDbArc
 50
1.71012138
 51
163.99839835
  0
LINE
  5
F92
330
762
100
AcDbEntity
  8
0
100
AcDbLine
 10
12.65945049
 20
2.86356457
 30
0.0
 11
12.84888822
 21
3.52420766
 31
0.0
  0
LINE
  5
F93
330
762
100
AcDbEntity
  8
0
100
AcDbLine
 10
14.80263124
 20
4.3080536
 30
0.0
 11
15.01123492
 21
4.51665727
 31
0.0
  0
LINE
  5
F94
330
762
100
AcDbEntity
  8
0
100
AcDbLine
 10
15.06778288
 20
3.91772987
 30
0.0
 11
15.28895388
 21
4.13890087
 31
0.0
  0
LINE
  5
F95
330
762
100
AcDbEntity
  8
0
100
AcDbLine
 10
15.07534602
 20
2.94207997
 30
0.0
 11
15.46270393
 21
3.3294379
 31
0.0
  0
LINE
  5
F96
330
762
100
AcDbEntity
  8
0
100
AcDbLine
 10
14.9513263
 20
4.12901097
 30
0.0
 11
15.16285688
 21
4.34054156
 31
0.0
  0
LINE
  5
F97
330
762
100
AcDbEntity
  8
0
100
AcDbLine
 10
13.34995035
 20
1.87215967
 30
0.0
 11
13.64496044
 21
2.16716977
 31
0.0
  0
LINE
  5
F98
330
762
100
AcDbEntity
  8
0
100
AcDbLine
 10
13.67768803
 20
1.87215967
 30
0.0
 11
13.97401285
 21
2.16848449
 31
0.0
  0
LINE
  5
F99
330
762
100
AcDbEntity
  8
0
100
AcDbLine
 10
14.00813208
 20
1.87486603
 30
0.0
 11
14.39549
 21
2.26222396
 31
0.0
  0
LINE
  5
F9A
330
762
100
AcDbEntity
  8
0
100
AcDbLine
 10
12.96254835
 20
2.4679707
 30
0.0
 11
13.23911586
 21
2.74453822
 31
0.0
  0
LINE
  5
F9B
330
762
100
AcDbEntity
  8
0
100
AcDbLine
 10
12.94279963
 20
2.48771815
 30
0.0
 11
13.11585409
 21
2.31467481
 31
0.0
  0
LINE
  5
F9C
330
762
100
AcDbEntity
  8
0
100
AcDbLine
 10
12.36673731
 20
1.87215967
 30
0.0
 11
12.66174741
 21
2.16716977
 31
0.0
  0
LINE
  5
F9D
330
762
100
AcDbEntity
  8
0
100
AcDbLine
 10
12.694475
 20
1.87215967
 30
0.0
 11
12.98948508
 21
2.16716977
 31
0.0
  0
LINE
  5
F9E
330
762
100
AcDbEntity
  8
0
100
AcDbLine
 10
13.02221267
 20
1.87215967
 30
0.0
 11
13.31722277
 21
2.16716977
 31
0.0
  0
LINE
  5
F9F
330
762
100
AcDbEntity
  8
0
100
AcDbLine
 10
14.41581995
 20
1.95481623
 30
0.0
 11
15.38275373
 21
2.92175001
 31
0.0
  0
LINE
  5
FA0
330
762
100
AcDbEntity
  8
0
100
AcDbLine
 10
12.62517247
 20
2.78607018
 30
0.0
 11
13.50263384
 21
3.66353156
 31
0.0
  0
LINE
  5
FA1
330
762
100
AcDbEntity
  8
0
100
AcDbLine
 10
12.48598848
 20
2.31914852
 30
0.0
 11
13.37087485
 21
3.20403489
 31
0.0
  0
LINE
  5
FA2
330
762
100
AcDbEntity
  8
0
100
AcDbLine
 10
13.11585409
 20
2.31467481
 30
0.0
 11
13.54727629
 21
3.81921776
 31
0.0
  0
LINE
  5
FA3
330
762
100
AcDbEntity
  8
0
100
AcDbLine
 10
11.93999277
 20
2.42862817
 30
0.0
 11
12.19758838
 21
2.68622378
 31
0.0
  0
LINE
  5
FA4
330
762
100
AcDbEntity
  8
0
100
AcDbLine
 10
15.14581463
 20
3.66802395
 30
0.0
 11
15.38657563
 21
3.90878495
 31
0.0
  0
LINE
  5
FA5
330
762
100
AcDbEntity
  8
0
100
AcDbLine
 10
15.16908548
 20
3.36355712
 30
0.0
 11
15.44929823
 21
3.64376986
 31
0.0
  0
LINE
  5
FA6
330
762
100
AcDbEntity
  8
0
100
AcDbLine
 10
12.70783459
 20
3.52420766
 30
0.0
 11
13.00284468
 21
3.81921776
 31
0.0
  0
LINE
  5
FA7
330
762
100
AcDbEntity
  8
0
100
AcDbLine
 10
12.77383602
 20
3.26247141
 30
0.0
 11
13.33058237
 21
3.81921776
 31
0.0
  0
LINE
  5
FA8
330
762
100
AcDbEntity
  8
0
100
AcDbLine
 10
12.68796248
 20
3.81921776
 30
0.0
 11
13.54727629
 21
3.81921776
 31
0.0
  0
LINE
  5
FA9
330
762
100
AcDbEntity
  8
0
100
AcDbLine
 10
12.60337317
 20
3.52420766
 30
0.0
 11
12.68796248
 21
3.81921776
 31
0.0
  0
LINE
  5
FAA
330
762
100
AcDbEntity
  8
0
100
AcDbLine
 10
12.60337317
 20
3.52420766
 30
0.0
 11
12.84888822
 21
3.52420766
 31
0.0
  0
LINE
  5
FAB
330
762
100
AcDbEntity
  8
0
100
AcDbLine
 10
12.1782172
 20
2.33911492
 30
0.0
 11
12.52456389
 21
2.6854616
 31
0.0
  0
LINE
  5
FAC
330
762
100
AcDbEntity
  8
0
100
AcDbLine
 10
12.06392836
 20
3.03432473
 30
0.0
 11
12.46151484
 21
4.42086551
 31
0.0
  0
ARC
  5
FAD
330
762
100
AcDbEntity
  8
0
100
AcDbCircle
 10
12.36168942
 20
2.94894465
 30
0.0
 40
0.3097602395507813
100
AcDbArc
 50
164.00027306
 51
344.00027306
  0
LINE
  5
FAE
330
762
100
AcDbEntity
  8
0
100
AcDbLine
 10
12.03899964
 20
1.87215967
 30
0.0
 11
12.33400972
 21
2.16716977
 31
0.0
  0
LINE
  5
FAF
330
762
100
AcDbEntity
  8
0
100
AcDbLine
 10
13.52174915
 20
4.91856698
 30
0.0
 11
13.52174915
 21
4.91856698
 31
0.0
  0
LINE
  5
FB0
330
762
100
AcDbEntity
  8
0
100
AcDbLine
 10
13.52174915
 20
4.91856698
 30
0.0
 11
13.52174915
 21
4.91856698
 31
0.0
1001
HATCH_DISTANCE
1040
1.0
1001
HATCH_DISPLAY
1070
     0
1001
HATCH_TYPE
1070
     7
  0
LINE
  5
FB1
330
762
100
AcDbEntity
  8
0
100
AcDbLine
 10
13.52174915
 20
4.91856698
 30
0.0
 11
13.52174915
 21
4.91856698
 31
0.0
  0
LINE
  5
FB2
330
762
100
AcDbEntity
  8
0
100
AcDbLine
 10
13.52174915
 20
4.91856698
 30
0.0
 11
13.52174915
 21
4.91856698
 31
0.0
1001
HATCH_DISTANCE
1040
1.0
1001
HATCH_DISPLAY
1070
     0
1001
HATCH_TYPE
1070
     7
  0
ARC
  5
FB3
330
762
100
AcDbEntity
  8
0
100
AcDbCircle
 10
13.91661808
 20
3.4209519
 30
0.0
 40
1.548792583593745
100
AcDbArc
 50
110.22964506
 51
118.57168892
  0
LINE
  5
FB4
330
762
100
AcDbEntity
  8
0
100
AcDbLine
 10
13.58233231
 20
4.72644307
 30
0.0
 11
13.82278818
 21
4.96689894
 31
0.0
  0
LINE
  5
FB5
330
762
100
AcDbEntity
  8
0
100
AcDbLine
 10
12.83599714
 20
4.63558326
 30
0.0
 11
13.0568987
 21
4.85648482
 31
0.0
  0
LINE
  5
FB6
330
762
100
AcDbEntity
  8
0
100
AcDbLine
 10
13.46991522
 20
4.59246097
 30
0.0
 11
13.38107138
 21
4.87420631
 31
0.0
  0
LINE
  5
FB7
330
762
100
AcDbEntity
  8
0
100
AcDbLine
 10
13.52174915
 20
4.91856698
 30
0.0
 11
13.61059299
 21
4.63682164
 31
0.0
  0
LINE
  5
FB8
330
762
100
AcDbEntity
  8
0
100
AcDbLine
 10
13.61059299
 20
4.63682164
 30
0.0
 11
13.52174915
 21
4.91856698
 31
0.0
  0
LINE
  5
FB9
330
762
100
AcDbEntity
  8
0
100
AcDbLine
 10
13.52174915
 20
4.91856698
 30
0.0
 11
13.61059299
 21
4.63682164
 31
0.0
1001
HATCH_DISTANCE
1040
1.0
1001
HATCH_DISPLAY
1070
     0
1001
HATCH_TYPE
1070
     7
  0
LINE
  5
FBA
330
762
100
AcDbEntity
  8
0
100
AcDbLine
 10
13.61059299
 20
4.63682164
 30
0.0
 11
13.52174915
 21
4.91856698
 31
0.0
1001
HATCH_DISTANCE
1040
1.0
1001
HATCH_DISPLAY
1070
     0
1001
HATCH_TYPE
1070
     7
  0
LINE
  5
FBB
330
762
100
AcDbEntity
  8
0
100
AcDbLine
 10
13.52174915
 20
4.91856698
 30
0.0
 11
13.61059299
 21
4.63682164
 31
0.0
  0
LINE
  5
FBC
330
762
100
AcDbEntity
  8
0
100
AcDbLine
 10
13.61059299
 20
4.63682164
 30
0.0
 11
13.52174915
 21
4.91856698
 31
0.0
  0
LINE
  5
FBD
330
762
100
AcDbEntity
  8
0
100
AcDbLine
 10
13.52174915
 20
4.91856698
 30
0.0
 11
13.61059299
 21
4.63682164
 31
0.0
1001
HATCH_DISTANCE
1040
1.0
1001
HATCH_DISPLAY
1070
     0
1001
HATCH_TYPE
1070
     7
  0
LINE
  5
FBE
330
762
100
AcDbEntity
  8
0
100
AcDbLine
 10
13.61059299
 20
4.63682164
 30
0.0
 11
13.52174915
 21
4.91856698
 31
0.0
1001
HATCH_DISTANCE
1040
1.0
1001
HATCH_DISPLAY
1070
     0
1001
HATCH_TYPE
1070
     7
  0
LINE
  5
FBF
330
762
100
AcDbEntity
  8
0
100
AcDbLine
 10
13.61059299
 20
4.63682164
 30
0.0
 11
13.52174915
 21
4.91856698
 31
0.0
  0
LINE
  5
FC0
330
762
100
AcDbEntity
  8
0
100
AcDbLine
 10
13.85693949
 20
4.67331256
 30
0.0
 11
14.13753425
 21
4.95390733
 31
0.0
  0
LINE
  5
FC1
330
762
100
AcDbEntity
  8
0
100
AcDbLine
 10
14.16187626
 20
4.65051165
 30
0.0
 11
14.40281577
 21
4.89145117
 31
0.0
  0
LINE
  5
FC2
330
762
100
AcDbEntity
  8
0
100
AcDbLine
 10
13.61059299
 20
4.63682164
 30
0.0
 11
13.61059299
 21
4.63682164
 31
0.0
  0
LINE
  5
FC3
330
762
100
AcDbEntity
  8
0
100
AcDbLine
 10
13.61059299
 20
4.63682164
 30
0.0
 11
13.61059299
 21
4.63682164
 31
0.0
1001
HATCH_DISTANCE
1040
1.0
1001
HATCH_DISPLAY
1070
     0
1001
HATCH_TYPE
1070
     7
  0
LINE
  5
FC4
330
762
100
AcDbEntity
  8
0
100
AcDbLine
 10
13.61059299
 20
4.63682164
 30
0.0
 11
13.61059299
 21
4.63682164
 31
0.0
  0
LINE
  5
FC5
330
762
100
AcDbEntity
  8
0
100
AcDbLine
 10
13.61059299
 20
4.63682164
 30
0.0
 11
13.61059299
 21
4.63682164
 31
0.0
1001
HATCH_DISTANCE
1040
1.0
1001
HATCH_DISPLAY
1070
     0
1001
HATCH_TYPE
1070
     7
  0
LINE
  5
FC6
330
762
100
AcDbEntity
  8
240
100
AcDbLine
 10
70.0
 20
-7.0
 30
0.0
 11
70.0
 21
0.0
 31
0.0
  0
LINE
  5
FC7
330
762
100
AcDbEntity
  8
241
100
AcDbLine
 10
54.2
 20
-8.0
 30
0.0
 11
54.2
 21
0.0
 31
0.0
  0
LINE
  5
FC8
330
762
100
AcDbEntity
  8
241
100
AcDbLine
 10
53.0
 20
-8.15
 30
0.0
 11
53.0
 21
0.0
 31
0.0
  0
LINE
  5
FC9
330
762
100
AcDbEntity
  8
241
100
AcDbLine
 10
51.0
 20
-6.2
 30
0.0
 11
51.0
 21
0.0
 31
0.0
  0
LINE
  5
FCA
330
762
100
AcDbEntity
  8
241
100
AcDbLine
 10
50.0
 20
-6.2
 30
0.0
 11
50.0
 21
0.0
 31
0.0
  0
LINE
  5
FCB
330
762
100
AcDbEntity
  8
240
100
AcDbLine
 10
53.15
 20
-8.0
 30
0.0
 11
69.0
 21
-8.0
 31
0.0
  0
LINE
  5
FCC
330
762
100
AcDbEntity
  8
240
100
AcDbLine
 10
51.0
 20
-6.2
 30
0.0
 11
51.0
 21
-8.15
 31
0.0
  0
LINE
  5
FCD
330
762
100
AcDbEntity
  8
240
100
AcDbLine
 10
50.0
 20
-6.2
 30
0.0
 11
50.0
 21
-8.0
 31
0.0
  0
LINE
  5
FCE
330
762
100
AcDbEntity
  8
240
100
AcDbLine
 10
53.15
 20
-8.0
 30
0.0
 11
53.0
 21
-8.15
 31
0.0
  0
LINE
  5
FCF
330
762
100
AcDbEntity
  8
240
100
AcDbLine
 10
51.0
 20
-8.15
 30
0.0
 11
53.0
 21
-8.15
 31
0.0
  0
LINE
  5
FD0
330
762
100
AcDbEntity
  8
240
100
AcDbLine
 10
51.0
 20
-6.2
 30
0.0
 11
50.0
 21
-6.2
 31
0.0
  0
ARC
  5
FD1
330
762
100
AcDbEntity
  8
240
100
AcDbCircle
 10
69.0
 20
-7.0
 30
0.0
 40
1.0
100
AcDbArc
 50
270.0
 51
0.0
1001
GENIUS_GENODEF_13
1002
{
1000
HIER
1070
     0
1002
}
1002
{
1000
MANEDIT
1070
     0
1002
}
1002
{
1000
NOSEL
1070
     0
1002
}
1002
{
1000
BEHIND
1070
     0
1002
}
1002
{
1000
OTHER
1070
     0
1002
}
1002
{
1000
REACTOR
1002
}
1001
GENIUS_GENOBJ-N-FIL_13
1002
{
1000
OWNER
1000
GEN
1002
}
  0
LINE
  5
FD2
330
762
100
AcDbEntity
  8
240
100
AcDbLine
 10
53.15
 20
8.0
 30
0.0
 11
69.0
 21
8.0
 31
0.0
  0
LINE
  5
FD3
330
762
100
AcDbEntity
  8
241
  6
HIDDEN2
100
AcDbLine
 10
57.0
 20
2.75
 30
0.0
 11
70.0
 21
2.75
 31
0.0
  0
LINE
  5
FD4
330
762
100
AcDbEntity
  8
242
  6
HIDDEN2
100
AcDbLine
 10
48.0
 20
3.25269119
 30
0.0
 11
52.0
 21
0.0
 31
0.0
  0
LINE
  5
FD5
330
762
100
AcDbEntity
  8
242
  6
HIDDEN2
100
AcDbLine
 10
48.0
 20
0.0
 30
0.0
 11
52.0
 21
3.25269119
 31
0.0
  0
LINE
  5
FD6
330
762
100
AcDbEntity
  8
241
  6
HIDDEN2
100
AcDbLine
 10
48.0
 20
3.25269119
 30
0.0
 11
52.0
 21
3.25269119
 31
0.0
  0
LINE
  5
FD7
330
762
100
AcDbEntity
  8
241
  6
HIDDEN2
100
AcDbLine
 10
48.0
 20
3.25269119
 30
0.0
 11
48.0
 21
0.0
 31
0.0
  0
LINE
  5
FD8
330
762
100
AcDbEntity
  8
241
100
AcDbLine
 10
50.0
 20
6.2
 30
0.0
 11
50.0
 21
0.0
 31
0.0
  0
LINE
  5
FD9
330
762
100
AcDbEntity
  8
241
100
AcDbLine
 10
51.0
 20
6.2
 30
0.0
 11
51.0
 21
0.0
 31
0.0
  0
LINE
  5
FDA
330
762
100
AcDbEntity
  8
241
100
AcDbLine
 10
53.0
 20
8.15
 30
0.0
 11
53.0
 21
0.0
 31
0.0
  0
LINE
  5
FDB
330
762
100
AcDbEntity
  8
241
100
AcDbLine
 10
54.2
 20
8.0
 30
0.0
 11
54.2
 21
0.0
 31
0.0
  0
LINE
  5
FDC
330
762
100
AcDbEntity
  8
241
  6
HIDDEN2
100
AcDbLine
 10
52.0
 20
3.05
 30
0.0
 11
57.0
 21
3.05
 31
0.0
1001
GRPNAME
1000
0000002S
  0
LINE
  5
FDD
330
762
100
AcDbEntity
  8
241
  6
HIDDEN2
100
AcDbLine
 10
52.0
 20
3.25269119
 30
0.0
 11
52.0
 21
0.0
 31
0.0
  0
LINE
  5
FDE
330
762
100
AcDbEntity
  8
241
  6
HIDDEN2
100
AcDbLine
 10
57.0
 20
3.05
 30
0.0
 11
57.0
 21
0.0
 31
0.0
  0
LINE
  5
FDF
330
762
100
AcDbEntity
  8
240
100
AcDbLine
 10
53.15
 20
8.0
 30
0.0
 11
53.0
 21
8.15
 31
0.0
  0
LINE
  5
FE0
330
762
100
AcDbEntity
  8
240
100
AcDbLine
 10
51.0
 20
6.2
 30
0.0
 11
51.0
 21
8.15
 31
0.0
  0
LINE
  5
FE1
330
762
100
AcDbEntity
  8
240
100
AcDbLine
 10
51.0
 20
8.15
 30
0.0
 11
53.0
 21
8.15
 31
0.0
  0
LINE
  5
FE2
330
762
100
AcDbEntity
  8
240
100
AcDbLine
 10
51.5
 20
8.15
 30
0.0
 11
53.0
 21
8.15
 31
0.0
  0
LINE
  5
FE3
330
762
100
AcDbEntity
  8
240
100
AcDbLine
 10
50.0
 20
6.2
 30
0.0
 11
50.0
 21
8.0
 31
0.0
  0
LINE
  5
FE4
330
762
100
AcDbEntity
  8
240
100
AcDbLine
 10
51.0
 20
6.2
 30
0.0
 11
50.0
 21
6.2
 31
0.0
  0
LINE
  5
FE5
330
762
100
AcDbEntity
  8
240
100
AcDbLine
 10
70.0
 20
7.0
 30
0.0
 11
70.0
 21
0.0
 31
0.0
  0
ARC
  5
FE6
330
762
100
AcDbEntity
  8
240
100
AcDbCircle
 10
69.0
 20
7.0
 30
0.0
 40
1.0
100
AcDbArc
 50
359.9999824
 51
90.0
1001
GENIUS_GENODEF_13
1002
{
1000
HIER
1070
     0
1002
}
1002
{
1000
MANEDIT
1070
     0
1002
}
1002
{
1000
NOSEL
1070
     0
1002
}
1002
{
1000
BEHIND
1070
     0
1002
}
1002
{
1000
OTHER
1070
     0
1002
}
1002
{
1000
REACTOR
1002
}
1001
GENIUS_GENOBJ-N-FIL_13
1002
{
1000
OWNER
1000
GEN
1002
}
  0
ENDBLK
  5
8A0
330
762
100
AcDbEntity
  8
0
100
AcDbBlockEnd
  0
BLOCK
  5
E83
330
E79
100
AcDbEntity
  8
0
100
AcDbBlockBegin
  2
*D8
 70
     1
 10
0.0
 20
0.0
 30
0.0
  3
*D8
  1

  0
LINE
  5
EBF
330
E79
100
AcDbEntity
  8
250
  6
CONTINUOUS
100
AcDbLine
 10
0.0
 20
11.14125603
 30
0.0
 11
0.0
 21
22.0
 31
0.0
  0
LINE
  5
EC0
330
E79
100
AcDbEntity
  8
250
  6
CONTINUOUS
100
AcDbLine
 10
70.0
 20
7.5
 30
0.0
 11
70.0
 21
22.0
 31
0.0
  0
LINE
  5
EC1
330
E79
100
AcDbEntity
  8
250
  6
CONTINUOUS
100
AcDbLine
 10
2.23
 20
21.0
 30
0.0
 11
67.77
 21
21.0
 31
0.0
  0
INSERT
  5
EC2
330
E79
100
AcDbEntity
  8
250
  6
CONTINUOUS
100
AcDbBlockReference
  2
_OPEN
 10
0.0
 20
21.0
 30
0.0
 41
2.23
 42
2.23
 43
2.23
 50
180.0
  0
INSERT
  5
EC3
330
E79
100
AcDbEntity
  8
250
  6
CONTINUOUS
100
AcDbBlockReference
  2
_OPEN
 10
70.0
 20
21.0
 30
0.0
 41
2.23
 42
2.23
 43
2.23
  0
MTEXT
  5
EC4
330
E79
100
AcDbEntity
  8
250
  6
CONTINUOUS
 62
    40
100
AcDbMText
 10
35.71052677
 20
23.4
 30
0.0
 40
2.8
 41
0.0
 71
     5
 72
     1
  1
\A1;70
1001
ACAD
1000
MTEXTBEGIN
1070
    73
1070
     1
1070
    44
1040
1.0
1070
    74
1070
     0
1000
MTEXTEND
  0
POINT
  5
EC5
330
E79
100
AcDbEntity
  8
DEFPOINTS
  6
CONTINUOUS
 62
     0
100
AcDbPoint
 10
0.0
 20
10.64125603
 30
0.0
  0
POINT
  5
EC6
330
E79
100
AcDbEntity
  8
DEFPOINTS
  6
CONTINUOUS
 62
     0
100
AcDbPoint
 10
70.0
 20
7.0
 30
0.0
  0
POINT
  5
EC7
330
E79
100
AcDbEntity
  8
DEFPOINTS
  6
CONTINUOUS
 62
     0
100
AcDbPoint
 10
70.0
 20
21.0
 30
0.0
  0
ENDBLK
  5
E84
330
E79
100
AcDbEntity
  8
0
100
AcDbBlockEnd
  0
BLOCK
  5
E8F
330
E85
100
AcDbEntity
  8
0
100
AcDbBlockBegin
  2
*D9
 70
     1
 10
0.0
 20
0.0
 30
0.0
  3
*D9
  1

  0
LINE
  5
EB6
330
E85
100
AcDbEntity
  8
250
  6
CONTINUOUS
100
AcDbLine
 10
69.5
 20
-8.0
 30
0.0
 11
88.0
 21
-8.0
 31
0.0
  0
LINE
  5
EB7
330
E85
100
AcDbEntity
  8
250
  6
CONTINUOUS
100
AcDbLine
 10
69.5
 20
8.0
 30
0.0
 11
88.0
 21
8.0
 31
0.0
  0
LINE
  5
EB8
330
E85
100
AcDbEntity
  8
250
  6
CONTINUOUS
100
AcDbLine
 10
87.0
 20
-5.77
 30
0.0
 11
87.0
 21
5.77
 31
0.0
  0
INSERT
  5
EB9
330
E85
100
AcDbEntity
  8
250
  6
CONTINUOUS
100
AcDbBlockReference
  2
_OPEN
 10
87.0
 20
-8.0
 30
0.0
 41
2.23
 42
2.23
 43
2.23
 50
270.0
  0
INSERT
  5
EBA
330
E85
100
AcDbEntity
  8
250
  6
CONTINUOUS
100
AcDbBlockReference
  2
_OPEN
 10
87.0
 20
8.0
 30
0.0
 41
2.23
 42
2.23
 43
2.23
 50
90.0
  0
MTEXT
  5
EBB
330
E85
100
AcDbEntity
  8
250
  6
CONTINUOUS
 62
    40
100
AcDbMText
 10
84.6
 20
0.0
 30
0.0
 40
2.8
 41
0.0
 71
     5
 72
     1
  1
\A1;{\H2.8;\U+2205}16
 11
0.0
 21
1.0
 31
0.0
1001
ACAD
1000
MTEXTBEGIN
1070
    73
1070
     1
1070
    44
1040
1.0
1070
    74
1070
     0
1000
MTEXTEND
  0
POINT
  5
EBC
330
E85
100
AcDbEntity
  8
DEFPOINTS
  6
CONTINUOUS
 62
     0
100
AcDbPoint
 10
69.0
 20
-8.0
 30
0.0
  0
POINT
  5
EBD
330
E85
100
AcDbEntity
  8
DEFPOINTS
  6
CONTINUOUS
 62
     0
100
AcDbPoint
 10
69.0
 20
8.0
 30
0.0
  0
POINT
  5
EBE
330
E85
100
AcDbEntity
  8
DEFPOINTS
  6
CONTINUOUS
 62
     0
100
AcDbPoint
 10
87.0
 20
8.0
 30
0.0
  0
ENDBLK
  5
E90
330
E85
100
AcDbEntity
  8
0
100
AcDbBlockEnd
  0
ENDSEC
  0
SECTION
  2
ENTITIES
  0
INSERT
  5
6E6
330
1A
100
AcDbEntity
  8
245
100
AcDbBlockReference
  2
矢印なし
 10
175.62382697
 20
90.55123572
 30
0.0
  0
TEXT
  5
8D3
330
1A
100
AcDbEntity
  8
241
100
AcDbText
 10
-47.5
 20
35.0
 30
0.0
 40
5.0
  1
MGT6-M5-70
  7
YOKO
 11
-47.5
 21
35.0
 31
0.0
100
AcDbText
 73
     1
  0
DIMENSION
  5
D55
330
1A
100
AcDbEntity
  8
250
  6
CONTINUOUS
100
AcDbDimension
  2
*D8
 10
70.0
 20
21.0
 30
0.0
 11
35.71052677
 21
21.0
 31
0.0
 70
   160
  3
BIGT
100
AcDbAlignedDimension
 13
0.0
 23
10.64125603
 33
0.0
 14
70.0
 24
7.0
 34
0.0
100
AcDbRotatedDimension
  0
DIMENSION
  5
E50
330
1A
100
AcDbEntity
  8
250
  6
CONTINUOUS
100
AcDbDimension
  2
*D9
 10
87.0
 20
8.0
 30
0.0
 11
84.6
 21
0.0
 31
0.0
 70
    32
  1
{\H2.8;\U+2205}<>
  3
BIGT
100
AcDbAlignedDimension
 13
69.0
 23
-8.0
 33
0.0
 14
69.0
 24
8.0
 34
0.0
 50
90.0
100
AcDbRotatedDimension
  0
MTEXT
  5
E56
330
1A
100
AcDbEntity
  8
250
  6
CONTINUOUS
 62
    40
100
AcDbMText
 10
77.6
 20
-2.54217991
 30
0.0
 40
2.8
 41
0.0
 71
     5
 72
     1
  1
\A1;{\H2.8;\U+2205}5.5
 11
0.0
 21
1.0
 31
0.0
1001
ACAD
1000
MTEXTBEGIN
1070
    73
1070
     1
1070
    44
1040
1.0
1070
    74
1070
     0
1000
MTEXTEND
1000
MTEXTBEGIN
1070
    73
1070
     1
1070
    44
1040
1.0
1070
    74
1070
     0
1000
MTEXTEND
1000
MTEXTBEGIN
1070
    73
1070
     1
1070
    44
1040
1.0
1070
    74
1070
     0
1000
MTEXTEND
1000
MTEXTBEGIN
1070
    73
1070
     1
1070
    44
1040
1.0
1070
    74
1070
     0
1000
MTEXTEND
1000
MTEXTBEGIN
1070
    73
1070
     1
1070
    44
1040
1.0
1070
    74
1070
     0
1000
MTEXTEND
1000
MTEXTBEGIN
1070
    73
1070
     1
1070
    44
1040
1.0
1070
    74
1070
     0
1000
MTEXTEND
  0
LINE
  5
E57
330
1A
100
AcDbEntity
  8
250
  6
CONTINUOUS
100
AcDbLine
 10
80.0
 20
2.75
 30
0.0
 11
80.0
 21
-6.33758521
 31
0.0
  0
MTEXT
  5
E61
330
1A
100
AcDbEntity
  8
251
  6
CONTINUOUS
100
AcDbMText
 10
56.8
 20
14.97872065
 30
0.0
 40
2.8
 41
0.0
 71
     7
 72
     1
  1
□4.5
  7
YOKO
1001
ITEMNAME
1000
LNSP3
1001
ACAD
1000
MTEXTBEGIN
1070
    73
1070
     1
1070
    44
1040
1.0
1070
    74
1070
     0
1000
MTEXTEND
1000
MTEXTBEGIN
1070
    73
1070
     1
1070
    44
1040
1.0
1070
    74
1070
     0
1000
MTEXTEND
1000
MTEXTBEGIN
1070
    73
1070
     1
1070
    44
1040
1.0
1070
    74
1070
     0
1000
MTEXTEND
1000
MTEXTBEGIN
1070
    73
1070
     1
1070
    44
1040
1.0
1070
    74
1070
     0
1000
MTEXTEND
  0
LINE
  5
E62
330
1A
100
AcDbEntity
  8
250
  6
CONTINUOUS
100
AcDbLine
 10
54.0
 20
13.97872065
 30
0.0
 11
68.85333333
 21
13.97872065
 31
0.0
1001
ITEMNAME
1000
LNSP2
  0
LEADER
  5
E63
330
1A
100
AcDbEntity
  8
250
  6
CONTINUOUS
100
AcDbLeader
  3
BIGT
 76
     2
 10
51.52207662
 20
3.25269119
 30
0.0
 10
54.0
 20
13.97872065
 30
0.0
1001
ACAD
1000
DSTYLE
1002
{
1070
     6
1000
OPEN
1070
    41
1040
2.0
1070
    42
1040
2.0
1070
    44
1040
2.0
1070
   140
1040
4.0
1070
   343
1005
594
1002
}
  0
LINE
  5
E75
330
1A
100
AcDbEntity
  8
250
  6
CONTINUOUS
100
AcDbLine
 10
70.5
 20
2.75
 30
0.0
 11
81.0
 21
2.75
 31
0.0
  0
INSERT
  5
E78
330
1A
100
AcDbEntity
  8
250
  6
CONTINUOUS
100
AcDbBlockReference
  2
_OPEN
 10
80.0
 20
2.75
 30
0.0
 41
2.23
 42
2.23
 43
2.23
 50
90.0
  0
INSERT
  5
FE7
330
1A
100
AcDbEntity
  8
245
100
AcDbBlockReference
  2
1
 10
0.0
 20
0.0
 30
0.0
  0
VIEWPORT
  5
22
330
17
100
AcDbEntity
 67
     1
  8
0
100
AcDbViewport
 10
261.51769912
 20
148.5
 30
0.0
 40
523.03539823
 41
297.0
 68
     1
 69
     1
1001
ACAD
1000
MVIEW
1002
{
1070
    16
1010
0.0
1020
0.0
1030
0.0
1010
0.0
1020
0.0
1030
1.0
1040
0.0
1040
297.0
1040
261.51769912
1040
148.5
1040
50.0
1040
0.0
1040
0.0
1070
     0
1070
   100
1070
     1
1070
     1
1070
     0
1070
     0
1070
     0
1070
     0
1040
0.0
1040
0.0
1040
0.0
1040
1.0
1040
1.0
1040
10.0
1040
10.0
1070
     0
1002
{
1002
}
1002
}
  0
ENDSEC
  0
SECTION
  2
OBJECTS
  0
DICTIONARY
  5
C
330
0
100
AcDbDictionary
  3
ACAD_GROUP
350
D
  3
ACAD_LAYOUT
350
565
  3
ACAD_MLINESTYLE
350
E
  3
ACAD_PLOTSETTINGS
350
566
  3
ACAD_PLOTSTYLENAME
350
563
  3
ACDBHEADERROUNDTRIPXREC
350
FE9
  3
GRADE_DWG
350
540
  0
DICTIONARY
  5
BFE
330
1A
100
AcDbDictionary
280
     1
  3
ACAD_LAYOUTSELFREF
360
100B
  0
DICTIONARY
  5
BFC
330
17
100
AcDbDictionary
280
     1
  3
ACAD_LAYOUTSELFREF
360
100A
  0
DICTIONARY
  5
D
102
{ACAD_REACTORS
330
C
102
}
330
C
100
AcDbDictionary
  3
*A1
350
6C7
  3
*A2
350
6C8
  3
*A3
350
6D4
  3
*A4
350
6D5
  3
DREC-1
350
5FC
  3
DREC-2
350
654
  3
DREC-3
350
673
  0
DICTIONARY
  5
565
102
{ACAD_REACTORS
330
C
102
}
330
C
100
AcDbDictionary
  0
DICTIONARY
  5
E
102
{ACAD_REACTORS
330
C
102
}
330
C
100
AcDbDictionary
  3
STANDARD
350
13
  0
DICTIONARY
  5
566
102
{ACAD_REACTORS
330
C
102
}
330
C
100
AcDbDictionary
  3
A3_0_5倍_
350
758
  3
A3_1倍_
350
757
  3
A3_1倍__2000_
350
707
  3
A3_2倍_
350
759
  3
A4_0_5倍_
350
755
  3
A4_1倍_
350
754
  3
A4_1倍__2000_
350
708
  3
A4_2倍_
350
756
  0
ACDBDICTIONARYWDFLT
  5
563
102
{ACAD_REACTORS
330
C
102
}
330
C
100
AcDbDictionary
281
     1
  3
Normal
350
564
100
AcDbDictionaryWithDefault
340
564
  0
DICTIONARY
  5
FE9
102
{ACAD_REACTORS
330
C
102
}
330
C
100
AcDbDictionary
  3
CEPSNTYPE
350
FF3
  3
DIMSTYLEDATA
350
FF7
  3
FINGERPRINTGUID
350
FF4
  3
HYPERLINKBASE
350
FEC
  3
INSUNITS
350
FF2
  3
LAYOUTDICT
350
FEE
  3
LWETCUNION
350
FF1
  3
PLOTSETDICT
350
FEF
  3
PLOTSTYLNAMDICT
350
FF0
  3
PSVPSCALE
350
FF6
  3
PUCSBASE
350
FFA
  3
PUCSORGBACK
350
1000
  3
PUCSORGBOTTOM
350
FFC
  3
PUCSORGFRONT
350
FFF
  3
PUCSORGLEFT
350
FFD
  3
PUCSORGRIGHT
350
FFE
  3
PUCSORGTOP
350
FFB
  3
PUCSORTHOREF
350
FF8
  3
PUCSORTHOVIEW
350
FF9
  3
STYLESHEET
350
FED
  3
TSTACKALIGN
350
FEA
  3
TSTACKSIZE
350
FEB
  3
UCSBASE
350
1003
  3
UCSORGBACK
350
1009
  3
UCSORGBOTTOM
350
1005
  3
UCSORGFRONT
350
1008
  3
UCSORGLEFT
350
1006
  3
UCSORGRIGHT
350
1007
  3
UCSORGTOP
350
1004
  3
UCSORTHOREF
350
1001
  3
UCSORTHOVIEW
350
1002
  3
VERSIONGUID
350
FF5
  0
DICTIONARY
  5
540
102
{ACAD_REACTORS
330
C
102
}
330
C
100
AcDbDictionary
  3
VERSION
350
560
  0
XRECORD
  5
100B
102
{ACAD_REACTORS
330
BFE
102
}
330
BFE
100
AcDbXrecord
340
1A
  0
XRECORD
  5
100A
102
{ACAD_REACTORS
330
BFC
102
}
330
BFC
100
AcDbXrecord
340
17
  0
GROUP
  5
6C7
102
{ACAD_REACTORS
330
D
102
}
330
D
100
AcDbGroup
300

 70
     0
 71
     1
1001
GRPNAME
1000
DMA00
  0
GROUP
  5
6C8
102
{ACAD_REACTORS
330
D
102
}
330
D
100
AcDbGroup
300

 70
     0
 71
     1
1001
GRPNAME
1000
DMA00
  0
GROUP
  5
6D4
102
{ACAD_REACTORS
330
D
102
}
330
D
100
AcDbGroup
300

 70
     0
 71
     1
1001
GRPNAME
1000
DMA00
  0
GROUP
  5
6D5
102
{ACAD_REACTORS
330
D
102
}
330
D
100
AcDbGroup
300

 70
     0
 71
     1
1001
GRPNAME
1000
DMA00
  0
GROUP
  5
5FC
102
{ACAD_REACTORS
330
D
102
}
330
D
100
AcDbGroup
300

 70
     0
 71
     1
1001
GRPNAME
1000
DREC-
1001
GPARA
1000
xsiz
1000
44.182
1000
ysiz
1000
40.677
1000
angl
1000
0
1000
ctyp
1000
0
1000
csiz
1000
5
1000
lfnt
1000
cont
1000
hcnt
1000
hoff
1000
vcnt
1000
voff
1000
opnt
1000
4
1000
dxpt
1000
0
1000
dypt
1000
0
  0
GROUP
  5
654
102
{ACAD_REACTORS
330
D
102
}
330
D
100
AcDbGroup
300

 70
     0
 71
     1
1001
GRPNAME
1000
DREC-
1001
GPARA
1000
xsiz
1000
54.592
1000
ysiz
1000
53.036
1000
angl
1000
0
1000
ctyp
1000
0
1000
csiz
1000
5
1000
lfnt
1000
cont
1000
hcnt
1000
hoff
1000
vcnt
1000
voff
1000
opnt
1000
4
1000
dxpt
1000
0
1000
dypt
1000
0
  0
GROUP
  5
673
102
{ACAD_REACTORS
330
D
102
}
330
D
100
AcDbGroup
300

 70
     0
 71
     1
1001
GRPNAME
1000
DREC-
1001
GPARA
1000
xsiz
1000
30.363
1000
ysiz
1000
36.175
1000
angl
1000
0
1000
ctyp
1000
0
1000
csiz
1000
5
1000
lfnt
1000
cont
1000
hcnt
1000
hoff
1000
vcnt
1000
voff
1000
opnt
1000
4
1000
dxpt
1000
0
1000
dypt
1000
0
  0
MLINESTYLE
  5
13
102
{ACAD_REACTORS
330
E
102
}
330
E
100
AcDbMlineStyle
  2
STANDARD
 70
     0
  3

 62
     0
 51
90.0
 52
90.0
 71
     2
 49
0.5
 62
   256
  6
BYLAYER
 49
-0.5
 62
   256
  6
BYLAYER
  0
PLOTSETTINGS
  5
758
102
{ACAD_REACTORS
330
566
102
}
330
566
100
AcDbPlotSettings
  1
A3(0.5倍)
  2
\\AWTECPC05\HP DeskJet 1120C
  4
A3
  6

 40
5.95841646
 41
13.49375153
 42
6.04309082
 43
3.67242432
 44
296.92599487
 45
419.94665527
 46
89.96
 47
127.14
 48
0.0
 49
0.0
140
0.0
141
0.0
142
1.0
143
2.0
 70
  1716
 72
     1
 73
     1
 74
     2
  7
big.ctb
 75
    17
147
0.5
148
0.0
149
0.0
  0
PLOTSETTINGS
  5
757
102
{ACAD_REACTORS
330
566
102
}
330
566
100
AcDbPlotSettings
  1
A3(1倍)
  2
\\AWTECPC05\HP DeskJet 1120C
  4
A3
  6

 40
5.95841646
 41
13.49375153
 42
6.04309082
 43
3.67242432
 44
296.92599487
 45
419.94665527
 46
37.46
 47
52.89
 48
0.0
 49
0.0
140
0.0
141
0.0
142
1.0
143
1.0
 70
  1716
 72
     1
 73
     1
 74
     2
  7
big.ctb
 75
    16
147
1.0
148
0.0
149
0.0
  0
PLOTSETTINGS
  5
707
102
{ACAD_REACTORS
330
566
102
}
330
566
100
AcDbPlotSettings
  1
A3(1倍)(2000)
  2
SII LS-1300 (D-SCAN)
  4
User258
  6

 40
3.17499995
 41
3.17499995
 42
3.17498779
 43
3.17498779
 44
419.98898315
 45
296.98950195
 46
58.32
 47
40.32
 48
0.0
 49
0.0
140
0.0
141
0.0
142
1.0
143
1.0
 70
  1716
 72
     1
 73
     0
 74
     2
  7
big.ctb
 75
    16
147
1.0
148
0.0
149
0.0
  0
PLOTSETTINGS
  5
759
102
{ACAD_REACTORS
330
566
102
}
330
566
100
AcDbPlotSettings
  1
A3(2倍)
  2
\\AWTECPC05\HP DeskJet 1120C
  4
A3
  6

 40
5.95841646
 41
13.49375153
 42
6.04309082
 43
3.67242432
 44
296.92599487
 45
419.94665527
 46
-67.54
 47
-95.61
 48
0.0
 49
0.0
140
0.0
141
0.0
142
1.0
143
0.5
 70
  1716
 72
     1
 73
     1
 74
     2
  7
big.ctb
 75
    27
147
2.0
148
0.0
149
0.0
  0
PLOTSETTINGS
  5
755
102
{ACAD_REACTORS
330
566
102
}
330
566
100
AcDbPlotSettings
  1
A4(0.5倍)
  2
\\AWTECPC05\HP DeskJet 1120C
  4
A4
  6

 40
4.18041658
 41
13.49374962
 42
4.18040466
 43
3.92642212
 44
209.97332764
 45
296.92599487
 46
48.31
 47
65.5
 48
0.0
 49
0.0
140
0.0
141
0.0
142
1.0
143
2.0
 70
  1716
 72
     1
 73
     1
 74
     2
  7
big.ctb
 75
    17
147
0.5
148
0.0
149
0.0
  0
PLOTSETTINGS
  5
754
102
{ACAD_REACTORS
330
566
102
}
330
566
100
AcDbPlotSettings
  1
A4(1倍)
  2
\\AWTECPC05\HP DeskJet 1120C
  4
A4
  6

 40
4.18041658
 41
13.49374962
 42
4.18040466
 43
3.92642212
 44
209.97332764
 45
296.92599487
 46
-4.19
 47
-8.75
 48
0.0
 49
0.0
140
0.0
141
0.0
142
1.0
143
1.0
 70
  1716
 72
     1
 73
     1
 74
     2
  7
big.ctb
 75
    16
147
1.0
148
0.0
149
0.0
  0
PLOTSETTINGS
  5
708
102
{ACAD_REACTORS
330
566
102
}
330
566
100
AcDbPlotSettings
  1
A4(1倍)(2000)
  2
SII LS-1300 (D-SCAN)
  4
User259
  6

 40
3.17499995
 41
3.17499995
 42
3.17498779
 43
3.17500305
 44
296.98950195
 45
209.99449158
 46
-3.18
 47
-3.18
 48
0.0
 49
0.0
140
0.0
141
0.0
142
1.0
143
1.0
 70
  1716
 72
     1
 73
     0
 74
     2
  7
big.ctb
 75
    16
147
1.0
148
0.0
149
0.0
  0
PLOTSETTINGS
  5
756
102
{ACAD_REACTORS
330
566
102
}
330
566
100
AcDbPlotSettings
  1
A4(2倍)
  2
\\AWTECPC05\HP DeskJet 1120C
  4
A4
  6

 40
4.18041658
 41
13.49374962
 42
4.18040466
 43
3.92642212
 44
209.97332764
 45
296.92599487
 46
-109.19
 47
-157.25
 48
0.0
 49
0.0
140
0.0
141
0.0
142
1.0
143
0.5
 70
  1716
 72
     1
 73
     1
 74
     2
  7
big.ctb
 75
    27
147
2.0
148
0.0
149
0.0
  0
ACDBPLACEHOLDER
  5
564
102
{ACAD_REACTORS
330
563
102
}
330
563
100
AcDbPlaceHolder
280
     0
  0
XRECORD
  5
FF3
102
{ACAD_REACTORS
330
FE9
102
}
330
FE9
100
AcDbXrecord
 90
        0
  0
XRECORD
  5
FF7
102
{ACAD_REACTORS
330
FE9
102
}
330
FE9
100
AcDbXrecord
1000
DSTYLE
1002
{
1070
    79
 70
     2
1070
   179
 70
     3
1070
   341
340
594
1070
   343
340
594
1070
   344
340
594
1070
   371
 70
    -1
1070
   372
 70
    -1
1002
}
  0
XRECORD
  5
FF4
102
{ACAD_REACTORS
330
FE9
102
}
330
FE9
100
AcDbXrecord
  1
{51294030-9CB4-11D3-8E18-00A0C925D94D}
  0
XRECORD
  5
FEC
102
{ACAD_REACTORS
330
FE9
102
}
330
FE9
100
AcDbXrecord
  1

  0
XRECORD
  5
FF2
102
{ACAD_REACTORS
330
FE9
102
}
330
FE9
100
AcDbXrecord
 90
        0
  0
XRECORD
  5
FEE
102
{ACAD_REACTORS
330
FE9
102
}
330
FE9
100
AcDbXrecord
340
565
  0
XRECORD
  5
FF1
102
{ACAD_REACTORS
330
FE9
102
}
330
FE9
100
AcDbXrecord
 90
    10781
  0
XRECORD
  5
FEF
102
{ACAD_REACTORS
330
FE9
102
}
330
FE9
100
AcDbXrecord
340
566
  0
XRECORD
  5
FF0
102
{ACAD_REACTORS
330
FE9
102
}
330
FE9
100
AcDbXrecord
340
563
  0
XRECORD
  5
FF6
102
{ACAD_REACTORS
330
FE9
102
}
330
FE9
100
AcDbXrecord
 40
0.0
  0
XRECORD
  5
FFA
102
{ACAD_REACTORS
330
FE9
102
}
330
FE9
100
AcDbXrecord
340
0
  0
XRECORD
  5
1000
102
{ACAD_REACTORS
330
FE9
102
}
330
FE9
100
AcDbXrecord
 10
0.0
 20
0.0
 30
0.0
  0
XRECORD
  5
FFC
102
{ACAD_REACTORS
330
FE9
102
}
330
FE9
100
AcDbXrecord
 10
0.0
 20
0.0
 30
0.0
  0
XRECORD
  5
FFF
102
{ACAD_REACTORS
330
FE9
102
}
330
FE9
100
AcDbXrecord
 10
0.0
 20
0.0
 30
0.0
  0
XRECORD
  5
FFD
102
{ACAD_REACTORS
330
FE9
102
}
330
FE9
100
AcDbXrecord
 10
0.0
 20
0.0
 30
0.0
  0
XRECORD
  5
FFE
102
{ACAD_REACTORS
330
FE9
102
}
330
FE9
100
AcDbXrecord
 10
0.0
 20
0.0
 30
0.0
  0
XRECORD
  5
FFB
102
{ACAD_REACTORS
330
FE9
102
}
330
FE9
100
AcDbXrecord
 10
0.0
 20
0.0
 30
0.0
  0
XRECORD
  5
FF8
102
{ACAD_REACTORS
330
FE9
102
}
330
FE9
100
AcDbXrecord
340
0
  0
XRECORD
  5
FF9
102
{ACAD_REACTORS
330
FE9
102
}
330
FE9
100
AcDbXrecord
 70
     0
  0
XRECORD
  5
FED
102
{ACAD_REACTORS
330
FE9
102
}
330
FE9
100
AcDbXrecord
  1
big.ctb
  0
XRECORD
  5
FEA
102
{ACAD_REACTORS
330
FE9
102
}
330
FE9
100
AcDbXrecord
 90
        1
  0
XRECORD
  5
FEB
102
{ACAD_REACTORS
330
FE9
102
}
330
FE9
100
AcDbXrecord
 90
       70
  0
XRECORD
  5
1003
102
{ACAD_REACTORS
330
FE9
102
}
330
FE9
100
AcDbXrecord
340
0
  0
XRECORD
  5
1009
102
{ACAD_REACTORS
330
FE9
102
}
330
FE9
100
AcDbXrecord
 10
0.0
 20
0.0
 30
0.0
  0
XRECORD
  5
1005
102
{ACAD_REACTORS
330
FE9
102
}
330
FE9
100
AcDbXrecord
 10
0.0
 20
0.0
 30
0.0
  0
XRECORD
  5
1008
102
{ACAD_REACTORS
330
FE9
102
}
330
FE9
100
AcDbXrecord
 10
0.0
 20
0.0
 30
0.0
  0
XRECORD
  5
1006
102
{ACAD_REACTORS
330
FE9
102
}
330
FE9
100
AcDbXrecord
 10
0.0
 20
0.0
 30
0.0
  0
XRECORD
  5
1007
102
{ACAD_REACTORS
330
FE9
102
}
330
FE9
100
AcDbXrecord
 10
0.0
 20
0.0
 30
0.0
  0
XRECORD
  5
1004
102
{ACAD_REACTORS
330
FE9
102
}
330
FE9
100
AcDbXrecord
 10
0.0
 20
0.0
 30
0.0
  0
XRECORD
  5
1001
102
{ACAD_REACTORS
330
FE9
102
}
330
FE9
100
AcDbXrecord
340
0
  0
XRECORD
  5
1002
102
{ACAD_REACTORS
330
FE9
102
}
330
FE9
100
AcDbXrecord
 70
     0
  0
XRECORD
  5
FF5
102
{ACAD_REACTORS
330
FE9
102
}
330
FE9
100
AcDbXrecord
  1
{DD168B02-BB44-41B5-8C2E-44F54038C302}
  0
XRECORD
  5
560
102
{ACAD_REACTORS
330
540
102
}
330
540
100
AcDbXrecord
  1
2.0.0
  0
ENDSEC
  0
EOF
