  0
SECTION
  2
HEADER
  9
$ACADVER
  1
AC1014
  9
$ACADMAINTVER
 70
     9
  9
$DWGCODEPAGE
  3
ANSI_932
  9
$INSBASE
 10
0.0
 20
0.0
 30
0.0
  9
$EXTMIN
 10
-48.51429639
 20
-11.07006072
 30
-0.00152582
  9
$EXTMAX
 10
218.02657404
 20
40.00231253
 30
0.00000003
  9
$LIMMIN
 10
0.0
 20
0.0
  9
$LIMMAX
 10
420.0
 20
297.0
  9
$ORTHOMODE
 70
     1
  9
$REGENMODE
 70
     1
  9
$FILLMODE
 70
     1
  9
$QTEXTMODE
 70
     0
  9
$MIRRTEXT
 70
     1
  9
$DRAGMODE
 70
     2
  9
$LTSCALE
 40
10.0
  9
$OSMODE
 70
   549
  9
$ATTMODE
 70
     1
  9
$TEXTSIZE
 40
3.0
  9
$TRACEWID
 40
1.0
  9
$TEXTSTYLE
  7
YOKO
  9
$CLAYER
  8
245
  9
$CELTYPE
  6
BYLAYER
  9
$CECOLOR
 62
   256
  9
$CELTSCALE
 40
1.0
  9
$DELOBJ
 70
     1
  9
$DISPSILH
 70
     0
  9
$DIMSCALE
 40
1.0
  9
$DIMASZ
 40
2.23
  9
$DIMEXO
 40
0.5
  9
$DIMDLI
 40
2.5
  9
$DIMRND
 40
0.0
  9
$DIMDLE
 40
0.0
  9
$DIMEXE
 40
1.0
  9
$DIMTP
 40
0.0
  9
$DIMTM
 40
0.0
  9
$DIMTXT
 40
2.8
  9
$DIMCEN
 40
0.0
  9
$DIMTSZ
 40
0.0
  9
$DIMTOL
 70
     0
  9
$DIMLIM
 70
     0
  9
$DIMTIH
 70
     0
  9
$DIMTOH
 70
     0
  9
$DIMSE1
 70
     0
  9
$DIMSE2
 70
     0
  9
$DIMTAD
 70
     3
  9
$DIMZIN
 70
     8
  9
$DIMBLK
  1

  9
$DIMASO
 70
     1
  9
$DIMSHO
 70
     1
  9
$DIMPOST
  1

  9
$DIMAPOST
  1

  9
$DIMALT
 70
     0
  9
$DIMALTD
 70
     2
  9
$DIMALTF
 40
25.4
  9
$DIMLFAC
 40
1.0
  9
$DIMTOFL
 70
     1
  9
$DIMTVP
 40
0.0
  9
$DIMTIX
 70
     1
  9
$DIMSOXD
 70
     0
  9
$DIMSAH
 70
     1
  9
$DIMBLK1
  1
OPEN
  9
$DIMBLK2
  1
OPEN
  9
$DIMSTYLE
  2
BIGT
  9
$DIMCLRD
 70
   256
  9
$DIMCLRE
 70
   256
  9
$DIMCLRT
 70
    40
  9
$DIMTFAC
 40
1.0
  9
$DIMGAP
 40
1.0
  9
$DIMJUST
 70
     0
  9
$DIMSD1
 70
     0
  9
$DIMSD2
 70
     0
  9
$DIMTOLJ
 70
     1
  9
$DIMTZIN
 70
     8
  9
$DIMALTZ
 70
     0
  9
$DIMALTTZ
 70
     0
  9
$DIMFIT
 70
     3
  9
$DIMUPT
 70
     0
  9
$DIMUNIT
 70
     2
  9
$DIMDEC
 70
     3
  9
$DIMTDEC
 70
     3
  9
$DIMALTU
 70
     2
  9
$DIMALTTD
 70
     2
  9
$DIMTXSTY
  7
STANDARD
  9
$DIMAUNIT
 70
     0
  9
$LUNITS
 70
     2
  9
$LUPREC
 70
     3
  9
$SKETCHINC
 40
1.0
  9
$FILLETRAD
 40
0.0
  9
$AUNITS
 70
     0
  9
$AUPREC
 70
     3
  9
$MENU
  1
.
  9
$ELEVATION
 40
0.0
  9
$PELEVATION
 40
0.0
  9
$THICKNESS
 40
0.0
  9
$LIMCHECK
 70
     0
  9
$BLIPMODE
 70
     0
  9
$CHAMFERA
 40
10.0
  9
$CHAMFERB
 40
10.0
  9
$CHAMFERC
 40
0.0
  9
$CHAMFERD
 40
0.0
  9
$SKPOLY
 70
     0
  9
$TDCREATE
 40
2455316.635023322
  9
$TDUPDATE
 40
2455316.637086400
  9
$TDINDWG
 40
0.0014467593
  9
$TDUSRTIMER
 40
0.0014465856
  9
$USRTIMER
 70
     1
  9
$ANGBASE
 50
0.0
  9
$ANGDIR
 70
     0
  9
$PDMODE
 70
     1
  9
$PDSIZE
 40
-5.0
  9
$PLINEWID
 40
0.0
  9
$COORDS
 70
     2
  9
$SPLFRAME
 70
     0
  9
$SPLINETYPE
 70
     6
  9
$SPLINESEGS
 70
     8
  9
$ATTDIA
 70
     0
  9
$ATTREQ
 70
     1
  9
$HANDLING
 70
-16383
  9
$HANDSEED
  5
10BB
  9
$SURFTAB1
 70
     6
  9
$SURFTAB2
 70
     6
  9
$SURFTYPE
 70
     6
  9
$SURFU
 70
     6
  9
$SURFV
 70
     6
  9
$UCSNAME
  2

  9
$UCSORG
 10
0.0
 20
0.0
 30
0.0
  9
$UCSXDIR
 10
1.0
 20
0.0
 30
0.0
  9
$UCSYDIR
 10
0.0
 20
1.0
 30
0.0
  9
$PUCSNAME
  2

  9
$PUCSORG
 10
0.0
 20
0.0
 30
0.0
  9
$PUCSXDIR
 10
1.0
 20
0.0
 30
0.0
  9
$PUCSYDIR
 10
0.0
 20
1.0
 30
0.0
  9
$USERI1
 70
     1
  9
$USERI2
 70
     0
  9
$USERI3
 70
     0
  9
$USERI4
 70
     0
  9
$USERI5
 70
     0
  9
$USERR1
 40
0.0
  9
$USERR2
 40
0.0
  9
$USERR3
 40
0.0
  9
$USERR4
 40
0.0
  9
$USERR5
 40
0.0
  9
$WORLDVIEW
 70
     1
  9
$SHADEDGE
 70
     3
  9
$SHADEDIF
 70
    70
  9
$TILEMODE
 70
     1
  9
$MAXACTVP
 70
    16
  9
$PINSBASE
 10
0.0
 20
0.0
 30
0.0
  9
$PLIMCHECK
 70
     0
  9
$PEXTMIN
 10
1.00000000E+20
 20
1.00000000E+20
 30
1.00000000E+20
  9
$PEXTMAX
 10
-1.00000000E+20
 20
-1.00000000E+20
 30
-1.00000000E+20
  9
$PLIMMIN
 10
0.0
 20
0.0
  9
$PLIMMAX
 10
420.0
 20
297.0
  9
$UNITMODE
 70
     0
  9
$VISRETAIN
 70
     0
  9
$PLINEGEN
 70
     0
  9
$PSLTSCALE
 70
     1
  9
$TREEDEPTH
 70
  3020
  9
$PICKSTYLE
 70
     0
  9
$CMLSTYLE
  2
STANDARD
  9
$CMLJUST
 70
     0
  9
$CMLSCALE
 40
1.0
  9
$PROXYGRAPHICS
 70
     1
  9
$MEASUREMENT
 70
     1
  0
ENDSEC
  0
SECTION
  2
CLASSES
  0
CLASS
  1
XRECORD
  2
AcDbXrecord
  3
AutoCAD 2000
 90
        0
280
     0
281
     0
  0
CLASS
  1
ACDBDICTIONARYWDFLT
  2
AcDbDictionaryWithDefault
  3
AutoCAD 2000
 90
        0
280
     0
281
     0
  0
CLASS
  1
ACDBPLACEHOLDER
  2
AcDbPlaceHolder
  3
AutoCAD 2000
 90
        0
280
     0
281
     0
  0
CLASS
  1
LAYOUT
  2
AcDbLayout
  3
AutoCAD 2000
 90
        0
280
     0
281
     0
  0
CLASS
  1
PLOTSETTINGS
  2
AcDbPlotSettings
  3
AutoCAD 2000
 90
        0
280
     0
281
     0
  0
CLASS
  1
LONG_TRANSACTION
  2
AcDbLongTransaction
  3
AutoCAD 2000
 90
        0
280
     0
281
     0
  0
CLASS
  1
LWPOLYLINE
  2
AcDbPolyline
  3
AutoCAD 2000
 90
        0
280
     0
281
     1
  0
CLASS
  1
HATCH
  2
AcDbHatch
  3
AutoCAD 2000
 90
        0
280
     0
281
     1
  0
CLASS
  1
XRECORD
  2
AcDbXrecord
  3
AutoCAD 2000
 90
        0
280
     0
281
     0
  0
CLASS
  1
LONG_TRANSACTION
  2
AcDbLongTransaction
  3
AutoCAD 2000
 90
        0
280
     0
281
     0
  0
CLASS
  1
LWPOLYLINE
  2
AcDbPolyline
  3
AutoCAD 2000
 90
        0
280
     0
281
     1
  0
CLASS
  1
HATCH
  2
AcDbHatch
  3
AutoCAD 2000
 90
        0
280
     0
281
     1
  0
CLASS
  1
XRECORD
  2
AcDbXrecord
  3
AutoCAD 2000
 90
        0
280
     0
281
     0
  0
ENDSEC
  0
SECTION
  2
TABLES
  0
TABLE
  2
VPORT
  5
8
330
0
100
AcDbSymbolTable
 70
     4
  0
VPORT
  5
1096
330
8
100
AcDbSymbolTableRecord
100
AcDbViewportTableRecord
  2
*ACTIVE
 70
     0
 10
0.0
 20
0.0
 11
1.0
 21
1.0
 12
84.75613882
 22
14.4661259
 13
0.0
 23
0.0
 14
7.0
 24
7.0
 15
7.0
 25
7.0
 16
0.0
 26
0.0
 36
1.0
 17
0.0
 27
0.0
 37
0.0
 40
187.14419294
 41
1.43184713
 42
50.0
 43
0.0
 44
0.0
 50
0.0
 51
0.0
 71
     0
 72
  2000
 73
     1
 74
     0
 75
     0
 76
     0
 77
     0
 78
     0
  0
ENDTAB
  0
TABLE
  2
LTYPE
  5
5
330
0
100
AcDbSymbolTable
 70
     3
  0
LTYPE
  5
14
330
5
100
AcDbSymbolTableRecord
100
AcDbLinetypeTableRecord
  2
BYBLOCK
 70
     0
  3

 72
    65
 73
     0
 40
0.0
  0
LTYPE
  5
15
330
5
100
AcDbSymbolTableRecord
100
AcDbLinetypeTableRecord
  2
BYLAYER
 70
     0
  3

 72
    65
 73
     0
 40
0.0
  0
LTYPE
  5
16
330
5
100
AcDbSymbolTableRecord
100
AcDbLinetypeTableRecord
  2
CONTINUOUS
 70
     0
  3
Solid line
 72
    65
 73
     0
 40
0.0
  0
LTYPE
  5
258
330
5
100
AcDbSymbolTableRecord
100
AcDbLinetypeTableRecord
  2
CENTER2
 70
     0
  3
___ _ ___ _ ___ _ ___ _ ___ _ ___ _ ___ _ ___ _
 72
    65
 73
     4
 40
1.125
 49
0.75
 74
     0
 49
-0.125
 74
     0
 49
0.125
 74
     0
 49
-0.125
 74
     0
  0
LTYPE
  5
25C
330
5
100
AcDbSymbolTableRecord
100
AcDbLinetypeTableRecord
  2
HIDDEN2
 70
     0
  3
_ _ _ _ _ _ _ _ _ _ _ _ _ _ _ _ _ _ _ _ _ _ _ _
 72
    65
 73
     2
 40
0.1875
 49
0.125
 74
     0
 49
-0.0625
 74
     0
  0
ENDTAB
  0
TABLE
  2
LAYER
  5
2
330
0
100
AcDbSymbolTable
 70
    12
  0
LAYER
  5
F
330
2
100
AcDbSymbolTableRecord
100
AcDbLayerTableRecord
  2
0
 70
     0
 62
     7
  6
CONTINUOUS
  0
LAYER
  5
1AA
330
2
100
AcDbSymbolTableRecord
100
AcDbLayerTableRecord
  2
240
 70
     0
 62
     4
  6
CONTINUOUS
  0
LAYER
  5
1AB
330
2
100
AcDbSymbolTableRecord
100
AcDbLayerTableRecord
  2
241
 70
     0
 62
   211
  6
CONTINUOUS
  0
LAYER
  5
1AC
330
2
100
AcDbSymbolTableRecord
100
AcDbLayerTableRecord
  2
242
 70
     0
 62
     3
  6
CONTINUOUS
  0
LAYER
  5
1AD
330
2
100
AcDbSymbolTableRecord
100
AcDbLayerTableRecord
  2
243
 70
     0
 62
   211
  6
HIDDEN2
  0
LAYER
  5
1AF
330
2
100
AcDbSymbolTableRecord
100
AcDbLayerTableRecord
  2
245
 70
     0
 62
     2
  6
CENTER2
  0
LAYER
  5
21E
330
2
100
AcDbSymbolTableRecord
100
AcDbLayerTableRecord
  2
250
 70
     0
 62
     3
  6
CONTINUOUS
  0
LAYER
  5
21F
330
2
100
AcDbSymbolTableRecord
100
AcDbLayerTableRecord
  2
251
 70
     0
 62
    40
  6
CONTINUOUS
  0
LAYER
  5
5C4
330
2
100
AcDbSymbolTableRecord
100
AcDbLayerTableRecord
  2
DEFPOINTS
 70
     0
 62
     7
  6
CONTINUOUS
  0
LAYER
  5
89C
330
2
100
AcDbSymbolTableRecord
100
AcDbLayerTableRecord
  2
AM_7
 70
     0
 62
     2
  6
CENTER2
  0
ENDTAB
  0
TABLE
  2
STYLE
  5
3
330
0
100
AcDbSymbolTable
 70
     2
  0
STYLE
  5
10
330
3
100
AcDbSymbolTableRecord
100
AcDbTextStyleTableRecord
  2
STANDARD
 70
     0
 40
0.0
 41
1.0
 50
0.0
 71
     0
 42
3.0
  3
romans.shx
  4
BIGFONT.SHX
  0
STYLE
  5
339
330
3
100
AcDbSymbolTableRecord
100
AcDbTextStyleTableRecord
  2
YOKO
 70
     0
 40
0.0
 41
1.0
 50
0.0
 71
     0
 42
3.0
  3
romans.shx
  4
extfont.shx
  0
ENDTAB
  0
TABLE
  2
VIEW
  5
6
330
0
100
AcDbSymbolTable
 70
     0
  0
ENDTAB
  0
TABLE
  2
UCS
  5
7
330
0
100
AcDbSymbolTable
 70
     0
  0
ENDTAB
  0
TABLE
  2
APPID
  5
9
330
0
100
AcDbSymbolTable
 70
    15
  0
APPID
  5
11
330
9
100
AcDbSymbolTableRecord
100
AcDbRegAppTableRecord
  2
ACAD
 70
     0
  0
APPID
  5
1B1
330
9
100
AcDbSymbolTableRecord
100
AcDbRegAppTableRecord
  2
GLOBAL
 70
     0
  0
APPID
  5
2A4
330
9
100
AcDbSymbolTableRecord
100
AcDbRegAppTableRecord
  2
DETAIL
 70
     0
  0
APPID
  5
5FD
330
9
100
AcDbSymbolTableRecord
100
AcDbRegAppTableRecord
  2
GRPNAME
 70
     0
  0
APPID
  5
5FE
330
9
100
AcDbSymbolTableRecord
100
AcDbRegAppTableRecord
  2
GPARA
 70
     0
  0
APPID
  5
6C4
330
9
100
AcDbSymbolTableRecord
100
AcDbRegAppTableRecord
  2
DCO15
 70
     0
  0
APPID
  5
6C5
330
9
100
AcDbSymbolTableRecord
100
AcDbRegAppTableRecord
  2
ITEMNAME
 70
     0
  0
APPID
  5
6C6
330
9
100
AcDbSymbolTableRecord
100
AcDbRegAppTableRecord
  2
GRADE_0
 70
     0
  0
APPID
  5
89D
330
9
100
AcDbSymbolTableRecord
100
AcDbRegAppTableRecord
  2
GENIUS_GENOREF_13
 70
     0
  0
APPID
  5
89E
330
9
100
AcDbSymbolTableRecord
100
AcDbRegAppTableRecord
  2
HATCH_TYPE
 70
     0
  0
APPID
  5
89F
330
9
100
AcDbSymbolTableRecord
100
AcDbRegAppTableRecord
  2
HATCH_DISPLAY
 70
     0
  0
APPID
  5
8A0
330
9
100
AcDbSymbolTableRecord
100
AcDbRegAppTableRecord
  2
HATCH_DISTANCE
 70
     0
  0
APPID
  5
8A1
330
9
100
AcDbSymbolTableRecord
100
AcDbRegAppTableRecord
  2
GENIUS_GENODEF_13
 70
     0
  0
APPID
  5
8A2
330
9
100
AcDbSymbolTableRecord
100
AcDbRegAppTableRecord
  2
GENIUS_GENOBJ-N-FIL_13
 70
     0
  0
APPID
  5
B9D
330
9
100
AcDbSymbolTableRecord
100
AcDbRegAppTableRecord
  2
CONTENTBLOCKICON
 70
     0
  0
ENDTAB
  0
TABLE
  2
DIMSTYLE
  5
A
330
0
100
AcDbSymbolTable
 70
     1
  0
DIMSTYLE
105
725
102
{ACAD_REACTORS
330
8B3
330
8B5
102
}
330
A
100
AcDbSymbolTableRecord
100
AcDbDimStyleTableRecord
  2
BIGT
 70
     0
  3

  4

  5

  6
OPEN
  7
OPEN
 40
1.0
 41
2.23
 42
0.5
 43
2.5
 44
1.0
 45
0.0
 46
0.0
 47
0.0
 48
0.0
140
2.8
141
0.0
142
0.0
143
25.4
144
1.0
145
0.0
146
1.0
147
1.0
 71
     0
 72
     0
 73
     0
 74
     0
 75
     0
 76
     0
 77
     3
 78
     8
170
     0
171
     2
172
     1
173
     1
174
     1
175
     0
176
   256
177
   256
178
    40
270
     2
271
     3
272
     3
273
     2
274
     2
340
10
275
     0
280
     0
281
     0
282
     0
283
     1
284
     8
285
     0
286
     0
287
     3
288
     0
  0
ENDTAB
  0
TABLE
  2
BLOCK_RECORD
  5
1
330
0
100
AcDbSymbolTable
 70
     5
  0
BLOCK_RECORD
  5
1A
102
{ACAD_XDICTIONARY
360
B9B
102
}
330
1
100
AcDbSymbolTableRecord
100
AcDbBlockTableRecord
  2
*MODEL_SPACE
  0
BLOCK_RECORD
  5
17
102
{ACAD_XDICTIONARY
360
B99
102
}
330
1
100
AcDbSymbolTableRecord
100
AcDbBlockTableRecord
  2
*PAPER_SPACE
  0
BLOCK_RECORD
  5
594
330
1
100
AcDbSymbolTableRecord
100
AcDbBlockTableRecord
  2
_OPEN
  0
BLOCK_RECORD
  5
6E3
330
1
100
AcDbSymbolTableRecord
100
AcDbBlockTableRecord
  2
矢印なし
  0
BLOCK_RECORD
  5
762
330
1
100
AcDbSymbolTableRecord
100
AcDbBlockTableRecord
  2
1
1001
CONTENTBLOCKICON
1071
        0
1004
2800000020000000200000000100080000000000000400000000000000000000000000000000000000000000000080000080000000808000800000008000800080800000C0C0C000C0DCC000F0CAA6000020400000206000002080000020A0000020C0000020E00000400000004020000040400000406000004080000040A0
1004
000040C0000040E00000600000006020000060400000606000006080000060A0000060C0000060E00000800000008020000080400000806000008080000080A0000080C0000080E00000A0000000A0200000A0400000A0600000A0800000A0A00000A0C00000A0E00000C0000000C0200000C0400000C0600000C0800000C0
1004
A00000C0C00000C0E00000E0000000E0200000E0400000E0600000E0800000E0A00000E0C00000E0E00040000000400020004000400040006000400080004000A0004000C0004000E00040200000402020004020400040206000402080004020A0004020C0004020E000404000004040200040404000404060004040800040
1004
40A0004040C0004040E00040600000406020004060400040606000406080004060A0004060C0004060E00040800000408020004080400040806000408080004080A0004080C0004080E00040A0000040A0200040A0400040A0600040A0800040A0A00040A0C00040A0E00040C0000040C0200040C0400040C0600040C08000
1004
40C0A00040C0C00040C0E00040E0000040E0200040E0400040E0600040E0800040E0A00040E0C00040E0E00080000000800020008000400080006000800080008000A0008000C0008000E00080200000802020008020400080206000802080008020A0008020C0008020E00080400000804020008040400080406000804080
1004
008040A0008040C0008040E00080600000806020008060400080606000806080008060A0008060C0008060E00080800000808020008080400080806000808080008080A0008080C0008080E00080A0000080A0200080A0400080A0600080A0800080A0A00080A0C00080A0E00080C0000080C0200080C0400080C0600080C0
1004
800080C0A00080C0C00080C0E00080E0000080E0200080E0400080E0600080E0800080E0A00080E0C00080E0E000C0000000C0002000C0004000C0006000C0008000C000A000C000C000C000E000C0200000C0202000C0204000C0206000C0208000C020A000C020C000C020E000C0400000C0402000C0404000C0406000C0
1004
408000C040A000C040C000C040E000C0600000C0602000C0604000C0606000C0608000C060A000C060C000C060E000C0800000C0802000C0804000C0806000C0808000C080A000C080C000C080E000C0A00000C0A02000C0A04000C0A06000C0A08000C0A0A000C0A0C000C0A0E000C0C00000C0C02000C0C04000C0C06000
1004
C0C08000C0C0A000F0FBFF00A4A0A000808080000000FF0000FF000000FFFF00FF000000FF00FF00FFFF0000FFFFFF0000000000000000000000000000000000000000000000000000000000000000000000000000000000000000000000000000000000000000000000000000000000000000000000000000000000000000
1004
00000000000000000000000000000000000000000000000000000000000000000000000000000000000000000000000000000000000000000000000000000000000000000000000000000000000000000000000000000000000000000000000000000000000000000000000000000000000000000000000000000000000000
1004
00000000000000000000000000000000000000000000000000000000000000000000000000000000000000000000000000000000000000000000000000000000000000000000000000000000000000000000000000000000000000000000000000000000000000000000000000000000000000000000000000000000000000
1004
00000000000000000000000000000000000000000000000000000000000000000000000000000000000000000000000000000000000000000000000000000000000000000000000000000000000000000000000000000000000000000000000000000000000000000000000000000000000000000000000000FEFE00000000
1004
00000000000000000000000000000000000000000000FEE7FBFEFEFEFEFEFEFEFEFEFEFEFEFEFEFEFEFEFEFEFEFEFEFEFEFE000000FBFEE7FEFEE7FEFEFEFEFEFEFEFEFFFFFFFFFFFEFEFEFEFEFEFEFEE7FEFB00000000000000FEFE0000000000000000000000000000000000000000000000000000000000000000000000
1004
00000000000000000000000000000000000000000000000000000000000000000000000000000000000000000000000000000000000000000000000000000000000000000000000000000000000000000000000000000000000000000000000000000000000000000000000000000000000000000000000000000000000000
1004
00000000000000000000000000000000000000000000000000000000000000000000000000000000000000000000000000000000000000000000000000000000000000000000000000000000000000000000000000000000000000000000000000000000000000000000000000000000000000000000000000000000000000
1004
00000000000000000000000000000000000000000000000000000000000000000000000000000000000000000000000000000000000000000000000000000000000000000000000000000000000000000000000000000000000000000000000000000000000000000000000000000000000000000000000000000000000000
1004
0000000000000000000000000000000000000000000000000000000000000000000000000000000000000000000000000000000000000000
  0
BLOCK_RECORD
  5
8BD
330
1
100
AcDbSymbolTableRecord
100
AcDbBlockTableRecord
  2
*D3
  0
BLOCK_RECORD
  5
8C9
330
1
100
AcDbSymbolTableRecord
100
AcDbBlockTableRecord
  2
*D4
  0
ENDTAB
  0
ENDSEC
  0
SECTION
  2
BLOCKS
  0
BLOCK
  5
1B
330
1A
100
AcDbEntity
  8
0
100
AcDbBlockBegin
  2
*MODEL_SPACE
 70
     0
 10
0.0
 20
0.0
 30
0.0
  3
*MODEL_SPACE
  1

  0
ENDBLK
  5
1C
330
1A
100
AcDbEntity
  8
0
100
AcDbBlockEnd
  0
BLOCK
  5
18
330
17
100
AcDbEntity
 67
     1
  8
0
100
AcDbBlockBegin
  2
*PAPER_SPACE
 70
     0
 10
0.0
 20
0.0
 30
0.0
  3
*PAPER_SPACE
  1

  0
ENDBLK
  5
19
330
17
100
AcDbEntity
 67
     1
  8
0
100
AcDbBlockEnd
  0
BLOCK
  5
598
330
594
100
AcDbEntity
  8
0
100
AcDbBlockBegin
  2
_OPEN
 70
     0
 10
0.0
 20
0.0
 30
0.0
  3
_OPEN
  1

  0
LINE
  5
595
330
594
100
AcDbEntity
  8
0
  6
BYBLOCK
 62
     0
100
AcDbLine
 10
-1.0
 20
0.16666667
 30
0.0
 11
0.0
 21
0.0
 31
0.0
  0
LINE
  5
596
330
594
100
AcDbEntity
  8
0
  6
BYBLOCK
 62
     0
100
AcDbLine
 10
-1.0
 20
-0.16666667
 30
0.0
 11
0.0
 21
0.0
 31
0.0
  0
LINE
  5
597
330
594
100
AcDbEntity
  8
0
  6
BYBLOCK
 62
     0
100
AcDbLine
 10
0.0
 20
0.0
 30
0.0
 11
-1.0
 21
0.0
 31
0.0
  0
ENDBLK
  5
599
330
594
100
AcDbEntity
  8
0
100
AcDbBlockEnd
  0
BLOCK
  5
6E4
330
6E3
100
AcDbEntity
  8
0
100
AcDbBlockBegin
  2
矢印なし
 70
     0
 10
0.0
 20
0.0
 30
0.0
  3
矢印なし
  1

  0
ENDBLK
  5
6E5
330
6E3
100
AcDbEntity
  8
0
100
AcDbBlockEnd
  0
BLOCK
  5
882
330
762
100
AcDbEntity
  8
0
100
AcDbBlockBegin
  2
1
 70
     0
 10
0.0
 20
0.0
 30
0.0
  3
1
  1

  0
LINE
  5
F51
330
762
100
AcDbEntity
  8
AM_7
100
AcDbLine
 10
-48.5
 20
0.0
 30
0.0
 11
201.0
 21
0.0
 31
0.0
1001
GENIUS_GENOREF_13
1005
0
  0
LINE
  5
F52
330
762
100
AcDbEntity
  8
240
100
AcDbLine
 10
183.15
 20
-8.0
 30
0.0
 11
199.0
 21
-8.0
 31
0.0
  0
LINE
  5
F53
330
762
100
AcDbEntity
  8
240
100
AcDbLine
 10
183.15
 20
8.0
 30
0.0
 11
199.0
 21
8.0
 31
0.0
  0
LINE
  5
F54
330
762
100
AcDbEntity
  8
241
  6
HIDDEN2
100
AcDbLine
 10
182.0
 20
3.05
 30
0.0
 11
187.0
 21
3.05
 31
0.0
1001
GRPNAME
1000
0000002S
  0
LINE
  5
F55
330
762
100
AcDbEntity
  8
240
100
AcDbLine
 10
180.0
 20
-8.0
 30
0.0
 11
1.57117457
 21
-8.0
 31
0.0
  0
LINE
  5
F56
330
762
100
AcDbEntity
  8
240
100
AcDbLine
 10
180.0
 20
8.0
 30
0.0
 11
1.57117457
 21
8.0
 31
0.0
  0
LINE
  5
F57
330
762
100
AcDbEntity
  8
240
100
AcDbLine
 10
-34.0
 20
-6.0
 30
0.0
 11
-29.0
 21
-6.0
 31
0.0
  0
LINE
  5
F58
330
762
100
AcDbEntity
  8
240
100
AcDbLine
 10
-34.0
 20
6.0
 30
0.0
 11
-29.0
 21
6.0
 31
0.0
  0
LINE
  5
F59
330
762
100
AcDbEntity
  8
240
100
AcDbLine
 10
-47.5
 20
-7.0
 30
0.0
 11
-47.5
 21
0.0
 31
0.0
  0
LINE
  5
F5A
330
762
100
AcDbEntity
  8
AM_7
100
AcDbLine
 10
-34.0
 20
-8.0
 30
0.0
 11
-34.0
 21
8.0
 31
0.0
  0
LINE
  5
F5B
330
762
100
AcDbEntity
  8
243
100
AcDbLine
 10
-36.5
 20
6.0
 30
0.0
 11
-36.5
 21
-6.0
 31
0.0
  0
LINE
  5
F5C
330
762
100
AcDbEntity
  8
240
100
AcDbLine
 10
-46.5
 20
-8.0
 30
0.0
 11
-41.0
 21
-8.0
 31
0.0
  0
ARC
  5
F5D
330
762
100
AcDbEntity
  8
240
100
AcDbCircle
 10
-46.5
 20
-7.0
 30
0.0
 40
1.0
100
AcDbArc
 50
180.0
 51
270.0
  0
LINE
  5
F5E
330
762
100
AcDbEntity
  8
240
100
AcDbLine
 10
-39.0
 20
-6.0
 30
0.0
 11
-41.0
 21
-8.0
 31
0.0
  0
LINE
  5
F5F
330
762
100
AcDbEntity
  8
240
100
AcDbLine
 10
-39.0
 20
-6.0
 30
0.0
 11
-34.0
 21
-6.0
 31
0.0
  0
LINE
  5
F60
330
762
100
AcDbEntity
  8
240
100
AcDbLine
 10
-46.5
 20
8.0
 30
0.0
 11
-41.0
 21
8.0
 31
0.0
  0
LINE
  5
F61
330
762
100
AcDbEntity
  8
240
100
AcDbLine
 10
-47.5
 20
7.0
 30
0.0
 11
-47.5
 21
0.0
 31
0.0
  0
ARC
  5
F62
330
762
100
AcDbEntity
  8
240
100
AcDbCircle
 10
-46.5
 20
7.0
 30
0.0
 40
1.0
100
AcDbArc
 50
90.0
 51
180.0
  0
LINE
  5
F63
330
762
100
AcDbEntity
  8
240
100
AcDbLine
 10
-39.0
 20
6.0
 30
0.0
 11
-34.0
 21
6.0
 31
0.0
  0
LINE
  5
F64
330
762
100
AcDbEntity
  8
240
100
AcDbLine
 10
-39.0
 20
6.0
 30
0.0
 11
-41.0
 21
8.0
 31
0.0
  0
LINE
  5
F65
330
762
100
AcDbEntity
  8
243
100
AcDbLine
 10
-31.5
 20
6.0
 30
0.0
 11
-31.5
 21
-6.0
 31
0.0
  0
LINE
  5
F66
330
762
100
AcDbEntity
  8
241
100
AcDbLine
 10
-14.5
 20
-7.0
 30
0.0
 11
-14.5
 21
0.0
 31
0.0
  0
LINE
  5
F67
330
762
100
AcDbEntity
  8
AM_7
100
AcDbLine
 10
-20.0
 20
-0.7698914
 30
0.0
 11
-20.0
 21
-4.52866188
 31
0.0
  0
LINE
  5
F68
330
762
100
AcDbEntity
  8
241
100
AcDbLine
 10
-16.5
 20
-7.0
 30
0.0
 11
-16.5
 21
0.0
 31
0.0
  0
LINE
  5
F69
330
762
100
AcDbEntity
  8
241
100
AcDbLine
 10
-23.5
 20
-7.0
 30
0.0
 11
-23.5
 21
0.0
 31
0.0
  0
LINE
  5
F6A
330
762
100
AcDbEntity
  8
241
100
AcDbLine
 10
-25.5
 20
-7.0
 30
0.0
 11
-25.5
 21
0.0
 31
0.0
  0
ELLIPSE
  5
F6B
330
762
100
AcDbEntity
  8
241
100
AcDbEllipse
 10
-20.0
 20
-2.64927664
 30
0.0
 11
-2.000000000000023
 21
0.0
 31
0.0
210
0.0
220
0.0
230
1.0
 40
0.93969262
 41
0.0
 42
6.283185307179584
  0
LINE
  5
F6C
330
762
100
AcDbEntity
  8
241
100
AcDbLine
 10
0.0
 20
-10.64125603
 30
0.0
 11
0.0
 21
0.0
 31
0.0
  0
LINE
  5
F6D
330
762
100
AcDbEntity
  8
241
100
AcDbLine
 10
-2.0
 20
-10.0
 30
0.0
 11
-2.0
 21
0.0
 31
0.0
  0
LINE
  5
F6E
330
762
100
AcDbEntity
  8
241
100
AcDbLine
 10
-5.12626129
 20
-11.0
 30
0.0
 11
-5.12626129
 21
0.0
 31
0.0
  0
LINE
  5
F6F
330
762
100
AcDbEntity
  8
241
  6
CONTINUOUS
100
AcDbLine
 10
-6.5
 20
-10.50000001
 30
0.0
 11
-6.5
 21
0.0
 31
0.0
  0
LINE
  5
F70
330
762
100
AcDbEntity
  8
241
100
AcDbLine
 10
-4.0
 20
-10.0
 30
0.0
 11
-4.0
 21
0.0
 31
0.0
  0
LINE
  5
F71
330
762
100
AcDbEntity
  8
241
100
AcDbLine
 10
-11.0
 20
-8.0
 30
0.0
 11
-11.0
 21
0.0
 31
0.0
  0
LINE
  5
F72
330
762
100
AcDbEntity
  8
241
100
AcDbLine
 10
0.80384758
 20
-8.35874397
 30
0.0
 11
0.80384758
 21
0.0
 31
0.0
  0
ARC
  5
F73
330
762
100
AcDbEntity
  8
240
100
AcDbCircle
 10
-15.5
 20
-7.0
 30
0.0
 40
1.000000000003004
100
AcDbArc
 50
180.0
 51
0.0
  0
ARC
  5
F74
330
762
100
AcDbEntity
  8
240
100
AcDbCircle
 10
-24.5
 20
-7.0
 30
0.0
 40
1.000000000003004
100
AcDbArc
 50
180.0
 51
0.0
  0
LINE
  5
F75
330
762
100
AcDbEntity
  8
240
100
AcDbLine
 10
-29.0
 20
-6.0
 30
0.0
 11
-27.0
 21
-8.0
 31
0.0
  0
LINE
  5
F76
330
762
100
AcDbEntity
  8
240
100
AcDbLine
 10
-25.5
 20
-7.0
 30
0.0
 11
-25.5
 21
-8.0
 31
0.0
  0
LINE
  5
F77
330
762
100
AcDbEntity
  8
240
100
AcDbLine
 10
-27.0
 20
-8.0
 30
0.0
 11
-25.5
 21
-8.0
 31
0.0
  0
LINE
  5
F78
330
762
100
AcDbEntity
  8
240
100
AcDbLine
 10
-23.5
 20
-7.0
 30
0.0
 11
-23.5
 21
-8.0
 31
0.0
  0
LINE
  5
F79
330
762
100
AcDbEntity
  8
240
100
AcDbLine
 10
-16.5
 20
-7.0
 30
0.0
 11
-16.5
 21
-8.0
 31
0.0
  0
LINE
  5
F7A
330
762
100
AcDbEntity
  8
240
100
AcDbLine
 10
-23.5
 20
-8.0
 30
0.0
 11
-16.5
 21
-8.0
 31
0.0
  0
LINE
  5
F7B
330
762
100
AcDbEntity
  8
AM_7
100
AcDbLine
 10
-21.99786162
 20
-2.73616115
 30
0.0
 11
-18.00213838
 21
-2.73616115
 31
0.0
  0
LINE
  5
F7C
330
762
100
AcDbEntity
  8
240
100
AcDbLine
 10
-6.5
 20
-10.50000001
 30
0.0
 11
-5.12626128
 21
-11.0
 31
0.0
  0
LINE
  5
F7D
330
762
100
AcDbEntity
  8
240
100
AcDbLine
 10
-14.5
 20
-7.0
 30
0.0
 11
-14.5
 21
-8.0
 31
0.0
  0
LINE
  5
F7E
330
762
100
AcDbEntity
  8
240
100
AcDbLine
 10
-10.7
 20
-7.7
 30
0.0
 11
-11.0
 21
-8.0
 31
0.0
  0
LINE
  5
F7F
330
762
100
AcDbEntity
  8
240
100
AcDbLine
 10
-14.5
 20
-8.0
 30
0.0
 11
-11.0
 21
-8.0
 31
0.0
  0
LINE
  5
F80
330
762
100
AcDbEntity
  8
240
100
AcDbLine
 10
-10.0
 20
-10.5
 30
0.0
 11
-10.0
 21
-9.0
 31
0.0
  0
LINE
  5
F81
330
762
100
AcDbEntity
  8
240
100
AcDbLine
 10
-6.50000001
 20
-10.5
 30
0.0
 11
-10.0
 21
-10.5
 31
0.0
  0
LINE
  5
F82
330
762
100
AcDbEntity
  8
241
100
AcDbLine
 10
-6.5
 20
-8.2
 30
0.0
 11
-9.5
 21
-8.2
 31
0.0
  0
LINE
  5
F83
330
762
100
AcDbEntity
  8
240
100
AcDbLine
 10
-10.7
 20
-7.7
 30
0.0
 11
-9.5
 21
-7.7
 31
0.0
  0
LINE
  5
F84
330
762
100
AcDbEntity
  8
240
100
AcDbLine
 10
-9.5
 20
-8.5
 30
0.0
 11
-10.0
 21
-9.0
 31
0.0
  0
LINE
  5
F85
330
762
100
AcDbEntity
  8
240
100
AcDbLine
 10
-9.5
 20
-8.5
 30
0.0
 11
-9.5
 21
-7.7
 31
0.0
  0
LINE
  5
F86
330
762
100
AcDbEntity
  8
240
100
AcDbLine
 10
-0.63567449
 20
-11.0
 30
0.0
 11
-2.0
 21
-11.0
 31
0.0
  0
ARC
  5
F87
330
762
100
AcDbEntity
  8
240
100
AcDbCircle
 10
-3.0
 20
-10.0
 30
0.0
 40
1.000000000000075
100
AcDbArc
 50
180.0
 51
0.0
  0
LINE
  5
F88
330
762
100
AcDbEntity
  8
240
100
AcDbLine
 10
-4.0
 20
-11.0
 30
0.0
 11
-5.12626129
 21
-11.0
 31
0.0
  0
LINE
  5
F89
330
762
100
AcDbEntity
  8
240
100
AcDbLine
 10
-4.0
 20
-10.0
 30
0.0
 11
-4.0
 21
-11.0
 31
0.0
  0
LINE
  5
F8A
330
762
100
AcDbEntity
  8
240
100
AcDbLine
 10
-2.0
 20
-10.0
 30
0.0
 11
-2.0
 21
-11.0
 31
0.0
  0
LINE
  5
F8B
330
762
100
AcDbEntity
  8
240
100
AcDbLine
 10
0.19859884
 20
-10.25881905
 30
0.0
 11
0.60524874
 21
-8.74118096
 31
0.0
  0
LINE
  5
F8C
330
762
100
AcDbEntity
  8
240
100
AcDbLine
 10
-0.50850794
 20
-10.96592583
 30
0.0
 11
-0.63567449
 21
-11.0
 31
0.0
  0
ARC
  5
F8D
330
762
100
AcDbEntity
  8
240
100
AcDbCircle
 10
-0.76732699
 20
-10.0
 30
0.0
 40
1.0
100
AcDbArc
 50
285.0
 51
345.0
1001
GENIUS_GENOBJ-N-FIL_13
1002
{
1000
OWNER
1000
GEN
1002
}
1001
GENIUS_GENODEF_13
1002
{
1000
HIER
1070
     0
1002
}
1002
{
1000
MANEDIT
1070
     0
1002
}
1002
{
1000
NOSEL
1070
     0
1002
}
1002
{
1000
BEHIND
1070
     0
1002
}
1002
{
1000
OTHER
1070
     0
1002
}
1002
{
1000
REACTOR
1002
}
  0
ARC
  5
F8E
330
762
100
AcDbEntity
  8
240
100
AcDbCircle
 10
1.57117457
 20
-9.0
 30
0.0
 40
1.0
100
AcDbArc
 50
90.0
 51
165.00000008
  0
ARC
  5
F8F
330
762
100
AcDbEntity
  8
240
100
AcDbCircle
 10
-15.5
 20
7.0
 30
0.0
 40
1.000000000003004
100
AcDbArc
 50
0.0
 51
180.0
  0
ARC
  5
F90
330
762
100
AcDbEntity
  8
240
100
AcDbCircle
 10
-24.5
 20
7.0
 30
0.0
 40
1.000000000003004
100
AcDbArc
 50
0.0
 51
180.0
  0
LINE
  5
F91
330
762
100
AcDbEntity
  8
241
100
AcDbLine
 10
-25.5
 20
7.0
 30
0.0
 11
-25.5
 21
0.0
 31
0.0
  0
LINE
  5
F92
330
762
100
AcDbEntity
  8
240
100
AcDbLine
 10
-29.0
 20
6.0
 30
0.0
 11
-27.0
 21
8.0
 31
0.0
  0
LINE
  5
F93
330
762
100
AcDbEntity
  8
240
100
AcDbLine
 10
-27.0
 20
8.0
 30
0.0
 11
-25.5
 21
8.0
 31
0.0
  0
LINE
  5
F94
330
762
100
AcDbEntity
  8
240
100
AcDbLine
 10
-25.5
 20
7.0
 30
0.0
 11
-25.5
 21
8.0
 31
0.0
  0
LINE
  5
F95
330
762
100
AcDbEntity
  8
241
100
AcDbLine
 10
-16.5
 20
7.0
 30
0.0
 11
-16.5
 21
0.0
 31
0.0
  0
LINE
  5
F96
330
762
100
AcDbEntity
  8
241
100
AcDbLine
 10
-23.5
 20
7.0
 30
0.0
 11
-23.5
 21
0.0
 31
0.0
  0
LINE
  5
F97
330
762
100
AcDbEntity
  8
240
100
AcDbLine
 10
-23.5
 20
8.0
 30
0.0
 11
-16.5
 21
8.0
 31
0.0
  0
LINE
  5
F98
330
762
100
AcDbEntity
  8
240
100
AcDbLine
 10
-23.5
 20
7.0
 30
0.0
 11
-23.5
 21
8.0
 31
0.0
  0
LINE
  5
F99
330
762
100
AcDbEntity
  8
240
100
AcDbLine
 10
-16.5
 20
7.0
 30
0.0
 11
-16.5
 21
8.0
 31
0.0
  0
ARC
  5
F9A
330
762
100
AcDbEntity
  8
240
100
AcDbCircle
 10
-3.0
 20
10.0
 30
0.0
 40
1.000000000000075
100
AcDbArc
 50
0.0
 51
180.0
  0
LINE
  5
F9B
330
762
100
AcDbEntity
  8
240
100
AcDbLine
 10
-4.0
 20
10.0
 30
0.0
 11
-4.0
 21
11.0
 31
0.0
  0
LINE
  5
F9C
330
762
100
AcDbEntity
  8
240
100
AcDbLine
 10
-6.50000001
 20
10.5
 30
0.0
 11
-5.12626128
 21
11.0
 31
0.0
  0
LINE
  5
F9D
330
762
100
AcDbEntity
  8
240
100
AcDbLine
 10
-2.0
 20
10.0
 30
0.0
 11
-2.0
 21
11.0
 31
0.0
  0
ARC
  5
F9E
330
762
100
AcDbEntity
  8
240
100
AcDbCircle
 10
-0.76732699
 20
10.0
 30
0.0
 40
1.0
100
AcDbArc
 50
15.0
 51
75.0
1001
GENIUS_GENOBJ-N-FIL_13
1002
{
1000
OWNER
1000
GEN
1002
}
1001
GENIUS_GENODEF_13
1002
{
1000
HIER
1070
     0
1002
}
1002
{
1000
MANEDIT
1070
     0
1002
}
1002
{
1000
NOSEL
1070
     0
1002
}
1002
{
1000
BEHIND
1070
     0
1002
}
1002
{
1000
OTHER
1070
     0
1002
}
1002
{
1000
REACTOR
1002
}
  0
LINE
  5
F9F
330
762
100
AcDbEntity
  8
241
100
AcDbLine
 10
0.0
 20
10.64125603
 30
0.0
 11
0.0
 21
0.0
 31
0.0
  0
LINE
  5
FA0
330
762
100
AcDbEntity
  8
241
100
AcDbLine
 10
-5.12626129
 20
11.0
 30
0.0
 11
-5.12626129
 21
0.0
 31
0.0
  0
LINE
  5
FA1
330
762
100
AcDbEntity
  8
241
100
AcDbLine
 10
-14.5
 20
7.0
 30
0.0
 11
-14.5
 21
0.0
 31
0.0
  0
LINE
  5
FA2
330
762
100
AcDbEntity
  8
241
100
AcDbLine
 10
-11.0
 20
8.0
 30
0.0
 11
-11.0
 21
0.0
 31
0.0
  0
LINE
  5
FA3
330
762
100
AcDbEntity
  8
241
  6
CONTINUOUS
100
AcDbLine
 10
-6.5
 20
10.50000001
 30
0.0
 11
-6.5
 21
0.0
 31
0.0
  0
LINE
  5
FA4
330
762
100
AcDbEntity
  8
240
100
AcDbLine
 10
-10.7
 20
7.7
 30
0.0
 11
-11.0
 21
8.0
 31
0.0
  0
LINE
  5
FA5
330
762
100
AcDbEntity
  8
240
100
AcDbLine
 10
-14.5
 20
7.0
 30
0.0
 11
-14.5
 21
8.0
 31
0.0
  0
LINE
  5
FA6
330
762
100
AcDbEntity
  8
240
100
AcDbLine
 10
-14.5
 20
8.0
 30
0.0
 11
-11.0
 21
8.0
 31
0.0
  0
LINE
  5
FA7
330
762
100
AcDbEntity
  8
240
100
AcDbLine
 10
-6.50000001
 20
10.5
 30
0.0
 11
-10.0
 21
10.5
 31
0.0
  0
LINE
  5
FA8
330
762
100
AcDbEntity
  8
241
100
AcDbLine
 10
-6.5
 20
8.2
 30
0.0
 11
-9.5
 21
8.2
 31
0.0
  0
LINE
  5
FA9
330
762
100
AcDbEntity
  8
240
100
AcDbLine
 10
-10.0
 20
10.5
 30
0.0
 11
-10.0
 21
9.0
 31
0.0
  0
LINE
  5
FAA
330
762
100
AcDbEntity
  8
240
100
AcDbLine
 10
-9.5
 20
8.5
 30
0.0
 11
-10.0
 21
9.0
 31
0.0
  0
LINE
  5
FAB
330
762
100
AcDbEntity
  8
240
100
AcDbLine
 10
-10.7
 20
7.7
 30
0.0
 11
-9.5
 21
7.7
 31
0.0
  0
LINE
  5
FAC
330
762
100
AcDbEntity
  8
240
100
AcDbLine
 10
-9.5
 20
8.5
 30
0.0
 11
-9.5
 21
7.7
 31
0.0
  0
LINE
  5
FAD
330
762
100
AcDbEntity
  8
241
100
AcDbLine
 10
-2.0
 20
10.0
 30
0.0
 11
-2.0
 21
0.0
 31
0.0
  0
LINE
  5
FAE
330
762
100
AcDbEntity
  8
241
100
AcDbLine
 10
0.80384758
 20
8.35874397
 30
0.0
 11
0.80384758
 21
0.0
 31
0.0
  0
LINE
  5
FAF
330
762
100
AcDbEntity
  8
241
100
AcDbLine
 10
-4.0
 20
10.0
 30
0.0
 11
-4.0
 21
0.0
 31
0.0
  0
LINE
  5
FB0
330
762
100
AcDbEntity
  8
240
100
AcDbLine
 10
0.19859884
 20
10.25881905
 30
0.0
 11
0.60524874
 21
8.74118096
 31
0.0
  0
ARC
  5
FB1
330
762
100
AcDbEntity
  8
240
100
AcDbCircle
 10
1.57117457
 20
9.0
 30
0.0
 40
1.0
100
AcDbArc
 50
194.99999992
 51
270.0
  0
LINE
  5
FB2
330
762
100
AcDbEntity
  8
240
100
AcDbLine
 10
-0.63567449
 20
11.0
 30
0.0
 11
-2.0
 21
11.0
 31
0.0
  0
LINE
  5
FB3
330
762
100
AcDbEntity
  8
240
100
AcDbLine
 10
-4.0
 20
11.0
 30
0.0
 11
-5.12626129
 21
11.0
 31
0.0
  0
LINE
  5
FB4
330
762
100
AcDbEntity
  8
240
100
AcDbLine
 10
-0.50850794
 20
10.96592583
 30
0.0
 11
-0.63567449
 21
11.0
 31
0.0
  0
LINE
  5
FB5
330
762
100
AcDbEntity
  8
0
100
AcDbLine
 10
72.52949482
 20
1.47117731
 30
0.0
 11
78.518162
 21
1.47117731
 31
0.0
  0
LINE
  5
FB6
330
762
100
AcDbEntity
  8
0
100
AcDbLine
 10
72.52949482
 20
1.76618741
 30
0.0
 11
78.518162
 21
1.76618741
 31
0.0
  0
ARC
  5
FB7
330
762
100
AcDbEntity
  8
0
100
AcDbCircle
 10
76.99490839
 20
2.87246449
 30
0.0
 40
0.9587828249999999
100
AcDbArc
 50
163.9997507
 51
304.96387329
  0
LINE
  5
FB8
330
762
100
AcDbEntity
  8
0
100
AcDbLine
 10
75.65733051
 20
1.47117731
 30
0.0
 11
75.95234061
 21
1.76618741
 31
0.0
  0
LINE
  5
FB9
330
762
100
AcDbEntity
  8
0
100
AcDbLine
 10
75.46170901
 20
1.91369245
 30
0.0
 11
76.22303509
 21
4.56876143
 31
0.0
  0
LINE
  5
FBA
330
762
100
AcDbEntity
  8
0
100
AcDbLine
 10
75.46170901
 20
1.91369245
 30
0.0
 11
76.22303509
 21
4.56876143
 31
0.0
1001
HATCH_DISTANCE
1040
1.0
1001
HATCH_DISPLAY
1070
     0
1001
HATCH_TYPE
1070
     7
  0
LINE
  5
FBB
330
762
100
AcDbEntity
  8
0
100
AcDbLine
 10
75.46170901
 20
1.91369245
 30
0.0
 11
76.22303509
 21
4.56876143
 31
0.0
  0
LINE
  5
FBC
330
762
100
AcDbEntity
  8
0
100
AcDbLine
 10
75.33413695
 20
3.7698852
 30
0.0
 11
76.13301319
 21
4.56876143
 31
0.0
  0
LINE
  5
FBD
330
762
100
AcDbEntity
  8
0
100
AcDbLine
 10
75.20237744
 20
3.31038799
 30
0.0
 11
76.12746815
 21
4.2354787
 31
0.0
  0
LINE
  5
FBE
330
762
100
AcDbEntity
  8
0
100
AcDbLine
 10
75.07061793
 20
2.8508908
 30
0.0
 11
75.99571043
 21
3.7759833
 31
0.0
  0
LINE
  5
FBF
330
762
100
AcDbEntity
  8
0
100
AcDbLine
 10
76.22303509
 20
4.56876143
 30
0.0
 11
75.455795
 21
4.56876143
 31
0.0
  0
LINE
  5
FC0
330
762
100
AcDbEntity
  8
0
100
AcDbLine
 10
76.22303509
 20
4.56876143
 30
0.0
 11
75.455795
 21
4.56876143
 31
0.0
1001
HATCH_DISTANCE
1040
1.0
1001
HATCH_DISPLAY
1070
     0
1001
HATCH_TYPE
1070
     7
  0
LINE
  5
FC1
330
762
100
AcDbEntity
  8
0
100
AcDbLine
 10
75.455795
 20
4.56876143
 30
0.0
 11
76.22303509
 21
4.56876143
 31
0.0
  0
ARC
  5
FC2
330
762
100
AcDbEntity
  8
0
100
AcDbCircle
 10
74.24689733
 20
3.83124731
 30
0.0
 40
0.73752037734375
100
AcDbArc
 50
287.66957755
 51
90.23615984
  0
LINE
  5
FC3
330
762
100
AcDbEntity
  8
0
100
AcDbLine
 10
71.02692588
 20
3.39552628
 30
0.0
 11
72.15393809
 21
4.52253849
 31
0.0
  0
LINE
  5
FC4
330
762
100
AcDbEntity
  8
0
100
AcDbLine
 10
71.32117818
 20
2.05109019
 30
0.0
 11
71.53133903
 21
2.26125103
 31
0.0
  0
ARC
  5
FC5
330
762
100
AcDbEntity
  8
0
100
AcDbCircle
 10
72.52949482
 20
3.01996954
 30
0.0
 40
1.548791887499995
100
AcDbArc
 50
90.0
 51
270.0
  0
LINE
  5
FC6
330
762
100
AcDbEntity
  8
0
100
AcDbLine
 10
71.18810004
 20
2.24574972
 30
0.0
 11
71.40592966
 21
2.46357933
 31
0.0
  0
ARC
  5
FC7
330
762
100
AcDbEntity
  8
0
100
AcDbCircle
 10
72.52949482
 20
3.01996954
 30
0.0
 40
1.253781787499995
100
AcDbArc
 50
90.0
 51
270.0
  0
LINE
  5
FC8
330
762
100
AcDbEntity
  8
0
100
AcDbLine
 10
71.08245809
 20
2.46784546
 30
0.0
 11
71.31668419
 21
2.70207155
 31
0.0
  0
LINE
  5
FC9
330
762
100
AcDbEntity
  8
0
100
AcDbLine
 10
70.98070376
 20
3.02156648
 30
0.0
 11
71.3241164
 21
3.36497912
 31
0.0
  0
LINE
  5
FCA
330
762
100
AcDbEntity
  8
0
100
AcDbLine
 10
71.00951148
 20
2.72263652
 30
0.0
 11
71.27609029
 21
2.98921533
 31
0.0
  0
LINE
  5
FCB
330
762
100
AcDbEntity
  8
0
100
AcDbLine
 10
72.52949482
 20
4.56876143
 30
0.0
 11
73.13872722
 21
4.56876143
 31
0.0
  0
LINE
  5
FCC
330
762
100
AcDbEntity
  8
0
100
AcDbLine
 10
72.52949482
 20
4.27375133
 30
0.0
 11
73.0541379
 21
4.27375133
 31
0.0
  0
LINE
  5
FCD
330
762
100
AcDbEntity
  8
0
100
AcDbLine
 10
72.38656342
 20
1.47778702
 30
0.0
 11
72.6749638
 21
1.76618741
 31
0.0
  0
LINE
  5
FCE
330
762
100
AcDbEntity
  8
0
100
AcDbLine
 10
72.18448525
 20
4.22534797
 30
0.0
 11
72.52789788
 21
4.5687606
 31
0.0
  0
LINE
  5
FCF
330
762
100
AcDbEntity
  8
0
100
AcDbLine
 10
71.47937408
 20
1.88154839
 30
0.0
 11
71.68818744
 21
2.09036175
 31
0.0
  0
LINE
  5
FD0
330
762
100
AcDbEntity
  8
0
100
AcDbLine
 10
71.66229006
 20
1.7367267
 30
0.0
 11
71.87570619
 21
1.95014283
 31
0.0
  0
LINE
  5
FD1
330
762
100
AcDbEntity
  8
0
100
AcDbLine
 10
71.87129651
 20
1.61799547
 30
0.0
 11
72.09659466
 21
1.84329362
 31
0.0
  0
LINE
  5
FD2
330
762
100
AcDbEntity
  8
0
100
AcDbLine
 10
72.11008513
 20
1.5290464
 30
0.0
 11
72.35888823
 21
1.77784951
 31
0.0
  0
LINE
  5
FD3
330
762
100
AcDbEntity
  8
0
100
AcDbLine
 10
74.01864211
 20
1.47117731
 30
0.0
 11
74.31365221
 21
1.76618741
 31
0.0
  0
LINE
  5
FD4
330
762
100
AcDbEntity
  8
0
100
AcDbLine
 10
74.34637979
 20
1.47117731
 30
0.0
 11
74.64138988
 21
1.76618741
 31
0.0
  0
LINE
  5
FD5
330
762
100
AcDbEntity
  8
0
100
AcDbLine
 10
74.67411747
 20
1.47117731
 30
0.0
 11
74.96912757
 21
1.76618741
 31
0.0
  0
LINE
  5
FD6
330
762
100
AcDbEntity
  8
0
100
AcDbLine
 10
75.00185515
 20
1.47117731
 30
0.0
 11
75.29686525
 21
1.76618741
 31
0.0
  0
LINE
  5
FD7
330
762
100
AcDbEntity
  8
0
100
AcDbLine
 10
75.32959283
 20
1.47117731
 30
0.0
 11
75.62460292
 21
1.76618741
 31
0.0
  0
LINE
  5
FD8
330
762
100
AcDbEntity
  8
0
100
AcDbLine
 10
74.80187895
 20
1.91369245
 30
0.0
 11
75.46170901
 21
1.91369245
 31
0.0
  0
LINE
  5
FD9
330
762
100
AcDbEntity
  8
0
100
AcDbLine
 10
75.11663262
 20
1.91369245
 30
0.0
 11
75.60043726
 21
2.3974971
 31
0.0
  0
LINE
  5
FDA
330
762
100
AcDbEntity
  8
0
100
AcDbLine
 10
75.44437029
 20
1.91369245
 30
0.0
 11
75.46867954
 21
1.9380017
 31
0.0
  0
LINE
  5
FDB
330
762
100
AcDbEntity
  8
0
100
AcDbLine
 10
74.80187895
 20
1.91369245
 30
0.0
 11
75.46170901
 21
1.91369245
 31
0.0
  0
LINE
  5
FDC
330
762
100
AcDbEntity
  8
0
100
AcDbLine
 10
74.80187895
 20
1.91369245
 30
0.0
 11
75.46170901
 21
1.91369245
 31
0.0
1001
HATCH_DISTANCE
1040
1.0
1001
HATCH_DISPLAY
1070
     0
1001
HATCH_TYPE
1070
     7
  0
LINE
  5
FDD
330
762
100
AcDbEntity
  8
0
100
AcDbLine
 10
74.18871497
 20
1.96898784
 30
0.0
 11
74.59074801
 21
2.37102089
 31
0.0
  0
LINE
  5
FDE
330
762
100
AcDbEntity
  8
0
100
AcDbLine
 10
74.80187895
 20
1.91369245
 30
0.0
 11
75.47016236
 21
4.24425923
 31
0.0
  0
LINE
  5
FDF
330
762
100
AcDbEntity
  8
0
100
AcDbLine
 10
74.80709889
 20
1.9318964
 30
0.0
 11
75.73219499
 21
2.8569925
 31
0.0
  0
LINE
  5
FE0
330
762
100
AcDbEntity
  8
0
100
AcDbLine
 10
75.47016236
 20
4.24425923
 30
0.0
 11
74.80187895
 21
1.91369245
 31
0.0
  0
LINE
  5
FE1
330
762
100
AcDbEntity
  8
0
100
AcDbLine
 10
75.47016236
 20
4.24425923
 30
0.0
 11
74.80187895
 21
1.91369245
 31
0.0
1001
HATCH_DISTANCE
1040
1.0
1001
HATCH_DISPLAY
1070
     0
1001
HATCH_TYPE
1070
     7
  0
LINE
  5
FE2
330
762
100
AcDbEntity
  8
0
100
AcDbLine
 10
74.93885841
 20
2.3913936
 30
0.0
 11
75.86395271
 21
3.31648791
 31
0.0
  0
LINE
  5
FE3
330
762
100
AcDbEntity
  8
0
100
AcDbLine
 10
72.89226281
 20
2.63896177
 30
0.0
 11
73.92492502
 21
3.67162397
 31
0.0
  0
LINE
  5
FE4
330
762
100
AcDbEntity
  8
0
100
AcDbLine
 10
72.88836397
 20
4.27375133
 30
0.0
 11
73.12077915
 21
4.5061665
 31
0.0
  0
LINE
  5
FE5
330
762
100
AcDbEntity
  8
0
100
AcDbLine
 10
72.56062629
 20
4.27375133
 30
0.0
 11
72.85563639
 21
4.56876143
 31
0.0
  0
LINE
  5
FE6
330
762
100
AcDbEntity
  8
0
100
AcDbLine
 10
73.21610165
 20
4.27375133
 30
0.0
 11
73.51111175
 21
4.56876143
 31
0.0
  0
LINE
  5
FE7
330
762
100
AcDbEntity
  8
0
100
AcDbLine
 10
73.28753857
 20
4.01745057
 30
0.0
 11
73.83884942
 21
4.56876143
 31
0.0
  0
LINE
  5
FE8
330
762
100
AcDbEntity
  8
0
100
AcDbLine
 10
73.29216855
 20
4.56876143
 30
0.0
 11
73.20757925
 21
4.27375133
 31
0.0
  0
LINE
  5
FE9
330
762
100
AcDbEntity
  8
0
100
AcDbLine
 10
73.13872722
 20
4.56876143
 30
0.0
 11
73.0541379
 21
4.27375133
 31
0.0
  0
LINE
  5
FEA
330
762
100
AcDbEntity
  8
0
100
AcDbLine
 10
73.20757925
 20
4.27375133
 30
0.0
 11
73.36103171
 21
4.27375133
 31
0.0
  0
LINE
  5
FEB
330
762
100
AcDbEntity
  8
0
100
AcDbLine
 10
72.68429494
 20
1.91369245
 30
0.0
 11
73.90852894
 21
1.91369245
 31
0.0
  0
LINE
  5
FEC
330
762
100
AcDbEntity
  8
0
100
AcDbLine
 10
72.70769139
 20
1.47117731
 30
0.0
 11
73.00270149
 21
1.76618741
 31
0.0
  0
LINE
  5
FED
330
762
100
AcDbEntity
  8
0
100
AcDbLine
 10
73.36316675
 20
1.47117731
 30
0.0
 11
73.65817685
 21
1.76618741
 31
0.0
  0
LINE
  5
FEE
330
762
100
AcDbEntity
  8
0
100
AcDbLine
 10
73.15020654
 20
1.91369245
 30
0.0
 11
73.52965527
 21
2.29314118
 31
0.0
  0
LINE
  5
FEF
330
762
100
AcDbEntity
  8
0
100
AcDbLine
 10
73.03542908
 20
1.47117731
 30
0.0
 11
73.33043916
 21
1.76618741
 31
0.0
  0
LINE
  5
FF0
330
762
100
AcDbEntity
  8
0
100
AcDbLine
 10
72.82246886
 20
1.91369245
 30
0.0
 11
73.66140707
 21
2.75263066
 31
0.0
  0
LINE
  5
FF1
330
762
100
AcDbEntity
  8
0
100
AcDbLine
 10
72.68429494
 20
1.91369245
 30
0.0
 11
73.36103171
 21
4.27375133
 31
0.0
  0
LINE
  5
FF2
330
762
100
AcDbEntity
  8
0
100
AcDbLine
 10
73.75700253
 20
3.08602352
 30
0.0
 11
73.5152411
 21
2.24287118
 31
0.0
  0
LINE
  5
FF3
330
762
100
AcDbEntity
  8
0
100
AcDbLine
 10
72.76050422
 20
2.17946551
 30
0.0
 11
74.00872288
 21
3.42768416
 31
0.0
  0
LINE
  5
FF4
330
762
100
AcDbEntity
  8
0
100
AcDbLine
 10
73.15577999
 20
3.55795431
 30
0.0
 11
74.16658711
 21
4.56876143
 31
0.0
  0
LINE
  5
FF5
330
762
100
AcDbEntity
  8
0
100
AcDbLine
 10
73.0240214
 20
3.09845804
 30
0.0
 11
74.05667925
 21
4.13111589
 31
0.0
  0
LINE
  5
FF6
330
762
100
AcDbEntity
  8
0
100
AcDbLine
 10
73.89731069
 20
2.98853428
 30
0.0
 11
74.95299805
 21
4.04422166
 31
0.0
  0
ARC
  5
FF7
330
762
100
AcDbEntity
  8
0
100
AcDbCircle
 10
73.91777306
 20
3.86073941
 30
0.0
 40
0.4425027943359379
100
AcDbArc
 50
261.66260169
 51
66.3381551
  0
LINE
  5
FF8
330
762
100
AcDbEntity
  8
0
100
AcDbLine
 10
74.0953674
 20
4.2660405
 30
0.0
 11
73.85360994
 21
3.42291317
 31
0.0
  0
LINE
  5
FF9
330
762
100
AcDbEntity
  8
0
100
AcDbLine
 10
73.69090444
 20
1.47117731
 30
0.0
 11
73.98591452
 21
1.76618741
 31
0.0
  0
ARC
  5
FFA
330
762
100
AcDbEntity
  8
0
100
AcDbCircle
 10
73.90852894
 20
2.65120691
 30
0.0
 40
0.7375141125000006
100
AcDbArc
 50
270.0
 51
40.32984065
  0
LINE
  5
FFB
330
762
100
AcDbEntity
  8
0
100
AcDbLine
 10
73.8056819
 20
1.91369245
 30
0.0
 11
74.63970181
 21
2.74771236
 31
0.0
  0
LINE
  5
FFC
330
762
100
AcDbEntity
  8
0
100
AcDbLine
 10
73.47794421
 20
1.91369245
 30
0.0
 11
74.56040334
 21
2.99615159
 31
0.0
  0
ARC
  5
FFD
330
762
100
AcDbEntity
  8
0
100
AcDbCircle
 10
73.57940468
 20
2.68071015
 30
0.0
 40
0.4425154545410158
100
AcDbArc
 50
261.66285421
 51
66.33819216
  0
LINE
  5
FFE
330
762
100
AcDbEntity
  8
0
100
AcDbLine
 10
73.29216855
 20
4.56876143
 30
0.0
 11
74.24385745
 21
4.56876143
 31
0.0
  0
LINE
  5
FFF
330
762
100
AcDbEntity
  8
0
100
AcDbLine
 10
75.46589647
 20
4.22938239
 30
0.0
 11
75.80527551
 21
4.56876143
 31
0.0
  0
LINE
  5
1000
330
762
100
AcDbEntity
  8
0
100
AcDbLine
 10
74.3130164
 20
4.05971536
 30
0.0
 11
74.6808722
 21
4.42757116
 31
0.0
  0
LINE
  5
1001
330
762
100
AcDbEntity
  8
0
100
AcDbLine
 10
75.455795
 20
4.56876143
 30
0.0
 11
75.36274118
 21
4.24425923
 31
0.0
  0
LINE
  5
1002
330
762
100
AcDbEntity
  8
0
100
AcDbLine
 10
75.455795
 20
4.56876143
 30
0.0
 11
75.36274118
 21
4.24425923
 31
0.0
1001
HATCH_DISTANCE
1040
1.0
1001
HATCH_DISPLAY
1070
     0
1001
HATCH_TYPE
1070
     7
  0
LINE
  5
1003
330
762
100
AcDbEntity
  8
0
100
AcDbLine
 10
75.36274118
 20
4.24425923
 30
0.0
 11
75.455795
 21
4.56876143
 31
0.0
  0
LINE
  5
1004
330
762
100
AcDbEntity
  8
0
100
AcDbLine
 10
74.15795172
 20
4.23238836
 30
0.0
 11
74.46220379
 21
4.53664042
 31
0.0
  0
LINE
  5
1005
330
762
100
AcDbEntity
  8
0
100
AcDbLine
 10
75.36274118
 20
4.24425923
 30
0.0
 11
75.47016236
 21
4.24425923
 31
0.0
  0
LINE
  5
1006
330
762
100
AcDbEntity
  8
0
100
AcDbLine
 10
75.36274118
 20
4.24425923
 30
0.0
 11
75.47016236
 21
4.24425923
 31
0.0
1001
HATCH_DISTANCE
1040
1.0
1001
HATCH_DISPLAY
1070
     0
1001
HATCH_TYPE
1070
     7
  0
LINE
  5
1007
330
762
100
AcDbEntity
  8
0
100
AcDbLine
 10
75.36274118
 20
4.24425923
 30
0.0
 11
75.47016236
 21
4.24425923
 31
0.0
  0
LINE
  5
1008
330
762
100
AcDbEntity
  8
0
100
AcDbLine
 10
74.35082832
 20
3.7697896
 30
0.0
 11
74.84449924
 21
4.26346052
 31
0.0
  0
LINE
  5
1009
330
762
100
AcDbEntity
  8
0
100
AcDbLine
 10
74.01171425
 20
2.77520017
 30
0.0
 11
74.97906481
 21
3.74255073
 31
0.0
  0
LINE
  5
100A
330
762
100
AcDbEntity
  8
0
100
AcDbLine
 10
75.44705329
 20
4.53827688
 30
0.0
 11
75.47753783
 21
4.56876143
 31
0.0
  0
TEXT
  5
100B
330
762
100
AcDbEntity
  8
0
100
AcDbText
 10
80.83191082
 20
1.88610653
 30
0.0
 40
2.5
  1
MGT6-M5-200
  7
YOKO
100
AcDbText
  0
ARC
  5
100C
330
762
100
AcDbEntity
  8
0
100
AcDbCircle
 10
77.20638724
 20
3.60998974
 30
0.0
 40
0.9587730796874998
100
AcDbArc
 50
53.4440122
 51
164.00018439
  0
ARC
  5
100D
330
762
100
AcDbEntity
  8
0
100
AcDbCircle
 10
78.518162
 20
3.01996954
 30
0.0
 40
1.548791887499995
100
AcDbArc
 50
270.0
 51
104.77079397
  0
LINE
  5
100E
330
762
100
AcDbEntity
  8
0
100
AcDbLine
 10
76.96828123
 20
1.47117731
 30
0.0
 11
77.26329133
 21
1.76618741
 31
0.0
  0
LINE
  5
100F
330
762
100
AcDbEntity
  8
0
100
AcDbLine
 10
77.0875324
 20
1.91816616
 30
0.0
 11
77.97241877
 21
2.80305253
 31
0.0
  0
ARC
  5
1010
330
762
100
AcDbEntity
  8
0
100
AcDbCircle
 10
76.96323334
 20
2.54796229
 30
0.0
 40
0.3097602395507813
100
AcDbArc
 50
164.00027306
 51
344.00027306
  0
ARC
  5
1011
330
762
100
AcDbEntity
  8
0
100
AcDbCircle
 10
77.36081982
 20
3.93449193
 30
0.0
 40
0.3097604570800781
100
AcDbArc
 50
1.71012138
 51
163.99839835
  0
LINE
  5
1012
330
762
100
AcDbEntity
  8
0
100
AcDbLine
 10
76.08333782
 20
3.20813533
 30
0.0
 11
77.41989107
 21
4.54468858
 31
0.0
  0
LINE
  5
1013
330
762
100
AcDbEntity
  8
0
100
AcDbLine
 10
76.31280587
 20
1.47117731
 30
0.0
 11
76.60781597
 21
1.76618741
 31
0.0
  0
LINE
  5
1014
330
762
100
AcDbEntity
  8
0
100
AcDbLine
 10
75.9850682
 20
1.47117731
 30
0.0
 11
76.28007828
 21
1.76618741
 31
0.0
  0
LINE
  5
1015
330
762
100
AcDbEntity
  8
0
100
AcDbLine
 10
76.54153669
 20
2.02764581
 30
0.0
 11
76.7991323
 21
2.28524142
 31
0.0
  0
LINE
  5
1016
330
762
100
AcDbEntity
  8
0
100
AcDbLine
 10
76.77976112
 20
1.93813256
 30
0.0
 11
77.12610781
 21
2.28447924
 31
0.0
  0
LINE
  5
1017
330
762
100
AcDbEntity
  8
0
100
AcDbLine
 10
76.64054356
 20
1.47117731
 30
0.0
 11
76.93555364
 21
1.76618741
 31
0.0
  0
LINE
  5
1018
330
762
100
AcDbEntity
  8
0
100
AcDbLine
 10
76.19790961
 20
2.33949409
 30
0.0
 11
76.73531018
 21
2.87689466
 31
0.0
  0
LINE
  5
1019
330
762
100
AcDbEntity
  8
0
100
AcDbLine
 10
76.34954997
 20
2.16339677
 30
0.0
 11
76.66198763
 21
2.47583443
 31
0.0
  0
ARC
  5
101A
330
762
100
AcDbEntity
  8
0
100
AcDbCircle
 10
78.56246696
 20
2.82205616
 30
0.0
 40
2.509011449999999
100
AcDbArc
 50
155.20517737
 51
172.79482596
  0
LINE
  5
101B
330
762
100
AcDbEntity
  8
0
100
AcDbLine
 10
76.19214438
 20
3.64467957
 30
0.0
 11
77.11152298
 21
4.56405818
 31
0.0
  0
LINE
  5
101C
330
762
100
AcDbEntity
  8
0
100
AcDbLine
 10
76.03689909
 20
2.83395893
 30
0.0
 11
76.99882906
 21
3.7958889
 31
0.0
  0
LINE
  5
101D
330
762
100
AcDbEntity
  8
0
100
AcDbLine
 10
76.08903726
 20
2.55835942
 30
0.0
 11
76.86706962
 21
3.33639178
 31
0.0
  0
LINE
  5
101E
330
762
100
AcDbEntity
  8
0
100
AcDbLine
 10
76.66547228
 20
2.63334237
 30
0.0
 11
77.06305876
 21
4.01988315
 31
0.0
  0
ARC
  5
101F
330
762
100
AcDbEntity
  8
0
100
AcDbCircle
 10
78.518162
 20
3.01996954
 30
0.0
 40
1.253781787499995
100
AcDbArc
 50
270.0
 51
104.1274365
  0
LINE
  5
1020
330
762
100
AcDbEntity
  8
0
100
AcDbLine
 10
79.6693268
 20
3.51674751
 30
0.0
 11
79.8904978
 21
3.73791851
 31
0.0
  0
LINE
  5
1021
330
762
100
AcDbEntity
  8
0
100
AcDbLine
 10
79.67688994
 20
2.54109761
 30
0.0
 11
80.06424785
 21
2.92845554
 31
0.0
  0
LINE
  5
1022
330
762
100
AcDbEntity
  8
0
100
AcDbLine
 10
79.55287022
 20
3.72802861
 30
0.0
 11
79.7644008
 21
3.9395592
 31
0.0
  0
LINE
  5
1023
330
762
100
AcDbEntity
  8
0
100
AcDbLine
 10
79.01736387
 20
1.55383387
 30
0.0
 11
79.98429765
 21
2.52076765
 31
0.0
  0
LINE
  5
1024
330
762
100
AcDbEntity
  8
0
100
AcDbLine
 10
79.74735855
 20
3.26704159
 30
0.0
 11
79.98811955
 21
3.50780259
 31
0.0
  0
LINE
  5
1025
330
762
100
AcDbEntity
  8
0
100
AcDbLine
 10
78.27923195
 20
1.47117731
 30
0.0
 11
78.57555677
 21
1.76750213
 31
0.0
  0
LINE
  5
1026
330
762
100
AcDbEntity
  8
0
100
AcDbLine
 10
77.56409227
 20
2.06698834
 30
0.0
 11
77.84065978
 21
2.34355586
 31
0.0
  0
LINE
  5
1027
330
762
100
AcDbEntity
  8
0
100
AcDbLine
 10
77.54434355
 20
2.08673579
 30
0.0
 11
77.71739801
 21
1.91369245
 31
0.0
  0
LINE
  5
1028
330
762
100
AcDbEntity
  8
0
100
AcDbLine
 10
77.29601892
 20
1.47117731
 30
0.0
 11
77.591029
 21
1.76618741
 31
0.0
  0
LINE
  5
1029
330
762
100
AcDbEntity
  8
0
100
AcDbLine
 10
77.62375659
 20
1.47117731
 30
0.0
 11
77.91876669
 21
1.76618741
 31
0.0
  0
LINE
  5
102A
330
762
100
AcDbEntity
  8
0
100
AcDbLine
 10
77.22671639
 20
2.38508782
 30
0.0
 11
78.10417776
 21
3.2625492
 31
0.0
  0
LINE
  5
102B
330
762
100
AcDbEntity
  8
0
100
AcDbLine
 10
77.71739801
 20
1.91369245
 30
0.0
 11
78.14882021
 21
3.4182354
 31
0.0
  0
LINE
  5
102C
330
762
100
AcDbEntity
  8
0
100
AcDbLine
 10
79.7706294
 20
2.96257476
 30
0.0
 11
80.05084215
 21
3.2427875
 31
0.0
  0
LINE
  5
102D
330
762
100
AcDbEntity
  8
0
100
AcDbLine
 10
78.76342018
 20
4.24952929
 30
0.0
 11
79.00435969
 21
4.49046881
 31
0.0
  0
LINE
  5
102E
330
762
100
AcDbEntity
  8
0
100
AcDbLine
 10
77.43754106
 20
4.2346009
 30
0.0
 11
77.65844262
 21
4.45550246
 31
0.0
  0
LINE
  5
102F
330
762
100
AcDbEntity
  8
0
100
AcDbLine
 10
77.6257236
 20
4.09504576
 30
0.0
 11
77.98771845
 21
4.45704061
 31
0.0
  0
LINE
  5
1030
330
762
100
AcDbEntity
  8
0
100
AcDbLine
 10
78.07145914
 20
4.19147861
 30
0.0
 11
77.9826153
 21
4.47322395
 31
0.0
  0
LINE
  5
1031
330
762
100
AcDbEntity
  8
0
100
AcDbLine
 10
78.12329307
 20
4.51758462
 30
0.0
 11
78.21213691
 21
4.23583928
 31
0.0
  0
LINE
  5
1032
330
762
100
AcDbEntity
  8
0
100
AcDbLine
 10
78.21213691
 20
4.23583928
 30
0.0
 11
78.12329307
 21
4.51758462
 31
0.0
  0
LINE
  5
1033
330
762
100
AcDbEntity
  8
0
100
AcDbLine
 10
78.12329307
 20
4.51758462
 30
0.0
 11
78.21213691
 21
4.23583928
 31
0.0
1001
HATCH_DISTANCE
1040
1.0
1001
HATCH_DISPLAY
1070
     0
1001
HATCH_TYPE
1070
     7
  0
LINE
  5
1034
330
762
100
AcDbEntity
  8
0
100
AcDbLine
 10
78.21213691
 20
4.23583928
 30
0.0
 11
78.12329307
 21
4.51758462
 31
0.0
1001
HATCH_DISTANCE
1040
1.0
1001
HATCH_DISPLAY
1070
     0
1001
HATCH_TYPE
1070
     7
  0
LINE
  5
1035
330
762
100
AcDbEntity
  8
0
100
AcDbLine
 10
78.12329307
 20
4.51758462
 30
0.0
 11
78.21213691
 21
4.23583928
 31
0.0
  0
LINE
  5
1036
330
762
100
AcDbEntity
  8
0
100
AcDbLine
 10
78.21213691
 20
4.23583928
 30
0.0
 11
78.12329307
 21
4.51758462
 31
0.0
  0
LINE
  5
1037
330
762
100
AcDbEntity
  8
0
100
AcDbLine
 10
78.12329307
 20
4.51758462
 30
0.0
 11
78.21213691
 21
4.23583928
 31
0.0
1001
HATCH_DISTANCE
1040
1.0
1001
HATCH_DISPLAY
1070
     0
1001
HATCH_TYPE
1070
     7
  0
LINE
  5
1038
330
762
100
AcDbEntity
  8
0
100
AcDbLine
 10
78.21213691
 20
4.23583928
 30
0.0
 11
78.12329307
 21
4.51758462
 31
0.0
1001
HATCH_DISTANCE
1040
1.0
1001
HATCH_DISPLAY
1070
     0
1001
HATCH_TYPE
1070
     7
  0
LINE
  5
1039
330
762
100
AcDbEntity
  8
0
100
AcDbLine
 10
78.21213691
 20
4.23583928
 30
0.0
 11
78.12329307
 21
4.51758462
 31
0.0
  0
LINE
  5
103A
330
762
100
AcDbEntity
  8
0
100
AcDbLine
 10
78.45848341
 20
4.2723302
 30
0.0
 11
78.73907817
 21
4.55292497
 31
0.0
  0
LINE
  5
103B
330
762
100
AcDbEntity
  8
0
100
AcDbLine
 10
77.26099441
 20
2.46258221
 30
0.0
 11
77.45043214
 21
3.1232253
 31
0.0
  0
LINE
  5
103C
330
762
100
AcDbEntity
  8
0
100
AcDbLine
 10
78.21213691
 20
4.23583928
 30
0.0
 11
78.21213691
 21
4.23583928
 31
0.0
  0
LINE
  5
103D
330
762
100
AcDbEntity
  8
0
100
AcDbLine
 10
78.21213691
 20
4.23583928
 30
0.0
 11
78.21213691
 21
4.23583928
 31
0.0
1001
HATCH_DISTANCE
1040
1.0
1001
HATCH_DISPLAY
1070
     0
1001
HATCH_TYPE
1070
     7
  0
LINE
  5
103E
330
762
100
AcDbEntity
  8
0
100
AcDbLine
 10
78.21213691
 20
4.23583928
 30
0.0
 11
78.21213691
 21
4.23583928
 31
0.0
  0
LINE
  5
103F
330
762
100
AcDbEntity
  8
0
100
AcDbLine
 10
78.21213691
 20
4.23583928
 30
0.0
 11
78.21213691
 21
4.23583928
 31
0.0
1001
HATCH_DISTANCE
1040
1.0
1001
HATCH_DISPLAY
1070
     0
1001
HATCH_TYPE
1070
     7
  0
LINE
  5
1040
330
762
100
AcDbEntity
  8
0
100
AcDbLine
 10
78.03557407
 20
4.17715855
 30
0.0
 11
78.06628922
 21
4.20787369
 31
0.0
  0
LINE
  5
1041
330
762
100
AcDbEntity
  8
0
100
AcDbLine
 10
77.30937851
 20
3.1232253
 30
0.0
 11
77.6043886
 21
3.4182354
 31
0.0
  0
LINE
  5
1042
330
762
100
AcDbEntity
  8
0
100
AcDbLine
 10
77.37537994
 20
2.86148905
 30
0.0
 11
77.93212629
 21
3.4182354
 31
0.0
  0
ARC
  5
1043
330
762
100
AcDbEntity
  8
0
100
AcDbCircle
 10
78.518162
 20
3.01996954
 30
0.0
 40
1.253785267968747
100
AcDbArc
 50
110.8721834
 51
132.54194894
  0
LINE
  5
1044
330
762
100
AcDbEntity
  8
0
100
AcDbLine
 10
77.2895064
 20
3.4182354
 30
0.0
 11
78.14882021
 21
3.4182354
 31
0.0
  0
LINE
  5
1045
330
762
100
AcDbEntity
  8
0
100
AcDbLine
 10
77.20491709
 20
3.1232253
 30
0.0
 11
77.2895064
 21
3.4182354
 31
0.0
  0
LINE
  5
1046
330
762
100
AcDbEntity
  8
0
100
AcDbLine
 10
77.20491709
 20
3.1232253
 30
0.0
 11
77.45043214
 21
3.1232253
 31
0.0
  0
LINE
  5
1047
330
762
100
AcDbEntity
  8
0
100
AcDbLine
 10
78.12329307
 20
4.51758462
 30
0.0
 11
78.12329307
 21
4.51758462
 31
0.0
  0
LINE
  5
1048
330
762
100
AcDbEntity
  8
0
100
AcDbLine
 10
78.12329307
 20
4.51758462
 30
0.0
 11
78.12329307
 21
4.51758462
 31
0.0
1001
HATCH_DISTANCE
1040
1.0
1001
HATCH_DISPLAY
1070
     0
1001
HATCH_TYPE
1070
     7
  0
LINE
  5
1049
330
762
100
AcDbEntity
  8
0
100
AcDbLine
 10
78.12329307
 20
4.51758462
 30
0.0
 11
78.12329307
 21
4.51758462
 31
0.0
  0
LINE
  5
104A
330
762
100
AcDbEntity
  8
0
100
AcDbLine
 10
78.12329307
 20
4.51758462
 30
0.0
 11
78.12329307
 21
4.51758462
 31
0.0
1001
HATCH_DISTANCE
1040
1.0
1001
HATCH_DISPLAY
1070
     0
1001
HATCH_TYPE
1070
     7
  0
ARC
  5
104B
330
762
100
AcDbEntity
  8
0
100
AcDbCircle
 10
78.518162
 20
3.01996954
 30
0.0
 40
1.548792583593745
100
AcDbArc
 50
110.22964506
 51
118.57168892
  0
LINE
  5
104C
330
762
100
AcDbEntity
  8
0
100
AcDbLine
 10
78.18387623
 20
4.32546071
 30
0.0
 11
78.4243321
 21
4.56591658
 31
0.0
  0
LINE
  5
104D
330
762
100
AcDbEntity
  8
0
100
AcDbLine
 10
79.01341836
 20
4.1717898
 30
0.0
 11
79.23468104
 21
4.39305248
 31
0.0
  0
LINE
  5
104E
330
762
100
AcDbEntity
  8
0
100
AcDbLine
 10
79.40417516
 20
3.90707124
 30
0.0
 11
79.61277884
 21
4.11567491
 31
0.0
  0
LINE
  5
104F
330
762
100
AcDbEntity
  8
0
100
AcDbLine
 10
79.22492781
 20
4.05556156
 30
0.0
 11
79.43649839
 21
4.26713214
 31
0.0
  0
LINE
  5
1050
330
762
100
AcDbEntity
  8
0
100
AcDbLine
 10
78.609676
 20
1.47388367
 30
0.0
 11
78.99703392
 21
1.8612416
 31
0.0
  0
LINE
  5
1051
330
762
100
AcDbEntity
  8
0
100
AcDbLine
 10
77.95149427
 20
1.47117731
 30
0.0
 11
78.24650436
 21
1.76618741
 31
0.0
  0
LINE
  5
1052
330
762
100
AcDbEntity
  8
241
100
AcDbLine
 10
183.0
 20
-8.15
 30
0.0
 11
183.0
 21
0.0
 31
0.0
  0
LINE
  5
1053
330
762
100
AcDbEntity
  8
241
100
AcDbLine
 10
184.2
 20
-8.0
 30
0.0
 11
184.2
 21
0.0
 31
0.0
  0
LINE
  5
1054
330
762
100
AcDbEntity
  8
241
100
AcDbLine
 10
180.0
 20
-6.2
 30
0.0
 11
180.0
 21
0.0
 31
0.0
  0
LINE
  5
1055
330
762
100
AcDbEntity
  8
241
100
AcDbLine
 10
181.0
 20
-6.2
 30
0.0
 11
181.0
 21
0.0
 31
0.0
  0
LINE
  5
1056
330
762
100
AcDbEntity
  8
240
100
AcDbLine
 10
180.0
 20
-6.2
 30
0.0
 11
180.0
 21
-8.0
 31
0.0
  0
LINE
  5
1057
330
762
100
AcDbEntity
  8
240
100
AcDbLine
 10
181.0
 20
-6.2
 30
0.0
 11
181.0
 21
-8.15
 31
0.0
  0
LINE
  5
1058
330
762
100
AcDbEntity
  8
240
100
AcDbLine
 10
181.0
 20
-8.15
 30
0.0
 11
183.0
 21
-8.15
 31
0.0
  0
LINE
  5
1059
330
762
100
AcDbEntity
  8
240
100
AcDbLine
 10
183.15
 20
-8.0
 30
0.0
 11
183.0
 21
-8.15
 31
0.0
  0
LINE
  5
105A
330
762
100
AcDbEntity
  8
240
100
AcDbLine
 10
181.0
 20
-6.2
 30
0.0
 11
180.0
 21
-6.2
 31
0.0
  0
LINE
  5
105B
330
762
100
AcDbEntity
  8
241
100
AcDbLine
 10
180.0
 20
6.2
 30
0.0
 11
180.0
 21
0.0
 31
0.0
  0
LINE
  5
105C
330
762
100
AcDbEntity
  8
241
100
AcDbLine
 10
181.0
 20
6.2
 30
0.0
 11
181.0
 21
0.0
 31
0.0
  0
LINE
  5
105D
330
762
100
AcDbEntity
  8
241
100
AcDbLine
 10
184.2
 20
8.0
 30
0.0
 11
184.2
 21
0.0
 31
0.0
  0
LINE
  5
105E
330
762
100
AcDbEntity
  8
241
100
AcDbLine
 10
183.0
 20
8.15
 30
0.0
 11
183.0
 21
0.0
 31
0.0
  0
LINE
  5
105F
330
762
100
AcDbEntity
  8
242
  6
HIDDEN2
100
AcDbLine
 10
178.0
 20
0.0
 30
0.0
 11
182.0
 21
3.25269119
 31
0.0
  0
LINE
  5
1060
330
762
100
AcDbEntity
  8
242
  6
HIDDEN2
100
AcDbLine
 10
178.0
 20
3.25269119
 30
0.0
 11
182.0
 21
0.0
 31
0.0
  0
LINE
  5
1061
330
762
100
AcDbEntity
  8
241
  6
HIDDEN2
100
AcDbLine
 10
178.0
 20
3.25269119
 30
0.0
 11
182.0
 21
3.25269119
 31
0.0
  0
LINE
  5
1062
330
762
100
AcDbEntity
  8
241
  6
HIDDEN2
100
AcDbLine
 10
178.0
 20
3.25269119
 30
0.0
 11
178.0
 21
0.0
 31
0.0
  0
LINE
  5
1063
330
762
100
AcDbEntity
  8
241
  6
HIDDEN2
100
AcDbLine
 10
182.0
 20
3.25269119
 30
0.0
 11
182.0
 21
0.0
 31
0.0
  0
LINE
  5
1064
330
762
100
AcDbEntity
  8
240
100
AcDbLine
 10
181.0
 20
8.15
 30
0.0
 11
183.0
 21
8.15
 31
0.0
  0
LINE
  5
1065
330
762
100
AcDbEntity
  8
240
100
AcDbLine
 10
181.0
 20
6.2
 30
0.0
 11
180.0
 21
6.2
 31
0.0
  0
LINE
  5
1066
330
762
100
AcDbEntity
  8
240
100
AcDbLine
 10
180.0
 20
6.2
 30
0.0
 11
180.0
 21
8.0
 31
0.0
  0
LINE
  5
1067
330
762
100
AcDbEntity
  8
240
100
AcDbLine
 10
181.0
 20
6.2
 30
0.0
 11
181.0
 21
8.15
 31
0.0
  0
LINE
  5
1068
330
762
100
AcDbEntity
  8
240
100
AcDbLine
 10
183.15
 20
8.0
 30
0.0
 11
183.0
 21
8.15
 31
0.0
  0
LINE
  5
1069
330
762
100
AcDbEntity
  8
240
100
AcDbLine
 10
181.5
 20
8.15
 30
0.0
 11
183.0
 21
8.15
 31
0.0
  0
LINE
  5
106A
330
762
100
AcDbEntity
  8
240
100
AcDbLine
 10
200.0
 20
-7.0
 30
0.0
 11
200.0
 21
0.0
 31
0.0
  0
ARC
  5
106B
330
762
100
AcDbEntity
  8
240
100
AcDbCircle
 10
199.0
 20
-7.0
 30
0.0
 40
1.0
100
AcDbArc
 50
270.0
 51
0.0
1001
GENIUS_GENODEF_13
1002
{
1000
HIER
1070
     0
1002
}
1002
{
1000
MANEDIT
1070
     0
1002
}
1002
{
1000
NOSEL
1070
     0
1002
}
1002
{
1000
BEHIND
1070
     0
1002
}
1002
{
1000
OTHER
1070
     0
1002
}
1002
{
1000
REACTOR
1002
}
1001
GENIUS_GENOBJ-N-FIL_13
1002
{
1000
OWNER
1000
GEN
1002
}
  0
LINE
  5
106C
330
762
100
AcDbEntity
  8
241
  6
HIDDEN2
100
AcDbLine
 10
187.0
 20
2.75
 30
0.0
 11
200.0
 21
2.75
 31
0.0
  0
LINE
  5
106D
330
762
100
AcDbEntity
  8
241
  6
HIDDEN2
100
AcDbLine
 10
187.0
 20
3.05
 30
0.0
 11
187.0
 21
0.0
 31
0.0
  0
LINE
  5
106E
330
762
100
AcDbEntity
  8
240
100
AcDbLine
 10
200.0
 20
7.0
 30
0.0
 11
200.0
 21
0.0
 31
0.0
  0
ARC
  5
106F
330
762
100
AcDbEntity
  8
240
100
AcDbCircle
 10
199.0
 20
7.0
 30
0.0
 40
1.0
100
AcDbArc
 50
359.9999824
 51
90.0
1001
GENIUS_GENODEF_13
1002
{
1000
HIER
1070
     0
1002
}
1002
{
1000
MANEDIT
1070
     0
1002
}
1002
{
1000
NOSEL
1070
     0
1002
}
1002
{
1000
BEHIND
1070
     0
1002
}
1002
{
1000
OTHER
1070
     0
1002
}
1002
{
1000
REACTOR
1002
}
1001
GENIUS_GENOBJ-N-FIL_13
1002
{
1000
OWNER
1000
GEN
1002
}
  0
ENDBLK
  5
883
330
762
100
AcDbEntity
  8
0
100
AcDbBlockEnd
  0
BLOCK
  5
8C7
330
8BD
100
AcDbEntity
  8
0
100
AcDbBlockBegin
  2
*D3
 70
     1
 10
0.0
 20
0.0
 30
0.0
  3
*D3
  1

  0
LINE
  5
CE4
330
8BD
100
AcDbEntity
  8
250
  6
CONTINUOUS
100
AcDbLine
 10
0.0
 20
11.14125603
 30
0.0
 11
0.0
 21
22.0
 31
0.0
  0
LINE
  5
CE5
330
8BD
100
AcDbEntity
  8
250
  6
CONTINUOUS
100
AcDbLine
 10
200.0
 20
7.5
 30
0.0
 11
200.0
 21
22.0
 31
0.0
  0
LINE
  5
CE6
330
8BD
100
AcDbEntity
  8
250
  6
CONTINUOUS
100
AcDbLine
 10
2.23
 20
21.0
 30
0.0
 11
197.77
 21
21.0
 31
0.0
  0
INSERT
  5
CE7
330
8BD
100
AcDbEntity
  8
250
  6
CONTINUOUS
100
AcDbBlockReference
  2
_OPEN
 10
0.0
 20
21.0
 30
0.0
 41
2.23
 42
2.23
 43
2.23
 50
180.0
  0
INSERT
  5
CE8
330
8BD
100
AcDbEntity
  8
250
  6
CONTINUOUS
100
AcDbBlockReference
  2
_OPEN
 10
200.0
 20
21.0
 30
0.0
 41
2.23
 42
2.23
 43
2.23
  0
MTEXT
  5
CE9
330
8BD
100
AcDbEntity
  8
250
  6
CONTINUOUS
 62
    40
100
AcDbMText
 10
103.38175129
 20
23.4
 30
0.0
 40
2.8
 41
0.0
 71
     5
 72
     1
  1
\A1;200
1001
ACAD
1000
MTEXTBEGIN
1070
    73
1070
     1
1070
    44
1040
1.0
1070
    74
1070
     0
1000
MTEXTEND
  0
POINT
  5
CEA
330
8BD
100
AcDbEntity
  8
DEFPOINTS
  6
CONTINUOUS
 62
     0
100
AcDbPoint
 10
0.0
 20
10.64125603
 30
0.0
  0
POINT
  5
CEB
330
8BD
100
AcDbEntity
  8
DEFPOINTS
  6
CONTINUOUS
 62
     0
100
AcDbPoint
 10
200.0
 20
7.0
 30
0.0
  0
POINT
  5
CEC
330
8BD
100
AcDbEntity
  8
DEFPOINTS
  6
CONTINUOUS
 62
     0
100
AcDbPoint
 10
200.0
 20
21.0
 30
0.0
  0
ENDBLK
  5
8C8
330
8BD
100
AcDbEntity
  8
0
100
AcDbBlockEnd
  0
BLOCK
  5
8D3
330
8C9
100
AcDbEntity
  8
0
100
AcDbBlockBegin
  2
*D4
 70
     1
 10
0.0
 20
0.0
 30
0.0
  3
*D4
  1

  0
LINE
  5
CDB
330
8C9
100
AcDbEntity
  8
250
  6
CONTINUOUS
100
AcDbLine
 10
199.5
 20
-8.0
 30
0.0
 11
218.0
 21
-8.0
 31
0.0
  0
LINE
  5
CDC
330
8C9
100
AcDbEntity
  8
250
  6
CONTINUOUS
100
AcDbLine
 10
199.5
 20
8.0
 30
0.0
 11
218.0
 21
8.0
 31
0.0
  0
LINE
  5
CDD
330
8C9
100
AcDbEntity
  8
250
  6
CONTINUOUS
100
AcDbLine
 10
217.0
 20
-5.77
 30
0.0
 11
217.0
 21
5.77
 31
0.0
  0
INSERT
  5
CDE
330
8C9
100
AcDbEntity
  8
250
  6
CONTINUOUS
100
AcDbBlockReference
  2
_OPEN
 10
217.0
 20
-8.0
 30
0.0
 41
2.23
 42
2.23
 43
2.23
 50
270.0
  0
INSERT
  5
CDF
330
8C9
100
AcDbEntity
  8
250
  6
CONTINUOUS
100
AcDbBlockReference
  2
_OPEN
 10
217.0
 20
8.0
 30
0.0
 41
2.23
 42
2.23
 43
2.23
 50
90.0
  0
MTEXT
  5
CE0
330
8C9
100
AcDbEntity
  8
250
  6
CONTINUOUS
 62
    40
100
AcDbMText
 10
214.6
 20
0.0
 30
0.0
 40
2.8
 41
0.0
 71
     5
 72
     1
  1
\A1;{\H2.8;\U+2205}16
 11
0.0
 21
1.0
 31
0.0
1001
ACAD
1000
MTEXTBEGIN
1070
    73
1070
     1
1070
    44
1040
1.0
1070
    74
1070
     0
1000
MTEXTEND
  0
POINT
  5
CE1
330
8C9
100
AcDbEntity
  8
DEFPOINTS
  6
CONTINUOUS
 62
     0
100
AcDbPoint
 10
199.0
 20
-8.0
 30
0.0
  0
POINT
  5
CE2
330
8C9
100
AcDbEntity
  8
DEFPOINTS
  6
CONTINUOUS
 62
     0
100
AcDbPoint
 10
199.0
 20
8.0
 30
0.0
  0
POINT
  5
CE3
330
8C9
100
AcDbEntity
  8
DEFPOINTS
  6
CONTINUOUS
 62
     0
100
AcDbPoint
 10
217.0
 20
8.0
 30
0.0
  0
ENDBLK
  5
8D4
330
8C9
100
AcDbEntity
  8
0
100
AcDbBlockEnd
  0
ENDSEC
  0
SECTION
  2
ENTITIES
  0
INSERT
  5
6E6
330
1A
100
AcDbEntity
  8
245
100
AcDbBlockReference
  2
矢印なし
 10
175.62382697
 20
90.55123572
 30
0.0
  0
DIMENSION
  5
8B3
330
1A
100
AcDbEntity
  8
250
  6
CONTINUOUS
100
AcDbDimension
  2
*D3
 10
200.0
 20
21.0
 30
0.0
 11
103.38175129
 21
21.0
 31
0.0
 70
   160
  3
BIGT
100
AcDbAlignedDimension
 13
0.0
 23
10.64125603
 33
0.0
 14
200.0
 24
7.0
 34
0.0
100
AcDbRotatedDimension
  0
TEXT
  5
8B4
330
1A
100
AcDbEntity
  8
241
100
AcDbText
 10
-47.5
 20
35.0
 30
0.0
 40
5.0
  1
MGT6-M5-200
  7
YOKO
 11
-47.5
 21
35.0
 31
0.0
100
AcDbText
 73
     1
  0
DIMENSION
  5
8B5
330
1A
100
AcDbEntity
  8
250
  6
CONTINUOUS
100
AcDbDimension
  2
*D4
 10
217.0
 20
8.0
 30
0.0
 11
214.6
 21
0.0
 31
0.0
 70
    32
  1
{\H2.8;\U+2205}<>
  3
BIGT
100
AcDbAlignedDimension
 13
199.0
 23
-8.0
 33
0.0
 14
199.0
 24
8.0
 34
0.0
 50
90.0
100
AcDbRotatedDimension
  0
MTEXT
  5
8B6
330
1A
100
AcDbEntity
  8
250
  6
CONTINUOUS
 62
    40
100
AcDbMText
 10
207.6
 20
-2.54217991
 30
0.0
 40
2.8
 41
0.0
 71
     5
 72
     1
  1
\A1;{\H2.8;\U+2205}5.5
 11
0.0
 21
1.0
 31
0.0
1001
ACAD
1000
MTEXTBEGIN
1070
    73
1070
     1
1070
    44
1040
1.0
1070
    74
1070
     0
1000
MTEXTEND
1000
MTEXTBEGIN
1070
    73
1070
     1
1070
    44
1040
1.0
1070
    74
1070
     0
1000
MTEXTEND
1000
MTEXTBEGIN
1070
    73
1070
     1
1070
    44
1040
1.0
1070
    74
1070
     0
1000
MTEXTEND
1000
MTEXTBEGIN
1070
    73
1070
     1
1070
    44
1040
1.0
1070
    74
1070
     0
1000
MTEXTEND
1000
MTEXTBEGIN
1070
    73
1070
     1
1070
    44
1040
1.0
1070
    74
1070
     0
1000
MTEXTEND
1000
MTEXTBEGIN
1070
    73
1070
     1
1070
    44
1040
1.0
1070
    74
1070
     0
1000
MTEXTEND
1000
MTEXTBEGIN
1070
    73
1070
     1
1070
    44
1040
1.0
1070
    74
1070
     0
1000
MTEXTEND
1000
MTEXTBEGIN
1070
    73
1070
     1
1070
    44
1040
1.0
1070
    74
1070
     0
1000
MTEXTEND
  0
LINE
  5
8B7
330
1A
100
AcDbEntity
  8
250
  6
CONTINUOUS
100
AcDbLine
 10
210.0
 20
2.75
 30
0.0
 11
210.0
 21
-6.33758521
 31
0.0
  0
MTEXT
  5
8B8
330
1A
100
AcDbEntity
  8
251
  6
CONTINUOUS
100
AcDbMText
 10
186.8
 20
14.97872065
 30
0.0
 40
2.8
 41
0.0
 71
     7
 72
     1
  1
□4.5
  7
YOKO
1001
ITEMNAME
1000
LNSP3
1001
ACAD
1000
MTEXTBEGIN
1070
    73
1070
     1
1070
    44
1040
1.0
1070
    74
1070
     0
1000
MTEXTEND
1000
MTEXTBEGIN
1070
    73
1070
     1
1070
    44
1040
1.0
1070
    74
1070
     0
1000
MTEXTEND
1000
MTEXTBEGIN
1070
    73
1070
     1
1070
    44
1040
1.0
1070
    74
1070
     0
1000
MTEXTEND
1000
MTEXTBEGIN
1070
    73
1070
     1
1070
    44
1040
1.0
1070
    74
1070
     0
1000
MTEXTEND
1000
MTEXTBEGIN
1070
    73
1070
     1
1070
    44
1040
1.0
1070
    74
1070
     0
1000
MTEXTEND
1000
MTEXTBEGIN
1070
    73
1070
     1
1070
    44
1040
1.0
1070
    74
1070
     0
1000
MTEXTEND
  0
LINE
  5
8B9
330
1A
100
AcDbEntity
  8
250
  6
CONTINUOUS
100
AcDbLine
 10
184.0
 20
13.97872065
 30
0.0
 11
198.85333333
 21
13.97872065
 31
0.0
1001
ITEMNAME
1000
LNSP2
  0
LEADER
  5
8BA
330
1A
100
AcDbEntity
  8
250
  6
CONTINUOUS
100
AcDbLeader
  3
BIGT
 76
     2
 10
181.52207662
 20
3.25269119
 30
0.0
 10
184.0
 20
13.97872065
 30
0.0
1001
ACAD
1000
DSTYLE
1002
{
1070
     6
1000
OPEN
1070
    41
1040
2.0
1070
    42
1040
2.0
1070
    44
1040
2.0
1070
   140
1040
4.0
1070
   343
1005
594
1002
}
  0
LINE
  5
8BB
330
1A
100
AcDbEntity
  8
250
  6
CONTINUOUS
100
AcDbLine
 10
200.5
 20
2.75
 30
0.0
 11
211.0
 21
2.75
 31
0.0
  0
INSERT
  5
8BC
330
1A
100
AcDbEntity
  8
250
  6
CONTINUOUS
100
AcDbBlockReference
  2
_OPEN
 10
210.0
 20
2.75
 30
0.0
 41
2.23
 42
2.23
 43
2.23
 50
90.0
  0
INSERT
  5
1070
330
1A
100
AcDbEntity
  8
245
100
AcDbBlockReference
  2
1
 10
0.0
 20
0.0
 30
0.0
  0
VIEWPORT
  5
22
330
17
100
AcDbEntity
 67
     1
  8
0
100
AcDbViewport
 10
261.51769912
 20
148.5
 30
0.0
 40
523.03539823
 41
297.0
 68
     1
 69
     1
1001
ACAD
1000
MVIEW
1002
{
1070
    16
1010
0.0
1020
0.0
1030
0.0
1010
0.0
1020
0.0
1030
1.0
1040
0.0
1040
297.0
1040
261.51769912
1040
148.5
1040
50.0
1040
0.0
1040
0.0
1070
     0
1070
   100
1070
     1
1070
     1
1070
     0
1070
     0
1070
     0
1070
     0
1040
0.0
1040
0.0
1040
0.0
1040
1.0
1040
1.0
1040
10.0
1040
10.0
1070
     0
1002
{
1002
}
1002
}
  0
ENDSEC
  0
SECTION
  2
OBJECTS
  0
DICTIONARY
  5
C
330
0
100
AcDbDictionary
  3
ACAD_GROUP
350
D
  3
ACAD_LAYOUT
350
565
  3
ACAD_MLINESTYLE
350
E
  3
ACAD_PLOTSETTINGS
350
566
  3
ACAD_PLOTSTYLENAME
350
563
  3
ACDBHEADERROUNDTRIPXREC
350
1097
  3
GRADE_DWG
350
540
  0
DICTIONARY
  5
B9B
330
1A
100
AcDbDictionary
280
     1
  3
ACAD_LAYOUTSELFREF
360
10B9
  0
DICTIONARY
  5
B99
330
17
100
AcDbDictionary
280
     1
  3
ACAD_LAYOUTSELFREF
360
10B8
  0
DICTIONARY
  5
D
102
{ACAD_REACTORS
330
C
102
}
330
C
100
AcDbDictionary
  3
*A1
350
6C7
  3
*A2
350
6C8
  3
*A3
350
6D4
  3
*A4
350
6D5
  3
DREC-1
350
5FC
  3
DREC-2
350
654
  3
DREC-3
350
673
  0
DICTIONARY
  5
565
102
{ACAD_REACTORS
330
C
102
}
330
C
100
AcDbDictionary
  0
DICTIONARY
  5
E
102
{ACAD_REACTORS
330
C
102
}
330
C
100
AcDbDictionary
  3
STANDARD
350
13
  0
DICTIONARY
  5
566
102
{ACAD_REACTORS
330
C
102
}
330
C
100
AcDbDictionary
  3
A3_0_5倍_
350
758
  3
A3_1倍_
350
757
  3
A3_1倍__2000_
350
707
  3
A3_2倍_
350
759
  3
A4_0_5倍_
350
755
  3
A4_1倍_
350
754
  3
A4_1倍__2000_
350
708
  3
A4_2倍_
350
756
  0
ACDBDICTIONARYWDFLT
  5
563
102
{ACAD_REACTORS
330
C
102
}
330
C
100
AcDbDictionary
281
     1
  3
Normal
350
564
100
AcDbDictionaryWithDefault
340
564
  0
DICTIONARY
  5
1097
102
{ACAD_REACTORS
330
C
102
}
330
C
100
AcDbDictionary
  3
CEPSNTYPE
350
10A1
  3
DIMSTYLEDATA
350
10A5
  3
FINGERPRINTGUID
350
10A2
  3
HYPERLINKBASE
350
109A
  3
INSUNITS
350
10A0
  3
LAYOUTDICT
350
109C
  3
LWETCUNION
350
109F
  3
PLOTSETDICT
350
109D
  3
PLOTSTYLNAMDICT
350
109E
  3
PSVPSCALE
350
10A4
  3
PUCSBASE
350
10A8
  3
PUCSORGBACK
350
10AE
  3
PUCSORGBOTTOM
350
10AA
  3
PUCSORGFRONT
350
10AD
  3
PUCSORGLEFT
350
10AB
  3
PUCSORGRIGHT
350
10AC
  3
PUCSORGTOP
350
10A9
  3
PUCSORTHOREF
350
10A6
  3
PUCSORTHOVIEW
350
10A7
  3
STYLESHEET
350
109B
  3
TSTACKALIGN
350
1098
  3
TSTACKSIZE
350
1099
  3
UCSBASE
350
10B1
  3
UCSORGBACK
350
10B7
  3
UCSORGBOTTOM
350
10B3
  3
UCSORGFRONT
350
10B6
  3
UCSORGLEFT
350
10B4
  3
UCSORGRIGHT
350
10B5
  3
UCSORGTOP
350
10B2
  3
UCSORTHOREF
350
10AF
  3
UCSORTHOVIEW
350
10B0
  3
VERSIONGUID
350
10A3
  0
DICTIONARY
  5
540
102
{ACAD_REACTORS
330
C
102
}
330
C
100
AcDbDictionary
  3
VERSION
350
560
  0
XRECORD
  5
10B9
102
{ACAD_REACTORS
330
B9B
102
}
330
B9B
100
AcDbXrecord
340
1A
  0
XRECORD
  5
10B8
102
{ACAD_REACTORS
330
B99
102
}
330
B99
100
AcDbXrecord
340
17
  0
GROUP
  5
6C7
102
{ACAD_REACTORS
330
D
102
}
330
D
100
AcDbGroup
300

 70
     0
 71
     1
1001
GRPNAME
1000
DMA00
  0
GROUP
  5
6C8
102
{ACAD_REACTORS
330
D
102
}
330
D
100
AcDbGroup
300

 70
     0
 71
     1
1001
GRPNAME
1000
DMA00
  0
GROUP
  5
6D4
102
{ACAD_REACTORS
330
D
102
}
330
D
100
AcDbGroup
300

 70
     0
 71
     1
1001
GRPNAME
1000
DMA00
  0
GROUP
  5
6D5
102
{ACAD_REACTORS
330
D
102
}
330
D
100
AcDbGroup
300

 70
     0
 71
     1
1001
GRPNAME
1000
DMA00
  0
GROUP
  5
5FC
102
{ACAD_REACTORS
330
D
102
}
330
D
100
AcDbGroup
300

 70
     0
 71
     1
1001
GRPNAME
1000
DREC-
1001
GPARA
1000
xsiz
1000
44.182
1000
ysiz
1000
40.677
1000
angl
1000
0
1000
ctyp
1000
0
1000
csiz
1000
5
1000
lfnt
1000
cont
1000
hcnt
1000
hoff
1000
vcnt
1000
voff
1000
opnt
1000
4
1000
dxpt
1000
0
1000
dypt
1000
0
  0
GROUP
  5
654
102
{ACAD_REACTORS
330
D
102
}
330
D
100
AcDbGroup
300

 70
     0
 71
     1
1001
GRPNAME
1000
DREC-
1001
GPARA
1000
xsiz
1000
54.592
1000
ysiz
1000
53.036
1000
angl
1000
0
1000
ctyp
1000
0
1000
csiz
1000
5
1000
lfnt
1000
cont
1000
hcnt
1000
hoff
1000
vcnt
1000
voff
1000
opnt
1000
4
1000
dxpt
1000
0
1000
dypt
1000
0
  0
GROUP
  5
673
102
{ACAD_REACTORS
330
D
102
}
330
D
100
AcDbGroup
300

 70
     0
 71
     1
1001
GRPNAME
1000
DREC-
1001
GPARA
1000
xsiz
1000
30.363
1000
ysiz
1000
36.175
1000
angl
1000
0
1000
ctyp
1000
0
1000
csiz
1000
5
1000
lfnt
1000
cont
1000
hcnt
1000
hoff
1000
vcnt
1000
voff
1000
opnt
1000
4
1000
dxpt
1000
0
1000
dypt
1000
0
  0
MLINESTYLE
  5
13
102
{ACAD_REACTORS
330
E
102
}
330
E
100
AcDbMlineStyle
  2
STANDARD
 70
     0
  3

 62
     0
 51
90.0
 52
90.0
 71
     2
 49
0.5
 62
   256
  6
BYLAYER
 49
-0.5
 62
   256
  6
BYLAYER
  0
PLOTSETTINGS
  5
758
102
{ACAD_REACTORS
330
566
102
}
330
566
100
AcDbPlotSettings
  1
A3(0.5倍)
  2
\\AWTECPC05\HP DeskJet 1120C
  4
A3
  6

 40
5.95841646
 41
13.49375153
 42
6.04309082
 43
3.67242432
 44
296.92599487
 45
419.94665527
 46
89.96
 47
127.14
 48
0.0
 49
0.0
140
0.0
141
0.0
142
1.0
143
2.0
 70
  1716
 72
     1
 73
     1
 74
     2
  7
big.ctb
 75
    17
147
0.5
148
0.0
149
0.0
  0
PLOTSETTINGS
  5
757
102
{ACAD_REACTORS
330
566
102
}
330
566
100
AcDbPlotSettings
  1
A3(1倍)
  2
\\AWTECPC05\HP DeskJet 1120C
  4
A3
  6

 40
5.95841646
 41
13.49375153
 42
6.04309082
 43
3.67242432
 44
296.92599487
 45
419.94665527
 46
37.46
 47
52.89
 48
0.0
 49
0.0
140
0.0
141
0.0
142
1.0
143
1.0
 70
  1716
 72
     1
 73
     1
 74
     2
  7
big.ctb
 75
    16
147
1.0
148
0.0
149
0.0
  0
PLOTSETTINGS
  5
707
102
{ACAD_REACTORS
330
566
102
}
330
566
100
AcDbPlotSettings
  1
A3(1倍)(2000)
  2
SII LS-1300 (D-SCAN)
  4
User258
  6

 40
3.17499995
 41
3.17499995
 42
3.17498779
 43
3.17498779
 44
419.98898315
 45
296.98950195
 46
58.32
 47
40.32
 48
0.0
 49
0.0
140
0.0
141
0.0
142
1.0
143
1.0
 70
  1716
 72
     1
 73
     0
 74
     2
  7
big.ctb
 75
    16
147
1.0
148
0.0
149
0.0
  0
PLOTSETTINGS
  5
759
102
{ACAD_REACTORS
330
566
102
}
330
566
100
AcDbPlotSettings
  1
A3(2倍)
  2
\\AWTECPC05\HP DeskJet 1120C
  4
A3
  6

 40
5.95841646
 41
13.49375153
 42
6.04309082
 43
3.67242432
 44
296.92599487
 45
419.94665527
 46
-67.54
 47
-95.61
 48
0.0
 49
0.0
140
0.0
141
0.0
142
1.0
143
0.5
 70
  1716
 72
     1
 73
     1
 74
     2
  7
big.ctb
 75
    27
147
2.0
148
0.0
149
0.0
  0
PLOTSETTINGS
  5
755
102
{ACAD_REACTORS
330
566
102
}
330
566
100
AcDbPlotSettings
  1
A4(0.5倍)
  2
\\AWTECPC05\HP DeskJet 1120C
  4
A4
  6

 40
4.18041658
 41
13.49374962
 42
4.18040466
 43
3.92642212
 44
209.97332764
 45
296.92599487
 46
48.31
 47
65.5
 48
0.0
 49
0.0
140
0.0
141
0.0
142
1.0
143
2.0
 70
  1716
 72
     1
 73
     1
 74
     2
  7
big.ctb
 75
    17
147
0.5
148
0.0
149
0.0
  0
PLOTSETTINGS
  5
754
102
{ACAD_REACTORS
330
566
102
}
330
566
100
AcDbPlotSettings
  1
A4(1倍)
  2
\\AWTECPC05\HP DeskJet 1120C
  4
A4
  6

 40
4.18041658
 41
13.49374962
 42
4.18040466
 43
3.92642212
 44
209.97332764
 45
296.92599487
 46
-4.19
 47
-8.75
 48
0.0
 49
0.0
140
0.0
141
0.0
142
1.0
143
1.0
 70
  1716
 72
     1
 73
     1
 74
     2
  7
big.ctb
 75
    16
147
1.0
148
0.0
149
0.0
  0
PLOTSETTINGS
  5
708
102
{ACAD_REACTORS
330
566
102
}
330
566
100
AcDbPlotSettings
  1
A4(1倍)(2000)
  2
SII LS-1300 (D-SCAN)
  4
User259
  6

 40
3.17499995
 41
3.17499995
 42
3.17498779
 43
3.17500305
 44
296.98950195
 45
209.99449158
 46
-3.18
 47
-3.18
 48
0.0
 49
0.0
140
0.0
141
0.0
142
1.0
143
1.0
 70
  1716
 72
     1
 73
     0
 74
     2
  7
big.ctb
 75
    16
147
1.0
148
0.0
149
0.0
  0
PLOTSETTINGS
  5
756
102
{ACAD_REACTORS
330
566
102
}
330
566
100
AcDbPlotSettings
  1
A4(2倍)
  2
\\AWTECPC05\HP DeskJet 1120C
  4
A4
  6

 40
4.18041658
 41
13.49374962
 42
4.18040466
 43
3.92642212
 44
209.97332764
 45
296.92599487
 46
-109.19
 47
-157.25
 48
0.0
 49
0.0
140
0.0
141
0.0
142
1.0
143
0.5
 70
  1716
 72
     1
 73
     1
 74
     2
  7
big.ctb
 75
    27
147
2.0
148
0.0
149
0.0
  0
ACDBPLACEHOLDER
  5
564
102
{ACAD_REACTORS
330
563
102
}
330
563
100
AcDbPlaceHolder
280
     0
  0
XRECORD
  5
10A1
102
{ACAD_REACTORS
330
1097
102
}
330
1097
100
AcDbXrecord
 90
        0
  0
XRECORD
  5
10A5
102
{ACAD_REACTORS
330
1097
102
}
330
1097
100
AcDbXrecord
1000
DSTYLE
1002
{
1070
    79
 70
     2
1070
   179
 70
     3
1070
   341
340
594
1070
   343
340
594
1070
   344
340
594
1070
   371
 70
    -1
1070
   372
 70
    -1
1002
}
  0
XRECORD
  5
10A2
102
{ACAD_REACTORS
330
1097
102
}
330
1097
100
AcDbXrecord
  1
{51294030-9CB4-11D3-8E18-00A0C925D94D}
  0
XRECORD
  5
109A
102
{ACAD_REACTORS
330
1097
102
}
330
1097
100
AcDbXrecord
  1

  0
XRECORD
  5
10A0
102
{ACAD_REACTORS
330
1097
102
}
330
1097
100
AcDbXrecord
 90
        0
  0
XRECORD
  5
109C
102
{ACAD_REACTORS
330
1097
102
}
330
1097
100
AcDbXrecord
340
565
  0
XRECORD
  5
109F
102
{ACAD_REACTORS
330
1097
102
}
330
1097
100
AcDbXrecord
 90
    10781
  0
XRECORD
  5
109D
102
{ACAD_REACTORS
330
1097
102
}
330
1097
100
AcDbXrecord
340
566
  0
XRECORD
  5
109E
102
{ACAD_REACTORS
330
1097
102
}
330
1097
100
AcDbXrecord
340
563
  0
XRECORD
  5
10A4
102
{ACAD_REACTORS
330
1097
102
}
330
1097
100
AcDbXrecord
 40
0.0
  0
XRECORD
  5
10A8
102
{ACAD_REACTORS
330
1097
102
}
330
1097
100
AcDbXrecord
340
0
  0
XRECORD
  5
10AE
102
{ACAD_REACTORS
330
1097
102
}
330
1097
100
AcDbXrecord
 10
0.0
 20
0.0
 30
0.0
  0
XRECORD
  5
10AA
102
{ACAD_REACTORS
330
1097
102
}
330
1097
100
AcDbXrecord
 10
0.0
 20
0.0
 30
0.0
  0
XRECORD
  5
10AD
102
{ACAD_REACTORS
330
1097
102
}
330
1097
100
AcDbXrecord
 10
0.0
 20
0.0
 30
0.0
  0
XRECORD
  5
10AB
102
{ACAD_REACTORS
330
1097
102
}
330
1097
100
AcDbXrecord
 10
0.0
 20
0.0
 30
0.0
  0
XRECORD
  5
10AC
102
{ACAD_REACTORS
330
1097
102
}
330
1097
100
AcDbXrecord
 10
0.0
 20
0.0
 30
0.0
  0
XRECORD
  5
10A9
102
{ACAD_REACTORS
330
1097
102
}
330
1097
100
AcDbXrecord
 10
0.0
 20
0.0
 30
0.0
  0
XRECORD
  5
10A6
102
{ACAD_REACTORS
330
1097
102
}
330
1097
100
AcDbXrecord
340
0
  0
XRECORD
  5
10A7
102
{ACAD_REACTORS
330
1097
102
}
330
1097
100
AcDbXrecord
 70
     0
  0
XRECORD
  5
109B
102
{ACAD_REACTORS
330
1097
102
}
330
1097
100
AcDbXrecord
  1
big.ctb
  0
XRECORD
  5
1098
102
{ACAD_REACTORS
330
1097
102
}
330
1097
100
AcDbXrecord
 90
        1
  0
XRECORD
  5
1099
102
{ACAD_REACTORS
330
1097
102
}
330
1097
100
AcDbXrecord
 90
       70
  0
XRECORD
  5
10B1
102
{ACAD_REACTORS
330
1097
102
}
330
1097
100
AcDbXrecord
340
0
  0
XRECORD
  5
10B7
102
{ACAD_REACTORS
330
1097
102
}
330
1097
100
AcDbXrecord
 10
0.0
 20
0.0
 30
0.0
  0
XRECORD
  5
10B3
102
{ACAD_REACTORS
330
1097
102
}
330
1097
100
AcDbXrecord
 10
0.0
 20
0.0
 30
0.0
  0
XRECORD
  5
10B6
102
{ACAD_REACTORS
330
1097
102
}
330
1097
100
AcDbXrecord
 10
0.0
 20
0.0
 30
0.0
  0
XRECORD
  5
10B4
102
{ACAD_REACTORS
330
1097
102
}
330
1097
100
AcDbXrecord
 10
0.0
 20
0.0
 30
0.0
  0
XRECORD
  5
10B5
102
{ACAD_REACTORS
330
1097
102
}
330
1097
100
AcDbXrecord
 10
0.0
 20
0.0
 30
0.0
  0
XRECORD
  5
10B2
102
{ACAD_REACTORS
330
1097
102
}
330
1097
100
AcDbXrecord
 10
0.0
 20
0.0
 30
0.0
  0
XRECORD
  5
10AF
102
{ACAD_REACTORS
330
1097
102
}
330
1097
100
AcDbXrecord
340
0
  0
XRECORD
  5
10B0
102
{ACAD_REACTORS
330
1097
102
}
330
1097
100
AcDbXrecord
 70
     0
  0
XRECORD
  5
10A3
102
{ACAD_REACTORS
330
1097
102
}
330
1097
100
AcDbXrecord
  1
{918E551D-2A25-400E-87D1-CB0DEC737925}
  0
XRECORD
  5
560
102
{ACAD_REACTORS
330
540
102
}
330
540
100
AcDbXrecord
  1
2.0.0
  0
ENDSEC
  0
EOF
