  0
SECTION
  2
HEADER
  9
$ACADVER
  1
AC1014
  9
$ACADMAINTVER
 70
     9
  9
$DWGCODEPAGE
  3
ANSI_932
  9
$INSBASE
 10
0.0
 20
0.0
 30
0.0
  9
$EXTMIN
 10
-48.52262815
 20
-11.06140089
 30
-0.00152582
  9
$EXTMAX
 10
168.00965935
 20
40.01586943
 30
0.00000003
  9
$LIMMIN
 10
0.0
 20
0.0
  9
$LIMMAX
 10
420.0
 20
297.0
  9
$ORTHOMODE
 70
     1
  9
$REGENMODE
 70
     1
  9
$FILLMODE
 70
     1
  9
$QTEXTMODE
 70
     0
  9
$MIRRTEXT
 70
     1
  9
$DRAGMODE
 70
     2
  9
$LTSCALE
 40
10.0
  9
$OSMODE
 70
   549
  9
$ATTMODE
 70
     1
  9
$TEXTSIZE
 40
3.0
  9
$TRACEWID
 40
1.0
  9
$TEXTSTYLE
  7
YOKO
  9
$CLAYER
  8
245
  9
$CELTYPE
  6
BYLAYER
  9
$CECOLOR
 62
   256
  9
$CELTSCALE
 40
1.0
  9
$DELOBJ
 70
     1
  9
$DISPSILH
 70
     0
  9
$DIMSCALE
 40
1.0
  9
$DIMASZ
 40
2.23
  9
$DIMEXO
 40
0.5
  9
$DIMDLI
 40
2.5
  9
$DIMRND
 40
0.0
  9
$DIMDLE
 40
0.0
  9
$DIMEXE
 40
1.0
  9
$DIMTP
 40
0.0
  9
$DIMTM
 40
0.0
  9
$DIMTXT
 40
2.8
  9
$DIMCEN
 40
0.0
  9
$DIMTSZ
 40
0.0
  9
$DIMTOL
 70
     0
  9
$DIMLIM
 70
     0
  9
$DIMTIH
 70
     0
  9
$DIMTOH
 70
     0
  9
$DIMSE1
 70
     0
  9
$DIMSE2
 70
     0
  9
$DIMTAD
 70
     3
  9
$DIMZIN
 70
     8
  9
$DIMBLK
  1

  9
$DIMASO
 70
     1
  9
$DIMSHO
 70
     1
  9
$DIMPOST
  1

  9
$DIMAPOST
  1

  9
$DIMALT
 70
     0
  9
$DIMALTD
 70
     2
  9
$DIMALTF
 40
25.4
  9
$DIMLFAC
 40
1.0
  9
$DIMTOFL
 70
     1
  9
$DIMTVP
 40
0.0
  9
$DIMTIX
 70
     1
  9
$DIMSOXD
 70
     0
  9
$DIMSAH
 70
     1
  9
$DIMBLK1
  1
OPEN
  9
$DIMBLK2
  1
OPEN
  9
$DIMSTYLE
  2
BIGT
  9
$DIMCLRD
 70
   256
  9
$DIMCLRE
 70
   256
  9
$DIMCLRT
 70
    40
  9
$DIMTFAC
 40
1.0
  9
$DIMGAP
 40
1.0
  9
$DIMJUST
 70
     0
  9
$DIMSD1
 70
     0
  9
$DIMSD2
 70
     0
  9
$DIMTOLJ
 70
     1
  9
$DIMTZIN
 70
     8
  9
$DIMALTZ
 70
     0
  9
$DIMALTTZ
 70
     0
  9
$DIMFIT
 70
     2
  9
$DIMUPT
 70
     0
  9
$DIMUNIT
 70
     2
  9
$DIMDEC
 70
     3
  9
$DIMTDEC
 70
     3
  9
$DIMALTU
 70
     2
  9
$DIMALTTD
 70
     2
  9
$DIMTXSTY
  7
STANDARD
  9
$DIMAUNIT
 70
     0
  9
$LUNITS
 70
     2
  9
$LUPREC
 70
     3
  9
$SKETCHINC
 40
1.0
  9
$FILLETRAD
 40
0.0
  9
$AUNITS
 70
     0
  9
$AUPREC
 70
     3
  9
$MENU
  1
.
  9
$ELEVATION
 40
0.0
  9
$PELEVATION
 40
0.0
  9
$THICKNESS
 40
0.0
  9
$LIMCHECK
 70
     0
  9
$BLIPMODE
 70
     0
  9
$CHAMFERA
 40
10.0
  9
$CHAMFERB
 40
10.0
  9
$CHAMFERC
 40
0.0
  9
$CHAMFERD
 40
0.0
  9
$SKPOLY
 70
     0
  9
$TDCREATE
 40
2455316.635023322
  9
$TDUPDATE
 40
2455316.636247824
  9
$TDINDWG
 40
0.0012248611
  9
$TDUSRTIMER
 40
0.0012246875
  9
$USRTIMER
 70
     1
  9
$ANGBASE
 50
0.0
  9
$ANGDIR
 70
     0
  9
$PDMODE
 70
     1
  9
$PDSIZE
 40
-5.0
  9
$PLINEWID
 40
0.0
  9
$COORDS
 70
     2
  9
$SPLFRAME
 70
     0
  9
$SPLINETYPE
 70
     6
  9
$SPLINESEGS
 70
     8
  9
$ATTDIA
 70
     0
  9
$ATTREQ
 70
     1
  9
$HANDLING
 70
-16383
  9
$HANDSEED
  5
BEE
  9
$SURFTAB1
 70
     6
  9
$SURFTAB2
 70
     6
  9
$SURFTYPE
 70
     6
  9
$SURFU
 70
     6
  9
$SURFV
 70
     6
  9
$UCSNAME
  2

  9
$UCSORG
 10
0.0
 20
0.0
 30
0.0
  9
$UCSXDIR
 10
1.0
 20
0.0
 30
0.0
  9
$UCSYDIR
 10
0.0
 20
1.0
 30
0.0
  9
$PUCSNAME
  2

  9
$PUCSORG
 10
0.0
 20
0.0
 30
0.0
  9
$PUCSXDIR
 10
1.0
 20
0.0
 30
0.0
  9
$PUCSYDIR
 10
0.0
 20
1.0
 30
0.0
  9
$USERI1
 70
     1
  9
$USERI2
 70
     0
  9
$USERI3
 70
     0
  9
$USERI4
 70
     0
  9
$USERI5
 70
     0
  9
$USERR1
 40
0.0
  9
$USERR2
 40
0.0
  9
$USERR3
 40
0.0
  9
$USERR4
 40
0.0
  9
$USERR5
 40
0.0
  9
$WORLDVIEW
 70
     1
  9
$SHADEDGE
 70
     3
  9
$SHADEDIF
 70
    70
  9
$TILEMODE
 70
     1
  9
$MAXACTVP
 70
    16
  9
$PINSBASE
 10
0.0
 20
0.0
 30
0.0
  9
$PLIMCHECK
 70
     0
  9
$PEXTMIN
 10
1.00000000E+20
 20
1.00000000E+20
 30
1.00000000E+20
  9
$PEXTMAX
 10
-1.00000000E+20
 20
-1.00000000E+20
 30
-1.00000000E+20
  9
$PLIMMIN
 10
0.0
 20
0.0
  9
$PLIMMAX
 10
420.0
 20
297.0
  9
$UNITMODE
 70
     0
  9
$VISRETAIN
 70
     0
  9
$PLINEGEN
 70
     0
  9
$PSLTSCALE
 70
     1
  9
$TREEDEPTH
 70
  3020
  9
$PICKSTYLE
 70
     0
  9
$CMLSTYLE
  2
STANDARD
  9
$CMLJUST
 70
     0
  9
$CMLSCALE
 40
1.0
  9
$PROXYGRAPHICS
 70
     1
  9
$MEASUREMENT
 70
     1
  0
ENDSEC
  0
SECTION
  2
CLASSES
  0
CLASS
  1
XRECORD
  2
AcDbXrecord
  3
AutoCAD 2000
 90
        0
280
     0
281
     0
  0
CLASS
  1
ACDBDICTIONARYWDFLT
  2
AcDbDictionaryWithDefault
  3
AutoCAD 2000
 90
        0
280
     0
281
     0
  0
CLASS
  1
ACDBPLACEHOLDER
  2
AcDbPlaceHolder
  3
AutoCAD 2000
 90
        0
280
     0
281
     0
  0
CLASS
  1
LAYOUT
  2
AcDbLayout
  3
AutoCAD 2000
 90
        0
280
     0
281
     0
  0
CLASS
  1
PLOTSETTINGS
  2
AcDbPlotSettings
  3
AutoCAD 2000
 90
        0
280
     0
281
     0
  0
CLASS
  1
LONG_TRANSACTION
  2
AcDbLongTransaction
  3
AutoCAD 2000
 90
        0
280
     0
281
     0
  0
CLASS
  1
LWPOLYLINE
  2
AcDbPolyline
  3
AutoCAD 2000
 90
        0
280
     0
281
     1
  0
CLASS
  1
HATCH
  2
AcDbHatch
  3
AutoCAD 2000
 90
        0
280
     0
281
     1
  0
CLASS
  1
XRECORD
  2
AcDbXrecord
  3
AutoCAD 2000
 90
        0
280
     0
281
     0
  0
ENDSEC
  0
SECTION
  2
TABLES
  0
TABLE
  2
VPORT
  5
8
330
0
100
AcDbSymbolTable
 70
     5
  0
VPORT
  5
BC7
330
8
100
AcDbSymbolTableRecord
100
AcDbViewportTableRecord
  2
*ACTIVE
 70
     0
 10
0.0
 20
0.0
 11
1.0
 21
1.0
 12
59.7435156
 22
14.47723427
 13
0.0
 23
0.0
 14
7.0
 24
7.0
 15
7.0
 25
7.0
 16
0.0
 26
0.0
 36
1.0
 17
0.0
 27
0.0
 37
0.0
 40
152.0320697
 41
1.43184713
 42
50.0
 43
0.0
 44
0.0
 50
0.0
 51
0.0
 71
     0
 72
  2000
 73
     1
 74
     0
 75
     0
 76
     0
 77
     0
 78
     0
  0
ENDTAB
  0
TABLE
  2
LTYPE
  5
5
330
0
100
AcDbSymbolTable
 70
    39
  0
LTYPE
  5
14
330
5
100
AcDbSymbolTableRecord
100
AcDbLinetypeTableRecord
  2
BYBLOCK
 70
     0
  3

 72
    65
 73
     0
 40
0.0
  0
LTYPE
  5
15
330
5
100
AcDbSymbolTableRecord
100
AcDbLinetypeTableRecord
  2
BYLAYER
 70
     0
  3

 72
    65
 73
     0
 40
0.0
  0
LTYPE
  5
16
330
5
100
AcDbSymbolTableRecord
100
AcDbLinetypeTableRecord
  2
CONTINUOUS
 70
     0
  3
Solid line
 72
    65
 73
     0
 40
0.0
  0
LTYPE
  5
258
330
5
100
AcDbSymbolTableRecord
100
AcDbLinetypeTableRecord
  2
CENTER2
 70
     0
  3
___ _ ___ _ ___ _ ___ _ ___ _ ___ _ ___ _ ___ _
 72
    65
 73
     4
 40
1.125
 49
0.75
 74
     0
 49
-0.125
 74
     0
 49
0.125
 74
     0
 49
-0.125
 74
     0
  0
LTYPE
  5
25C
330
5
100
AcDbSymbolTableRecord
100
AcDbLinetypeTableRecord
  2
HIDDEN2
 70
     0
  3
_ _ _ _ _ _ _ _ _ _ _ _ _ _ _ _ _ _ _ _ _ _ _ _
 72
    65
 73
     2
 40
0.1875
 49
0.125
 74
     0
 49
-0.0625
 74
     0
  0
ENDTAB
  0
TABLE
  2
LAYER
  5
2
330
0
100
AcDbSymbolTable
 70
    33
  0
LAYER
  5
F
330
2
100
AcDbSymbolTableRecord
100
AcDbLayerTableRecord
  2
0
 70
     0
 62
     7
  6
CONTINUOUS
  0
LAYER
  5
1AA
330
2
100
AcDbSymbolTableRecord
100
AcDbLayerTableRecord
  2
240
 70
     0
 62
     4
  6
CONTINUOUS
  0
LAYER
  5
1AB
330
2
100
AcDbSymbolTableRecord
100
AcDbLayerTableRecord
  2
241
 70
     0
 62
   211
  6
CONTINUOUS
  0
LAYER
  5
1AC
330
2
100
AcDbSymbolTableRecord
100
AcDbLayerTableRecord
  2
242
 70
     0
 62
     3
  6
CONTINUOUS
  0
LAYER
  5
1AD
330
2
100
AcDbSymbolTableRecord
100
AcDbLayerTableRecord
  2
243
 70
     0
 62
   211
  6
HIDDEN2
  0
LAYER
  5
1AF
330
2
100
AcDbSymbolTableRecord
100
AcDbLayerTableRecord
  2
245
 70
     0
 62
     2
  6
CENTER2
  0
LAYER
  5
21E
330
2
100
AcDbSymbolTableRecord
100
AcDbLayerTableRecord
  2
250
 70
     0
 62
     3
  6
CONTINUOUS
  0
LAYER
  5
21F
330
2
100
AcDbSymbolTableRecord
100
AcDbLayerTableRecord
  2
251
 70
     0
 62
    40
  6
CONTINUOUS
  0
LAYER
  5
5C4
330
2
100
AcDbSymbolTableRecord
100
AcDbLayerTableRecord
  2
DEFPOINTS
 70
     0
 62
     7
  6
CONTINUOUS
  0
LAYER
  5
89C
330
2
100
AcDbSymbolTableRecord
100
AcDbLayerTableRecord
  2
AM_7
 70
     0
 62
     2
  6
CENTER2
  0
ENDTAB
  0
TABLE
  2
STYLE
  5
3
330
0
100
AcDbSymbolTable
 70
     3
  0
STYLE
  5
10
330
3
100
AcDbSymbolTableRecord
100
AcDbTextStyleTableRecord
  2
STANDARD
 70
     0
 40
0.0
 41
1.0
 50
0.0
 71
     0
 42
3.0
  3
romans.shx
  4
BIGFONT.SHX
  0
STYLE
  5
339
330
3
100
AcDbSymbolTableRecord
100
AcDbTextStyleTableRecord
  2
YOKO
 70
     0
 40
0.0
 41
1.0
 50
0.0
 71
     0
 42
3.0
  3
romans.shx
  4
extfont.shx
  0
ENDTAB
  0
TABLE
  2
VIEW
  5
6
330
0
100
AcDbSymbolTable
 70
     1
  0
VIEW
  5
BC5
330
6
100
AcDbSymbolTableRecord
100
AcDbViewTableRecord
  2
OLE1
 70
     0
 40
152.0320697
 10
59.7435156
 20
14.47723427
 41
217.68668324
 11
0.0
 21
0.0
 31
1.0
 12
0.0
 22
0.0
 32
0.0
 42
50.0
 43
0.0
 44
0.0
 50
0.0
 71
     0
  0
ENDTAB
  0
TABLE
  2
UCS
  5
7
330
0
100
AcDbSymbolTable
 70
     0
  0
ENDTAB
  0
TABLE
  2
APPID
  5
9
330
0
100
AcDbSymbolTable
 70
    15
  0
APPID
  5
11
330
9
100
AcDbSymbolTableRecord
100
AcDbRegAppTableRecord
  2
ACAD
 70
     0
  0
APPID
  5
1B1
330
9
100
AcDbSymbolTableRecord
100
AcDbRegAppTableRecord
  2
GLOBAL
 70
     0
  0
APPID
  5
2A4
330
9
100
AcDbSymbolTableRecord
100
AcDbRegAppTableRecord
  2
DETAIL
 70
     0
  0
APPID
  5
5FD
330
9
100
AcDbSymbolTableRecord
100
AcDbRegAppTableRecord
  2
GRPNAME
 70
     0
  0
APPID
  5
5FE
330
9
100
AcDbSymbolTableRecord
100
AcDbRegAppTableRecord
  2
GPARA
 70
     0
  0
APPID
  5
6C4
330
9
100
AcDbSymbolTableRecord
100
AcDbRegAppTableRecord
  2
DCO15
 70
     0
  0
APPID
  5
6C5
330
9
100
AcDbSymbolTableRecord
100
AcDbRegAppTableRecord
  2
ITEMNAME
 70
     0
  0
APPID
  5
6C6
330
9
100
AcDbSymbolTableRecord
100
AcDbRegAppTableRecord
  2
GRADE_0
 70
     0
  0
APPID
  5
89D
330
9
100
AcDbSymbolTableRecord
100
AcDbRegAppTableRecord
  2
GENIUS_GENOREF_13
 70
     0
  0
APPID
  5
89E
330
9
100
AcDbSymbolTableRecord
100
AcDbRegAppTableRecord
  2
HATCH_TYPE
 70
     0
  0
APPID
  5
89F
330
9
100
AcDbSymbolTableRecord
100
AcDbRegAppTableRecord
  2
HATCH_DISPLAY
 70
     0
  0
APPID
  5
8A0
330
9
100
AcDbSymbolTableRecord
100
AcDbRegAppTableRecord
  2
HATCH_DISTANCE
 70
     0
  0
APPID
  5
8A1
330
9
100
AcDbSymbolTableRecord
100
AcDbRegAppTableRecord
  2
GENIUS_GENODEF_13
 70
     0
  0
APPID
  5
8A2
330
9
100
AcDbSymbolTableRecord
100
AcDbRegAppTableRecord
  2
GENIUS_GENOBJ-N-FIL_13
 70
     0
  0
APPID
  5
BED
330
9
100
AcDbSymbolTableRecord
100
AcDbRegAppTableRecord
  2
CONTENTBLOCKICON
 70
     0
  0
ENDTAB
  0
TABLE
  2
DIMSTYLE
  5
A
330
0
100
AcDbSymbolTable
 70
    11
  0
DIMSTYLE
105
725
102
{ACAD_REACTORS
330
8B3
330
8B5
102
}
330
A
100
AcDbSymbolTableRecord
100
AcDbDimStyleTableRecord
  2
BIGT
 70
     0
  3

  4

  5

  6
OPEN
  7
OPEN
 40
1.0
 41
2.23
 42
0.5
 43
2.5
 44
1.0
 45
0.0
 46
0.0
 47
0.0
 48
0.0
140
2.8
141
0.0
142
0.0
143
25.4
144
1.0
145
0.0
146
1.0
147
1.0
 71
     0
 72
     0
 73
     0
 74
     0
 75
     0
 76
     0
 77
     3
 78
     8
170
     0
171
     2
172
     1
173
     1
174
     1
175
     0
176
   256
177
   256
178
    40
270
     2
271
     3
272
     3
273
     2
274
     2
340
10
275
     0
280
     0
281
     0
282
     0
283
     1
284
     8
285
     0
286
     0
287
     2
288
     0
  0
ENDTAB
  0
TABLE
  2
BLOCK_RECORD
  5
1
330
0
100
AcDbSymbolTable
 70
    18
  0
BLOCK_RECORD
  5
1A
102
{ACAD_XDICTIONARY
360
BEB
102
}
330
1
100
AcDbSymbolTableRecord
100
AcDbBlockTableRecord
  2
*MODEL_SPACE
  0
BLOCK_RECORD
  5
17
102
{ACAD_XDICTIONARY
360
BE9
102
}
330
1
100
AcDbSymbolTableRecord
100
AcDbBlockTableRecord
  2
*PAPER_SPACE
  0
BLOCK_RECORD
  5
594
330
1
100
AcDbSymbolTableRecord
100
AcDbBlockTableRecord
  2
_OPEN
  0
BLOCK_RECORD
  5
6E3
330
1
100
AcDbSymbolTableRecord
100
AcDbBlockTableRecord
  2
矢印なし
  0
BLOCK_RECORD
  5
762
330
1
100
AcDbSymbolTableRecord
100
AcDbBlockTableRecord
  2
1
1001
CONTENTBLOCKICON
1071
        0
1004
2800000020000000200000000100080000000000000400000000000000000000000000000000000000000000000080000080000000808000800000008000800080800000C0C0C000C0DCC000F0CAA6000020400000206000002080000020A0000020C0000020E00000400000004020000040400000406000004080000040A0
1004
000040C0000040E00000600000006020000060400000606000006080000060A0000060C0000060E00000800000008020000080400000806000008080000080A0000080C0000080E00000A0000000A0200000A0400000A0600000A0800000A0A00000A0C00000A0E00000C0000000C0200000C0400000C0600000C0800000C0
1004
A00000C0C00000C0E00000E0000000E0200000E0400000E0600000E0800000E0A00000E0C00000E0E00040000000400020004000400040006000400080004000A0004000C0004000E00040200000402020004020400040206000402080004020A0004020C0004020E000404000004040200040404000404060004040800040
1004
40A0004040C0004040E00040600000406020004060400040606000406080004060A0004060C0004060E00040800000408020004080400040806000408080004080A0004080C0004080E00040A0000040A0200040A0400040A0600040A0800040A0A00040A0C00040A0E00040C0000040C0200040C0400040C0600040C08000
1004
40C0A00040C0C00040C0E00040E0000040E0200040E0400040E0600040E0800040E0A00040E0C00040E0E00080000000800020008000400080006000800080008000A0008000C0008000E00080200000802020008020400080206000802080008020A0008020C0008020E00080400000804020008040400080406000804080
1004
008040A0008040C0008040E00080600000806020008060400080606000806080008060A0008060C0008060E00080800000808020008080400080806000808080008080A0008080C0008080E00080A0000080A0200080A0400080A0600080A0800080A0A00080A0C00080A0E00080C0000080C0200080C0400080C0600080C0
1004
800080C0A00080C0C00080C0E00080E0000080E0200080E0400080E0600080E0800080E0A00080E0C00080E0E000C0000000C0002000C0004000C0006000C0008000C000A000C000C000C000E000C0200000C0202000C0204000C0206000C0208000C020A000C020C000C020E000C0400000C0402000C0404000C0406000C0
1004
408000C040A000C040C000C040E000C0600000C0602000C0604000C0606000C0608000C060A000C060C000C060E000C0800000C0802000C0804000C0806000C0808000C080A000C080C000C080E000C0A00000C0A02000C0A04000C0A06000C0A08000C0A0A000C0A0C000C0A0E000C0C00000C0C02000C0C04000C0C06000
1004
C0C08000C0C0A000F0FBFF00A4A0A000808080000000FF0000FF000000FFFF00FF000000FF00FF00FFFF0000FFFFFF0000000000000000000000000000000000000000000000000000000000000000000000000000000000000000000000000000000000000000000000000000000000000000000000000000000000000000
1004
00000000000000000000000000000000000000000000000000000000000000000000000000000000000000000000000000000000000000000000000000000000000000000000000000000000000000000000000000000000000000000000000000000000000000000000000000000000000000000000000000000000000000
1004
00000000000000000000000000000000000000000000000000000000000000000000000000000000000000000000000000000000000000000000000000000000000000000000000000000000000000000000000000000000000000000000000000000000000000000000000000000000000000000000000000000000000000
1004
000000000000000000000000000000000000000000000000000000000000000000000000000000000000000000000000000000000000000000000000000000000000000000000000000000000000000000000000000000000000000000000000000000000000000000000000000000000000000000FEFBFEFEFEFEFEFEFEFE
1004
FEFEFEFEFEFEFEFEFEFEFEFEFEFEFEFEFEFE00000000FEFEFEFEFEE7E7000000000000000000000000000000000000FE00FE000000FBFEFEFEFEFEE7E7FBFBFBFBFBFBFFFFFFFFFFFFFBFBFBFBFBE7E7E7FEFB000000FEFBFEFEFEFEFEFEFEFEFEFEFEFEFEFEFEFEFEFEFEFEFEFEFEFEFEFE00000000000000000000000000
1004
00000000000000000000000000000000000000000000000000000000000000000000000000000000000000000000000000000000000000000000000000000000000000000000000000000000000000000000000000000000000000000000000000000000000000000000000000000000000000000000000000000000000000
1004
00000000000000000000000000000000000000000000000000000000000000000000000000000000000000000000000000000000000000000000000000000000000000000000000000000000000000000000000000000000000000000000000000000000000000000000000000000000000000000000000000000000000000
1004
00000000000000000000000000000000000000000000000000000000000000000000000000000000000000000000000000000000000000000000000000000000000000000000000000000000000000000000000000000000000000000000000000000000000000000000000000000000000000000000000000000000000000
1004
0000000000000000000000000000000000000000000000000000000000000000000000000000000000000000000000000000000000000000
  0
BLOCK_RECORD
  5
8BD
330
1
100
AcDbSymbolTableRecord
100
AcDbBlockTableRecord
  2
*D16
  0
BLOCK_RECORD
  5
8C9
330
1
100
AcDbSymbolTableRecord
100
AcDbBlockTableRecord
  2
*D17
  0
ENDTAB
  0
ENDSEC
  0
SECTION
  2
BLOCKS
  0
BLOCK
  5
1B
330
1A
100
AcDbEntity
  8
0
100
AcDbBlockBegin
  2
*MODEL_SPACE
 70
     0
 10
0.0
 20
0.0
 30
0.0
  3
*MODEL_SPACE
  1

  0
ENDBLK
  5
1C
330
1A
100
AcDbEntity
  8
0
100
AcDbBlockEnd
  0
BLOCK
  5
18
330
17
100
AcDbEntity
 67
     1
  8
0
100
AcDbBlockBegin
  2
*PAPER_SPACE
 70
     0
 10
0.0
 20
0.0
 30
0.0
  3
*PAPER_SPACE
  1

  0
ENDBLK
  5
19
330
17
100
AcDbEntity
 67
     1
  8
0
100
AcDbBlockEnd
  0
BLOCK
  5
598
330
594
100
AcDbEntity
  8
0
100
AcDbBlockBegin
  2
_OPEN
 70
     0
 10
0.0
 20
0.0
 30
0.0
  3
_OPEN
  1

  0
LINE
  5
595
330
594
100
AcDbEntity
  8
0
  6
BYBLOCK
 62
     0
100
AcDbLine
 10
-1.0
 20
0.16666667
 30
0.0
 11
0.0
 21
0.0
 31
0.0
  0
LINE
  5
596
330
594
100
AcDbEntity
  8
0
  6
BYBLOCK
 62
     0
100
AcDbLine
 10
-1.0
 20
-0.16666667
 30
0.0
 11
0.0
 21
0.0
 31
0.0
  0
LINE
  5
597
330
594
100
AcDbEntity
  8
0
  6
BYBLOCK
 62
     0
100
AcDbLine
 10
0.0
 20
0.0
 30
0.0
 11
-1.0
 21
0.0
 31
0.0
  0
ENDBLK
  5
599
330
594
100
AcDbEntity
  8
0
100
AcDbBlockEnd
  0
BLOCK
  5
6E4
330
6E3
100
AcDbEntity
  8
0
100
AcDbBlockBegin
  2
矢印なし
 70
     0
 10
0.0
 20
0.0
 30
0.0
  3
矢印なし
  1

  0
ENDBLK
  5
6E5
330
6E3
100
AcDbEntity
  8
0
100
AcDbBlockEnd
  0
BLOCK
  5
882
330
762
100
AcDbEntity
  8
0
100
AcDbBlockBegin
  2
1
 70
     0
 10
0.0
 20
0.0
 30
0.0
  3
1
  1

  0
LINE
  5
A57
330
762
100
AcDbEntity
  8
241
  6
HIDDEN2
100
AcDbLine
 10
137.0
 20
2.75
 30
0.0
 11
150.0
 21
2.75
 31
0.0
  0
LINE
  5
A58
330
762
100
AcDbEntity
  8
240
100
AcDbLine
 10
133.15
 20
-8.0
 30
0.0
 11
149.0
 21
-8.0
 31
0.0
  0
LINE
  5
A59
330
762
100
AcDbEntity
  8
240
100
AcDbLine
 10
133.15
 20
8.0
 30
0.0
 11
149.0
 21
8.0
 31
0.0
  0
LINE
  5
A5A
330
762
100
AcDbEntity
  8
AM_7
100
AcDbLine
 10
-48.5
 20
0.0
 30
0.0
 11
151.0
 21
0.0
 31
0.0
1001
GENIUS_GENOREF_13
1005
0
  0
LINE
  5
A5B
330
762
100
AcDbEntity
  8
240
100
AcDbLine
 10
-39.0
 20
6.0
 30
0.0
 11
-34.0
 21
6.0
 31
0.0
  0
LINE
  5
A5C
330
762
100
AcDbEntity
  8
240
100
AcDbLine
 10
-39.0
 20
-6.0
 30
0.0
 11
-34.0
 21
-6.0
 31
0.0
  0
LINE
  5
A5D
330
762
100
AcDbEntity
  8
240
100
AcDbLine
 10
-39.0
 20
6.0
 30
0.0
 11
-41.0
 21
8.0
 31
0.0
  0
LINE
  5
A5E
330
762
100
AcDbEntity
  8
240
100
AcDbLine
 10
-47.5
 20
7.0
 30
0.0
 11
-47.5
 21
0.0
 31
0.0
  0
LINE
  5
A5F
330
762
100
AcDbEntity
  8
240
100
AcDbLine
 10
-47.5
 20
-7.0
 30
0.0
 11
-47.5
 21
0.0
 31
0.0
  0
LINE
  5
A60
330
762
100
AcDbEntity
  8
240
100
AcDbLine
 10
-46.5
 20
-8.0
 30
0.0
 11
-41.0
 21
-8.0
 31
0.0
  0
ARC
  5
A61
330
762
100
AcDbEntity
  8
240
100
AcDbCircle
 10
-46.5
 20
-7.0
 30
0.0
 40
1.0
100
AcDbArc
 50
180.0
 51
270.0
  0
LINE
  5
A62
330
762
100
AcDbEntity
  8
240
100
AcDbLine
 10
-39.0
 20
-6.0
 30
0.0
 11
-41.0
 21
-8.0
 31
0.0
  0
LINE
  5
A63
330
762
100
AcDbEntity
  8
240
100
AcDbLine
 10
-46.5
 20
8.0
 30
0.0
 11
-41.0
 21
8.0
 31
0.0
  0
ARC
  5
A64
330
762
100
AcDbEntity
  8
240
100
AcDbCircle
 10
-46.5
 20
7.0
 30
0.0
 40
1.0
100
AcDbArc
 50
90.0
 51
180.0
  0
LINE
  5
A65
330
762
100
AcDbEntity
  8
0
100
AcDbLine
 10
55.68586936
 20
3.26704159
 30
0.0
 11
55.92663036
 21
3.50780259
 31
0.0
  0
LINE
  5
A66
330
762
100
AcDbEntity
  8
0
100
AcDbLine
 10
54.95587468
 20
1.55383387
 30
0.0
 11
55.92280846
 21
2.52076765
 31
0.0
  0
LINE
  5
A67
330
762
100
AcDbEntity
  8
0
100
AcDbLine
 10
55.49138103
 20
3.72802861
 30
0.0
 11
55.70291161
 21
3.9395592
 31
0.0
  0
LINE
  5
A68
330
762
100
AcDbEntity
  8
0
100
AcDbLine
 10
55.61540075
 20
2.54109761
 30
0.0
 11
56.00275866
 21
2.92845554
 31
0.0
  0
LINE
  5
A69
330
762
100
AcDbEntity
  8
0
100
AcDbLine
 10
55.60783761
 20
3.51674751
 30
0.0
 11
55.82900861
 21
3.73791851
 31
0.0
  0
ARC
  5
A6A
330
762
100
AcDbEntity
  8
0
100
AcDbCircle
 10
54.45667281
 20
3.01996954
 30
0.0
 40
1.548791887499995
100
AcDbArc
 50
270.0
 51
104.77079397
  0
ARC
  5
A6B
330
762
100
AcDbEntity
  8
0
100
AcDbCircle
 10
54.45667281
 20
3.01996954
 30
0.0
 40
1.253781787499995
100
AcDbArc
 50
270.0
 51
104.1274365
  0
LINE
  5
A6C
330
762
100
AcDbEntity
  8
240
100
AcDbLine
 10
130.0
 20
8.0
 30
0.0
 11
1.57117457
 21
8.0
 31
0.0
  0
LINE
  5
A6D
330
762
100
AcDbEntity
  8
240
100
AcDbLine
 10
130.0
 20
-8.0
 30
0.0
 11
1.57117457
 21
-8.0
 31
0.0
  0
LINE
  5
A6E
330
762
100
AcDbEntity
  8
241
100
AcDbLine
 10
0.0
 20
10.64125603
 30
0.0
 11
0.0
 21
0.0
 31
0.0
  0
LINE
  5
A6F
330
762
100
AcDbEntity
  8
241
100
AcDbLine
 10
-2.0
 20
10.0
 30
0.0
 11
-2.0
 21
0.0
 31
0.0
  0
LINE
  5
A70
330
762
100
AcDbEntity
  8
241
100
AcDbLine
 10
0.80384758
 20
8.35874397
 30
0.0
 11
0.80384758
 21
0.0
 31
0.0
  0
LINE
  5
A71
330
762
100
AcDbEntity
  8
241
100
AcDbLine
 10
-25.5
 20
7.0
 30
0.0
 11
-25.5
 21
0.0
 31
0.0
  0
LINE
  5
A72
330
762
100
AcDbEntity
  8
241
100
AcDbLine
 10
-16.5
 20
7.0
 30
0.0
 11
-16.5
 21
0.0
 31
0.0
  0
LINE
  5
A73
330
762
100
AcDbEntity
  8
241
100
AcDbLine
 10
-23.5
 20
7.0
 30
0.0
 11
-23.5
 21
0.0
 31
0.0
  0
LINE
  5
A74
330
762
100
AcDbEntity
  8
241
100
AcDbLine
 10
-5.12626129
 20
11.0
 30
0.0
 11
-5.12626129
 21
0.0
 31
0.0
  0
LINE
  5
A75
330
762
100
AcDbEntity
  8
241
100
AcDbLine
 10
-14.5
 20
7.0
 30
0.0
 11
-14.5
 21
0.0
 31
0.0
  0
LINE
  5
A76
330
762
100
AcDbEntity
  8
241
100
AcDbLine
 10
-11.0
 20
8.0
 30
0.0
 11
-11.0
 21
0.0
 31
0.0
  0
LINE
  5
A77
330
762
100
AcDbEntity
  8
241
  6
CONTINUOUS
100
AcDbLine
 10
-6.5
 20
10.50000001
 30
0.0
 11
-6.5
 21
0.0
 31
0.0
  0
LINE
  5
A78
330
762
100
AcDbEntity
  8
241
100
AcDbLine
 10
-4.0
 20
10.0
 30
0.0
 11
-4.0
 21
0.0
 31
0.0
  0
LINE
  5
A79
330
762
100
AcDbEntity
  8
240
100
AcDbLine
 10
-29.0
 20
6.0
 30
0.0
 11
-27.0
 21
8.0
 31
0.0
  0
LINE
  5
A7A
330
762
100
AcDbEntity
  8
AM_7
100
AcDbLine
 10
-34.0
 20
-8.0
 30
0.0
 11
-34.0
 21
8.0
 31
0.0
  0
LINE
  5
A7B
330
762
100
AcDbEntity
  8
240
100
AcDbLine
 10
-14.5
 20
-8.0
 30
0.0
 11
-11.0
 21
-8.0
 31
0.0
  0
LINE
  5
A7C
330
762
100
AcDbEntity
  8
240
100
AcDbLine
 10
-27.0
 20
-8.0
 30
0.0
 11
-25.5
 21
-8.0
 31
0.0
  0
LINE
  5
A7D
330
762
100
AcDbEntity
  8
243
100
AcDbLine
 10
-36.5
 20
6.0
 30
0.0
 11
-36.5
 21
-6.0
 31
0.0
  0
LINE
  5
A7E
330
762
100
AcDbEntity
  8
243
100
AcDbLine
 10
-31.5
 20
6.0
 30
0.0
 11
-31.5
 21
-6.0
 31
0.0
  0
LINE
  5
A7F
330
762
100
AcDbEntity
  8
240
100
AcDbLine
 10
-34.0
 20
-6.0
 30
0.0
 11
-29.0
 21
-6.0
 31
0.0
  0
LINE
  5
A80
330
762
100
AcDbEntity
  8
240
100
AcDbLine
 10
-29.0
 20
-6.0
 30
0.0
 11
-27.0
 21
-8.0
 31
0.0
  0
LINE
  5
A81
330
762
100
AcDbEntity
  8
240
100
AcDbLine
 10
-34.0
 20
6.0
 30
0.0
 11
-29.0
 21
6.0
 31
0.0
  0
LINE
  5
A82
330
762
100
AcDbEntity
  8
241
100
AcDbLine
 10
-14.5
 20
-7.0
 30
0.0
 11
-14.5
 21
0.0
 31
0.0
  0
LINE
  5
A83
330
762
100
AcDbEntity
  8
AM_7
100
AcDbLine
 10
-20.0
 20
-0.7698914
 30
0.0
 11
-20.0
 21
-4.52866188
 31
0.0
  0
LINE
  5
A84
330
762
100
AcDbEntity
  8
241
100
AcDbLine
 10
-16.5
 20
-7.0
 30
0.0
 11
-16.5
 21
0.0
 31
0.0
  0
LINE
  5
A85
330
762
100
AcDbEntity
  8
241
100
AcDbLine
 10
-23.5
 20
-7.0
 30
0.0
 11
-23.5
 21
0.0
 31
0.0
  0
LINE
  5
A86
330
762
100
AcDbEntity
  8
241
100
AcDbLine
 10
-25.5
 20
-7.0
 30
0.0
 11
-25.5
 21
0.0
 31
0.0
  0
ELLIPSE
  5
A87
330
762
100
AcDbEntity
  8
241
100
AcDbEllipse
 10
-20.0
 20
-2.64927664
 30
0.0
 11
-2.000000000000023
 21
0.0
 31
0.0
210
0.0
220
0.0
230
1.0
 40
0.93969262
 41
0.0
 42
6.283185307179584
  0
LINE
  5
A88
330
762
100
AcDbEntity
  8
AM_7
100
AcDbLine
 10
-21.99786162
 20
-2.73616115
 30
0.0
 11
-18.00213838
 21
-2.73616115
 31
0.0
  0
LINE
  5
A89
330
762
100
AcDbEntity
  8
240
100
AcDbLine
 10
-23.5
 20
-8.0
 30
0.0
 11
-16.5
 21
-8.0
 31
0.0
  0
ARC
  5
A8A
330
762
100
AcDbEntity
  8
240
100
AcDbCircle
 10
-24.5
 20
-7.0
 30
0.0
 40
1.000000000003004
100
AcDbArc
 50
180.0
 51
0.0
  0
LINE
  5
A8B
330
762
100
AcDbEntity
  8
240
100
AcDbLine
 10
-25.5
 20
-7.0
 30
0.0
 11
-25.5
 21
-8.0
 31
0.0
  0
LINE
  5
A8C
330
762
100
AcDbEntity
  8
240
100
AcDbLine
 10
-23.5
 20
-7.0
 30
0.0
 11
-23.5
 21
-8.0
 31
0.0
  0
LINE
  5
A8D
330
762
100
AcDbEntity
  8
240
100
AcDbLine
 10
-14.5
 20
-7.0
 30
0.0
 11
-14.5
 21
-8.0
 31
0.0
  0
LINE
  5
A8E
330
762
100
AcDbEntity
  8
240
100
AcDbLine
 10
-16.5
 20
-7.0
 30
0.0
 11
-16.5
 21
-8.0
 31
0.0
  0
ARC
  5
A8F
330
762
100
AcDbEntity
  8
240
100
AcDbCircle
 10
-15.5
 20
-7.0
 30
0.0
 40
1.000000000003004
100
AcDbArc
 50
180.0
 51
0.0
  0
LINE
  5
A90
330
762
100
AcDbEntity
  8
240
100
AcDbLine
 10
0.19859884
 20
-10.25881905
 30
0.0
 11
0.60524874
 21
-8.74118096
 31
0.0
  0
LINE
  5
A91
330
762
100
AcDbEntity
  8
241
100
AcDbLine
 10
0.0
 20
-10.64125603
 30
0.0
 11
0.0
 21
0.0
 31
0.0
  0
LINE
  5
A92
330
762
100
AcDbEntity
  8
241
100
AcDbLine
 10
-2.0
 20
-10.0
 30
0.0
 11
-2.0
 21
0.0
 31
0.0
  0
LINE
  5
A93
330
762
100
AcDbEntity
  8
240
100
AcDbLine
 10
-10.0
 20
-10.5
 30
0.0
 11
-10.0
 21
-9.0
 31
0.0
  0
LINE
  5
A94
330
762
100
AcDbEntity
  8
241
100
AcDbLine
 10
-5.12626129
 20
-11.0
 30
0.0
 11
-5.12626129
 21
0.0
 31
0.0
  0
LINE
  5
A95
330
762
100
AcDbEntity
  8
241
  6
CONTINUOUS
100
AcDbLine
 10
-6.5
 20
-10.50000001
 30
0.0
 11
-6.5
 21
0.0
 31
0.0
  0
LINE
  5
A96
330
762
100
AcDbEntity
  8
241
100
AcDbLine
 10
-4.0
 20
-10.0
 30
0.0
 11
-4.0
 21
0.0
 31
0.0
  0
ARC
  5
A97
330
762
100
AcDbEntity
  8
240
100
AcDbCircle
 10
-3.0
 20
-10.0
 30
0.0
 40
1.000000000000075
100
AcDbArc
 50
180.0
 51
0.0
  0
LINE
  5
A98
330
762
100
AcDbEntity
  8
240
100
AcDbLine
 10
-6.50000001
 20
-10.5
 30
0.0
 11
-10.0
 21
-10.5
 31
0.0
  0
LINE
  5
A99
330
762
100
AcDbEntity
  8
240
100
AcDbLine
 10
-6.5
 20
-10.50000001
 30
0.0
 11
-5.12626128
 21
-11.0
 31
0.0
  0
LINE
  5
A9A
330
762
100
AcDbEntity
  8
240
100
AcDbLine
 10
-4.0
 20
-11.0
 30
0.0
 11
-5.12626129
 21
-11.0
 31
0.0
  0
LINE
  5
A9B
330
762
100
AcDbEntity
  8
240
100
AcDbLine
 10
-4.0
 20
-10.0
 30
0.0
 11
-4.0
 21
-11.0
 31
0.0
  0
LINE
  5
A9C
330
762
100
AcDbEntity
  8
240
100
AcDbLine
 10
-0.63567449
 20
-11.0
 30
0.0
 11
-2.0
 21
-11.0
 31
0.0
  0
LINE
  5
A9D
330
762
100
AcDbEntity
  8
240
100
AcDbLine
 10
-2.0
 20
-10.0
 30
0.0
 11
-2.0
 21
-11.0
 31
0.0
  0
LINE
  5
A9E
330
762
100
AcDbEntity
  8
240
100
AcDbLine
 10
-0.50850794
 20
-10.96592583
 30
0.0
 11
-0.63567449
 21
-11.0
 31
0.0
  0
ARC
  5
A9F
330
762
100
AcDbEntity
  8
240
100
AcDbCircle
 10
-0.76732699
 20
-10.0
 30
0.0
 40
1.0
100
AcDbArc
 50
285.0
 51
345.0
1001
GENIUS_GENOBJ-N-FIL_13
1002
{
1000
OWNER
1000
GEN
1002
}
1001
GENIUS_GENODEF_13
1002
{
1000
HIER
1070
     0
1002
}
1002
{
1000
MANEDIT
1070
     0
1002
}
1002
{
1000
NOSEL
1070
     0
1002
}
1002
{
1000
BEHIND
1070
     0
1002
}
1002
{
1000
OTHER
1070
     0
1002
}
1002
{
1000
REACTOR
1002
}
  0
LINE
  5
AA0
330
762
100
AcDbEntity
  8
241
100
AcDbLine
 10
-11.0
 20
-8.0
 30
0.0
 11
-11.0
 21
0.0
 31
0.0
  0
LINE
  5
AA1
330
762
100
AcDbEntity
  8
241
100
AcDbLine
 10
-6.5
 20
-8.2
 30
0.0
 11
-9.5
 21
-8.2
 31
0.0
  0
LINE
  5
AA2
330
762
100
AcDbEntity
  8
240
100
AcDbLine
 10
-10.7
 20
-7.7
 30
0.0
 11
-9.5
 21
-7.7
 31
0.0
  0
LINE
  5
AA3
330
762
100
AcDbEntity
  8
240
100
AcDbLine
 10
-9.5
 20
-8.5
 30
0.0
 11
-10.0
 21
-9.0
 31
0.0
  0
LINE
  5
AA4
330
762
100
AcDbEntity
  8
240
100
AcDbLine
 10
-10.7
 20
-7.7
 30
0.0
 11
-11.0
 21
-8.0
 31
0.0
  0
LINE
  5
AA5
330
762
100
AcDbEntity
  8
240
100
AcDbLine
 10
-9.5
 20
-8.5
 30
0.0
 11
-9.5
 21
-7.7
 31
0.0
  0
LINE
  5
AA6
330
762
100
AcDbEntity
  8
241
100
AcDbLine
 10
0.80384758
 20
-8.35874397
 30
0.0
 11
0.80384758
 21
0.0
 31
0.0
  0
ARC
  5
AA7
330
762
100
AcDbEntity
  8
240
100
AcDbCircle
 10
1.57117457
 20
-9.0
 30
0.0
 40
1.0
100
AcDbArc
 50
90.0
 51
165.00000008
  0
LINE
  5
AA8
330
762
100
AcDbEntity
  8
240
100
AcDbLine
 10
-14.5
 20
8.0
 30
0.0
 11
-11.0
 21
8.0
 31
0.0
  0
LINE
  5
AA9
330
762
100
AcDbEntity
  8
240
100
AcDbLine
 10
-27.0
 20
8.0
 30
0.0
 11
-25.5
 21
8.0
 31
0.0
  0
LINE
  5
AAA
330
762
100
AcDbEntity
  8
240
100
AcDbLine
 10
-23.5
 20
8.0
 30
0.0
 11
-16.5
 21
8.0
 31
0.0
  0
LINE
  5
AAB
330
762
100
AcDbEntity
  8
240
100
AcDbLine
 10
-23.5
 20
7.0
 30
0.0
 11
-23.5
 21
8.0
 31
0.0
  0
LINE
  5
AAC
330
762
100
AcDbEntity
  8
240
100
AcDbLine
 10
-25.5
 20
7.0
 30
0.0
 11
-25.5
 21
8.0
 31
0.0
  0
ARC
  5
AAD
330
762
100
AcDbEntity
  8
240
100
AcDbCircle
 10
-24.5
 20
7.0
 30
0.0
 40
1.000000000003004
100
AcDbArc
 50
0.0
 51
180.0
  0
LINE
  5
AAE
330
762
100
AcDbEntity
  8
240
100
AcDbLine
 10
-14.5
 20
7.0
 30
0.0
 11
-14.5
 21
8.0
 31
0.0
  0
LINE
  5
AAF
330
762
100
AcDbEntity
  8
240
100
AcDbLine
 10
-16.5
 20
7.0
 30
0.0
 11
-16.5
 21
8.0
 31
0.0
  0
ARC
  5
AB0
330
762
100
AcDbEntity
  8
240
100
AcDbCircle
 10
-15.5
 20
7.0
 30
0.0
 40
1.000000000003004
100
AcDbArc
 50
0.0
 51
180.0
  0
ARC
  5
AB1
330
762
100
AcDbEntity
  8
240
100
AcDbCircle
 10
-3.0
 20
10.0
 30
0.0
 40
1.000000000000075
100
AcDbArc
 50
0.0
 51
180.0
  0
LINE
  5
AB2
330
762
100
AcDbEntity
  8
240
100
AcDbLine
 10
-6.50000001
 20
10.5
 30
0.0
 11
-10.0
 21
10.5
 31
0.0
  0
LINE
  5
AB3
330
762
100
AcDbEntity
  8
241
100
AcDbLine
 10
-6.5
 20
8.2
 30
0.0
 11
-9.5
 21
8.2
 31
0.0
  0
LINE
  5
AB4
330
762
100
AcDbEntity
  8
240
100
AcDbLine
 10
-10.0
 20
10.5
 30
0.0
 11
-10.0
 21
9.0
 31
0.0
  0
LINE
  5
AB5
330
762
100
AcDbEntity
  8
240
100
AcDbLine
 10
-9.5
 20
8.5
 30
0.0
 11
-10.0
 21
9.0
 31
0.0
  0
LINE
  5
AB6
330
762
100
AcDbEntity
  8
240
100
AcDbLine
 10
-10.7
 20
7.7
 30
0.0
 11
-11.0
 21
8.0
 31
0.0
  0
LINE
  5
AB7
330
762
100
AcDbEntity
  8
240
100
AcDbLine
 10
-10.7
 20
7.7
 30
0.0
 11
-9.5
 21
7.7
 31
0.0
  0
LINE
  5
AB8
330
762
100
AcDbEntity
  8
240
100
AcDbLine
 10
-9.5
 20
8.5
 30
0.0
 11
-9.5
 21
7.7
 31
0.0
  0
LINE
  5
AB9
330
762
100
AcDbEntity
  8
240
100
AcDbLine
 10
-4.0
 20
10.0
 30
0.0
 11
-4.0
 21
11.0
 31
0.0
  0
LINE
  5
ABA
330
762
100
AcDbEntity
  8
240
100
AcDbLine
 10
-6.50000001
 20
10.5
 30
0.0
 11
-5.12626128
 21
11.0
 31
0.0
  0
LINE
  5
ABB
330
762
100
AcDbEntity
  8
240
100
AcDbLine
 10
-4.0
 20
11.0
 30
0.0
 11
-5.12626129
 21
11.0
 31
0.0
  0
LINE
  5
ABC
330
762
100
AcDbEntity
  8
240
100
AcDbLine
 10
-2.0
 20
10.0
 30
0.0
 11
-2.0
 21
11.0
 31
0.0
  0
ARC
  5
ABD
330
762
100
AcDbEntity
  8
240
100
AcDbCircle
 10
-0.76732699
 20
10.0
 30
0.0
 40
1.0
100
AcDbArc
 50
15.0
 51
75.0
1001
GENIUS_GENOBJ-N-FIL_13
1002
{
1000
OWNER
1000
GEN
1002
}
1001
GENIUS_GENODEF_13
1002
{
1000
HIER
1070
     0
1002
}
1002
{
1000
MANEDIT
1070
     0
1002
}
1002
{
1000
NOSEL
1070
     0
1002
}
1002
{
1000
BEHIND
1070
     0
1002
}
1002
{
1000
OTHER
1070
     0
1002
}
1002
{
1000
REACTOR
1002
}
  0
LINE
  5
ABE
330
762
100
AcDbEntity
  8
240
100
AcDbLine
 10
0.19859884
 20
10.25881905
 30
0.0
 11
0.60524874
 21
8.74118096
 31
0.0
  0
ARC
  5
ABF
330
762
100
AcDbEntity
  8
240
100
AcDbCircle
 10
1.57117457
 20
9.0
 30
0.0
 40
1.0
100
AcDbArc
 50
194.99999992
 51
270.0
  0
LINE
  5
AC0
330
762
100
AcDbEntity
  8
240
100
AcDbLine
 10
-0.63567449
 20
11.0
 30
0.0
 11
-2.0
 21
11.0
 31
0.0
  0
LINE
  5
AC1
330
762
100
AcDbEntity
  8
240
100
AcDbLine
 10
-0.50850794
 20
10.96592583
 30
0.0
 11
-0.63567449
 21
11.0
 31
0.0
  0
LINE
  5
AC2
330
762
100
AcDbEntity
  8
0
100
AcDbLine
 10
49.23067936
 20
4.56876143
 30
0.0
 11
50.18236826
 21
4.56876143
 31
0.0
  0
ARC
  5
AC3
330
762
100
AcDbEntity
  8
0
100
AcDbCircle
 10
49.51791549
 20
2.68071015
 30
0.0
 40
0.4425154545410158
100
AcDbArc
 50
261.66285421
 51
66.33819216
  0
LINE
  5
AC4
330
762
100
AcDbEntity
  8
0
100
AcDbLine
 10
49.41645502
 20
1.91369245
 30
0.0
 11
50.49891415
 21
2.99615159
 31
0.0
  0
LINE
  5
AC5
330
762
100
AcDbEntity
  8
0
100
AcDbLine
 10
49.74419271
 20
1.91369245
 30
0.0
 11
50.57821262
 21
2.74771236
 31
0.0
  0
ARC
  5
AC6
330
762
100
AcDbEntity
  8
0
100
AcDbCircle
 10
49.84703975
 20
2.65120691
 30
0.0
 40
0.7375141125000006
100
AcDbArc
 50
270.0
 51
40.32984065
  0
LINE
  5
AC7
330
762
100
AcDbEntity
  8
0
100
AcDbLine
 10
49.62941525
 20
1.47117731
 30
0.0
 11
49.92442533
 21
1.76618741
 31
0.0
  0
LINE
  5
AC8
330
762
100
AcDbEntity
  8
0
100
AcDbLine
 10
50.03387821
 20
4.2660405
 30
0.0
 11
49.79212075
 21
3.42291317
 31
0.0
  0
ARC
  5
AC9
330
762
100
AcDbEntity
  8
0
100
AcDbCircle
 10
49.85628387
 20
3.86073941
 30
0.0
 40
0.4425027943359379
100
AcDbArc
 50
261.66260169
 51
66.3381551
  0
LINE
  5
ACA
330
762
100
AcDbEntity
  8
0
100
AcDbLine
 10
49.8358215
 20
2.98853428
 30
0.0
 11
50.89150886
 21
4.04422166
 31
0.0
  0
LINE
  5
ACB
330
762
100
AcDbEntity
  8
0
100
AcDbLine
 10
48.96253221
 20
3.09845804
 30
0.0
 11
49.99519006
 21
4.13111589
 31
0.0
  0
LINE
  5
ACC
330
762
100
AcDbEntity
  8
0
100
AcDbLine
 10
49.0942908
 20
3.55795431
 30
0.0
 11
50.10509792
 21
4.56876143
 31
0.0
  0
LINE
  5
ACD
330
762
100
AcDbEntity
  8
0
100
AcDbLine
 10
48.46800563
 20
1.76618741
 30
0.0
 11
54.45667281
 21
1.76618741
 31
0.0
  0
LINE
  5
ACE
330
762
100
AcDbEntity
  8
0
100
AcDbLine
 10
48.46800563
 20
1.47117731
 30
0.0
 11
54.45667281
 21
1.47117731
 31
0.0
  0
LINE
  5
ACF
330
762
100
AcDbEntity
  8
0
100
AcDbLine
 10
48.69901503
 20
2.17946551
 30
0.0
 11
49.94723369
 21
3.42768416
 31
0.0
  0
LINE
  5
AD0
330
762
100
AcDbEntity
  8
0
100
AcDbLine
 10
49.69551334
 20
3.08602352
 30
0.0
 11
49.45375191
 21
2.24287118
 31
0.0
  0
ARC
  5
AD1
330
762
100
AcDbEntity
  8
0
100
AcDbCircle
 10
48.46800563
 20
3.01996954
 30
0.0
 40
1.253781787499995
100
AcDbArc
 50
90.0
 51
270.0
  0
LINE
  5
AD2
330
762
100
AcDbEntity
  8
0
100
AcDbLine
 10
47.12661085
 20
2.24574972
 30
0.0
 11
47.34444047
 21
2.46357933
 31
0.0
  0
ARC
  5
AD3
330
762
100
AcDbEntity
  8
0
100
AcDbCircle
 10
48.46800563
 20
3.01996954
 30
0.0
 40
1.548791887499995
100
AcDbArc
 50
90.0
 51
270.0
  0
LINE
  5
AD4
330
762
100
AcDbEntity
  8
0
100
AcDbLine
 10
48.62280575
 20
1.91369245
 30
0.0
 11
49.29954252
 21
4.27375133
 31
0.0
  0
LINE
  5
AD5
330
762
100
AcDbEntity
  8
0
100
AcDbLine
 10
48.76097967
 20
1.91369245
 30
0.0
 11
49.59991788
 21
2.75263066
 31
0.0
  0
LINE
  5
AD6
330
762
100
AcDbEntity
  8
0
100
AcDbLine
 10
48.97393989
 20
1.47117731
 30
0.0
 11
49.26894997
 21
1.76618741
 31
0.0
  0
LINE
  5
AD7
330
762
100
AcDbEntity
  8
0
100
AcDbLine
 10
49.08871735
 20
1.91369245
 30
0.0
 11
49.46816608
 21
2.29314118
 31
0.0
  0
LINE
  5
AD8
330
762
100
AcDbEntity
  8
0
100
AcDbLine
 10
49.30167756
 20
1.47117731
 30
0.0
 11
49.59668766
 21
1.76618741
 31
0.0
  0
LINE
  5
AD9
330
762
100
AcDbEntity
  8
0
100
AcDbLine
 10
48.32507423
 20
1.47778702
 30
0.0
 11
48.61347461
 21
1.76618741
 31
0.0
  0
LINE
  5
ADA
330
762
100
AcDbEntity
  8
0
100
AcDbLine
 10
48.04859594
 20
1.5290464
 30
0.0
 11
48.29739904
 21
1.77784951
 31
0.0
  0
LINE
  5
ADB
330
762
100
AcDbEntity
  8
0
100
AcDbLine
 10
47.80980732
 20
1.61799547
 30
0.0
 11
48.03510547
 21
1.84329362
 31
0.0
  0
LINE
  5
ADC
330
762
100
AcDbEntity
  8
0
100
AcDbLine
 10
47.60080087
 20
1.7367267
 30
0.0
 11
47.814217
 21
1.95014283
 31
0.0
  0
LINE
  5
ADD
330
762
100
AcDbEntity
  8
0
100
AcDbLine
 10
47.41788489
 20
1.88154839
 30
0.0
 11
47.62669825
 21
2.09036175
 31
0.0
  0
LINE
  5
ADE
330
762
100
AcDbEntity
  8
0
100
AcDbLine
 10
47.25968899
 20
2.05109019
 30
0.0
 11
47.46984984
 21
2.26125103
 31
0.0
  0
LINE
  5
ADF
330
762
100
AcDbEntity
  8
0
100
AcDbLine
 10
48.6462022
 20
1.47117731
 30
0.0
 11
48.9412123
 21
1.76618741
 31
0.0
  0
LINE
  5
AE0
330
762
100
AcDbEntity
  8
0
100
AcDbLine
 10
48.62280575
 20
1.91369245
 30
0.0
 11
49.84703975
 21
1.91369245
 31
0.0
  0
LINE
  5
AE1
330
762
100
AcDbEntity
  8
0
100
AcDbLine
 10
46.94802229
 20
2.72263652
 30
0.0
 11
47.2146011
 21
2.98921533
 31
0.0
  0
LINE
  5
AE2
330
762
100
AcDbEntity
  8
0
100
AcDbLine
 10
46.91921457
 20
3.02156648
 30
0.0
 11
47.26262721
 21
3.36497912
 31
0.0
  0
LINE
  5
AE3
330
762
100
AcDbEntity
  8
0
100
AcDbLine
 10
46.96543669
 20
3.39552628
 30
0.0
 11
48.0924489
 21
4.52253849
 31
0.0
  0
LINE
  5
AE4
330
762
100
AcDbEntity
  8
0
100
AcDbLine
 10
49.14609006
 20
4.27375133
 30
0.0
 11
49.29954252
 21
4.27375133
 31
0.0
  0
LINE
  5
AE5
330
762
100
AcDbEntity
  8
0
100
AcDbLine
 10
49.07723803
 20
4.56876143
 30
0.0
 11
48.99264871
 21
4.27375133
 31
0.0
  0
LINE
  5
AE6
330
762
100
AcDbEntity
  8
0
100
AcDbLine
 10
49.23067936
 20
4.56876143
 30
0.0
 11
49.14609006
 21
4.27375133
 31
0.0
  0
LINE
  5
AE7
330
762
100
AcDbEntity
  8
0
100
AcDbLine
 10
49.22604938
 20
4.01745057
 30
0.0
 11
49.77736023
 21
4.56876143
 31
0.0
  0
LINE
  5
AE8
330
762
100
AcDbEntity
  8
0
100
AcDbLine
 10
49.15461246
 20
4.27375133
 30
0.0
 11
49.44962256
 21
4.56876143
 31
0.0
  0
LINE
  5
AE9
330
762
100
AcDbEntity
  8
0
100
AcDbLine
 10
47.0209689
 20
2.46784546
 30
0.0
 11
47.255195
 21
2.70207155
 31
0.0
  0
LINE
  5
AEA
330
762
100
AcDbEntity
  8
0
100
AcDbLine
 10
48.4991371
 20
4.27375133
 30
0.0
 11
48.7941472
 21
4.56876143
 31
0.0
  0
LINE
  5
AEB
330
762
100
AcDbEntity
  8
0
100
AcDbLine
 10
48.12299606
 20
4.22534797
 30
0.0
 11
48.46640869
 21
4.5687606
 31
0.0
  0
LINE
  5
AEC
330
762
100
AcDbEntity
  8
0
100
AcDbLine
 10
48.82687478
 20
4.27375133
 30
0.0
 11
49.05928996
 21
4.5061665
 31
0.0
  0
LINE
  5
AED
330
762
100
AcDbEntity
  8
0
100
AcDbLine
 10
48.83077362
 20
2.63896177
 30
0.0
 11
49.86343583
 21
3.67162397
 31
0.0
  0
LINE
  5
AEE
330
762
100
AcDbEntity
  8
0
100
AcDbLine
 10
48.46800563
 20
4.27375133
 30
0.0
 11
48.99264871
 21
4.27375133
 31
0.0
  0
LINE
  5
AEF
330
762
100
AcDbEntity
  8
0
100
AcDbLine
 10
48.46800563
 20
4.56876143
 30
0.0
 11
49.07723803
 21
4.56876143
 31
0.0
  0
ARC
  5
AF0
330
762
100
AcDbEntity
  8
0
100
AcDbCircle
 10
52.90174415
 20
2.54796229
 30
0.0
 40
0.3097602395507813
100
AcDbArc
 50
164.00027306
 51
344.00027306
  0
LINE
  5
AF1
330
762
100
AcDbEntity
  8
0
100
AcDbLine
 10
52.28806078
 20
2.16339677
 30
0.0
 11
52.60049844
 21
2.47583443
 31
0.0
  0
LINE
  5
AF2
330
762
100
AcDbEntity
  8
0
100
AcDbLine
 10
52.13642042
 20
2.33949409
 30
0.0
 11
52.67382099
 21
2.87689466
 31
0.0
  0
LINE
  5
AF3
330
762
100
AcDbEntity
  8
0
100
AcDbLine
 10
53.65590882
 20
1.91369245
 30
0.0
 11
54.08733102
 21
3.4182354
 31
0.0
  0
LINE
  5
AF4
330
762
100
AcDbEntity
  8
0
100
AcDbLine
 10
53.02604321
 20
1.91816616
 30
0.0
 11
53.91092958
 21
2.80305253
 31
0.0
  0
LINE
  5
AF5
330
762
100
AcDbEntity
  8
0
100
AcDbLine
 10
53.1652272
 20
2.38508782
 30
0.0
 11
54.04268857
 21
3.2625492
 31
0.0
  0
LINE
  5
AF6
330
762
100
AcDbEntity
  8
0
100
AcDbLine
 10
50.87736922
 20
2.3913936
 30
0.0
 11
51.80246352
 21
3.31648791
 31
0.0
  0
LINE
  5
AF7
330
762
100
AcDbEntity
  8
0
100
AcDbLine
 10
51.40867317
 20
4.24425923
 30
0.0
 11
50.74038976
 21
1.91369245
 31
0.0
1001
HATCH_DISTANCE
1040
1.0
1001
HATCH_DISPLAY
1070
     0
1001
HATCH_TYPE
1070
     7
  0
LINE
  5
AF8
330
762
100
AcDbEntity
  8
0
100
AcDbLine
 10
51.40867317
 20
4.24425923
 30
0.0
 11
50.74038976
 21
1.91369245
 31
0.0
  0
LINE
  5
AF9
330
762
100
AcDbEntity
  8
0
100
AcDbLine
 10
50.7456097
 20
1.9318964
 30
0.0
 11
51.6707058
 21
2.8569925
 31
0.0
  0
LINE
  5
AFA
330
762
100
AcDbEntity
  8
0
100
AcDbLine
 10
50.74038976
 20
1.91369245
 30
0.0
 11
51.40867317
 21
4.24425923
 31
0.0
  0
ARC
  5
AFB
330
762
100
AcDbEntity
  8
0
100
AcDbCircle
 10
52.9334192
 20
2.87246449
 30
0.0
 40
0.9587828249999999
100
AcDbArc
 50
163.9997507
 51
304.96387329
  0
LINE
  5
AFC
330
762
100
AcDbEntity
  8
0
100
AcDbLine
 10
51.40021982
 20
1.91369245
 30
0.0
 11
52.1615459
 21
4.56876143
 31
0.0
  0
LINE
  5
AFD
330
762
100
AcDbEntity
  8
0
100
AcDbLine
 10
51.40021982
 20
1.91369245
 30
0.0
 11
52.1615459
 21
4.56876143
 31
0.0
1001
HATCH_DISTANCE
1040
1.0
1001
HATCH_DISPLAY
1070
     0
1001
HATCH_TYPE
1070
     7
  0
LINE
  5
AFE
330
762
100
AcDbEntity
  8
0
100
AcDbLine
 10
51.40021982
 20
1.91369245
 30
0.0
 11
52.1615459
 21
4.56876143
 31
0.0
  0
LINE
  5
AFF
330
762
100
AcDbEntity
  8
0
100
AcDbLine
 10
52.57905437
 20
1.47117731
 30
0.0
 11
52.87406445
 21
1.76618741
 31
0.0
  0
LINE
  5
B00
330
762
100
AcDbEntity
  8
0
100
AcDbLine
 10
52.71827193
 20
1.93813256
 30
0.0
 11
53.06461862
 21
2.28447924
 31
0.0
  0
LINE
  5
B01
330
762
100
AcDbEntity
  8
0
100
AcDbLine
 10
52.4800475
 20
2.02764581
 30
0.0
 11
52.73764311
 21
2.28524142
 31
0.0
  0
LINE
  5
B02
330
762
100
AcDbEntity
  8
0
100
AcDbLine
 10
51.92357901
 20
1.47117731
 30
0.0
 11
52.21858909
 21
1.76618741
 31
0.0
  0
LINE
  5
B03
330
762
100
AcDbEntity
  8
0
100
AcDbLine
 10
52.25131668
 20
1.47117731
 30
0.0
 11
52.54632678
 21
1.76618741
 31
0.0
  0
LINE
  5
B04
330
762
100
AcDbEntity
  8
0
100
AcDbLine
 10
50.12722578
 20
1.96898784
 30
0.0
 11
50.52925882
 21
2.37102089
 31
0.0
  0
LINE
  5
B05
330
762
100
AcDbEntity
  8
0
100
AcDbLine
 10
50.74038976
 20
1.91369245
 30
0.0
 11
51.40021982
 21
1.91369245
 31
0.0
1001
HATCH_DISTANCE
1040
1.0
1001
HATCH_DISPLAY
1070
     0
1001
HATCH_TYPE
1070
     7
  0
LINE
  5
B06
330
762
100
AcDbEntity
  8
0
100
AcDbLine
 10
50.74038976
 20
1.91369245
 30
0.0
 11
51.40021982
 21
1.91369245
 31
0.0
  0
LINE
  5
B07
330
762
100
AcDbEntity
  8
0
100
AcDbLine
 10
51.3828811
 20
1.91369245
 30
0.0
 11
51.40719035
 21
1.9380017
 31
0.0
  0
LINE
  5
B08
330
762
100
AcDbEntity
  8
0
100
AcDbLine
 10
51.05514343
 20
1.91369245
 30
0.0
 11
51.53894807
 21
2.3974971
 31
0.0
  0
LINE
  5
B09
330
762
100
AcDbEntity
  8
0
100
AcDbLine
 10
50.74038976
 20
1.91369245
 30
0.0
 11
51.40021982
 21
1.91369245
 31
0.0
  0
LINE
  5
B0A
330
762
100
AcDbEntity
  8
0
100
AcDbLine
 10
51.26810364
 20
1.47117731
 30
0.0
 11
51.56311373
 21
1.76618741
 31
0.0
  0
LINE
  5
B0B
330
762
100
AcDbEntity
  8
0
100
AcDbLine
 10
50.94036596
 20
1.47117731
 30
0.0
 11
51.23537606
 21
1.76618741
 31
0.0
  0
LINE
  5
B0C
330
762
100
AcDbEntity
  8
0
100
AcDbLine
 10
50.61262828
 20
1.47117731
 30
0.0
 11
50.90763838
 21
1.76618741
 31
0.0
  0
LINE
  5
B0D
330
762
100
AcDbEntity
  8
0
100
AcDbLine
 10
50.2848906
 20
1.47117731
 30
0.0
 11
50.57990069
 21
1.76618741
 31
0.0
  0
LINE
  5
B0E
330
762
100
AcDbEntity
  8
0
100
AcDbLine
 10
49.95715292
 20
1.47117731
 30
0.0
 11
50.25216302
 21
1.76618741
 31
0.0
  0
LINE
  5
B0F
330
762
100
AcDbEntity
  8
0
100
AcDbLine
 10
51.59584132
 20
1.47117731
 30
0.0
 11
51.89085142
 21
1.76618741
 31
0.0
  0
LINE
  5
B10
330
762
100
AcDbEntity
  8
0
100
AcDbLine
 10
53.5622674
 20
1.47117731
 30
0.0
 11
53.8572775
 21
1.76618741
 31
0.0
  0
LINE
  5
B11
330
762
100
AcDbEntity
  8
0
100
AcDbLine
 10
53.23452973
 20
1.47117731
 30
0.0
 11
53.52953981
 21
1.76618741
 31
0.0
  0
LINE
  5
B12
330
762
100
AcDbEntity
  8
0
100
AcDbLine
 10
52.90679204
 20
1.47117731
 30
0.0
 11
53.20180214
 21
1.76618741
 31
0.0
  0
LINE
  5
B13
330
762
100
AcDbEntity
  8
0
100
AcDbLine
 10
53.48285436
 20
2.08673579
 30
0.0
 11
53.65590882
 21
1.91369245
 31
0.0
  0
LINE
  5
B14
330
762
100
AcDbEntity
  8
0
100
AcDbLine
 10
53.50260308
 20
2.06698834
 30
0.0
 11
53.77917059
 21
2.34355586
 31
0.0
  0
LINE
  5
B15
330
762
100
AcDbEntity
  8
0
100
AcDbLine
 10
54.21774276
 20
1.47117731
 30
0.0
 11
54.51406758
 21
1.76750213
 31
0.0
  0
LINE
  5
B16
330
762
100
AcDbEntity
  8
0
100
AcDbLine
 10
53.89000508
 20
1.47117731
 30
0.0
 11
54.18501517
 21
1.76618741
 31
0.0
  0
LINE
  5
B17
330
762
100
AcDbEntity
  8
0
100
AcDbLine
 10
54.54818681
 20
1.47388367
 30
0.0
 11
54.93554473
 21
1.8612416
 31
0.0
  0
LINE
  5
B18
330
762
100
AcDbEntity
  8
0
100
AcDbLine
 10
52.60398309
 20
2.63334237
 30
0.0
 11
53.00156957
 21
4.01988315
 31
0.0
  0
LINE
  5
B19
330
762
100
AcDbEntity
  8
0
100
AcDbLine
 10
52.02754807
 20
2.55835942
 30
0.0
 11
52.80558043
 21
3.33639178
 31
0.0
  0
LINE
  5
B1A
330
762
100
AcDbEntity
  8
0
100
AcDbLine
 10
51.9754099
 20
2.83395893
 30
0.0
 11
52.93733987
 21
3.7958889
 31
0.0
  0
LINE
  5
B1B
330
762
100
AcDbEntity
  8
0
100
AcDbLine
 10
52.02184863
 20
3.20813533
 30
0.0
 11
53.35840188
 21
4.54468858
 31
0.0
  0
LINE
  5
B1C
330
762
100
AcDbEntity
  8
0
100
AcDbLine
 10
52.13065519
 20
3.64467957
 30
0.0
 11
53.05003379
 21
4.56405818
 31
0.0
  0
ARC
  5
B1D
330
762
100
AcDbEntity
  8
0
100
AcDbCircle
 10
53.14489805
 20
3.60998974
 30
0.0
 40
0.9587730796874998
100
AcDbArc
 50
53.4440122
 51
164.00018439
  0
LINE
  5
B1E
330
762
100
AcDbEntity
  8
0
100
AcDbLine
 10
51.3855641
 20
4.53827688
 30
0.0
 11
51.41604864
 21
4.56876143
 31
0.0
  0
LINE
  5
B1F
330
762
100
AcDbEntity
  8
0
100
AcDbLine
 10
51.39430581
 20
4.56876143
 30
0.0
 11
52.1615459
 21
4.56876143
 31
0.0
  0
LINE
  5
B20
330
762
100
AcDbEntity
  8
0
100
AcDbLine
 10
52.1615459
 20
4.56876143
 30
0.0
 11
51.39430581
 21
4.56876143
 31
0.0
1001
HATCH_DISTANCE
1040
1.0
1001
HATCH_DISPLAY
1070
     0
1001
HATCH_TYPE
1070
     7
  0
LINE
  5
B21
330
762
100
AcDbEntity
  8
0
100
AcDbLine
 10
52.1615459
 20
4.56876143
 30
0.0
 11
51.39430581
 21
4.56876143
 31
0.0
  0
ARC
  5
B22
330
762
100
AcDbEntity
  8
0
100
AcDbCircle
 10
54.50097777
 20
2.82205616
 30
0.0
 40
2.509011449999999
100
AcDbArc
 50
155.20517737
 51
172.79482596
  0
LINE
  5
B23
330
762
100
AcDbEntity
  8
0
100
AcDbLine
 10
49.95022506
 20
2.77520017
 30
0.0
 11
50.91757562
 21
3.74255073
 31
0.0
  0
LINE
  5
B24
330
762
100
AcDbEntity
  8
0
100
AcDbLine
 10
50.28933913
 20
3.7697896
 30
0.0
 11
50.78301005
 21
4.26346052
 31
0.0
  0
LINE
  5
B25
330
762
100
AcDbEntity
  8
0
100
AcDbLine
 10
51.30125199
 20
4.24425923
 30
0.0
 11
51.40867317
 21
4.24425923
 31
0.0
  0
LINE
  5
B26
330
762
100
AcDbEntity
  8
0
100
AcDbLine
 10
51.30125199
 20
4.24425923
 30
0.0
 11
51.40867317
 21
4.24425923
 31
0.0
1001
HATCH_DISTANCE
1040
1.0
1001
HATCH_DISPLAY
1070
     0
1001
HATCH_TYPE
1070
     7
  0
LINE
  5
B27
330
762
100
AcDbEntity
  8
0
100
AcDbLine
 10
51.30125199
 20
4.24425923
 30
0.0
 11
51.40867317
 21
4.24425923
 31
0.0
  0
LINE
  5
B28
330
762
100
AcDbEntity
  8
0
100
AcDbLine
 10
51.00912874
 20
2.8508908
 30
0.0
 11
51.93422124
 21
3.7759833
 31
0.0
  0
LINE
  5
B29
330
762
100
AcDbEntity
  8
0
100
AcDbLine
 10
51.14088825
 20
3.31038799
 30
0.0
 11
52.06597896
 21
4.2354787
 31
0.0
  0
LINE
  5
B2A
330
762
100
AcDbEntity
  8
0
100
AcDbLine
 10
51.27264776
 20
3.7698852
 30
0.0
 11
52.071524
 21
4.56876143
 31
0.0
  0
LINE
  5
B2B
330
762
100
AcDbEntity
  8
0
100
AcDbLine
 10
50.09646253
 20
4.23238836
 30
0.0
 11
50.4007146
 21
4.53664042
 31
0.0
  0
LINE
  5
B2C
330
762
100
AcDbEntity
  8
0
100
AcDbLine
 10
51.30125199
 20
4.24425923
 30
0.0
 11
51.39430581
 21
4.56876143
 31
0.0
  0
LINE
  5
B2D
330
762
100
AcDbEntity
  8
0
100
AcDbLine
 10
51.39430581
 20
4.56876143
 30
0.0
 11
51.30125199
 21
4.24425923
 31
0.0
1001
HATCH_DISTANCE
1040
1.0
1001
HATCH_DISPLAY
1070
     0
1001
HATCH_TYPE
1070
     7
  0
LINE
  5
B2E
330
762
100
AcDbEntity
  8
0
100
AcDbLine
 10
51.39430581
 20
4.56876143
 30
0.0
 11
51.30125199
 21
4.24425923
 31
0.0
  0
LINE
  5
B2F
330
762
100
AcDbEntity
  8
0
100
AcDbLine
 10
50.25152721
 20
4.05971536
 30
0.0
 11
50.61938301
 21
4.42757116
 31
0.0
  0
LINE
  5
B30
330
762
100
AcDbEntity
  8
0
100
AcDbLine
 10
51.40440728
 20
4.22938239
 30
0.0
 11
51.74378632
 21
4.56876143
 31
0.0
  0
ARC
  5
B31
330
762
100
AcDbEntity
  8
0
100
AcDbCircle
 10
50.18540814
 20
3.83124731
 30
0.0
 40
0.73752037734375
100
AcDbArc
 50
287.66957755
 51
90.23615984
  0
LINE
  5
B32
330
762
100
AcDbEntity
  8
0
100
AcDbLine
 10
55.16343862
 20
4.05556156
 30
0.0
 11
55.3750092
 21
4.26713214
 31
0.0
  0
LINE
  5
B33
330
762
100
AcDbEntity
  8
0
100
AcDbLine
 10
55.34268597
 20
3.90707124
 30
0.0
 11
55.55128965
 21
4.11567491
 31
0.0
  0
LINE
  5
B34
330
762
100
AcDbEntity
  8
0
100
AcDbLine
 10
54.95192917
 20
4.1717898
 30
0.0
 11
55.17319185
 21
4.39305248
 31
0.0
  0
LINE
  5
B35
330
762
100
AcDbEntity
  8
0
100
AcDbLine
 10
54.12238704
 20
4.32546071
 30
0.0
 11
54.36284291
 21
4.56591658
 31
0.0
  0
ARC
  5
B36
330
762
100
AcDbEntity
  8
0
100
AcDbCircle
 10
54.45667281
 20
3.01996954
 30
0.0
 40
1.548792583593745
100
AcDbArc
 50
110.22964506
 51
118.57168892
  0
LINE
  5
B37
330
762
100
AcDbEntity
  8
0
100
AcDbLine
 10
54.06180388
 20
4.51758462
 30
0.0
 11
54.06180388
 21
4.51758462
 31
0.0
1001
HATCH_DISTANCE
1040
1.0
1001
HATCH_DISPLAY
1070
     0
1001
HATCH_TYPE
1070
     7
  0
LINE
  5
B38
330
762
100
AcDbEntity
  8
0
100
AcDbLine
 10
54.06180388
 20
4.51758462
 30
0.0
 11
54.06180388
 21
4.51758462
 31
0.0
  0
LINE
  5
B39
330
762
100
AcDbEntity
  8
0
100
AcDbLine
 10
54.06180388
 20
4.51758462
 30
0.0
 11
54.06180388
 21
4.51758462
 31
0.0
1001
HATCH_DISTANCE
1040
1.0
1001
HATCH_DISPLAY
1070
     0
1001
HATCH_TYPE
1070
     7
  0
LINE
  5
B3A
330
762
100
AcDbEntity
  8
0
100
AcDbLine
 10
54.06180388
 20
4.51758462
 30
0.0
 11
54.06180388
 21
4.51758462
 31
0.0
  0
LINE
  5
B3B
330
762
100
AcDbEntity
  8
0
100
AcDbLine
 10
53.1434279
 20
3.1232253
 30
0.0
 11
53.38894295
 21
3.1232253
 31
0.0
  0
LINE
  5
B3C
330
762
100
AcDbEntity
  8
0
100
AcDbLine
 10
53.1434279
 20
3.1232253
 30
0.0
 11
53.22801721
 21
3.4182354
 31
0.0
  0
LINE
  5
B3D
330
762
100
AcDbEntity
  8
0
100
AcDbLine
 10
53.22801721
 20
3.4182354
 30
0.0
 11
54.08733102
 21
3.4182354
 31
0.0
  0
ARC
  5
B3E
330
762
100
AcDbEntity
  8
0
100
AcDbCircle
 10
53.29933063
 20
3.93449193
 30
0.0
 40
0.3097604570800781
100
AcDbArc
 50
1.71012138
 51
163.99839835
  0
ARC
  5
B3F
330
762
100
AcDbEntity
  8
0
100
AcDbCircle
 10
54.45667281
 20
3.01996954
 30
0.0
 40
1.253785267968747
100
AcDbArc
 50
110.8721834
 51
132.54194894
  0
LINE
  5
B40
330
762
100
AcDbEntity
  8
0
100
AcDbLine
 10
53.31389075
 20
2.86148905
 30
0.0
 11
53.8706371
 21
3.4182354
 31
0.0
  0
LINE
  5
B41
330
762
100
AcDbEntity
  8
0
100
AcDbLine
 10
53.24788932
 20
3.1232253
 30
0.0
 11
53.54289941
 21
3.4182354
 31
0.0
  0
LINE
  5
B42
330
762
100
AcDbEntity
  8
0
100
AcDbLine
 10
53.97408488
 20
4.17715855
 30
0.0
 11
54.00480003
 21
4.20787369
 31
0.0
  0
LINE
  5
B43
330
762
100
AcDbEntity
  8
0
100
AcDbLine
 10
54.15064772
 20
4.23583928
 30
0.0
 11
54.15064772
 21
4.23583928
 31
0.0
1001
HATCH_DISTANCE
1040
1.0
1001
HATCH_DISPLAY
1070
     0
1001
HATCH_TYPE
1070
     7
  0
LINE
  5
B44
330
762
100
AcDbEntity
  8
0
100
AcDbLine
 10
54.15064772
 20
4.23583928
 30
0.0
 11
54.15064772
 21
4.23583928
 31
0.0
  0
LINE
  5
B45
330
762
100
AcDbEntity
  8
0
100
AcDbLine
 10
54.15064772
 20
4.23583928
 30
0.0
 11
54.15064772
 21
4.23583928
 31
0.0
1001
HATCH_DISTANCE
1040
1.0
1001
HATCH_DISPLAY
1070
     0
1001
HATCH_TYPE
1070
     7
  0
LINE
  5
B46
330
762
100
AcDbEntity
  8
0
100
AcDbLine
 10
54.15064772
 20
4.23583928
 30
0.0
 11
54.15064772
 21
4.23583928
 31
0.0
  0
LINE
  5
B47
330
762
100
AcDbEntity
  8
0
100
AcDbLine
 10
53.19950522
 20
2.46258221
 30
0.0
 11
53.38894295
 21
3.1232253
 31
0.0
  0
LINE
  5
B48
330
762
100
AcDbEntity
  8
0
100
AcDbLine
 10
54.39699422
 20
4.2723302
 30
0.0
 11
54.67758898
 21
4.55292497
 31
0.0
  0
LINE
  5
B49
330
762
100
AcDbEntity
  8
0
100
AcDbLine
 10
54.15064772
 20
4.23583928
 30
0.0
 11
54.06180388
 21
4.51758462
 31
0.0
  0
LINE
  5
B4A
330
762
100
AcDbEntity
  8
0
100
AcDbLine
 10
54.15064772
 20
4.23583928
 30
0.0
 11
54.06180388
 21
4.51758462
 31
0.0
1001
HATCH_DISTANCE
1040
1.0
1001
HATCH_DISPLAY
1070
     0
1001
HATCH_TYPE
1070
     7
  0
LINE
  5
B4B
330
762
100
AcDbEntity
  8
0
100
AcDbLine
 10
54.06180388
 20
4.51758462
 30
0.0
 11
54.15064772
 21
4.23583928
 31
0.0
1001
HATCH_DISTANCE
1040
1.0
1001
HATCH_DISPLAY
1070
     0
1001
HATCH_TYPE
1070
     7
  0
LINE
  5
B4C
330
762
100
AcDbEntity
  8
0
100
AcDbLine
 10
54.15064772
 20
4.23583928
 30
0.0
 11
54.06180388
 21
4.51758462
 31
0.0
  0
LINE
  5
B4D
330
762
100
AcDbEntity
  8
0
100
AcDbLine
 10
54.06180388
 20
4.51758462
 30
0.0
 11
54.15064772
 21
4.23583928
 31
0.0
  0
LINE
  5
B4E
330
762
100
AcDbEntity
  8
0
100
AcDbLine
 10
54.15064772
 20
4.23583928
 30
0.0
 11
54.06180388
 21
4.51758462
 31
0.0
1001
HATCH_DISTANCE
1040
1.0
1001
HATCH_DISPLAY
1070
     0
1001
HATCH_TYPE
1070
     7
  0
LINE
  5
B4F
330
762
100
AcDbEntity
  8
0
100
AcDbLine
 10
54.06180388
 20
4.51758462
 30
0.0
 11
54.15064772
 21
4.23583928
 31
0.0
1001
HATCH_DISTANCE
1040
1.0
1001
HATCH_DISPLAY
1070
     0
1001
HATCH_TYPE
1070
     7
  0
LINE
  5
B50
330
762
100
AcDbEntity
  8
0
100
AcDbLine
 10
54.15064772
 20
4.23583928
 30
0.0
 11
54.06180388
 21
4.51758462
 31
0.0
  0
LINE
  5
B51
330
762
100
AcDbEntity
  8
0
100
AcDbLine
 10
54.06180388
 20
4.51758462
 30
0.0
 11
54.15064772
 21
4.23583928
 31
0.0
  0
LINE
  5
B52
330
762
100
AcDbEntity
  8
0
100
AcDbLine
 10
54.00996995
 20
4.19147861
 30
0.0
 11
53.92112611
 21
4.47322395
 31
0.0
  0
LINE
  5
B53
330
762
100
AcDbEntity
  8
0
100
AcDbLine
 10
53.56423441
 20
4.09504576
 30
0.0
 11
53.92622926
 21
4.45704061
 31
0.0
  0
LINE
  5
B54
330
762
100
AcDbEntity
  8
0
100
AcDbLine
 10
53.37605187
 20
4.2346009
 30
0.0
 11
53.59695343
 21
4.45550246
 31
0.0
  0
LINE
  5
B55
330
762
100
AcDbEntity
  8
0
100
AcDbLine
 10
54.70193099
 20
4.24952929
 30
0.0
 11
54.9428705
 21
4.49046881
 31
0.0
  0
TEXT
  5
B56
330
762
100
AcDbEntity
  8
0
100
AcDbText
 10
56.77042163
 20
1.88610653
 30
0.0
 40
2.5
  1
MGT6-M5-150
  7
YOKO
100
AcDbText
  0
LINE
  5
B57
330
762
100
AcDbEntity
  8
0
100
AcDbLine
 10
55.70914021
 20
2.96257476
 30
0.0
 11
55.98935296
 21
3.2427875
 31
0.0
  0
LINE
  5
B58
330
762
100
AcDbEntity
  8
240
100
AcDbLine
 10
131.0
 20
6.2
 30
0.0
 11
131.0
 21
8.15
 31
0.0
  0
LINE
  5
B59
330
762
100
AcDbEntity
  8
240
100
AcDbLine
 10
130.0
 20
6.2
 30
0.0
 11
130.0
 21
8.0
 31
0.0
  0
LINE
  5
B5A
330
762
100
AcDbEntity
  8
241
100
AcDbLine
 10
133.0
 20
8.15
 30
0.0
 11
133.0
 21
0.0
 31
0.0
  0
LINE
  5
B5B
330
762
100
AcDbEntity
  8
241
100
AcDbLine
 10
134.2
 20
8.0
 30
0.0
 11
134.2
 21
0.0
 31
0.0
  0
LINE
  5
B5C
330
762
100
AcDbEntity
  8
241
  6
HIDDEN2
100
AcDbLine
 10
132.0
 20
3.05
 30
0.0
 11
137.0
 21
3.05
 31
0.0
1001
GRPNAME
1000
0000002S
  0
LINE
  5
B5D
330
762
100
AcDbEntity
  8
241
100
AcDbLine
 10
131.0
 20
-6.2
 30
0.0
 11
131.0
 21
0.0
 31
0.0
  0
LINE
  5
B5E
330
762
100
AcDbEntity
  8
241
100
AcDbLine
 10
130.0
 20
-6.2
 30
0.0
 11
130.0
 21
0.0
 31
0.0
  0
LINE
  5
B5F
330
762
100
AcDbEntity
  8
241
100
AcDbLine
 10
134.2
 20
-8.0
 30
0.0
 11
134.2
 21
0.0
 31
0.0
  0
LINE
  5
B60
330
762
100
AcDbEntity
  8
241
100
AcDbLine
 10
133.0
 20
-8.15
 30
0.0
 11
133.0
 21
0.0
 31
0.0
  0
LINE
  5
B61
330
762
100
AcDbEntity
  8
240
100
AcDbLine
 10
131.0
 20
-8.15
 30
0.0
 11
133.0
 21
-8.15
 31
0.0
  0
LINE
  5
B62
330
762
100
AcDbEntity
  8
240
100
AcDbLine
 10
131.0
 20
-6.2
 30
0.0
 11
130.0
 21
-6.2
 31
0.0
  0
LINE
  5
B63
330
762
100
AcDbEntity
  8
240
100
AcDbLine
 10
131.0
 20
-6.2
 30
0.0
 11
131.0
 21
-8.15
 31
0.0
  0
LINE
  5
B64
330
762
100
AcDbEntity
  8
240
100
AcDbLine
 10
130.0
 20
-6.2
 30
0.0
 11
130.0
 21
-8.0
 31
0.0
  0
LINE
  5
B65
330
762
100
AcDbEntity
  8
240
100
AcDbLine
 10
133.15
 20
-8.0
 30
0.0
 11
133.0
 21
-8.15
 31
0.0
  0
LINE
  5
B66
330
762
100
AcDbEntity
  8
241
  6
HIDDEN2
100
AcDbLine
 10
128.0
 20
3.25269119
 30
0.0
 11
132.0
 21
3.25269119
 31
0.0
  0
LINE
  5
B67
330
762
100
AcDbEntity
  8
242
  6
HIDDEN2
100
AcDbLine
 10
128.0
 20
3.25269119
 30
0.0
 11
132.0
 21
0.0
 31
0.0
  0
LINE
  5
B68
330
762
100
AcDbEntity
  8
242
  6
HIDDEN2
100
AcDbLine
 10
128.0
 20
0.0
 30
0.0
 11
132.0
 21
3.25269119
 31
0.0
  0
LINE
  5
B69
330
762
100
AcDbEntity
  8
241
100
AcDbLine
 10
130.0
 20
6.2
 30
0.0
 11
130.0
 21
0.0
 31
0.0
  0
LINE
  5
B6A
330
762
100
AcDbEntity
  8
241
100
AcDbLine
 10
131.0
 20
6.2
 30
0.0
 11
131.0
 21
0.0
 31
0.0
  0
LINE
  5
B6B
330
762
100
AcDbEntity
  8
241
  6
HIDDEN2
100
AcDbLine
 10
128.0
 20
3.25269119
 30
0.0
 11
128.0
 21
0.0
 31
0.0
  0
LINE
  5
B6C
330
762
100
AcDbEntity
  8
240
100
AcDbLine
 10
131.0
 20
6.2
 30
0.0
 11
130.0
 21
6.2
 31
0.0
  0
LINE
  5
B6D
330
762
100
AcDbEntity
  8
241
  6
HIDDEN2
100
AcDbLine
 10
132.0
 20
3.25269119
 30
0.0
 11
132.0
 21
0.0
 31
0.0
  0
LINE
  5
B6E
330
762
100
AcDbEntity
  8
241
  6
HIDDEN2
100
AcDbLine
 10
137.0
 20
3.05
 30
0.0
 11
137.0
 21
0.0
 31
0.0
  0
LINE
  5
B6F
330
762
100
AcDbEntity
  8
240
100
AcDbLine
 10
131.0
 20
8.15
 30
0.0
 11
133.0
 21
8.15
 31
0.0
  0
LINE
  5
B70
330
762
100
AcDbEntity
  8
240
100
AcDbLine
 10
131.5
 20
8.15
 30
0.0
 11
133.0
 21
8.15
 31
0.0
  0
LINE
  5
B71
330
762
100
AcDbEntity
  8
240
100
AcDbLine
 10
133.15
 20
8.0
 30
0.0
 11
133.0
 21
8.15
 31
0.0
  0
LINE
  5
B72
330
762
100
AcDbEntity
  8
240
100
AcDbLine
 10
150.0
 20
7.0
 30
0.0
 11
150.0
 21
0.0
 31
0.0
  0
LINE
  5
B73
330
762
100
AcDbEntity
  8
240
100
AcDbLine
 10
150.0
 20
-7.0
 30
0.0
 11
150.0
 21
0.0
 31
0.0
  0
ARC
  5
B74
330
762
100
AcDbEntity
  8
240
100
AcDbCircle
 10
149.0
 20
-7.0
 30
0.0
 40
1.0
100
AcDbArc
 50
270.0
 51
0.0
1001
GENIUS_GENODEF_13
1002
{
1000
HIER
1070
     0
1002
}
1002
{
1000
MANEDIT
1070
     0
1002
}
1002
{
1000
NOSEL
1070
     0
1002
}
1002
{
1000
BEHIND
1070
     0
1002
}
1002
{
1000
OTHER
1070
     0
1002
}
1002
{
1000
REACTOR
1002
}
1001
GENIUS_GENOBJ-N-FIL_13
1002
{
1000
OWNER
1000
GEN
1002
}
  0
ARC
  5
B75
330
762
100
AcDbEntity
  8
240
100
AcDbCircle
 10
149.0
 20
7.0
 30
0.0
 40
1.0
100
AcDbArc
 50
359.9999824
 51
90.0
1001
GENIUS_GENODEF_13
1002
{
1000
HIER
1070
     0
1002
}
1002
{
1000
MANEDIT
1070
     0
1002
}
1002
{
1000
NOSEL
1070
     0
1002
}
1002
{
1000
BEHIND
1070
     0
1002
}
1002
{
1000
OTHER
1070
     0
1002
}
1002
{
1000
REACTOR
1002
}
1001
GENIUS_GENOBJ-N-FIL_13
1002
{
1000
OWNER
1000
GEN
1002
}
  0
ENDBLK
  5
883
330
762
100
AcDbEntity
  8
0
100
AcDbBlockEnd
  0
BLOCK
  5
8C7
330
8BD
100
AcDbEntity
  8
0
100
AcDbBlockBegin
  2
*D16
 70
     1
 10
0.0
 20
0.0
 30
0.0
  3
*D16
  1

  0
LINE
  5
A4E
330
8BD
100
AcDbEntity
  8
250
  6
CONTINUOUS
100
AcDbLine
 10
0.0
 20
11.14125603
 30
0.0
 11
0.0
 21
22.0
 31
0.0
  0
LINE
  5
A4F
330
8BD
100
AcDbEntity
  8
250
  6
CONTINUOUS
100
AcDbLine
 10
150.0
 20
7.5
 30
0.0
 11
150.0
 21
22.0
 31
0.0
  0
LINE
  5
A50
330
8BD
100
AcDbEntity
  8
250
  6
CONTINUOUS
100
AcDbLine
 10
2.23
 20
21.0
 30
0.0
 11
147.77
 21
21.0
 31
0.0
  0
INSERT
  5
A51
330
8BD
100
AcDbEntity
  8
250
  6
CONTINUOUS
100
AcDbBlockReference
  2
_OPEN
 10
0.0
 20
21.0
 30
0.0
 41
2.23
 42
2.23
 43
2.23
 50
180.0
  0
INSERT
  5
A52
330
8BD
100
AcDbEntity
  8
250
  6
CONTINUOUS
100
AcDbBlockReference
  2
_OPEN
 10
150.0
 20
21.0
 30
0.0
 41
2.23
 42
2.23
 43
2.23
  0
MTEXT
  5
A53
330
8BD
100
AcDbEntity
  8
250
  6
CONTINUOUS
 62
    40
100
AcDbMText
 10
75.63025151
 20
23.4
 30
0.0
 40
2.8
 41
0.0
 71
     5
 72
     1
  1
\A1;150
1001
ACAD
1000
MTEXTBEGIN
1070
    73
1070
     1
1070
    44
1040
1.0
1070
    74
1070
     0
1000
MTEXTEND
  0
POINT
  5
A54
330
8BD
100
AcDbEntity
  8
DEFPOINTS
  6
CONTINUOUS
 62
     0
100
AcDbPoint
 10
0.0
 20
10.64125603
 30
0.0
  0
POINT
  5
A55
330
8BD
100
AcDbEntity
  8
DEFPOINTS
  6
CONTINUOUS
 62
     0
100
AcDbPoint
 10
150.0
 20
7.0
 30
0.0
  0
POINT
  5
A56
330
8BD
100
AcDbEntity
  8
DEFPOINTS
  6
CONTINUOUS
 62
     0
100
AcDbPoint
 10
150.0
 20
21.0
 30
0.0
  0
ENDBLK
  5
8C8
330
8BD
100
AcDbEntity
  8
0
100
AcDbBlockEnd
  0
BLOCK
  5
8D3
330
8C9
100
AcDbEntity
  8
0
100
AcDbBlockBegin
  2
*D17
 70
     1
 10
0.0
 20
0.0
 30
0.0
  3
*D17
  1

  0
LINE
  5
A45
330
8C9
100
AcDbEntity
  8
250
  6
CONTINUOUS
100
AcDbLine
 10
149.5
 20
-8.0
 30
0.0
 11
168.0
 21
-8.0
 31
0.0
  0
LINE
  5
A46
330
8C9
100
AcDbEntity
  8
250
  6
CONTINUOUS
100
AcDbLine
 10
149.5
 20
8.0
 30
0.0
 11
168.0
 21
8.0
 31
0.0
  0
LINE
  5
A47
330
8C9
100
AcDbEntity
  8
250
  6
CONTINUOUS
100
AcDbLine
 10
167.0
 20
-5.77
 30
0.0
 11
167.0
 21
5.77
 31
0.0
  0
INSERT
  5
A48
330
8C9
100
AcDbEntity
  8
250
  6
CONTINUOUS
100
AcDbBlockReference
  2
_OPEN
 10
167.0
 20
-8.0
 30
0.0
 41
2.23
 42
2.23
 43
2.23
 50
270.0
  0
INSERT
  5
A49
330
8C9
100
AcDbEntity
  8
250
  6
CONTINUOUS
100
AcDbBlockReference
  2
_OPEN
 10
167.0
 20
8.0
 30
0.0
 41
2.23
 42
2.23
 43
2.23
 50
90.0
  0
MTEXT
  5
A4A
330
8C9
100
AcDbEntity
  8
250
  6
CONTINUOUS
 62
    40
100
AcDbMText
 10
164.6
 20
0.0
 30
0.0
 40
2.8
 41
0.0
 71
     5
 72
     1
  1
\A1;{\H2.8;\U+2205}16
 11
0.0
 21
1.0
 31
0.0
1001
ACAD
1000
MTEXTBEGIN
1070
    73
1070
     1
1070
    44
1040
1.0
1070
    74
1070
     0
1000
MTEXTEND
  0
POINT
  5
A4B
330
8C9
100
AcDbEntity
  8
DEFPOINTS
  6
CONTINUOUS
 62
     0
100
AcDbPoint
 10
149.0
 20
-8.0
 30
0.0
  0
POINT
  5
A4C
330
8C9
100
AcDbEntity
  8
DEFPOINTS
  6
CONTINUOUS
 62
     0
100
AcDbPoint
 10
149.0
 20
8.0
 30
0.0
  0
POINT
  5
A4D
330
8C9
100
AcDbEntity
  8
DEFPOINTS
  6
CONTINUOUS
 62
     0
100
AcDbPoint
 10
167.0
 20
8.0
 30
0.0
  0
ENDBLK
  5
8D4
330
8C9
100
AcDbEntity
  8
0
100
AcDbBlockEnd
  0
ENDSEC
  0
SECTION
  2
ENTITIES
  0
INSERT
  5
6E6
330
1A
100
AcDbEntity
  8
245
100
AcDbBlockReference
  2
矢印なし
 10
175.62382697
 20
90.55123572
 30
0.0
  0
DIMENSION
  5
8B3
330
1A
100
AcDbEntity
  8
250
  6
CONTINUOUS
100
AcDbDimension
  2
*D16
 10
150.0
 20
21.0
 30
0.0
 11
75.63025151
 21
21.0
 31
0.0
 70
   160
  3
BIGT
100
AcDbAlignedDimension
 13
0.0
 23
10.64125603
 33
0.0
 14
150.0
 24
7.0
 34
0.0
100
AcDbRotatedDimension
  0
TEXT
  5
8B4
330
1A
100
AcDbEntity
  8
241
100
AcDbText
 10
-47.5
 20
35.0
 30
0.0
 40
5.0
  1
MGT6-M5-150
  7
YOKO
 11
-47.5
 21
35.0
 31
0.0
100
AcDbText
 73
     1
  0
DIMENSION
  5
8B5
330
1A
100
AcDbEntity
  8
250
  6
CONTINUOUS
100
AcDbDimension
  2
*D17
 10
167.0
 20
8.0
 30
0.0
 11
164.6
 21
0.0
 31
0.0
 70
    32
  1
{\H2.8;\U+2205}<>
  3
BIGT
100
AcDbAlignedDimension
 13
149.0
 23
-8.0
 33
0.0
 14
149.0
 24
8.0
 34
0.0
 50
90.0
100
AcDbRotatedDimension
  0
MTEXT
  5
8B6
330
1A
100
AcDbEntity
  8
250
  6
CONTINUOUS
 62
    40
100
AcDbMText
 10
157.6
 20
-2.54217991
 30
0.0
 40
2.8
 41
0.0
 71
     5
 72
     1
  1
\A1;{\H2.8;\U+2205}5.5
 11
0.0
 21
1.0
 31
0.0
1001
ACAD
1000
MTEXTBEGIN
1070
    73
1070
     1
1070
    44
1040
1.0
1070
    74
1070
     0
1000
MTEXTEND
1000
MTEXTBEGIN
1070
    73
1070
     1
1070
    44
1040
1.0
1070
    74
1070
     0
1000
MTEXTEND
1000
MTEXTBEGIN
1070
    73
1070
     1
1070
    44
1040
1.0
1070
    74
1070
     0
1000
MTEXTEND
1000
MTEXTBEGIN
1070
    73
1070
     1
1070
    44
1040
1.0
1070
    74
1070
     0
1000
MTEXTEND
1000
MTEXTBEGIN
1070
    73
1070
     1
1070
    44
1040
1.0
1070
    74
1070
     0
1000
MTEXTEND
1000
MTEXTBEGIN
1070
    73
1070
     1
1070
    44
1040
1.0
1070
    74
1070
     0
1000
MTEXTEND
1000
MTEXTBEGIN
1070
    73
1070
     1
1070
    44
1040
1.0
1070
    74
1070
     0
1000
MTEXTEND
  0
LINE
  5
8B7
330
1A
100
AcDbEntity
  8
250
  6
CONTINUOUS
100
AcDbLine
 10
160.0
 20
2.75
 30
0.0
 11
160.0
 21
-6.33758521
 31
0.0
  0
MTEXT
  5
8B8
330
1A
100
AcDbEntity
  8
251
  6
CONTINUOUS
100
AcDbMText
 10
136.8
 20
14.97872065
 30
0.0
 40
2.8
 41
0.0
 71
     7
 72
     1
  1
□4.5
  7
YOKO
1001
ITEMNAME
1000
LNSP3
1001
ACAD
1000
MTEXTBEGIN
1070
    73
1070
     1
1070
    44
1040
1.0
1070
    74
1070
     0
1000
MTEXTEND
1000
MTEXTBEGIN
1070
    73
1070
     1
1070
    44
1040
1.0
1070
    74
1070
     0
1000
MTEXTEND
1000
MTEXTBEGIN
1070
    73
1070
     1
1070
    44
1040
1.0
1070
    74
1070
     0
1000
MTEXTEND
1000
MTEXTBEGIN
1070
    73
1070
     1
1070
    44
1040
1.0
1070
    74
1070
     0
1000
MTEXTEND
1000
MTEXTBEGIN
1070
    73
1070
     1
1070
    44
1040
1.0
1070
    74
1070
     0
1000
MTEXTEND
  0
LINE
  5
8B9
330
1A
100
AcDbEntity
  8
250
  6
CONTINUOUS
100
AcDbLine
 10
134.0
 20
13.97872065
 30
0.0
 11
148.85333333
 21
13.97872065
 31
0.0
1001
ITEMNAME
1000
LNSP2
  0
LEADER
  5
8BA
330
1A
100
AcDbEntity
  8
250
  6
CONTINUOUS
100
AcDbLeader
  3
BIGT
 76
     2
 10
131.52207662
 20
3.25269119
 30
0.0
 10
134.0
 20
13.97872065
 30
0.0
1001
ACAD
1000
DSTYLE
1002
{
1070
     6
1000
OPEN
1070
    41
1040
2.0
1070
    42
1040
2.0
1070
    44
1040
2.0
1070
   140
1040
4.0
1070
   343
1005
594
1002
}
  0
LINE
  5
8BB
330
1A
100
AcDbEntity
  8
250
  6
CONTINUOUS
100
AcDbLine
 10
150.5
 20
2.75
 30
0.0
 11
161.0
 21
2.75
 31
0.0
  0
INSERT
  5
8BC
330
1A
100
AcDbEntity
  8
250
  6
CONTINUOUS
100
AcDbBlockReference
  2
_OPEN
 10
160.0
 20
2.75
 30
0.0
 41
2.23
 42
2.23
 43
2.23
 50
90.0
  0
INSERT
  5
B76
330
1A
100
AcDbEntity
  8
245
100
AcDbBlockReference
  2
1
 10
0.0
 20
0.0
 30
0.0
  0
VIEWPORT
  5
22
330
17
100
AcDbEntity
 67
     1
  8
0
100
AcDbViewport
 10
261.51769912
 20
148.5
 30
0.0
 40
523.03539823
 41
297.0
 68
     1
 69
     1
1001
ACAD
1000
MVIEW
1002
{
1070
    16
1010
0.0
1020
0.0
1030
0.0
1010
0.0
1020
0.0
1030
1.0
1040
0.0
1040
297.0
1040
261.51769912
1040
148.5
1040
50.0
1040
0.0
1040
0.0
1070
     0
1070
   100
1070
     1
1070
     1
1070
     0
1070
     0
1070
     0
1070
     0
1040
0.0
1040
0.0
1040
0.0
1040
1.0
1040
1.0
1040
10.0
1040
10.0
1070
     0
1002
{
1002
}
1002
}
  0
ENDSEC
  0
SECTION
  2
OBJECTS
  0
DICTIONARY
  5
C
330
0
100
AcDbDictionary
  3
ACAD_GROUP
350
D
  3
ACAD_LAYOUT
350
565
  3
ACAD_MLINESTYLE
350
E
  3
ACAD_PLOTSETTINGS
350
566
  3
ACAD_PLOTSTYLENAME
350
563
  3
ACDBHEADERROUNDTRIPXREC
350
BC8
  3
GRADE_DWG
350
540
  0
DICTIONARY
  5
BEB
330
1A
100
AcDbDictionary
280
     1
  3
ACAD_LAYOUTSELFREF
360
BEC
  0
DICTIONARY
  5
BE9
330
17
100
AcDbDictionary
280
     1
  3
ACAD_LAYOUTSELFREF
360
BEA
  0
DICTIONARY
  5
D
102
{ACAD_REACTORS
330
C
102
}
330
C
100
AcDbDictionary
  3
*A1
350
6C7
  3
*A2
350
6C8
  3
*A3
350
6D4
  3
*A4
350
6D5
  3
DREC-1
350
5FC
  3
DREC-2
350
654
  3
DREC-3
350
673
  0
DICTIONARY
  5
565
102
{ACAD_REACTORS
330
C
102
}
330
C
100
AcDbDictionary
  0
DICTIONARY
  5
E
102
{ACAD_REACTORS
330
C
102
}
330
C
100
AcDbDictionary
  3
STANDARD
350
13
  0
DICTIONARY
  5
566
102
{ACAD_REACTORS
330
C
102
}
330
C
100
AcDbDictionary
  3
A3_0_5倍_
350
758
  3
A3_1倍_
350
757
  3
A3_1倍__2000_
350
707
  3
A3_2倍_
350
759
  3
A4_0_5倍_
350
755
  3
A4_1倍_
350
754
  3
A4_1倍__2000_
350
708
  3
A4_2倍_
350
756
  0
ACDBDICTIONARYWDFLT
  5
563
102
{ACAD_REACTORS
330
C
102
}
330
C
100
AcDbDictionary
281
     1
  3
Normal
350
564
100
AcDbDictionaryWithDefault
340
564
  0
DICTIONARY
  5
BC8
102
{ACAD_REACTORS
330
C
102
}
330
C
100
AcDbDictionary
  3
CEPSNTYPE
350
BD2
  3
DIMSTYLEDATA
350
BD6
  3
FINGERPRINTGUID
350
BD3
  3
HYPERLINKBASE
350
BCB
  3
INSUNITS
350
BD1
  3
LAYOUTDICT
350
BCD
  3
LWETCUNION
350
BD0
  3
PLOTSETDICT
350
BCE
  3
PLOTSTYLNAMDICT
350
BCF
  3
PSVPSCALE
350
BD5
  3
PUCSBASE
350
BD9
  3
PUCSORGBACK
350
BDF
  3
PUCSORGBOTTOM
350
BDB
  3
PUCSORGFRONT
350
BDE
  3
PUCSORGLEFT
350
BDC
  3
PUCSORGRIGHT
350
BDD
  3
PUCSORGTOP
350
BDA
  3
PUCSORTHOREF
350
BD7
  3
PUCSORTHOVIEW
350
BD8
  3
STYLESHEET
350
BCC
  3
TSTACKALIGN
350
BC9
  3
TSTACKSIZE
350
BCA
  3
UCSBASE
350
BE2
  3
UCSORGBACK
350
BE8
  3
UCSORGBOTTOM
350
BE4
  3
UCSORGFRONT
350
BE7
  3
UCSORGLEFT
350
BE5
  3
UCSORGRIGHT
350
BE6
  3
UCSORGTOP
350
BE3
  3
UCSORTHOREF
350
BE0
  3
UCSORTHOVIEW
350
BE1
  3
VERSIONGUID
350
BD4
  0
DICTIONARY
  5
540
102
{ACAD_REACTORS
330
C
102
}
330
C
100
AcDbDictionary
  3
VERSION
350
560
  0
XRECORD
  5
BEC
102
{ACAD_REACTORS
330
BEB
102
}
330
BEB
100
AcDbXrecord
340
1A
  0
XRECORD
  5
BEA
102
{ACAD_REACTORS
330
BE9
102
}
330
BE9
100
AcDbXrecord
340
17
  0
GROUP
  5
6C7
102
{ACAD_REACTORS
330
D
102
}
330
D
100
AcDbGroup
300

 70
     0
 71
     1
1001
GRPNAME
1000
DMA00
  0
GROUP
  5
6C8
102
{ACAD_REACTORS
330
D
102
}
330
D
100
AcDbGroup
300

 70
     0
 71
     1
1001
GRPNAME
1000
DMA00
  0
GROUP
  5
6D4
102
{ACAD_REACTORS
330
D
102
}
330
D
100
AcDbGroup
300

 70
     0
 71
     1
1001
GRPNAME
1000
DMA00
  0
GROUP
  5
6D5
102
{ACAD_REACTORS
330
D
102
}
330
D
100
AcDbGroup
300

 70
     0
 71
     1
1001
GRPNAME
1000
DMA00
  0
GROUP
  5
5FC
102
{ACAD_REACTORS
330
D
102
}
330
D
100
AcDbGroup
300

 70
     0
 71
     1
1001
GRPNAME
1000
DREC-
1001
GPARA
1000
xsiz
1000
44.182
1000
ysiz
1000
40.677
1000
angl
1000
0
1000
ctyp
1000
0
1000
csiz
1000
5
1000
lfnt
1000
cont
1000
hcnt
1000
hoff
1000
vcnt
1000
voff
1000
opnt
1000
4
1000
dxpt
1000
0
1000
dypt
1000
0
  0
GROUP
  5
654
102
{ACAD_REACTORS
330
D
102
}
330
D
100
AcDbGroup
300

 70
     0
 71
     1
1001
GRPNAME
1000
DREC-
1001
GPARA
1000
xsiz
1000
54.592
1000
ysiz
1000
53.036
1000
angl
1000
0
1000
ctyp
1000
0
1000
csiz
1000
5
1000
lfnt
1000
cont
1000
hcnt
1000
hoff
1000
vcnt
1000
voff
1000
opnt
1000
4
1000
dxpt
1000
0
1000
dypt
1000
0
  0
GROUP
  5
673
102
{ACAD_REACTORS
330
D
102
}
330
D
100
AcDbGroup
300

 70
     0
 71
     1
1001
GRPNAME
1000
DREC-
1001
GPARA
1000
xsiz
1000
30.363
1000
ysiz
1000
36.175
1000
angl
1000
0
1000
ctyp
1000
0
1000
csiz
1000
5
1000
lfnt
1000
cont
1000
hcnt
1000
hoff
1000
vcnt
1000
voff
1000
opnt
1000
4
1000
dxpt
1000
0
1000
dypt
1000
0
  0
MLINESTYLE
  5
13
102
{ACAD_REACTORS
330
E
102
}
330
E
100
AcDbMlineStyle
  2
STANDARD
 70
     0
  3

 62
     0
 51
90.0
 52
90.0
 71
     2
 49
0.5
 62
   256
  6
BYLAYER
 49
-0.5
 62
   256
  6
BYLAYER
  0
PLOTSETTINGS
  5
758
102
{ACAD_REACTORS
330
566
102
}
330
566
100
AcDbPlotSettings
  1
A3(0.5倍)
  2
\\AWTECPC05\HP DeskJet 1120C
  4
A3
  6

 40
5.95841646
 41
13.49375153
 42
6.04309082
 43
3.67242432
 44
296.92599487
 45
419.94665527
 46
89.96
 47
127.14
 48
0.0
 49
0.0
140
0.0
141
0.0
142
1.0
143
2.0
 70
  1716
 72
     1
 73
     1
 74
     2
  7
big.ctb
 75
    17
147
0.5
148
0.0
149
0.0
  0
PLOTSETTINGS
  5
757
102
{ACAD_REACTORS
330
566
102
}
330
566
100
AcDbPlotSettings
  1
A3(1倍)
  2
\\AWTECPC05\HP DeskJet 1120C
  4
A3
  6

 40
5.95841646
 41
13.49375153
 42
6.04309082
 43
3.67242432
 44
296.92599487
 45
419.94665527
 46
37.46
 47
52.89
 48
0.0
 49
0.0
140
0.0
141
0.0
142
1.0
143
1.0
 70
  1716
 72
     1
 73
     1
 74
     2
  7
big.ctb
 75
    16
147
1.0
148
0.0
149
0.0
  0
PLOTSETTINGS
  5
707
102
{ACAD_REACTORS
330
566
102
}
330
566
100
AcDbPlotSettings
  1
A3(1倍)(2000)
  2
SII LS-1300 (D-SCAN)
  4
User258
  6

 40
3.17499995
 41
3.17499995
 42
3.17498779
 43
3.17498779
 44
419.98898315
 45
296.98950195
 46
58.32
 47
40.32
 48
0.0
 49
0.0
140
0.0
141
0.0
142
1.0
143
1.0
 70
  1716
 72
     1
 73
     0
 74
     2
  7
big.ctb
 75
    16
147
1.0
148
0.0
149
0.0
  0
PLOTSETTINGS
  5
759
102
{ACAD_REACTORS
330
566
102
}
330
566
100
AcDbPlotSettings
  1
A3(2倍)
  2
\\AWTECPC05\HP DeskJet 1120C
  4
A3
  6

 40
5.95841646
 41
13.49375153
 42
6.04309082
 43
3.67242432
 44
296.92599487
 45
419.94665527
 46
-67.54
 47
-95.61
 48
0.0
 49
0.0
140
0.0
141
0.0
142
1.0
143
0.5
 70
  1716
 72
     1
 73
     1
 74
     2
  7
big.ctb
 75
    27
147
2.0
148
0.0
149
0.0
  0
PLOTSETTINGS
  5
755
102
{ACAD_REACTORS
330
566
102
}
330
566
100
AcDbPlotSettings
  1
A4(0.5倍)
  2
\\AWTECPC05\HP DeskJet 1120C
  4
A4
  6

 40
4.18041658
 41
13.49374962
 42
4.18040466
 43
3.92642212
 44
209.97332764
 45
296.92599487
 46
48.31
 47
65.5
 48
0.0
 49
0.0
140
0.0
141
0.0
142
1.0
143
2.0
 70
  1716
 72
     1
 73
     1
 74
     2
  7
big.ctb
 75
    17
147
0.5
148
0.0
149
0.0
  0
PLOTSETTINGS
  5
754
102
{ACAD_REACTORS
330
566
102
}
330
566
100
AcDbPlotSettings
  1
A4(1倍)
  2
\\AWTECPC05\HP DeskJet 1120C
  4
A4
  6

 40
4.18041658
 41
13.49374962
 42
4.18040466
 43
3.92642212
 44
209.97332764
 45
296.92599487
 46
-4.19
 47
-8.75
 48
0.0
 49
0.0
140
0.0
141
0.0
142
1.0
143
1.0
 70
  1716
 72
     1
 73
     1
 74
     2
  7
big.ctb
 75
    16
147
1.0
148
0.0
149
0.0
  0
PLOTSETTINGS
  5
708
102
{ACAD_REACTORS
330
566
102
}
330
566
100
AcDbPlotSettings
  1
A4(1倍)(2000)
  2
SII LS-1300 (D-SCAN)
  4
User259
  6

 40
3.17499995
 41
3.17499995
 42
3.17498779
 43
3.17500305
 44
296.98950195
 45
209.99449158
 46
-3.18
 47
-3.18
 48
0.0
 49
0.0
140
0.0
141
0.0
142
1.0
143
1.0
 70
  1716
 72
     1
 73
     0
 74
     2
  7
big.ctb
 75
    16
147
1.0
148
0.0
149
0.0
  0
PLOTSETTINGS
  5
756
102
{ACAD_REACTORS
330
566
102
}
330
566
100
AcDbPlotSettings
  1
A4(2倍)
  2
\\AWTECPC05\HP DeskJet 1120C
  4
A4
  6

 40
4.18041658
 41
13.49374962
 42
4.18040466
 43
3.92642212
 44
209.97332764
 45
296.92599487
 46
-109.19
 47
-157.25
 48
0.0
 49
0.0
140
0.0
141
0.0
142
1.0
143
0.5
 70
  1716
 72
     1
 73
     1
 74
     2
  7
big.ctb
 75
    27
147
2.0
148
0.0
149
0.0
  0
ACDBPLACEHOLDER
  5
564
102
{ACAD_REACTORS
330
563
102
}
330
563
100
AcDbPlaceHolder
280
     0
  0
XRECORD
  5
BD2
102
{ACAD_REACTORS
330
BC8
102
}
330
BC8
100
AcDbXrecord
 90
        0
  0
XRECORD
  5
BD6
102
{ACAD_REACTORS
330
BC8
102
}
330
BC8
100
AcDbXrecord
1000
DSTYLE
1002
{
1070
    79
 70
     2
1070
   179
 70
     3
1070
   289
 70
     2
1070
   341
340
594
1070
   343
340
594
1070
   344
340
594
1070
   371
 70
    -1
1070
   372
 70
    -1
1002
}
  0
XRECORD
  5
BD3
102
{ACAD_REACTORS
330
BC8
102
}
330
BC8
100
AcDbXrecord
  1
{51294030-9CB4-11D3-8E18-00A0C925D94D}
  0
XRECORD
  5
BCB
102
{ACAD_REACTORS
330
BC8
102
}
330
BC8
100
AcDbXrecord
  1

  0
XRECORD
  5
BD1
102
{ACAD_REACTORS
330
BC8
102
}
330
BC8
100
AcDbXrecord
 90
        0
  0
XRECORD
  5
BCD
102
{ACAD_REACTORS
330
BC8
102
}
330
BC8
100
AcDbXrecord
340
565
  0
XRECORD
  5
BD0
102
{ACAD_REACTORS
330
BC8
102
}
330
BC8
100
AcDbXrecord
 90
    10781
  0
XRECORD
  5
BCE
102
{ACAD_REACTORS
330
BC8
102
}
330
BC8
100
AcDbXrecord
340
566
  0
XRECORD
  5
BCF
102
{ACAD_REACTORS
330
BC8
102
}
330
BC8
100
AcDbXrecord
340
563
  0
XRECORD
  5
BD5
102
{ACAD_REACTORS
330
BC8
102
}
330
BC8
100
AcDbXrecord
 40
0.0
  0
XRECORD
  5
BD9
102
{ACAD_REACTORS
330
BC8
102
}
330
BC8
100
AcDbXrecord
340
0
  0
XRECORD
  5
BDF
102
{ACAD_REACTORS
330
BC8
102
}
330
BC8
100
AcDbXrecord
 10
0.0
 20
0.0
 30
0.0
  0
XRECORD
  5
BDB
102
{ACAD_REACTORS
330
BC8
102
}
330
BC8
100
AcDbXrecord
 10
0.0
 20
0.0
 30
0.0
  0
XRECORD
  5
BDE
102
{ACAD_REACTORS
330
BC8
102
}
330
BC8
100
AcDbXrecord
 10
0.0
 20
0.0
 30
0.0
  0
XRECORD
  5
BDC
102
{ACAD_REACTORS
330
BC8
102
}
330
BC8
100
AcDbXrecord
 10
0.0
 20
0.0
 30
0.0
  0
XRECORD
  5
BDD
102
{ACAD_REACTORS
330
BC8
102
}
330
BC8
100
AcDbXrecord
 10
0.0
 20
0.0
 30
0.0
  0
XRECORD
  5
BDA
102
{ACAD_REACTORS
330
BC8
102
}
330
BC8
100
AcDbXrecord
 10
0.0
 20
0.0
 30
0.0
  0
XRECORD
  5
BD7
102
{ACAD_REACTORS
330
BC8
102
}
330
BC8
100
AcDbXrecord
340
0
  0
XRECORD
  5
BD8
102
{ACAD_REACTORS
330
BC8
102
}
330
BC8
100
AcDbXrecord
 70
     0
  0
XRECORD
  5
BCC
102
{ACAD_REACTORS
330
BC8
102
}
330
BC8
100
AcDbXrecord
  1
big.ctb
  0
XRECORD
  5
BC9
102
{ACAD_REACTORS
330
BC8
102
}
330
BC8
100
AcDbXrecord
 90
        1
  0
XRECORD
  5
BCA
102
{ACAD_REACTORS
330
BC8
102
}
330
BC8
100
AcDbXrecord
 90
       70
  0
XRECORD
  5
BE2
102
{ACAD_REACTORS
330
BC8
102
}
330
BC8
100
AcDbXrecord
340
0
  0
XRECORD
  5
BE8
102
{ACAD_REACTORS
330
BC8
102
}
330
BC8
100
AcDbXrecord
 10
0.0
 20
0.0
 30
0.0
  0
XRECORD
  5
BE4
102
{ACAD_REACTORS
330
BC8
102
}
330
BC8
100
AcDbXrecord
 10
0.0
 20
0.0
 30
0.0
  0
XRECORD
  5
BE7
102
{ACAD_REACTORS
330
BC8
102
}
330
BC8
100
AcDbXrecord
 10
0.0
 20
0.0
 30
0.0
  0
XRECORD
  5
BE5
102
{ACAD_REACTORS
330
BC8
102
}
330
BC8
100
AcDbXrecord
 10
0.0
 20
0.0
 30
0.0
  0
XRECORD
  5
BE6
102
{ACAD_REACTORS
330
BC8
102
}
330
BC8
100
AcDbXrecord
 10
0.0
 20
0.0
 30
0.0
  0
XRECORD
  5
BE3
102
{ACAD_REACTORS
330
BC8
102
}
330
BC8
100
AcDbXrecord
 10
0.0
 20
0.0
 30
0.0
  0
XRECORD
  5
BE0
102
{ACAD_REACTORS
330
BC8
102
}
330
BC8
100
AcDbXrecord
340
0
  0
XRECORD
  5
BE1
102
{ACAD_REACTORS
330
BC8
102
}
330
BC8
100
AcDbXrecord
 70
     0
  0
XRECORD
  5
BD4
102
{ACAD_REACTORS
330
BC8
102
}
330
BC8
100
AcDbXrecord
  1
{6A6757BF-8289-43FA-BFC3-FD5EE757BC94}
  0
XRECORD
  5
560
102
{ACAD_REACTORS
330
540
102
}
330
540
100
AcDbXrecord
  1
2.0.0
  0
ENDSEC
  0
EOF
