  0
SECTION
  2
HEADER
  9
$ACADVER
  1
AC1014
  9
$ACADMAINTVER
 70
     9
  9
$DWGCODEPAGE
  3
ANSI_932
  9
$INSBASE
 10
0.0
 20
0.0
 30
0.0
  9
$EXTMIN
 10
-48.51429639
 20
-11.07006072
 30
-0.00152582
  9
$EXTMAX
 10
118.01566389
 20
40.00231253
 30
0.00000003
  9
$LIMMIN
 10
0.0
 20
0.0
  9
$LIMMAX
 10
420.0
 20
297.0
  9
$ORTHOMODE
 70
     0
  9
$REGENMODE
 70
     1
  9
$FILLMODE
 70
     1
  9
$QTEXTMODE
 70
     0
  9
$MIRRTEXT
 70
     1
  9
$DRAGMODE
 70
     2
  9
$LTSCALE
 40
10.0
  9
$OSMODE
 70
   549
  9
$ATTMODE
 70
     1
  9
$TEXTSIZE
 40
3.0
  9
$TRACEWID
 40
1.0
  9
$TEXTSTYLE
  7
YOKO
  9
$CLAYER
  8
245
  9
$CELTYPE
  6
BYLAYER
  9
$CECOLOR
 62
   256
  9
$CELTSCALE
 40
1.0
  9
$DELOBJ
 70
     1
  9
$DISPSILH
 70
     0
  9
$DIMSCALE
 40
1.0
  9
$DIMASZ
 40
2.0
  9
$DIMEXO
 40
2.0
  9
$DIMDLI
 40
2.5
  9
$DIMRND
 40
0.0
  9
$DIMDLE
 40
0.0
  9
$DIMEXE
 40
2.0
  9
$DIMTP
 40
0.0
  9
$DIMTM
 40
0.0
  9
$DIMTXT
 40
4.0
  9
$DIMCEN
 40
0.0
  9
$DIMTSZ
 40
0.0
  9
$DIMTOL
 70
     0
  9
$DIMLIM
 70
     0
  9
$DIMTIH
 70
     0
  9
$DIMTOH
 70
     0
  9
$DIMSE1
 70
     0
  9
$DIMSE2
 70
     0
  9
$DIMTAD
 70
     3
  9
$DIMZIN
 70
     8
  9
$DIMBLK
  1

  9
$DIMASO
 70
     1
  9
$DIMSHO
 70
     1
  9
$DIMPOST
  1

  9
$DIMAPOST
  1

  9
$DIMALT
 70
     0
  9
$DIMALTD
 70
     2
  9
$DIMALTF
 40
25.4
  9
$DIMLFAC
 40
1.0
  9
$DIMTOFL
 70
     1
  9
$DIMTVP
 40
0.0
  9
$DIMTIX
 70
     1
  9
$DIMSOXD
 70
     0
  9
$DIMSAH
 70
     1
  9
$DIMBLK1
  1
OPEN
  9
$DIMBLK2
  1
OPEN
  9
$DIMSTYLE
  2
BIGT
  9
$DIMCLRD
 70
   256
  9
$DIMCLRE
 70
   256
  9
$DIMCLRT
 70
    40
  9
$DIMTFAC
 40
1.0
  9
$DIMGAP
 40
1.0
  9
$DIMJUST
 70
     0
  9
$DIMSD1
 70
     0
  9
$DIMSD2
 70
     0
  9
$DIMTOLJ
 70
     1
  9
$DIMTZIN
 70
     8
  9
$DIMALTZ
 70
     0
  9
$DIMALTTZ
 70
     0
  9
$DIMFIT
 70
     3
  9
$DIMUPT
 70
     0
  9
$DIMUNIT
 70
     2
  9
$DIMDEC
 70
     3
  9
$DIMTDEC
 70
     3
  9
$DIMALTU
 70
     2
  9
$DIMALTTD
 70
     2
  9
$DIMTXSTY
  7
STANDARD
  9
$DIMAUNIT
 70
     0
  9
$LUNITS
 70
     2
  9
$LUPREC
 70
     3
  9
$SKETCHINC
 40
1.0
  9
$FILLETRAD
 40
0.0
  9
$AUNITS
 70
     0
  9
$AUPREC
 70
     3
  9
$MENU
  1
.
  9
$ELEVATION
 40
0.0
  9
$PELEVATION
 40
0.0
  9
$THICKNESS
 40
0.0
  9
$LIMCHECK
 70
     0
  9
$BLIPMODE
 70
     0
  9
$CHAMFERA
 40
10.0
  9
$CHAMFERB
 40
10.0
  9
$CHAMFERC
 40
0.0
  9
$CHAMFERD
 40
0.0
  9
$SKPOLY
 70
     0
  9
$TDCREATE
 40
2455128.456786203
  9
$TDUPDATE
 40
2455316.432448090
  9
$TDINDWG
 40
0.0021659838
  9
$TDUSRTIMER
 40
0.0021657986
  9
$USRTIMER
 70
     1
  9
$ANGBASE
 50
0.0
  9
$ANGDIR
 70
     0
  9
$PDMODE
 70
     1
  9
$PDSIZE
 40
-5.0
  9
$PLINEWID
 40
0.0
  9
$COORDS
 70
     0
  9
$SPLFRAME
 70
     0
  9
$SPLINETYPE
 70
     6
  9
$SPLINESEGS
 70
     8
  9
$ATTDIA
 70
     0
  9
$ATTREQ
 70
     1
  9
$HANDLING
 70
-16383
  9
$HANDSEED
  5
10CE
  9
$SURFTAB1
 70
     6
  9
$SURFTAB2
 70
     6
  9
$SURFTYPE
 70
     6
  9
$SURFU
 70
     6
  9
$SURFV
 70
     6
  9
$UCSNAME
  2

  9
$UCSORG
 10
0.0
 20
0.0
 30
0.0
  9
$UCSXDIR
 10
1.0
 20
0.0
 30
0.0
  9
$UCSYDIR
 10
0.0
 20
1.0
 30
0.0
  9
$PUCSNAME
  2

  9
$PUCSORG
 10
0.0
 20
0.0
 30
0.0
  9
$PUCSXDIR
 10
1.0
 20
0.0
 30
0.0
  9
$PUCSYDIR
 10
0.0
 20
1.0
 30
0.0
  9
$USERI1
 70
     1
  9
$USERI2
 70
     0
  9
$USERI3
 70
     0
  9
$USERI4
 70
     0
  9
$USERI5
 70
     0
  9
$USERR1
 40
0.0
  9
$USERR2
 40
0.0
  9
$USERR3
 40
0.0
  9
$USERR4
 40
0.0
  9
$USERR5
 40
0.0
  9
$WORLDVIEW
 70
     1
  9
$SHADEDGE
 70
     3
  9
$SHADEDIF
 70
    70
  9
$TILEMODE
 70
     1
  9
$MAXACTVP
 70
    16
  9
$PINSBASE
 10
0.0
 20
0.0
 30
0.0
  9
$PLIMCHECK
 70
     0
  9
$PEXTMIN
 10
1.00000000E+20
 20
1.00000000E+20
 30
1.00000000E+20
  9
$PEXTMAX
 10
-1.00000000E+20
 20
-1.00000000E+20
 30
-1.00000000E+20
  9
$PLIMMIN
 10
0.0
 20
0.0
  9
$PLIMMAX
 10
420.0
 20
297.0
  9
$UNITMODE
 70
     0
  9
$VISRETAIN
 70
     0
  9
$PLINEGEN
 70
     0
  9
$PSLTSCALE
 70
     1
  9
$TREEDEPTH
 70
  3020
  9
$PICKSTYLE
 70
     0
  9
$CMLSTYLE
  2
STANDARD
  9
$CMLJUST
 70
     0
  9
$CMLSCALE
 40
1.0
  9
$PROXYGRAPHICS
 70
     1
  9
$MEASUREMENT
 70
     1
  0
ENDSEC
  0
SECTION
  2
CLASSES
  0
CLASS
  1
XRECORD
  2
AcDbXrecord
  3
AutoCAD 2000
 90
        0
280
     0
281
     0
  0
CLASS
  1
ACDBDICTIONARYWDFLT
  2
AcDbDictionaryWithDefault
  3
AutoCAD 2000
 90
        0
280
     0
281
     0
  0
CLASS
  1
ACDBPLACEHOLDER
  2
AcDbPlaceHolder
  3
AutoCAD 2000
 90
        0
280
     0
281
     0
  0
CLASS
  1
LAYOUT
  2
AcDbLayout
  3
AutoCAD 2000
 90
        0
280
     0
281
     0
  0
CLASS
  1
PLOTSETTINGS
  2
AcDbPlotSettings
  3
AutoCAD 2000
 90
        0
280
     0
281
     0
  0
CLASS
  1
LONG_TRANSACTION
  2
AcDbLongTransaction
  3
AutoCAD 2000
 90
        0
280
     0
281
     0
  0
CLASS
  1
LWPOLYLINE
  2
AcDbPolyline
  3
AutoCAD 2000
 90
        0
280
     0
281
     1
  0
CLASS
  1
HATCH
  2
AcDbHatch
  3
AutoCAD 2000
 90
        0
280
     0
281
     1
  0
CLASS
  1
XRECORD
  2
AcDbXrecord
  3
AutoCAD 2000
 90
        0
280
     0
281
     0
  0
CLASS
  1
LONG_TRANSACTION
  2
AcDbLongTransaction
  3
AutoCAD 2000
 90
        0
280
     0
281
     0
  0
CLASS
  1
LWPOLYLINE
  2
AcDbPolyline
  3
AutoCAD 2000
 90
        0
280
     0
281
     1
  0
CLASS
  1
HATCH
  2
AcDbHatch
  3
AutoCAD 2000
 90
        0
280
     0
281
     1
  0
CLASS
  1
XRECORD
  2
AcDbXrecord
  3
AutoCAD 2000
 90
        0
280
     0
281
     0
  0
ENDSEC
  0
SECTION
  2
TABLES
  0
TABLE
  2
VPORT
  5
8
330
0
100
AcDbSymbolTable
 70
     3
  0
VPORT
  5
10A9
330
8
100
AcDbSymbolTableRecord
100
AcDbViewportTableRecord
  2
*ACTIVE
 70
     0
 10
0.0
 20
0.0
 11
1.0
 21
1.0
 12
34.75068375
 22
14.4661259
 13
0.0
 23
0.0
 14
7.0
 24
7.0
 15
7.0
 25
7.0
 16
0.0
 26
0.0
 36
1.0
 17
0.0
 27
0.0
 37
0.0
 40
116.92433872
 41
1.43184713
 42
50.0
 43
0.0
 44
0.0
 50
0.0
 51
0.0
 71
     0
 72
  2000
 73
     1
 74
     0
 75
     0
 76
     0
 77
     0
 78
     0
  0
ENDTAB
  0
TABLE
  2
LTYPE
  5
5
330
0
100
AcDbSymbolTable
 70
     3
  0
LTYPE
  5
14
330
5
100
AcDbSymbolTableRecord
100
AcDbLinetypeTableRecord
  2
BYBLOCK
 70
     0
  3

 72
    65
 73
     0
 40
0.0
  0
LTYPE
  5
15
330
5
100
AcDbSymbolTableRecord
100
AcDbLinetypeTableRecord
  2
BYLAYER
 70
     0
  3

 72
    65
 73
     0
 40
0.0
  0
LTYPE
  5
16
330
5
100
AcDbSymbolTableRecord
100
AcDbLinetypeTableRecord
  2
CONTINUOUS
 70
     0
  3
Solid line
 72
    65
 73
     0
 40
0.0
  0
LTYPE
  5
258
330
5
100
AcDbSymbolTableRecord
100
AcDbLinetypeTableRecord
  2
CENTER2
 70
     0
  3
___ _ ___ _ ___ _ ___ _ ___ _ ___ _ ___ _ ___ _
 72
    65
 73
     4
 40
1.125
 49
0.75
 74
     0
 49
-0.125
 74
     0
 49
0.125
 74
     0
 49
-0.125
 74
     0
  0
LTYPE
  5
25C
330
5
100
AcDbSymbolTableRecord
100
AcDbLinetypeTableRecord
  2
HIDDEN2
 70
     0
  3
_ _ _ _ _ _ _ _ _ _ _ _ _ _ _ _ _ _ _ _ _ _ _ _
 72
    65
 73
     2
 40
0.1875
 49
0.125
 74
     0
 49
-0.0625
 74
     0
  0
ENDTAB
  0
TABLE
  2
LAYER
  5
2
330
0
100
AcDbSymbolTable
 70
    11
  0
LAYER
  5
F
330
2
100
AcDbSymbolTableRecord
100
AcDbLayerTableRecord
  2
0
 70
     0
 62
     7
  6
CONTINUOUS
  0
LAYER
  5
1AA
330
2
100
AcDbSymbolTableRecord
100
AcDbLayerTableRecord
  2
240
 70
     0
 62
     4
  6
CONTINUOUS
  0
LAYER
  5
1AB
330
2
100
AcDbSymbolTableRecord
100
AcDbLayerTableRecord
  2
241
 70
     0
 62
   211
  6
CONTINUOUS
  0
LAYER
  5
1AC
330
2
100
AcDbSymbolTableRecord
100
AcDbLayerTableRecord
  2
242
 70
     0
 62
     3
  6
CONTINUOUS
  0
LAYER
  5
1AD
330
2
100
AcDbSymbolTableRecord
100
AcDbLayerTableRecord
  2
243
 70
     0
 62
   211
  6
HIDDEN2
  0
LAYER
  5
1AF
330
2
100
AcDbSymbolTableRecord
100
AcDbLayerTableRecord
  2
245
 70
     0
 62
     2
  6
CENTER2
  0
LAYER
  5
21E
330
2
100
AcDbSymbolTableRecord
100
AcDbLayerTableRecord
  2
250
 70
     0
 62
     3
  6
CONTINUOUS
  0
LAYER
  5
21F
330
2
100
AcDbSymbolTableRecord
100
AcDbLayerTableRecord
  2
251
 70
     0
 62
    40
  6
CONTINUOUS
  0
LAYER
  5
5C4
330
2
100
AcDbSymbolTableRecord
100
AcDbLayerTableRecord
  2
DEFPOINTS
 70
     0
 62
     7
  6
CONTINUOUS
  0
LAYER
  5
8B9
330
2
100
AcDbSymbolTableRecord
100
AcDbLayerTableRecord
  2
AM_7
 70
     0
 62
     2
  6
CENTER2
  0
ENDTAB
  0
TABLE
  2
STYLE
  5
3
330
0
100
AcDbSymbolTable
 70
     2
  0
STYLE
  5
10
330
3
100
AcDbSymbolTableRecord
100
AcDbTextStyleTableRecord
  2
STANDARD
 70
     0
 40
0.0
 41
1.0
 50
0.0
 71
     0
 42
3.0
  3
romans.shx
  4
BIGFONT.SHX
  0
STYLE
  5
339
330
3
100
AcDbSymbolTableRecord
100
AcDbTextStyleTableRecord
  2
YOKO
 70
     0
 40
0.0
 41
1.0
 50
0.0
 71
     0
 42
3.0
  3
romans.shx
  4
extfont.shx
  0
ENDTAB
  0
TABLE
  2
VIEW
  5
6
330
0
100
AcDbSymbolTable
 70
     0
  0
ENDTAB
  0
TABLE
  2
UCS
  5
7
330
0
100
AcDbSymbolTable
 70
     0
  0
ENDTAB
  0
TABLE
  2
APPID
  5
9
330
0
100
AcDbSymbolTable
 70
    15
  0
APPID
  5
11
330
9
100
AcDbSymbolTableRecord
100
AcDbRegAppTableRecord
  2
ACAD
 70
     0
  0
APPID
  5
1B1
330
9
100
AcDbSymbolTableRecord
100
AcDbRegAppTableRecord
  2
GLOBAL
 70
     0
  0
APPID
  5
2A4
330
9
100
AcDbSymbolTableRecord
100
AcDbRegAppTableRecord
  2
DETAIL
 70
     0
  0
APPID
  5
5FD
330
9
100
AcDbSymbolTableRecord
100
AcDbRegAppTableRecord
  2
GRPNAME
 70
     0
  0
APPID
  5
5FE
330
9
100
AcDbSymbolTableRecord
100
AcDbRegAppTableRecord
  2
GPARA
 70
     0
  0
APPID
  5
6C4
330
9
100
AcDbSymbolTableRecord
100
AcDbRegAppTableRecord
  2
DCO15
 70
     0
  0
APPID
  5
6C5
330
9
100
AcDbSymbolTableRecord
100
AcDbRegAppTableRecord
  2
ITEMNAME
 70
     0
  0
APPID
  5
6C6
330
9
100
AcDbSymbolTableRecord
100
AcDbRegAppTableRecord
  2
GRADE_0
 70
     0
  0
APPID
  5
8BA
330
9
100
AcDbSymbolTableRecord
100
AcDbRegAppTableRecord
  2
GENIUS_GENOREF_13
 70
     0
  0
APPID
  5
8BB
330
9
100
AcDbSymbolTableRecord
100
AcDbRegAppTableRecord
  2
HATCH_TYPE
 70
     0
  0
APPID
  5
8BC
330
9
100
AcDbSymbolTableRecord
100
AcDbRegAppTableRecord
  2
HATCH_DISPLAY
 70
     0
  0
APPID
  5
8BD
330
9
100
AcDbSymbolTableRecord
100
AcDbRegAppTableRecord
  2
HATCH_DISTANCE
 70
     0
  0
APPID
  5
8BE
330
9
100
AcDbSymbolTableRecord
100
AcDbRegAppTableRecord
  2
GENIUS_GENODEF_13
 70
     0
  0
APPID
  5
8BF
330
9
100
AcDbSymbolTableRecord
100
AcDbRegAppTableRecord
  2
GENIUS_GENOBJ-N-FIL_13
 70
     0
  0
APPID
  5
D5D
330
9
100
AcDbSymbolTableRecord
100
AcDbRegAppTableRecord
  2
CONTENTBLOCKICON
 70
     0
  0
ENDTAB
  0
TABLE
  2
DIMSTYLE
  5
A
330
0
100
AcDbSymbolTable
 70
     1
  0
DIMSTYLE
105
725
102
{ACAD_REACTORS
330
8D1
330
BA7
102
}
330
A
100
AcDbSymbolTableRecord
100
AcDbDimStyleTableRecord
  2
BIGT
 70
     0
  3

  4

  5

  6
OPEN
  7
OPEN
 40
1.0
 41
2.23
 42
0.5
 43
2.5
 44
1.0
 45
0.0
 46
0.0
 47
0.0
 48
0.0
140
2.8
141
0.0
142
0.0
143
25.4
144
1.0
145
0.0
146
1.0
147
1.0
 71
     0
 72
     0
 73
     0
 74
     0
 75
     0
 76
     0
 77
     3
 78
     8
170
     0
171
     2
172
     1
173
     1
174
     1
175
     0
176
   256
177
   256
178
    40
270
     2
271
     3
272
     3
273
     2
274
     2
340
10
275
     0
280
     0
281
     0
282
     0
283
     1
284
     8
285
     0
286
     0
287
     3
288
     0
  0
ENDTAB
  0
TABLE
  2
BLOCK_RECORD
  5
1
330
0
100
AcDbSymbolTable
 70
     6
  0
BLOCK_RECORD
  5
1A
102
{ACAD_XDICTIONARY
360
D5B
102
}
330
1
100
AcDbSymbolTableRecord
100
AcDbBlockTableRecord
  2
*MODEL_SPACE
  0
BLOCK_RECORD
  5
17
102
{ACAD_XDICTIONARY
360
D59
102
}
330
1
100
AcDbSymbolTableRecord
100
AcDbBlockTableRecord
  2
*PAPER_SPACE
  0
BLOCK_RECORD
  5
594
330
1
100
AcDbSymbolTableRecord
100
AcDbBlockTableRecord
  2
_OPEN
  0
BLOCK_RECORD
  5
6E3
330
1
100
AcDbSymbolTableRecord
100
AcDbBlockTableRecord
  2
矢印なし
  0
BLOCK_RECORD
  5
762
330
1
100
AcDbSymbolTableRecord
100
AcDbBlockTableRecord
  2
1
1001
CONTENTBLOCKICON
1071
        0
1004
2800000020000000200000000100080000000000000400000000000000000000000000000000000000000000000080000080000000808000800000008000800080800000C0C0C000C0DCC000F0CAA6000020400000206000002080000020A0000020C0000020E00000400000004020000040400000406000004080000040A0
1004
000040C0000040E00000600000006020000060400000606000006080000060A0000060C0000060E00000800000008020000080400000806000008080000080A0000080C0000080E00000A0000000A0200000A0400000A0600000A0800000A0A00000A0C00000A0E00000C0000000C0200000C0400000C0600000C0800000C0
1004
A00000C0C00000C0E00000E0000000E0200000E0400000E0600000E0800000E0A00000E0C00000E0E00040000000400020004000400040006000400080004000A0004000C0004000E00040200000402020004020400040206000402080004020A0004020C0004020E000404000004040200040404000404060004040800040
1004
40A0004040C0004040E00040600000406020004060400040606000406080004060A0004060C0004060E00040800000408020004080400040806000408080004080A0004080C0004080E00040A0000040A0200040A0400040A0600040A0800040A0A00040A0C00040A0E00040C0000040C0200040C0400040C0600040C08000
1004
40C0A00040C0C00040C0E00040E0000040E0200040E0400040E0600040E0800040E0A00040E0C00040E0E00080000000800020008000400080006000800080008000A0008000C0008000E00080200000802020008020400080206000802080008020A0008020C0008020E00080400000804020008040400080406000804080
1004
008040A0008040C0008040E00080600000806020008060400080606000806080008060A0008060C0008060E00080800000808020008080400080806000808080008080A0008080C0008080E00080A0000080A0200080A0400080A0600080A0800080A0A00080A0C00080A0E00080C0000080C0200080C0400080C0600080C0
1004
800080C0A00080C0C00080C0E00080E0000080E0200080E0400080E0600080E0800080E0A00080E0C00080E0E000C0000000C0002000C0004000C0006000C0008000C000A000C000C000C000E000C0200000C0202000C0204000C0206000C0208000C020A000C020C000C020E000C0400000C0402000C0404000C0406000C0
1004
408000C040A000C040C000C040E000C0600000C0602000C0604000C0606000C0608000C060A000C060C000C060E000C0800000C0802000C0804000C0806000C0808000C080A000C080C000C080E000C0A00000C0A02000C0A04000C0A06000C0A08000C0A0A000C0A0C000C0A0E000C0C00000C0C02000C0C04000C0C06000
1004
C0C08000C0C0A000F0FBFF00A4A0A000808080000000FF0000FF000000FFFF00FF000000FF00FF00FFFF0000FFFFFF0000000000000000000000000000000000000000000000000000000000000000000000000000000000000000000000000000000000000000000000000000000000000000000000000000000000000000
1004
00000000000000000000000000000000000000000000000000000000000000000000000000000000000000000000000000000000000000000000000000000000000000000000000000000000000000000000000000000000000000000000000000000000000000000000000000000000000000000000000000000000000000
1004
00000000000000000000000000000000000000000000000000000000000000000000000000000000000000000000000000000000000000000000000000000000000000000000000000000000000000000000000000000000000000000000000000000000000000000000000000000000000000000000000000000000000000
1004
000000000000000000000000000000000000000000000000000000000000000000000000000000000000000000000000000000000000000000000000000000000000000000000000000000000000000000000000000000000000000000FEE700000000000000000000000000000000000000000000FEFEFEFEFEFEFEE7FEFE
1004
FEFEFEFEFEFEFEFEFEFEFEFEFEFEFEFEFEFE00000000FE00FBE7FBFBE7E7E7E70000000000000000000000000000E70000FE000000FBFEFBFBE7E7E7E7E7E7E7FBFBFFFFFFFBFBFBFBFBFBFBFBE7E7E7E7FEFB000000FEFEFEFEFEFEFEE7E7FEFEFEFEFEFEFEFEFEFEFEFEFEFEFEFEFEFEFE000000000000000000000000FE
1004
E7000000000000000000000000000000000000000000000000000000000000000000000000000000000000000000000000000000000000000000000000000000000000000000000000000000000000000000000000000000000000000000000000000000000000000000000000000000000000000000000000000000000000
1004
00000000000000000000000000000000000000000000000000000000000000000000000000000000000000000000000000000000000000000000000000000000000000000000000000000000000000000000000000000000000000000000000000000000000000000000000000000000000000000000000000000000000000
1004
00000000000000000000000000000000000000000000000000000000000000000000000000000000000000000000000000000000000000000000000000000000000000000000000000000000000000000000000000000000000000000000000000000000000000000000000000000000000000000000000000000000000000
1004
0000000000000000000000000000000000000000000000000000000000000000000000000000000000000000000000000000000000000000
  0
BLOCK_RECORD
  5
8E6
330
1
100
AcDbSymbolTableRecord
100
AcDbBlockTableRecord
  2
*D3
  0
BLOCK_RECORD
  5
BAC
330
1
100
AcDbSymbolTableRecord
100
AcDbBlockTableRecord
  2
*D4
  0
ENDTAB
  0
ENDSEC
  0
SECTION
  2
BLOCKS
  0
BLOCK
  5
1B
330
1A
100
AcDbEntity
  8
0
100
AcDbBlockBegin
  2
*MODEL_SPACE
 70
     0
 10
0.0
 20
0.0
 30
0.0
  3
*MODEL_SPACE
  1

  0
ENDBLK
  5
1C
330
1A
100
AcDbEntity
  8
0
100
AcDbBlockEnd
  0
BLOCK
  5
18
330
17
100
AcDbEntity
 67
     1
  8
0
100
AcDbBlockBegin
  2
*PAPER_SPACE
 70
     0
 10
0.0
 20
0.0
 30
0.0
  3
*PAPER_SPACE
  1

  0
ENDBLK
  5
19
330
17
100
AcDbEntity
 67
     1
  8
0
100
AcDbBlockEnd
  0
BLOCK
  5
598
330
594
100
AcDbEntity
  8
0
100
AcDbBlockBegin
  2
_OPEN
 70
     0
 10
0.0
 20
0.0
 30
0.0
  3
_OPEN
  1

  0
LINE
  5
595
330
594
100
AcDbEntity
  8
0
  6
BYBLOCK
 62
     0
100
AcDbLine
 10
-1.0
 20
0.16666667
 30
0.0
 11
0.0
 21
0.0
 31
0.0
  0
LINE
  5
596
330
594
100
AcDbEntity
  8
0
  6
BYBLOCK
 62
     0
100
AcDbLine
 10
-1.0
 20
-0.16666667
 30
0.0
 11
0.0
 21
0.0
 31
0.0
  0
LINE
  5
597
330
594
100
AcDbEntity
  8
0
  6
BYBLOCK
 62
     0
100
AcDbLine
 10
0.0
 20
0.0
 30
0.0
 11
-1.0
 21
0.0
 31
0.0
  0
ENDBLK
  5
599
330
594
100
AcDbEntity
  8
0
100
AcDbBlockEnd
  0
BLOCK
  5
6E4
330
6E3
100
AcDbEntity
  8
0
100
AcDbBlockBegin
  2
矢印なし
 70
     0
 10
0.0
 20
0.0
 30
0.0
  3
矢印なし
  1

  0
ENDBLK
  5
6E5
330
6E3
100
AcDbEntity
  8
0
100
AcDbBlockEnd
  0
BLOCK
  5
89F
330
762
100
AcDbEntity
  8
0
100
AcDbBlockBegin
  2
1
 70
     0
 10
0.0
 20
0.0
 30
0.0
  3
1
  1

  0
LINE
  5
F89
330
762
100
AcDbEntity
  8
240
100
AcDbLine
 10
80.0
 20
8.0
 30
0.0
 11
1.57117457
 21
8.0
 31
0.0
  0
LINE
  5
F8A
330
762
100
AcDbEntity
  8
240
100
AcDbLine
 10
80.0
 20
-8.0
 30
0.0
 11
1.57117457
 21
-8.0
 31
0.0
  0
TEXT
  5
F8B
330
762
100
AcDbEntity
  8
0
100
AcDbText
 10
30.69357284
 20
1.88610653
 30
0.0
 40
2.5
  1
MGT6-M5-100
  7
YOKO
100
AcDbText
  0
LINE
  5
F8C
330
762
100
AcDbEntity
  8
AM_7
100
AcDbLine
 10
-48.5
 20
0.0
 30
0.0
 11
101.0
 21
0.0
 31
0.0
1001
GENIUS_GENOREF_13
1005
0
  0
LINE
  5
F8D
330
762
100
AcDbEntity
  8
240
100
AcDbLine
 10
-34.0
 20
6.0
 30
0.0
 11
-29.0
 21
6.0
 31
0.0
  0
LINE
  5
F8E
330
762
100
AcDbEntity
  8
240
100
AcDbLine
 10
-34.0
 20
-6.0
 30
0.0
 11
-29.0
 21
-6.0
 31
0.0
  0
LINE
  5
F8F
330
762
100
AcDbEntity
  8
240
100
AcDbLine
 10
-47.5
 20
-7.0
 30
0.0
 11
-47.5
 21
0.0
 31
0.0
  0
LINE
  5
F90
330
762
100
AcDbEntity
  8
243
100
AcDbLine
 10
-36.5
 20
6.0
 30
0.0
 11
-36.5
 21
-6.0
 31
0.0
  0
LINE
  5
F91
330
762
100
AcDbEntity
  8
AM_7
100
AcDbLine
 10
-34.0
 20
-8.0
 30
0.0
 11
-34.0
 21
8.0
 31
0.0
  0
LINE
  5
F92
330
762
100
AcDbEntity
  8
240
100
AcDbLine
 10
-46.5
 20
-8.0
 30
0.0
 11
-41.0
 21
-8.0
 31
0.0
  0
ARC
  5
F93
330
762
100
AcDbEntity
  8
240
100
AcDbCircle
 10
-46.5
 20
-7.0
 30
0.0
 40
1.0
100
AcDbArc
 50
180.0
 51
270.0
  0
LINE
  5
F94
330
762
100
AcDbEntity
  8
240
100
AcDbLine
 10
-39.0
 20
-6.0
 30
0.0
 11
-41.0
 21
-8.0
 31
0.0
  0
LINE
  5
F95
330
762
100
AcDbEntity
  8
240
100
AcDbLine
 10
-39.0
 20
-6.0
 30
0.0
 11
-34.0
 21
-6.0
 31
0.0
  0
LINE
  5
F96
330
762
100
AcDbEntity
  8
240
100
AcDbLine
 10
-46.5
 20
8.0
 30
0.0
 11
-41.0
 21
8.0
 31
0.0
  0
LINE
  5
F97
330
762
100
AcDbEntity
  8
240
100
AcDbLine
 10
-47.5
 20
7.0
 30
0.0
 11
-47.5
 21
0.0
 31
0.0
  0
ARC
  5
F98
330
762
100
AcDbEntity
  8
240
100
AcDbCircle
 10
-46.5
 20
7.0
 30
0.0
 40
1.0
100
AcDbArc
 50
90.0
 51
180.0
  0
LINE
  5
F99
330
762
100
AcDbEntity
  8
240
100
AcDbLine
 10
-39.0
 20
6.0
 30
0.0
 11
-34.0
 21
6.0
 31
0.0
  0
LINE
  5
F9A
330
762
100
AcDbEntity
  8
240
100
AcDbLine
 10
-39.0
 20
6.0
 30
0.0
 11
-41.0
 21
8.0
 31
0.0
  0
LINE
  5
F9B
330
762
100
AcDbEntity
  8
241
100
AcDbLine
 10
0.80384758
 20
-8.35874397
 30
0.0
 11
0.80384758
 21
0.0
 31
0.0
  0
LINE
  5
F9C
330
762
100
AcDbEntity
  8
241
100
AcDbLine
 10
-5.12626129
 20
-11.0
 30
0.0
 11
-5.12626129
 21
0.0
 31
0.0
  0
LINE
  5
F9D
330
762
100
AcDbEntity
  8
241
  6
CONTINUOUS
100
AcDbLine
 10
-6.5
 20
-10.50000001
 30
0.0
 11
-6.5
 21
0.0
 31
0.0
  0
LINE
  5
F9E
330
762
100
AcDbEntity
  8
241
100
AcDbLine
 10
-11.0
 20
-8.0
 30
0.0
 11
-11.0
 21
0.0
 31
0.0
  0
LINE
  5
F9F
330
762
100
AcDbEntity
  8
AM_7
100
AcDbLine
 10
-20.0
 20
-0.7698914
 30
0.0
 11
-20.0
 21
-4.52866188
 31
0.0
  0
LINE
  5
FA0
330
762
100
AcDbEntity
  8
241
100
AcDbLine
 10
0.0
 20
-10.64125603
 30
0.0
 11
0.0
 21
0.0
 31
0.0
  0
LINE
  5
FA1
330
762
100
AcDbEntity
  8
241
100
AcDbLine
 10
-2.0
 20
-10.0
 30
0.0
 11
-2.0
 21
0.0
 31
0.0
  0
LINE
  5
FA2
330
762
100
AcDbEntity
  8
241
100
AcDbLine
 10
-4.0
 20
-10.0
 30
0.0
 11
-4.0
 21
0.0
 31
0.0
  0
LINE
  5
FA3
330
762
100
AcDbEntity
  8
241
100
AcDbLine
 10
-14.5
 20
-7.0
 30
0.0
 11
-14.5
 21
0.0
 31
0.0
  0
LINE
  5
FA4
330
762
100
AcDbEntity
  8
241
100
AcDbLine
 10
-16.5
 20
-7.0
 30
0.0
 11
-16.5
 21
0.0
 31
0.0
  0
LINE
  5
FA5
330
762
100
AcDbEntity
  8
241
100
AcDbLine
 10
-23.5
 20
-7.0
 30
0.0
 11
-23.5
 21
0.0
 31
0.0
  0
LINE
  5
FA6
330
762
100
AcDbEntity
  8
241
100
AcDbLine
 10
-25.5
 20
-7.0
 30
0.0
 11
-25.5
 21
0.0
 31
0.0
  0
ELLIPSE
  5
FA7
330
762
100
AcDbEntity
  8
241
100
AcDbEllipse
 10
-20.0
 20
-2.64927664
 30
0.0
 11
-2.000000000000023
 21
0.0
 31
0.0
210
0.0
220
0.0
230
1.0
 40
0.93969262
 41
0.0
 42
6.283185307179584
  0
LINE
  5
FA8
330
762
100
AcDbEntity
  8
243
100
AcDbLine
 10
-31.5
 20
6.0
 30
0.0
 11
-31.5
 21
-6.0
 31
0.0
  0
ARC
  5
FA9
330
762
100
AcDbEntity
  8
240
100
AcDbCircle
 10
-15.5
 20
-7.0
 30
0.0
 40
1.000000000003004
100
AcDbArc
 50
180.0
 51
0.0
  0
ARC
  5
FAA
330
762
100
AcDbEntity
  8
240
100
AcDbCircle
 10
-24.5
 20
-7.0
 30
0.0
 40
1.000000000003004
100
AcDbArc
 50
180.0
 51
0.0
  0
LINE
  5
FAB
330
762
100
AcDbEntity
  8
240
100
AcDbLine
 10
-25.5
 20
-7.0
 30
0.0
 11
-25.5
 21
-8.0
 31
0.0
  0
LINE
  5
FAC
330
762
100
AcDbEntity
  8
240
100
AcDbLine
 10
-29.0
 20
-6.0
 30
0.0
 11
-27.0
 21
-8.0
 31
0.0
  0
LINE
  5
FAD
330
762
100
AcDbEntity
  8
240
100
AcDbLine
 10
-27.0
 20
-8.0
 30
0.0
 11
-25.5
 21
-8.0
 31
0.0
  0
LINE
  5
FAE
330
762
100
AcDbEntity
  8
240
100
AcDbLine
 10
-16.5
 20
-7.0
 30
0.0
 11
-16.5
 21
-8.0
 31
0.0
  0
LINE
  5
FAF
330
762
100
AcDbEntity
  8
240
100
AcDbLine
 10
-23.5
 20
-7.0
 30
0.0
 11
-23.5
 21
-8.0
 31
0.0
  0
LINE
  5
FB0
330
762
100
AcDbEntity
  8
240
100
AcDbLine
 10
-23.5
 20
-8.0
 30
0.0
 11
-16.5
 21
-8.0
 31
0.0
  0
LINE
  5
FB1
330
762
100
AcDbEntity
  8
AM_7
100
AcDbLine
 10
-21.99786162
 20
-2.73616115
 30
0.0
 11
-18.00213838
 21
-2.73616115
 31
0.0
  0
LINE
  5
FB2
330
762
100
AcDbEntity
  8
240
100
AcDbLine
 10
-6.5
 20
-10.50000001
 30
0.0
 11
-5.12626128
 21
-11.0
 31
0.0
  0
LINE
  5
FB3
330
762
100
AcDbEntity
  8
240
100
AcDbLine
 10
-14.5
 20
-7.0
 30
0.0
 11
-14.5
 21
-8.0
 31
0.0
  0
LINE
  5
FB4
330
762
100
AcDbEntity
  8
240
100
AcDbLine
 10
-10.7
 20
-7.7
 30
0.0
 11
-11.0
 21
-8.0
 31
0.0
  0
LINE
  5
FB5
330
762
100
AcDbEntity
  8
240
100
AcDbLine
 10
-14.5
 20
-8.0
 30
0.0
 11
-11.0
 21
-8.0
 31
0.0
  0
LINE
  5
FB6
330
762
100
AcDbEntity
  8
240
100
AcDbLine
 10
-6.50000001
 20
-10.5
 30
0.0
 11
-10.0
 21
-10.5
 31
0.0
  0
LINE
  5
FB7
330
762
100
AcDbEntity
  8
240
100
AcDbLine
 10
-10.0
 20
-10.5
 30
0.0
 11
-10.0
 21
-9.0
 31
0.0
  0
LINE
  5
FB8
330
762
100
AcDbEntity
  8
240
100
AcDbLine
 10
-9.5
 20
-8.5
 30
0.0
 11
-9.5
 21
-7.7
 31
0.0
  0
LINE
  5
FB9
330
762
100
AcDbEntity
  8
240
100
AcDbLine
 10
-10.7
 20
-7.7
 30
0.0
 11
-9.5
 21
-7.7
 31
0.0
  0
LINE
  5
FBA
330
762
100
AcDbEntity
  8
240
100
AcDbLine
 10
-9.5
 20
-8.5
 30
0.0
 11
-10.0
 21
-9.0
 31
0.0
  0
LINE
  5
FBB
330
762
100
AcDbEntity
  8
241
100
AcDbLine
 10
-6.5
 20
-8.2
 30
0.0
 11
-9.5
 21
-8.2
 31
0.0
  0
LINE
  5
FBC
330
762
100
AcDbEntity
  8
240
100
AcDbLine
 10
-0.63567449
 20
-11.0
 30
0.0
 11
-2.0
 21
-11.0
 31
0.0
  0
LINE
  5
FBD
330
762
100
AcDbEntity
  8
240
100
AcDbLine
 10
-4.0
 20
-11.0
 30
0.0
 11
-5.12626129
 21
-11.0
 31
0.0
  0
LINE
  5
FBE
330
762
100
AcDbEntity
  8
240
100
AcDbLine
 10
-4.0
 20
-10.0
 30
0.0
 11
-4.0
 21
-11.0
 31
0.0
  0
LINE
  5
FBF
330
762
100
AcDbEntity
  8
240
100
AcDbLine
 10
-2.0
 20
-10.0
 30
0.0
 11
-2.0
 21
-11.0
 31
0.0
  0
ARC
  5
FC0
330
762
100
AcDbEntity
  8
240
100
AcDbCircle
 10
-3.0
 20
-10.0
 30
0.0
 40
1.000000000000075
100
AcDbArc
 50
180.0
 51
0.0
  0
ARC
  5
FC1
330
762
100
AcDbEntity
  8
240
100
AcDbCircle
 10
1.57117457
 20
-9.0
 30
0.0
 40
1.0
100
AcDbArc
 50
90.0
 51
165.00000008
  0
LINE
  5
FC2
330
762
100
AcDbEntity
  8
240
100
AcDbLine
 10
0.19859884
 20
-10.25881905
 30
0.0
 11
0.60524874
 21
-8.74118096
 31
0.0
  0
ARC
  5
FC3
330
762
100
AcDbEntity
  8
240
100
AcDbCircle
 10
-0.76732699
 20
-10.0
 30
0.0
 40
1.0
100
AcDbArc
 50
285.0
 51
345.0
1001
GENIUS_GENOBJ-N-FIL_13
1002
{
1000
OWNER
1000
GEN
1002
}
1001
GENIUS_GENODEF_13
1002
{
1000
HIER
1070
     0
1002
}
1002
{
1000
MANEDIT
1070
     0
1002
}
1002
{
1000
NOSEL
1070
     0
1002
}
1002
{
1000
BEHIND
1070
     0
1002
}
1002
{
1000
OTHER
1070
     0
1002
}
1002
{
1000
REACTOR
1002
}
  0
LINE
  5
FC4
330
762
100
AcDbEntity
  8
240
100
AcDbLine
 10
-0.50850794
 20
-10.96592583
 30
0.0
 11
-0.63567449
 21
-11.0
 31
0.0
  0
ARC
  5
FC5
330
762
100
AcDbEntity
  8
240
100
AcDbCircle
 10
-15.5
 20
7.0
 30
0.0
 40
1.000000000003004
100
AcDbArc
 50
0.0
 51
180.0
  0
ARC
  5
FC6
330
762
100
AcDbEntity
  8
240
100
AcDbCircle
 10
-24.5
 20
7.0
 30
0.0
 40
1.000000000003004
100
AcDbArc
 50
0.0
 51
180.0
  0
LINE
  5
FC7
330
762
100
AcDbEntity
  8
241
100
AcDbLine
 10
-25.5
 20
7.0
 30
0.0
 11
-25.5
 21
0.0
 31
0.0
  0
LINE
  5
FC8
330
762
100
AcDbEntity
  8
240
100
AcDbLine
 10
-27.0
 20
8.0
 30
0.0
 11
-25.5
 21
8.0
 31
0.0
  0
LINE
  5
FC9
330
762
100
AcDbEntity
  8
240
100
AcDbLine
 10
-25.5
 20
7.0
 30
0.0
 11
-25.5
 21
8.0
 31
0.0
  0
LINE
  5
FCA
330
762
100
AcDbEntity
  8
240
100
AcDbLine
 10
-29.0
 20
6.0
 30
0.0
 11
-27.0
 21
8.0
 31
0.0
  0
LINE
  5
FCB
330
762
100
AcDbEntity
  8
241
100
AcDbLine
 10
-16.5
 20
7.0
 30
0.0
 11
-16.5
 21
0.0
 31
0.0
  0
LINE
  5
FCC
330
762
100
AcDbEntity
  8
241
100
AcDbLine
 10
-23.5
 20
7.0
 30
0.0
 11
-23.5
 21
0.0
 31
0.0
  0
LINE
  5
FCD
330
762
100
AcDbEntity
  8
240
100
AcDbLine
 10
-23.5
 20
8.0
 30
0.0
 11
-16.5
 21
8.0
 31
0.0
  0
LINE
  5
FCE
330
762
100
AcDbEntity
  8
240
100
AcDbLine
 10
-23.5
 20
7.0
 30
0.0
 11
-23.5
 21
8.0
 31
0.0
  0
LINE
  5
FCF
330
762
100
AcDbEntity
  8
240
100
AcDbLine
 10
-16.5
 20
7.0
 30
0.0
 11
-16.5
 21
8.0
 31
0.0
  0
LINE
  5
FD0
330
762
100
AcDbEntity
  8
241
100
AcDbLine
 10
0.0
 20
10.64125603
 30
0.0
 11
0.0
 21
0.0
 31
0.0
  0
LINE
  5
FD1
330
762
100
AcDbEntity
  8
241
100
AcDbLine
 10
-5.12626129
 20
11.0
 30
0.0
 11
-5.12626129
 21
0.0
 31
0.0
  0
LINE
  5
FD2
330
762
100
AcDbEntity
  8
240
100
AcDbLine
 10
-6.50000001
 20
10.5
 30
0.0
 11
-5.12626128
 21
11.0
 31
0.0
  0
ARC
  5
FD3
330
762
100
AcDbEntity
  8
240
100
AcDbCircle
 10
-0.76732699
 20
10.0
 30
0.0
 40
1.0
100
AcDbArc
 50
15.0
 51
75.0
1001
GENIUS_GENOBJ-N-FIL_13
1002
{
1000
OWNER
1000
GEN
1002
}
1001
GENIUS_GENODEF_13
1002
{
1000
HIER
1070
     0
1002
}
1002
{
1000
MANEDIT
1070
     0
1002
}
1002
{
1000
NOSEL
1070
     0
1002
}
1002
{
1000
BEHIND
1070
     0
1002
}
1002
{
1000
OTHER
1070
     0
1002
}
1002
{
1000
REACTOR
1002
}
  0
ARC
  5
FD4
330
762
100
AcDbEntity
  8
240
100
AcDbCircle
 10
-3.0
 20
10.0
 30
0.0
 40
1.000000000000075
100
AcDbArc
 50
0.0
 51
180.0
  0
LINE
  5
FD5
330
762
100
AcDbEntity
  8
240
100
AcDbLine
 10
-2.0
 20
10.0
 30
0.0
 11
-2.0
 21
11.0
 31
0.0
  0
LINE
  5
FD6
330
762
100
AcDbEntity
  8
240
100
AcDbLine
 10
-4.0
 20
10.0
 30
0.0
 11
-4.0
 21
11.0
 31
0.0
  0
LINE
  5
FD7
330
762
100
AcDbEntity
  8
241
100
AcDbLine
 10
-14.5
 20
7.0
 30
0.0
 11
-14.5
 21
0.0
 31
0.0
  0
LINE
  5
FD8
330
762
100
AcDbEntity
  8
241
100
AcDbLine
 10
-11.0
 20
8.0
 30
0.0
 11
-11.0
 21
0.0
 31
0.0
  0
LINE
  5
FD9
330
762
100
AcDbEntity
  8
241
  6
CONTINUOUS
100
AcDbLine
 10
-6.5
 20
10.50000001
 30
0.0
 11
-6.5
 21
0.0
 31
0.0
  0
LINE
  5
FDA
330
762
100
AcDbEntity
  8
240
100
AcDbLine
 10
-10.7
 20
7.7
 30
0.0
 11
-11.0
 21
8.0
 31
0.0
  0
LINE
  5
FDB
330
762
100
AcDbEntity
  8
240
100
AcDbLine
 10
-14.5
 20
8.0
 30
0.0
 11
-11.0
 21
8.0
 31
0.0
  0
LINE
  5
FDC
330
762
100
AcDbEntity
  8
240
100
AcDbLine
 10
-14.5
 20
7.0
 30
0.0
 11
-14.5
 21
8.0
 31
0.0
  0
LINE
  5
FDD
330
762
100
AcDbEntity
  8
240
100
AcDbLine
 10
-6.50000001
 20
10.5
 30
0.0
 11
-10.0
 21
10.5
 31
0.0
  0
LINE
  5
FDE
330
762
100
AcDbEntity
  8
240
100
AcDbLine
 10
-10.0
 20
10.5
 30
0.0
 11
-10.0
 21
9.0
 31
0.0
  0
LINE
  5
FDF
330
762
100
AcDbEntity
  8
240
100
AcDbLine
 10
-10.7
 20
7.7
 30
0.0
 11
-9.5
 21
7.7
 31
0.0
  0
LINE
  5
FE0
330
762
100
AcDbEntity
  8
240
100
AcDbLine
 10
-9.5
 20
8.5
 30
0.0
 11
-9.5
 21
7.7
 31
0.0
  0
LINE
  5
FE1
330
762
100
AcDbEntity
  8
240
100
AcDbLine
 10
-9.5
 20
8.5
 30
0.0
 11
-10.0
 21
9.0
 31
0.0
  0
LINE
  5
FE2
330
762
100
AcDbEntity
  8
241
100
AcDbLine
 10
-6.5
 20
8.2
 30
0.0
 11
-9.5
 21
8.2
 31
0.0
  0
LINE
  5
FE3
330
762
100
AcDbEntity
  8
241
100
AcDbLine
 10
-4.0
 20
10.0
 30
0.0
 11
-4.0
 21
0.0
 31
0.0
  0
LINE
  5
FE4
330
762
100
AcDbEntity
  8
241
100
AcDbLine
 10
-2.0
 20
10.0
 30
0.0
 11
-2.0
 21
0.0
 31
0.0
  0
LINE
  5
FE5
330
762
100
AcDbEntity
  8
241
100
AcDbLine
 10
0.80384758
 20
8.35874397
 30
0.0
 11
0.80384758
 21
0.0
 31
0.0
  0
LINE
  5
FE6
330
762
100
AcDbEntity
  8
240
100
AcDbLine
 10
0.19859884
 20
10.25881905
 30
0.0
 11
0.60524874
 21
8.74118096
 31
0.0
  0
ARC
  5
FE7
330
762
100
AcDbEntity
  8
240
100
AcDbCircle
 10
1.57117457
 20
9.0
 30
0.0
 40
1.0
100
AcDbArc
 50
194.99999992
 51
270.0
  0
LINE
  5
FE8
330
762
100
AcDbEntity
  8
240
100
AcDbLine
 10
-0.63567449
 20
11.0
 30
0.0
 11
-2.0
 21
11.0
 31
0.0
  0
LINE
  5
FE9
330
762
100
AcDbEntity
  8
240
100
AcDbLine
 10
-4.0
 20
11.0
 30
0.0
 11
-5.12626129
 21
11.0
 31
0.0
  0
LINE
  5
FEA
330
762
100
AcDbEntity
  8
240
100
AcDbLine
 10
-0.50850794
 20
10.96592583
 30
0.0
 11
-0.63567449
 21
11.0
 31
0.0
  0
LINE
  5
FEB
330
762
100
AcDbEntity
  8
0
100
AcDbLine
 10
20.8885879
 20
3.39552628
 30
0.0
 11
22.01560011
 21
4.52253849
 31
0.0
  0
LINE
  5
FEC
330
762
100
AcDbEntity
  8
0
100
AcDbLine
 10
20.94412011
 20
2.46784546
 30
0.0
 11
21.17834621
 21
2.70207155
 31
0.0
  0
ARC
  5
FED
330
762
100
AcDbEntity
  8
0
100
AcDbCircle
 10
22.39115684
 20
3.01996954
 30
0.0
 40
1.548791887499996
100
AcDbArc
 50
90.0
 51
270.0
  0
LINE
  5
FEE
330
762
100
AcDbEntity
  8
0
100
AcDbLine
 10
20.84236578
 20
3.02156648
 30
0.0
 11
21.18577842
 21
3.36497912
 31
0.0
  0
LINE
  5
FEF
330
762
100
AcDbEntity
  8
0
100
AcDbLine
 10
20.8711735
 20
2.72263652
 30
0.0
 11
21.13775231
 21
2.98921533
 31
0.0
  0
ARC
  5
FF0
330
762
100
AcDbEntity
  8
0
100
AcDbCircle
 10
24.10855935
 20
3.83124731
 30
0.0
 40
0.73752037734375
100
AcDbArc
 50
287.66957755
 51
90.23615984
  0
ARC
  5
FF1
330
762
100
AcDbEntity
  8
0
100
AcDbCircle
 10
27.06804926
 20
3.60998974
 30
0.0
 40
0.9587730796874998
100
AcDbArc
 50
53.4440122
 51
164.00018439
  0
LINE
  5
FF2
330
762
100
AcDbEntity
  8
0
100
AcDbLine
 10
25.32755849
 20
4.22938239
 30
0.0
 11
25.66693753
 21
4.56876143
 31
0.0
  0
LINE
  5
FF3
330
762
100
AcDbEntity
  8
0
100
AcDbLine
 10
25.19579897
 20
3.7698852
 30
0.0
 11
25.99467521
 21
4.56876143
 31
0.0
  0
LINE
  5
FF4
330
762
100
AcDbEntity
  8
0
100
AcDbLine
 10
25.06403946
 20
3.31038799
 30
0.0
 11
25.98913017
 21
4.2354787
 31
0.0
  0
LINE
  5
FF5
330
762
100
AcDbEntity
  8
0
100
AcDbLine
 10
24.93227995
 20
2.8508908
 30
0.0
 11
25.85737245
 21
3.7759833
 31
0.0
  0
LINE
  5
FF6
330
762
100
AcDbEntity
  8
0
100
AcDbLine
 10
26.08469711
 20
4.56876143
 30
0.0
 11
25.31745702
 21
4.56876143
 31
0.0
  0
LINE
  5
FF7
330
762
100
AcDbEntity
  8
0
100
AcDbLine
 10
26.08469711
 20
4.56876143
 30
0.0
 11
25.31745702
 21
4.56876143
 31
0.0
1001
HATCH_DISTANCE
1040
1.0
1001
HATCH_DISPLAY
1070
     0
1001
HATCH_TYPE
1070
     7
  0
LINE
  5
FF8
330
762
100
AcDbEntity
  8
0
100
AcDbLine
 10
25.31745702
 20
4.56876143
 30
0.0
 11
26.08469711
 21
4.56876143
 31
0.0
  0
LINE
  5
FF9
330
762
100
AcDbEntity
  8
0
100
AcDbLine
 10
25.51899253
 20
1.47117731
 30
0.0
 11
25.81400263
 21
1.76618741
 31
0.0
  0
LINE
  5
FFA
330
762
100
AcDbEntity
  8
0
100
AcDbLine
 10
25.32337103
 20
1.91369245
 30
0.0
 11
26.08469711
 21
4.56876143
 31
0.0
  0
LINE
  5
FFB
330
762
100
AcDbEntity
  8
0
100
AcDbLine
 10
25.32337103
 20
1.91369245
 30
0.0
 11
26.08469711
 21
4.56876143
 31
0.0
1001
HATCH_DISTANCE
1040
1.0
1001
HATCH_DISPLAY
1070
     0
1001
HATCH_TYPE
1070
     7
  0
LINE
  5
FFC
330
762
100
AcDbEntity
  8
0
100
AcDbLine
 10
25.32337103
 20
1.91369245
 30
0.0
 11
26.08469711
 21
4.56876143
 31
0.0
  0
LINE
  5
FFD
330
762
100
AcDbEntity
  8
0
100
AcDbLine
 10
24.80052043
 20
2.3913936
 30
0.0
 11
25.72561473
 21
3.31648791
 31
0.0
  0
LINE
  5
FFE
330
762
100
AcDbEntity
  8
0
100
AcDbLine
 10
22.39115684
 20
1.47117731
 30
0.0
 11
28.37982402
 21
1.47117731
 31
0.0
  0
LINE
  5
FFF
330
762
100
AcDbEntity
  8
0
100
AcDbLine
 10
22.39115684
 20
1.76618741
 30
0.0
 11
28.37982402
 21
1.76618741
 31
0.0
  0
ARC
  5
1000
330
762
100
AcDbEntity
  8
0
100
AcDbCircle
 10
26.85657041
 20
2.87246449
 30
0.0
 40
0.9587828249999999
100
AcDbArc
 50
163.9997507
 51
304.96387329
  0
LINE
  5
1001
330
762
100
AcDbEntity
  8
0
100
AcDbLine
 10
24.17467842
 20
4.05971536
 30
0.0
 11
24.54253422
 21
4.42757116
 31
0.0
  0
LINE
  5
1002
330
762
100
AcDbEntity
  8
0
100
AcDbLine
 10
25.31745702
 20
4.56876143
 30
0.0
 11
25.2244032
 21
4.24425923
 31
0.0
  0
LINE
  5
1003
330
762
100
AcDbEntity
  8
0
100
AcDbLine
 10
25.31745702
 20
4.56876143
 30
0.0
 11
25.2244032
 21
4.24425923
 31
0.0
1001
HATCH_DISTANCE
1040
1.0
1001
HATCH_DISPLAY
1070
     0
1001
HATCH_TYPE
1070
     7
  0
LINE
  5
1004
330
762
100
AcDbEntity
  8
0
100
AcDbLine
 10
25.2244032
 20
4.24425923
 30
0.0
 11
25.31745702
 21
4.56876143
 31
0.0
  0
LINE
  5
1005
330
762
100
AcDbEntity
  8
0
100
AcDbLine
 10
24.01961374
 20
4.23238836
 30
0.0
 11
24.32386581
 21
4.53664042
 31
0.0
  0
LINE
  5
1006
330
762
100
AcDbEntity
  8
0
100
AcDbLine
 10
25.2244032
 20
4.24425923
 30
0.0
 11
25.33182438
 21
4.24425923
 31
0.0
  0
LINE
  5
1007
330
762
100
AcDbEntity
  8
0
100
AcDbLine
 10
25.2244032
 20
4.24425923
 30
0.0
 11
25.33182438
 21
4.24425923
 31
0.0
1001
HATCH_DISTANCE
1040
1.0
1001
HATCH_DISPLAY
1070
     0
1001
HATCH_TYPE
1070
     7
  0
LINE
  5
1008
330
762
100
AcDbEntity
  8
0
100
AcDbLine
 10
25.2244032
 20
4.24425923
 30
0.0
 11
25.33182438
 21
4.24425923
 31
0.0
  0
LINE
  5
1009
330
762
100
AcDbEntity
  8
0
100
AcDbLine
 10
24.21249034
 20
3.7697896
 30
0.0
 11
24.70616126
 21
4.26346052
 31
0.0
  0
LINE
  5
100A
330
762
100
AcDbEntity
  8
0
100
AcDbLine
 10
23.87337627
 20
2.77520017
 30
0.0
 11
24.84072683
 21
3.74255073
 31
0.0
  0
LINE
  5
100B
330
762
100
AcDbEntity
  8
0
100
AcDbLine
 10
25.30871531
 20
4.53827688
 30
0.0
 11
25.33919985
 21
4.56876143
 31
0.0
  0
LINE
  5
100C
330
762
100
AcDbEntity
  8
0
100
AcDbLine
 10
23.07776367
 20
4.27375133
 30
0.0
 11
23.37277377
 21
4.56876143
 31
0.0
  0
LINE
  5
100D
330
762
100
AcDbEntity
  8
0
100
AcDbLine
 10
23.14920059
 20
4.01745057
 30
0.0
 11
23.70051144
 21
4.56876143
 31
0.0
  0
LINE
  5
100E
330
762
100
AcDbEntity
  8
0
100
AcDbLine
 10
23.15383057
 20
4.56876143
 30
0.0
 11
23.06924127
 21
4.27375133
 31
0.0
  0
LINE
  5
100F
330
762
100
AcDbEntity
  8
0
100
AcDbLine
 10
23.00038924
 20
4.56876143
 30
0.0
 11
22.91579992
 21
4.27375133
 31
0.0
  0
LINE
  5
1010
330
762
100
AcDbEntity
  8
0
100
AcDbLine
 10
22.04614727
 20
4.22534797
 30
0.0
 11
22.3895599
 21
4.5687606
 31
0.0
  0
LINE
  5
1011
330
762
100
AcDbEntity
  8
0
100
AcDbLine
 10
22.42228831
 20
4.27375133
 30
0.0
 11
22.71729841
 21
4.56876143
 31
0.0
  0
LINE
  5
1012
330
762
100
AcDbEntity
  8
0
100
AcDbLine
 10
22.75002599
 20
4.27375133
 30
0.0
 11
22.98244117
 21
4.5061665
 31
0.0
  0
LINE
  5
1013
330
762
100
AcDbEntity
  8
0
100
AcDbLine
 10
23.06924127
 20
4.27375133
 30
0.0
 11
23.22269373
 21
4.27375133
 31
0.0
  0
LINE
  5
1014
330
762
100
AcDbEntity
  8
0
100
AcDbLine
 10
22.39115684
 20
4.27375133
 30
0.0
 11
22.91579992
 21
4.27375133
 31
0.0
  0
LINE
  5
1015
330
762
100
AcDbEntity
  8
0
100
AcDbLine
 10
22.39115684
 20
4.56876143
 30
0.0
 11
23.00038924
 21
4.56876143
 31
0.0
  0
LINE
  5
1016
330
762
100
AcDbEntity
  8
0
100
AcDbLine
 10
23.15383057
 20
4.56876143
 30
0.0
 11
24.10551947
 21
4.56876143
 31
0.0
  0
LINE
  5
1017
330
762
100
AcDbEntity
  8
0
100
AcDbLine
 10
22.88568342
 20
3.09845804
 30
0.0
 11
23.91834127
 21
4.13111589
 31
0.0
  0
LINE
  5
1018
330
762
100
AcDbEntity
  8
0
100
AcDbLine
 10
22.75392483
 20
2.63896177
 30
0.0
 11
23.78658704
 21
3.67162397
 31
0.0
  0
LINE
  5
1019
330
762
100
AcDbEntity
  8
0
100
AcDbLine
 10
23.01744201
 20
3.55795431
 30
0.0
 11
24.02824913
 21
4.56876143
 31
0.0
  0
LINE
  5
101A
330
762
100
AcDbEntity
  8
0
100
AcDbLine
 10
23.75897271
 20
2.98853428
 30
0.0
 11
24.81466007
 21
4.04422166
 31
0.0
  0
ARC
  5
101B
330
762
100
AcDbEntity
  8
0
100
AcDbCircle
 10
23.77943508
 20
3.86073941
 30
0.0
 40
0.4425027943359379
100
AcDbArc
 50
261.66260169
 51
66.3381551
  0
LINE
  5
101C
330
762
100
AcDbEntity
  8
0
100
AcDbLine
 10
23.95702942
 20
4.2660405
 30
0.0
 11
23.71527196
 21
3.42291317
 31
0.0
  0
LINE
  5
101D
330
762
100
AcDbEntity
  8
0
100
AcDbLine
 10
23.88030413
 20
1.47117731
 30
0.0
 11
24.17531423
 21
1.76618741
 31
0.0
  0
LINE
  5
101E
330
762
100
AcDbEntity
  8
0
100
AcDbLine
 10
24.20804181
 20
1.47117731
 30
0.0
 11
24.5030519
 21
1.76618741
 31
0.0
  0
LINE
  5
101F
330
762
100
AcDbEntity
  8
0
100
AcDbLine
 10
24.53577949
 20
1.47117731
 30
0.0
 11
24.83078959
 21
1.76618741
 31
0.0
  0
LINE
  5
1020
330
762
100
AcDbEntity
  8
0
100
AcDbLine
 10
24.86351717
 20
1.47117731
 30
0.0
 11
25.15852727
 21
1.76618741
 31
0.0
  0
LINE
  5
1021
330
762
100
AcDbEntity
  8
0
100
AcDbLine
 10
25.19125485
 20
1.47117731
 30
0.0
 11
25.48626494
 21
1.76618741
 31
0.0
  0
LINE
  5
1022
330
762
100
AcDbEntity
  8
0
100
AcDbLine
 10
24.66354097
 20
1.91369245
 30
0.0
 11
25.32337103
 21
1.91369245
 31
0.0
  0
LINE
  5
1023
330
762
100
AcDbEntity
  8
0
100
AcDbLine
 10
24.97829464
 20
1.91369245
 30
0.0
 11
25.46209928
 21
2.3974971
 31
0.0
  0
LINE
  5
1024
330
762
100
AcDbEntity
  8
0
100
AcDbLine
 10
25.30603231
 20
1.91369245
 30
0.0
 11
25.33034156
 21
1.9380017
 31
0.0
  0
LINE
  5
1025
330
762
100
AcDbEntity
  8
0
100
AcDbLine
 10
24.66354097
 20
1.91369245
 30
0.0
 11
25.32337103
 21
1.91369245
 31
0.0
  0
LINE
  5
1026
330
762
100
AcDbEntity
  8
0
100
AcDbLine
 10
24.66354097
 20
1.91369245
 30
0.0
 11
25.32337103
 21
1.91369245
 31
0.0
1001
HATCH_DISTANCE
1040
1.0
1001
HATCH_DISPLAY
1070
     0
1001
HATCH_TYPE
1070
     7
  0
LINE
  5
1027
330
762
100
AcDbEntity
  8
0
100
AcDbLine
 10
24.05037699
 20
1.96898784
 30
0.0
 11
24.45241003
 21
2.37102089
 31
0.0
  0
LINE
  5
1028
330
762
100
AcDbEntity
  8
0
100
AcDbLine
 10
23.22482877
 20
1.47117731
 30
0.0
 11
23.51983887
 21
1.76618741
 31
0.0
  0
LINE
  5
1029
330
762
100
AcDbEntity
  8
0
100
AcDbLine
 10
22.54595696
 20
1.91369245
 30
0.0
 11
23.77019096
 21
1.91369245
 31
0.0
  0
LINE
  5
102A
330
762
100
AcDbEntity
  8
0
100
AcDbLine
 10
23.01186856
 20
1.91369245
 30
0.0
 11
23.39131729
 21
2.29314118
 31
0.0
  0
LINE
  5
102B
330
762
100
AcDbEntity
  8
0
100
AcDbLine
 10
21.1828402
 20
2.05109019
 30
0.0
 11
21.39300105
 21
2.26125103
 31
0.0
  0
LINE
  5
102C
330
762
100
AcDbEntity
  8
0
100
AcDbLine
 10
21.3410361
 20
1.88154839
 30
0.0
 11
21.54984946
 21
2.09036175
 31
0.0
  0
LINE
  5
102D
330
762
100
AcDbEntity
  8
0
100
AcDbLine
 10
21.52395208
 20
1.7367267
 30
0.0
 11
21.73736821
 21
1.95014283
 31
0.0
  0
LINE
  5
102E
330
762
100
AcDbEntity
  8
0
100
AcDbLine
 10
21.73295853
 20
1.61799547
 30
0.0
 11
21.95825668
 21
1.84329362
 31
0.0
  0
LINE
  5
102F
330
762
100
AcDbEntity
  8
0
100
AcDbLine
 10
21.97174715
 20
1.5290464
 30
0.0
 11
22.22055025
 21
1.77784951
 31
0.0
  0
LINE
  5
1030
330
762
100
AcDbEntity
  8
0
100
AcDbLine
 10
22.24822544
 20
1.47778702
 30
0.0
 11
22.53662582
 21
1.76618741
 31
0.0
  0
LINE
  5
1031
330
762
100
AcDbEntity
  8
0
100
AcDbLine
 10
22.56935341
 20
1.47117731
 30
0.0
 11
22.86436351
 21
1.76618741
 31
0.0
  0
LINE
  5
1032
330
762
100
AcDbEntity
  8
0
100
AcDbLine
 10
22.8970911
 20
1.47117731
 30
0.0
 11
23.19210118
 21
1.76618741
 31
0.0
  0
LINE
  5
1033
330
762
100
AcDbEntity
  8
0
100
AcDbLine
 10
23.55256646
 20
1.47117731
 30
0.0
 11
23.84757654
 21
1.76618741
 31
0.0
  0
LINE
  5
1034
330
762
100
AcDbEntity
  8
0
100
AcDbLine
 10
22.68413088
 20
1.91369245
 30
0.0
 11
23.52306909
 21
2.75263066
 31
0.0
  0
LINE
  5
1035
330
762
100
AcDbEntity
  8
0
100
AcDbLine
 10
22.62216624
 20
2.17946551
 30
0.0
 11
23.8703849
 21
3.42768416
 31
0.0
  0
LINE
  5
1036
330
762
100
AcDbEntity
  8
0
100
AcDbLine
 10
21.04976206
 20
2.24574972
 30
0.0
 11
21.26759168
 21
2.46357933
 31
0.0
  0
ARC
  5
1037
330
762
100
AcDbEntity
  8
0
100
AcDbCircle
 10
22.39115684
 20
3.01996954
 30
0.0
 40
1.253781787499995
100
AcDbArc
 50
90.0
 51
270.0
  0
LINE
  5
1038
330
762
100
AcDbEntity
  8
0
100
AcDbLine
 10
22.54595696
 20
1.91369245
 30
0.0
 11
23.22269373
 21
4.27375133
 31
0.0
  0
ARC
  5
1039
330
762
100
AcDbEntity
  8
0
100
AcDbCircle
 10
23.77019096
 20
2.65120691
 30
0.0
 40
0.7375141125000005
100
AcDbArc
 50
270.0
 51
40.32984065
  0
LINE
  5
103A
330
762
100
AcDbEntity
  8
0
100
AcDbLine
 10
24.66354097
 20
1.91369245
 30
0.0
 11
25.33182438
 21
4.24425923
 31
0.0
  0
LINE
  5
103B
330
762
100
AcDbEntity
  8
0
100
AcDbLine
 10
24.66876091
 20
1.9318964
 30
0.0
 11
25.59385701
 21
2.8569925
 31
0.0
  0
LINE
  5
103C
330
762
100
AcDbEntity
  8
0
100
AcDbLine
 10
25.33182438
 20
4.24425923
 30
0.0
 11
24.66354097
 21
1.91369245
 31
0.0
  0
LINE
  5
103D
330
762
100
AcDbEntity
  8
0
100
AcDbLine
 10
25.33182438
 20
4.24425923
 30
0.0
 11
24.66354097
 21
1.91369245
 31
0.0
1001
HATCH_DISTANCE
1040
1.0
1001
HATCH_DISPLAY
1070
     0
1001
HATCH_TYPE
1070
     7
  0
LINE
  5
103E
330
762
100
AcDbEntity
  8
0
100
AcDbLine
 10
23.66734392
 20
1.91369245
 30
0.0
 11
24.50136383
 21
2.74771236
 31
0.0
  0
LINE
  5
103F
330
762
100
AcDbEntity
  8
0
100
AcDbLine
 10
23.33960623
 20
1.91369245
 30
0.0
 11
24.42206536
 21
2.99615159
 31
0.0
  0
ARC
  5
1040
330
762
100
AcDbEntity
  8
0
100
AcDbCircle
 10
23.4410667
 20
2.68071015
 30
0.0
 40
0.4425154545410158
100
AcDbArc
 50
261.66285421
 51
66.33819216
  0
LINE
  5
1041
330
762
100
AcDbEntity
  8
0
100
AcDbLine
 10
23.61866455
 20
3.08602352
 30
0.0
 11
23.37690312
 21
2.24287118
 31
0.0
  0
LINE
  5
1042
330
762
100
AcDbEntity
  8
0
100
AcDbLine
 10
27.12265643
 20
2.46258221
 30
0.0
 11
27.31209416
 21
3.1232253
 31
0.0
  0
LINE
  5
1043
330
762
100
AcDbEntity
  8
0
100
AcDbLine
 10
27.98495509
 20
4.51758462
 30
0.0
 11
27.98495509
 21
4.51758462
 31
0.0
  0
LINE
  5
1044
330
762
100
AcDbEntity
  8
0
100
AcDbLine
 10
27.98495509
 20
4.51758462
 30
0.0
 11
27.98495509
 21
4.51758462
 31
0.0
1001
HATCH_DISTANCE
1040
1.0
1001
HATCH_DISPLAY
1070
     0
1001
HATCH_TYPE
1070
     7
  0
LINE
  5
1045
330
762
100
AcDbEntity
  8
0
100
AcDbLine
 10
27.98495509
 20
4.51758462
 30
0.0
 11
27.98495509
 21
4.51758462
 31
0.0
  0
LINE
  5
1046
330
762
100
AcDbEntity
  8
0
100
AcDbLine
 10
27.98495509
 20
4.51758462
 30
0.0
 11
27.98495509
 21
4.51758462
 31
0.0
1001
HATCH_DISTANCE
1040
1.0
1001
HATCH_DISPLAY
1070
     0
1001
HATCH_TYPE
1070
     7
  0
ARC
  5
1047
330
762
100
AcDbEntity
  8
0
100
AcDbCircle
 10
28.37982402
 20
3.01996954
 30
0.0
 40
1.548792583593745
100
AcDbArc
 50
110.22964506
 51
118.57168892
  0
LINE
  5
1048
330
762
100
AcDbEntity
  8
0
100
AcDbLine
 10
28.04553825
 20
4.32546071
 30
0.0
 11
28.28599412
 21
4.56591658
 31
0.0
  0
LINE
  5
1049
330
762
100
AcDbEntity
  8
0
100
AcDbLine
 10
29.26583718
 20
3.90707124
 30
0.0
 11
29.47444086
 21
4.11567491
 31
0.0
  0
LINE
  5
104A
330
762
100
AcDbEntity
  8
0
100
AcDbLine
 10
29.53098882
 20
3.51674751
 30
0.0
 11
29.75215982
 21
3.73791851
 31
0.0
  0
LINE
  5
104B
330
762
100
AcDbEntity
  8
0
100
AcDbLine
 10
29.53855196
 20
2.54109761
 30
0.0
 11
29.92590987
 21
2.92845554
 31
0.0
  0
LINE
  5
104C
330
762
100
AcDbEntity
  8
0
100
AcDbLine
 10
29.41453224
 20
3.72802861
 30
0.0
 11
29.62606282
 21
3.9395592
 31
0.0
  0
LINE
  5
104D
330
762
100
AcDbEntity
  8
0
100
AcDbLine
 10
27.81315629
 20
1.47117731
 30
0.0
 11
28.10816638
 21
1.76618741
 31
0.0
  0
LINE
  5
104E
330
762
100
AcDbEntity
  8
0
100
AcDbLine
 10
28.14089397
 20
1.47117731
 30
0.0
 11
28.43721879
 21
1.76750213
 31
0.0
  0
LINE
  5
104F
330
762
100
AcDbEntity
  8
0
100
AcDbLine
 10
28.47133802
 20
1.47388367
 30
0.0
 11
28.85869594
 21
1.8612416
 31
0.0
  0
LINE
  5
1050
330
762
100
AcDbEntity
  8
0
100
AcDbLine
 10
27.42575429
 20
2.06698834
 30
0.0
 11
27.7023218
 21
2.34355586
 31
0.0
  0
LINE
  5
1051
330
762
100
AcDbEntity
  8
0
100
AcDbLine
 10
27.40600557
 20
2.08673579
 30
0.0
 11
27.57906003
 21
1.91369245
 31
0.0
  0
LINE
  5
1052
330
762
100
AcDbEntity
  8
0
100
AcDbLine
 10
26.82994325
 20
1.47117731
 30
0.0
 11
27.12495335
 21
1.76618741
 31
0.0
  0
LINE
  5
1053
330
762
100
AcDbEntity
  8
0
100
AcDbLine
 10
27.15768094
 20
1.47117731
 30
0.0
 11
27.45269102
 21
1.76618741
 31
0.0
  0
LINE
  5
1054
330
762
100
AcDbEntity
  8
0
100
AcDbLine
 10
27.48541861
 20
1.47117731
 30
0.0
 11
27.78042871
 21
1.76618741
 31
0.0
  0
ARC
  5
1055
330
762
100
AcDbEntity
  8
0
100
AcDbCircle
 10
28.37982402
 20
3.01996954
 30
0.0
 40
1.253781787499995
100
AcDbArc
 50
270.0
 51
104.1274365
  0
LINE
  5
1056
330
762
100
AcDbEntity
  8
0
100
AcDbLine
 10
28.87902589
 20
1.55383387
 30
0.0
 11
29.84595967
 21
2.52076765
 31
0.0
  0
ARC
  5
1057
330
762
100
AcDbEntity
  8
0
100
AcDbCircle
 10
28.37982402
 20
3.01996954
 30
0.0
 40
1.548791887499996
100
AcDbArc
 50
270.0
 51
104.77079397
  0
LINE
  5
1058
330
762
100
AcDbEntity
  8
0
100
AcDbLine
 10
27.08837841
 20
2.38508782
 30
0.0
 11
27.96583978
 21
3.2625492
 31
0.0
  0
LINE
  5
1059
330
762
100
AcDbEntity
  8
0
100
AcDbLine
 10
26.94919442
 20
1.91816616
 30
0.0
 11
27.83408079
 21
2.80305253
 31
0.0
  0
LINE
  5
105A
330
762
100
AcDbEntity
  8
0
100
AcDbLine
 10
27.57906003
 20
1.91369245
 30
0.0
 11
28.01048223
 21
3.4182354
 31
0.0
  0
ARC
  5
105B
330
762
100
AcDbEntity
  8
0
100
AcDbCircle
 10
28.42412898
 20
2.82205616
 30
0.0
 40
2.509011449999999
100
AcDbArc
 50
155.20517737
 51
172.79482596
  0
LINE
  5
105C
330
762
100
AcDbEntity
  8
0
100
AcDbLine
 10
26.17446789
 20
1.47117731
 30
0.0
 11
26.46947799
 21
1.76618741
 31
0.0
  0
LINE
  5
105D
330
762
100
AcDbEntity
  8
0
100
AcDbLine
 10
25.84673022
 20
1.47117731
 30
0.0
 11
26.1417403
 21
1.76618741
 31
0.0
  0
LINE
  5
105E
330
762
100
AcDbEntity
  8
0
100
AcDbLine
 10
26.40319871
 20
2.02764581
 30
0.0
 11
26.66079432
 21
2.28524142
 31
0.0
  0
LINE
  5
105F
330
762
100
AcDbEntity
  8
0
100
AcDbLine
 10
26.05957163
 20
2.33949409
 30
0.0
 11
26.5969722
 21
2.87689466
 31
0.0
  0
LINE
  5
1060
330
762
100
AcDbEntity
  8
0
100
AcDbLine
 10
26.21121199
 20
2.16339677
 30
0.0
 11
26.52364965
 21
2.47583443
 31
0.0
  0
LINE
  5
1061
330
762
100
AcDbEntity
  8
0
100
AcDbLine
 10
29.60902057
 20
3.26704159
 30
0.0
 11
29.84978157
 21
3.50780259
 31
0.0
  0
LINE
  5
1062
330
762
100
AcDbEntity
  8
0
100
AcDbLine
 10
29.63229142
 20
2.96257476
 30
0.0
 11
29.91250417
 21
3.2427875
 31
0.0
  0
LINE
  5
1063
330
762
100
AcDbEntity
  8
0
100
AcDbLine
 10
29.08658983
 20
4.05556156
 30
0.0
 11
29.29816041
 21
4.26713214
 31
0.0
  0
LINE
  5
1064
330
762
100
AcDbEntity
  8
0
100
AcDbLine
 10
27.29920308
 20
4.2346009
 30
0.0
 11
27.52010464
 21
4.45550246
 31
0.0
  0
LINE
  5
1065
330
762
100
AcDbEntity
  8
0
100
AcDbLine
 10
27.48738562
 20
4.09504576
 30
0.0
 11
27.84938047
 21
4.45704061
 31
0.0
  0
LINE
  5
1066
330
762
100
AcDbEntity
  8
0
100
AcDbLine
 10
27.93312116
 20
4.19147861
 30
0.0
 11
27.84427732
 21
4.47322395
 31
0.0
  0
LINE
  5
1067
330
762
100
AcDbEntity
  8
0
100
AcDbLine
 10
28.87508038
 20
4.1717898
 30
0.0
 11
29.09634306
 21
4.39305248
 31
0.0
  0
LINE
  5
1068
330
762
100
AcDbEntity
  8
0
100
AcDbLine
 10
27.98495509
 20
4.51758462
 30
0.0
 11
28.07379893
 21
4.23583928
 31
0.0
  0
LINE
  5
1069
330
762
100
AcDbEntity
  8
0
100
AcDbLine
 10
28.07379893
 20
4.23583928
 30
0.0
 11
27.98495509
 21
4.51758462
 31
0.0
  0
LINE
  5
106A
330
762
100
AcDbEntity
  8
0
100
AcDbLine
 10
27.98495509
 20
4.51758462
 30
0.0
 11
28.07379893
 21
4.23583928
 31
0.0
1001
HATCH_DISTANCE
1040
1.0
1001
HATCH_DISPLAY
1070
     0
1001
HATCH_TYPE
1070
     7
  0
LINE
  5
106B
330
762
100
AcDbEntity
  8
0
100
AcDbLine
 10
28.07379893
 20
4.23583928
 30
0.0
 11
27.98495509
 21
4.51758462
 31
0.0
1001
HATCH_DISTANCE
1040
1.0
1001
HATCH_DISPLAY
1070
     0
1001
HATCH_TYPE
1070
     7
  0
LINE
  5
106C
330
762
100
AcDbEntity
  8
0
100
AcDbLine
 10
27.98495509
 20
4.51758462
 30
0.0
 11
28.07379893
 21
4.23583928
 31
0.0
  0
LINE
  5
106D
330
762
100
AcDbEntity
  8
0
100
AcDbLine
 10
28.07379893
 20
4.23583928
 30
0.0
 11
27.98495509
 21
4.51758462
 31
0.0
  0
LINE
  5
106E
330
762
100
AcDbEntity
  8
0
100
AcDbLine
 10
27.98495509
 20
4.51758462
 30
0.0
 11
28.07379893
 21
4.23583928
 31
0.0
1001
HATCH_DISTANCE
1040
1.0
1001
HATCH_DISPLAY
1070
     0
1001
HATCH_TYPE
1070
     7
  0
LINE
  5
106F
330
762
100
AcDbEntity
  8
0
100
AcDbLine
 10
28.07379893
 20
4.23583928
 30
0.0
 11
27.98495509
 21
4.51758462
 31
0.0
1001
HATCH_DISTANCE
1040
1.0
1001
HATCH_DISPLAY
1070
     0
1001
HATCH_TYPE
1070
     7
  0
LINE
  5
1070
330
762
100
AcDbEntity
  8
0
100
AcDbLine
 10
28.07379893
 20
4.23583928
 30
0.0
 11
27.98495509
 21
4.51758462
 31
0.0
  0
LINE
  5
1071
330
762
100
AcDbEntity
  8
0
100
AcDbLine
 10
28.32014543
 20
4.2723302
 30
0.0
 11
28.60074019
 21
4.55292497
 31
0.0
  0
LINE
  5
1072
330
762
100
AcDbEntity
  8
0
100
AcDbLine
 10
28.6250822
 20
4.24952929
 30
0.0
 11
28.86602171
 21
4.49046881
 31
0.0
  0
LINE
  5
1073
330
762
100
AcDbEntity
  8
0
100
AcDbLine
 10
28.07379893
 20
4.23583928
 30
0.0
 11
28.07379893
 21
4.23583928
 31
0.0
  0
LINE
  5
1074
330
762
100
AcDbEntity
  8
0
100
AcDbLine
 10
28.07379893
 20
4.23583928
 30
0.0
 11
28.07379893
 21
4.23583928
 31
0.0
1001
HATCH_DISTANCE
1040
1.0
1001
HATCH_DISPLAY
1070
     0
1001
HATCH_TYPE
1070
     7
  0
LINE
  5
1075
330
762
100
AcDbEntity
  8
0
100
AcDbLine
 10
28.07379893
 20
4.23583928
 30
0.0
 11
28.07379893
 21
4.23583928
 31
0.0
  0
LINE
  5
1076
330
762
100
AcDbEntity
  8
0
100
AcDbLine
 10
28.07379893
 20
4.23583928
 30
0.0
 11
28.07379893
 21
4.23583928
 31
0.0
1001
HATCH_DISTANCE
1040
1.0
1001
HATCH_DISPLAY
1070
     0
1001
HATCH_TYPE
1070
     7
  0
LINE
  5
1077
330
762
100
AcDbEntity
  8
0
100
AcDbLine
 10
27.89723609
 20
4.17715855
 30
0.0
 11
27.92795124
 21
4.20787369
 31
0.0
  0
LINE
  5
1078
330
762
100
AcDbEntity
  8
0
100
AcDbLine
 10
27.17104053
 20
3.1232253
 30
0.0
 11
27.46605062
 21
3.4182354
 31
0.0
  0
LINE
  5
1079
330
762
100
AcDbEntity
  8
0
100
AcDbLine
 10
27.23704196
 20
2.86148905
 30
0.0
 11
27.79378831
 21
3.4182354
 31
0.0
  0
ARC
  5
107A
330
762
100
AcDbEntity
  8
0
100
AcDbCircle
 10
28.37982402
 20
3.01996954
 30
0.0
 40
1.253785267968747
100
AcDbArc
 50
110.8721834
 51
132.54194894
  0
ARC
  5
107B
330
762
100
AcDbEntity
  8
0
100
AcDbCircle
 10
27.22248184
 20
3.93449193
 30
0.0
 40
0.3097604570800781
100
AcDbArc
 50
1.71012138
 51
163.99839835
  0
LINE
  5
107C
330
762
100
AcDbEntity
  8
0
100
AcDbLine
 10
27.15116842
 20
3.4182354
 30
0.0
 11
28.01048223
 21
3.4182354
 31
0.0
  0
LINE
  5
107D
330
762
100
AcDbEntity
  8
0
100
AcDbLine
 10
27.06657911
 20
3.1232253
 30
0.0
 11
27.15116842
 21
3.4182354
 31
0.0
  0
LINE
  5
107E
330
762
100
AcDbEntity
  8
0
100
AcDbLine
 10
27.06657911
 20
3.1232253
 30
0.0
 11
27.31209416
 21
3.1232253
 31
0.0
  0
LINE
  5
107F
330
762
100
AcDbEntity
  8
0
100
AcDbLine
 10
26.0538064
 20
3.64467957
 30
0.0
 11
26.973185
 21
4.56405818
 31
0.0
  0
LINE
  5
1080
330
762
100
AcDbEntity
  8
0
100
AcDbLine
 10
25.94499984
 20
3.20813533
 30
0.0
 11
27.28155309
 21
4.54468858
 31
0.0
  0
LINE
  5
1081
330
762
100
AcDbEntity
  8
0
100
AcDbLine
 10
25.89856111
 20
2.83395893
 30
0.0
 11
26.86049108
 21
3.7958889
 31
0.0
  0
LINE
  5
1082
330
762
100
AcDbEntity
  8
0
100
AcDbLine
 10
25.95069928
 20
2.55835942
 30
0.0
 11
26.72873164
 21
3.33639178
 31
0.0
  0
LINE
  5
1083
330
762
100
AcDbEntity
  8
0
100
AcDbLine
 10
26.64142314
 20
1.93813256
 30
0.0
 11
26.98776983
 21
2.28447924
 31
0.0
  0
LINE
  5
1084
330
762
100
AcDbEntity
  8
0
100
AcDbLine
 10
26.5271343
 20
2.63334237
 30
0.0
 11
26.92472078
 21
4.01988315
 31
0.0
  0
ARC
  5
1085
330
762
100
AcDbEntity
  8
0
100
AcDbCircle
 10
26.82489536
 20
2.54796229
 30
0.0
 40
0.3097602395507813
100
AcDbArc
 50
164.00027306
 51
344.00027306
  0
LINE
  5
1086
330
762
100
AcDbEntity
  8
0
100
AcDbLine
 10
26.50220558
 20
1.47117731
 30
0.0
 11
26.79721566
 21
1.76618741
 31
0.0
  0
LINE
  5
1087
330
762
100
AcDbEntity
  8
240
100
AcDbLine
 10
100.0
 20
-7.0
 30
0.0
 11
100.0
 21
0.0
 31
0.0
  0
LINE
  5
1088
330
762
100
AcDbEntity
  8
241
100
AcDbLine
 10
84.2
 20
-8.0
 30
0.0
 11
84.2
 21
0.0
 31
0.0
  0
LINE
  5
1089
330
762
100
AcDbEntity
  8
241
100
AcDbLine
 10
83.0
 20
-8.15
 30
0.0
 11
83.0
 21
0.0
 31
0.0
  0
LINE
  5
108A
330
762
100
AcDbEntity
  8
241
100
AcDbLine
 10
81.0
 20
-6.2
 30
0.0
 11
81.0
 21
0.0
 31
0.0
  0
LINE
  5
108B
330
762
100
AcDbEntity
  8
241
100
AcDbLine
 10
80.0
 20
-6.2
 30
0.0
 11
80.0
 21
0.0
 31
0.0
  0
LINE
  5
108C
330
762
100
AcDbEntity
  8
240
100
AcDbLine
 10
83.15
 20
-8.0
 30
0.0
 11
99.0
 21
-8.0
 31
0.0
  0
LINE
  5
108D
330
762
100
AcDbEntity
  8
240
100
AcDbLine
 10
81.0
 20
-6.2
 30
0.0
 11
81.0
 21
-8.15
 31
0.0
  0
LINE
  5
108E
330
762
100
AcDbEntity
  8
240
100
AcDbLine
 10
80.0
 20
-6.2
 30
0.0
 11
80.0
 21
-8.0
 31
0.0
  0
LINE
  5
108F
330
762
100
AcDbEntity
  8
240
100
AcDbLine
 10
83.15
 20
-8.0
 30
0.0
 11
83.0
 21
-8.15
 31
0.0
  0
LINE
  5
1090
330
762
100
AcDbEntity
  8
240
100
AcDbLine
 10
81.0
 20
-8.15
 30
0.0
 11
83.0
 21
-8.15
 31
0.0
  0
LINE
  5
1091
330
762
100
AcDbEntity
  8
240
100
AcDbLine
 10
81.0
 20
-6.2
 30
0.0
 11
80.0
 21
-6.2
 31
0.0
  0
ARC
  5
1092
330
762
100
AcDbEntity
  8
240
100
AcDbCircle
 10
99.0
 20
-7.0
 30
0.0
 40
1.0
100
AcDbArc
 50
270.0
 51
0.0
1001
GENIUS_GENODEF_13
1002
{
1000
HIER
1070
     0
1002
}
1002
{
1000
MANEDIT
1070
     0
1002
}
1002
{
1000
NOSEL
1070
     0
1002
}
1002
{
1000
BEHIND
1070
     0
1002
}
1002
{
1000
OTHER
1070
     0
1002
}
1002
{
1000
REACTOR
1002
}
1001
GENIUS_GENOBJ-N-FIL_13
1002
{
1000
OWNER
1000
GEN
1002
}
  0
LINE
  5
1093
330
762
100
AcDbEntity
  8
240
100
AcDbLine
 10
83.15
 20
8.0
 30
0.0
 11
99.0
 21
8.0
 31
0.0
  0
LINE
  5
1094
330
762
100
AcDbEntity
  8
241
  6
HIDDEN2
100
AcDbLine
 10
87.0
 20
2.75
 30
0.0
 11
100.0
 21
2.75
 31
0.0
  0
LINE
  5
1095
330
762
100
AcDbEntity
  8
241
  6
HIDDEN2
100
AcDbLine
 10
82.0
 20
3.05
 30
0.0
 11
87.0
 21
3.05
 31
0.0
1001
GRPNAME
1000
0000002S
  0
LINE
  5
1096
330
762
100
AcDbEntity
  8
241
100
AcDbLine
 10
80.0
 20
6.2
 30
0.0
 11
80.0
 21
0.0
 31
0.0
  0
LINE
  5
1097
330
762
100
AcDbEntity
  8
241
100
AcDbLine
 10
81.0
 20
6.2
 30
0.0
 11
81.0
 21
0.0
 31
0.0
  0
LINE
  5
1098
330
762
100
AcDbEntity
  8
241
100
AcDbLine
 10
83.0
 20
8.15
 30
0.0
 11
83.0
 21
0.0
 31
0.0
  0
LINE
  5
1099
330
762
100
AcDbEntity
  8
241
100
AcDbLine
 10
84.2
 20
8.0
 30
0.0
 11
84.2
 21
0.0
 31
0.0
  0
LINE
  5
109A
330
762
100
AcDbEntity
  8
242
  6
HIDDEN2
100
AcDbLine
 10
78.0
 20
3.25269119
 30
0.0
 11
82.0
 21
0.0
 31
0.0
  0
LINE
  5
109B
330
762
100
AcDbEntity
  8
242
  6
HIDDEN2
100
AcDbLine
 10
78.0
 20
0.0
 30
0.0
 11
82.0
 21
3.25269119
 31
0.0
  0
LINE
  5
109C
330
762
100
AcDbEntity
  8
241
  6
HIDDEN2
100
AcDbLine
 10
78.0
 20
3.25269119
 30
0.0
 11
82.0
 21
3.25269119
 31
0.0
  0
LINE
  5
109D
330
762
100
AcDbEntity
  8
241
  6
HIDDEN2
100
AcDbLine
 10
78.0
 20
3.25269119
 30
0.0
 11
78.0
 21
0.0
 31
0.0
  0
LINE
  5
109E
330
762
100
AcDbEntity
  8
241
  6
HIDDEN2
100
AcDbLine
 10
82.0
 20
3.25269119
 30
0.0
 11
82.0
 21
0.0
 31
0.0
  0
LINE
  5
109F
330
762
100
AcDbEntity
  8
240
100
AcDbLine
 10
81.0
 20
6.2
 30
0.0
 11
80.0
 21
6.2
 31
0.0
  0
LINE
  5
10A0
330
762
100
AcDbEntity
  8
240
100
AcDbLine
 10
80.0
 20
6.2
 30
0.0
 11
80.0
 21
8.0
 31
0.0
  0
LINE
  5
10A1
330
762
100
AcDbEntity
  8
240
100
AcDbLine
 10
83.15
 20
8.0
 30
0.0
 11
83.0
 21
8.15
 31
0.0
  0
LINE
  5
10A2
330
762
100
AcDbEntity
  8
240
100
AcDbLine
 10
81.0
 20
6.2
 30
0.0
 11
81.0
 21
8.15
 31
0.0
  0
LINE
  5
10A3
330
762
100
AcDbEntity
  8
240
100
AcDbLine
 10
81.0
 20
8.15
 30
0.0
 11
83.0
 21
8.15
 31
0.0
  0
LINE
  5
10A4
330
762
100
AcDbEntity
  8
240
100
AcDbLine
 10
81.5
 20
8.15
 30
0.0
 11
83.0
 21
8.15
 31
0.0
  0
LINE
  5
10A5
330
762
100
AcDbEntity
  8
241
  6
HIDDEN2
100
AcDbLine
 10
87.0
 20
3.05
 30
0.0
 11
87.0
 21
0.0
 31
0.0
  0
LINE
  5
10A6
330
762
100
AcDbEntity
  8
240
100
AcDbLine
 10
100.0
 20
7.0
 30
0.0
 11
100.0
 21
0.0
 31
0.0
  0
ARC
  5
10A7
330
762
100
AcDbEntity
  8
240
100
AcDbCircle
 10
99.0
 20
7.0
 30
0.0
 40
1.0
100
AcDbArc
 50
359.9999824
 51
90.0
1001
GENIUS_GENODEF_13
1002
{
1000
HIER
1070
     0
1002
}
1002
{
1000
MANEDIT
1070
     0
1002
}
1002
{
1000
NOSEL
1070
     0
1002
}
1002
{
1000
BEHIND
1070
     0
1002
}
1002
{
1000
OTHER
1070
     0
1002
}
1002
{
1000
REACTOR
1002
}
1001
GENIUS_GENOBJ-N-FIL_13
1002
{
1000
OWNER
1000
GEN
1002
}
  0
ENDBLK
  5
8A0
330
762
100
AcDbEntity
  8
0
100
AcDbBlockEnd
  0
BLOCK
  5
8F0
330
8E6
100
AcDbEntity
  8
0
100
AcDbBlockBegin
  2
*D3
 70
     1
 10
0.0
 20
0.0
 30
0.0
  3
*D3
  1

  0
LINE
  5
BC1
330
8E6
100
AcDbEntity
  8
250
  6
CONTINUOUS
100
AcDbLine
 10
0.0
 20
11.14125603
 30
0.0
 11
0.0
 21
22.0
 31
0.0
  0
LINE
  5
BC2
330
8E6
100
AcDbEntity
  8
250
  6
CONTINUOUS
100
AcDbLine
 10
100.0
 20
7.5
 30
0.0
 11
100.0
 21
22.0
 31
0.0
  0
LINE
  5
BC3
330
8E6
100
AcDbEntity
  8
250
  6
CONTINUOUS
100
AcDbLine
 10
2.23
 20
21.0
 30
0.0
 11
97.77
 21
21.0
 31
0.0
  0
INSERT
  5
BC4
330
8E6
100
AcDbEntity
  8
250
  6
CONTINUOUS
100
AcDbBlockReference
  2
_OPEN
 10
0.0
 20
21.0
 30
0.0
 41
2.23
 42
2.23
 43
2.23
 50
180.0
  0
INSERT
  5
BC5
330
8E6
100
AcDbEntity
  8
250
  6
CONTINUOUS
100
AcDbBlockReference
  2
_OPEN
 10
100.0
 20
21.0
 30
0.0
 41
2.23
 42
2.23
 43
2.23
  0
MTEXT
  5
BC6
330
8E6
100
AcDbEntity
  8
250
  6
CONTINUOUS
 62
    40
100
AcDbMText
 10
49.8160488
 20
23.4
 30
0.0
 40
2.8
 41
0.0
 71
     5
 72
     1
  1
\A1;100
1001
ACAD
1000
MTEXTBEGIN
1070
    73
1070
     1
1070
    44
1040
1.0
1070
    74
1070
     0
1000
MTEXTEND
1000
MTEXTBEGIN
1070
    73
1070
     1
1070
    44
1040
1.0
1070
    74
1070
     0
1000
MTEXTEND
  0
POINT
  5
BC7
330
8E6
100
AcDbEntity
  8
DEFPOINTS
  6
CONTINUOUS
 62
     0
100
AcDbPoint
 10
0.0
 20
10.64125603
 30
0.0
  0
POINT
  5
BC8
330
8E6
100
AcDbEntity
  8
DEFPOINTS
  6
CONTINUOUS
 62
     0
100
AcDbPoint
 10
100.0
 20
7.0
 30
0.0
  0
POINT
  5
BC9
330
8E6
100
AcDbEntity
  8
DEFPOINTS
  6
CONTINUOUS
 62
     0
100
AcDbPoint
 10
100.0
 20
21.0
 30
0.0
  0
ENDBLK
  5
8F1
330
8E6
100
AcDbEntity
  8
0
100
AcDbBlockEnd
  0
BLOCK
  5
BB6
330
BAC
100
AcDbEntity
  8
0
100
AcDbBlockBegin
  2
*D4
 70
     1
 10
0.0
 20
0.0
 30
0.0
  3
*D4
  1

  0
LINE
  5
BCA
330
BAC
100
AcDbEntity
  8
250
  6
CONTINUOUS
100
AcDbLine
 10
99.5
 20
-8.0
 30
0.0
 11
118.0
 21
-8.0
 31
0.0
  0
LINE
  5
BCB
330
BAC
100
AcDbEntity
  8
250
  6
CONTINUOUS
100
AcDbLine
 10
99.5
 20
8.0
 30
0.0
 11
118.0
 21
8.0
 31
0.0
  0
LINE
  5
BCC
330
BAC
100
AcDbEntity
  8
250
  6
CONTINUOUS
100
AcDbLine
 10
117.0
 20
-5.77
 30
0.0
 11
117.0
 21
5.77
 31
0.0
  0
INSERT
  5
BCD
330
BAC
100
AcDbEntity
  8
250
  6
CONTINUOUS
100
AcDbBlockReference
  2
_OPEN
 10
117.0
 20
-8.0
 30
0.0
 41
2.23
 42
2.23
 43
2.23
 50
270.0
  0
INSERT
  5
BCE
330
BAC
100
AcDbEntity
  8
250
  6
CONTINUOUS
100
AcDbBlockReference
  2
_OPEN
 10
117.0
 20
8.0
 30
0.0
 41
2.23
 42
2.23
 43
2.23
 50
90.0
  0
MTEXT
  5
BCF
330
BAC
100
AcDbEntity
  8
250
  6
CONTINUOUS
 62
    40
100
AcDbMText
 10
114.6
 20
0.0
 30
0.0
 40
2.8
 41
0.0
 71
     5
 72
     1
  1
\A1;{\H2.8;\U+2205}16
 11
0.0
 21
1.0
 31
0.0
1001
ACAD
1000
MTEXTBEGIN
1070
    73
1070
     1
1070
    44
1040
1.0
1070
    74
1070
     0
1000
MTEXTEND
1000
MTEXTBEGIN
1070
    73
1070
     1
1070
    44
1040
1.0
1070
    74
1070
     0
1000
MTEXTEND
  0
POINT
  5
BD0
330
BAC
100
AcDbEntity
  8
DEFPOINTS
  6
CONTINUOUS
 62
     0
100
AcDbPoint
 10
99.0
 20
-8.0
 30
0.0
  0
POINT
  5
BD1
330
BAC
100
AcDbEntity
  8
DEFPOINTS
  6
CONTINUOUS
 62
     0
100
AcDbPoint
 10
99.0
 20
8.0
 30
0.0
  0
POINT
  5
BD2
330
BAC
100
AcDbEntity
  8
DEFPOINTS
  6
CONTINUOUS
 62
     0
100
AcDbPoint
 10
117.0
 20
8.0
 30
0.0
  0
ENDBLK
  5
BB7
330
BAC
100
AcDbEntity
  8
0
100
AcDbBlockEnd
  0
ENDSEC
  0
SECTION
  2
ENTITIES
  0
INSERT
  5
6E6
330
1A
100
AcDbEntity
  8
245
100
AcDbBlockReference
  2
矢印なし
 10
175.62382697
 20
90.55123572
 30
0.0
  0
DIMENSION
  5
8D1
330
1A
100
AcDbEntity
  8
250
  6
CONTINUOUS
100
AcDbDimension
  2
*D3
 10
100.0
 20
21.0
 30
0.0
 11
49.8160488
 21
21.0
 31
0.0
 70
   160
  3
BIGT
100
AcDbAlignedDimension
 13
0.0
 23
10.64125603
 33
0.0
 14
100.0
 24
7.0
 34
0.0
100
AcDbRotatedDimension
  0
TEXT
  5
AFE
330
1A
100
AcDbEntity
  8
241
100
AcDbText
 10
-47.5
 20
35.0
 30
0.0
 40
5.0
  1
MGT6-M5-100
  7
YOKO
 11
-47.5
 21
35.0
 31
0.0
100
AcDbText
 73
     1
  0
LINE
  5
B9C
330
1A
100
AcDbEntity
  8
250
  6
CONTINUOUS
100
AcDbLine
 10
84.0
 20
13.97872065
 30
0.0
 11
98.85333333
 21
13.97872065
 31
0.0
1001
ITEMNAME
1000
LNSP2
  0
MTEXT
  5
B9D
330
1A
100
AcDbEntity
  8
251
  6
CONTINUOUS
100
AcDbMText
 10
86.8
 20
14.97872065
 30
0.0
 40
2.8
 41
0.0
 71
     7
 72
     1
  1
□4.5
  7
YOKO
1001
ITEMNAME
1000
LNSP3
1001
ACAD
1000
MTEXTBEGIN
1070
    73
1070
     1
1070
    44
1040
1.0
1070
    74
1070
     0
1000
MTEXTEND
1000
MTEXTBEGIN
1070
    73
1070
     1
1070
    44
1040
1.0
1070
    74
1070
     0
1000
MTEXTEND
1000
MTEXTBEGIN
1070
    73
1070
     1
1070
    44
1040
1.0
1070
    74
1070
     0
1000
MTEXTEND
1000
MTEXTBEGIN
1070
    73
1070
     1
1070
    44
1040
1.0
1070
    74
1070
     0
1000
MTEXTEND
  0
LEADER
  5
B9E
330
1A
100
AcDbEntity
  8
250
  6
CONTINUOUS
100
AcDbLeader
  3
BIGT
 76
     2
 10
81.52207662
 20
3.25269119
 30
0.0
 10
84.0
 20
13.97872065
 30
0.0
1001
ACAD
1000
DSTYLE
1002
{
1070
     6
1000
OPEN
1070
    41
1040
2.0
1070
    42
1040
2.0
1070
    44
1040
2.0
1070
   140
1040
4.0
1070
   343
1005
594
1002
}
  0
DIMENSION
  5
BA7
330
1A
100
AcDbEntity
  8
250
  6
CONTINUOUS
100
AcDbDimension
  2
*D4
 10
117.0
 20
8.0
 30
0.0
 11
114.6
 21
0.0
 31
0.0
 70
    32
  1
{\H2.8;\U+2205}<>
  3
BIGT
100
AcDbAlignedDimension
 13
99.0
 23
-8.0
 33
0.0
 14
99.0
 24
8.0
 34
0.0
 50
90.0
100
AcDbRotatedDimension
  0
LINE
  5
BA8
330
1A
100
AcDbEntity
  8
250
  6
CONTINUOUS
100
AcDbLine
 10
110.0
 20
2.75
 30
0.0
 11
110.0
 21
-6.33758521
 31
0.0
  0
MTEXT
  5
BA9
330
1A
100
AcDbEntity
  8
250
  6
CONTINUOUS
 62
    40
100
AcDbMText
 10
107.6
 20
-2.54217991
 30
0.0
 40
2.8
 41
0.0
 71
     5
 72
     1
  1
\A1;{\H2.8;\U+2205}5.5
 11
0.0
 21
1.0
 31
0.0
1001
ACAD
1000
MTEXTBEGIN
1070
    73
1070
     1
1070
    44
1040
1.0
1070
    74
1070
     0
1000
MTEXTEND
1000
MTEXTBEGIN
1070
    73
1070
     1
1070
    44
1040
1.0
1070
    74
1070
     0
1000
MTEXTEND
1000
MTEXTBEGIN
1070
    73
1070
     1
1070
    44
1040
1.0
1070
    74
1070
     0
1000
MTEXTEND
1000
MTEXTBEGIN
1070
    73
1070
     1
1070
    44
1040
1.0
1070
    74
1070
     0
1000
MTEXTEND
1000
MTEXTBEGIN
1070
    73
1070
     1
1070
    44
1040
1.0
1070
    74
1070
     0
1000
MTEXTEND
1000
MTEXTBEGIN
1070
    73
1070
     1
1070
    44
1040
1.0
1070
    74
1070
     0
1000
MTEXTEND
  0
LINE
  5
BAA
330
1A
100
AcDbEntity
  8
250
  6
CONTINUOUS
100
AcDbLine
 10
100.5
 20
2.75
 30
0.0
 11
111.0
 21
2.75
 31
0.0
  0
INSERT
  5
BAB
330
1A
100
AcDbEntity
  8
250
  6
CONTINUOUS
100
AcDbBlockReference
  2
_OPEN
 10
110.0
 20
2.75
 30
0.0
 41
2.23
 42
2.23
 43
2.23
 50
90.0
  0
INSERT
  5
10A8
330
1A
100
AcDbEntity
  8
245
100
AcDbBlockReference
  2
1
 10
0.0
 20
0.0
 30
0.0
  0
VIEWPORT
  5
22
330
17
100
AcDbEntity
 67
     1
  8
0
100
AcDbViewport
 10
261.51769912
 20
148.5
 30
0.0
 40
523.03539823
 41
297.0
 68
     1
 69
     1
1001
ACAD
1000
MVIEW
1002
{
1070
    16
1010
0.0
1020
0.0
1030
0.0
1010
0.0
1020
0.0
1030
1.0
1040
0.0
1040
297.0
1040
261.51769912
1040
148.5
1040
50.0
1040
0.0
1040
0.0
1070
     0
1070
   100
1070
     1
1070
     1
1070
     0
1070
     0
1070
     0
1070
     0
1040
0.0
1040
0.0
1040
0.0
1040
1.0
1040
1.0
1040
10.0
1040
10.0
1070
     0
1002
{
1002
}
1002
}
  0
ENDSEC
  0
SECTION
  2
OBJECTS
  0
DICTIONARY
  5
C
330
0
100
AcDbDictionary
  3
ACAD_GROUP
350
D
  3
ACAD_LAYOUT
350
565
  3
ACAD_MLINESTYLE
350
E
  3
ACAD_PLOTSETTINGS
350
566
  3
ACAD_PLOTSTYLENAME
350
563
  3
ACDBHEADERROUNDTRIPXREC
350
10AA
  3
GRADE_DWG
350
540
  0
DICTIONARY
  5
D5B
330
1A
100
AcDbDictionary
280
     1
  3
ACAD_LAYOUTSELFREF
360
10CC
  0
DICTIONARY
  5
D59
330
17
100
AcDbDictionary
280
     1
  3
ACAD_LAYOUTSELFREF
360
10CB
  0
DICTIONARY
  5
D
102
{ACAD_REACTORS
330
C
102
}
330
C
100
AcDbDictionary
  3
*A1
350
6C7
  3
*A2
350
6C8
  3
*A3
350
6D4
  3
*A4
350
6D5
  3
DREC-1
350
5FC
  3
DREC-2
350
654
  3
DREC-3
350
673
  0
DICTIONARY
  5
565
102
{ACAD_REACTORS
330
C
102
}
330
C
100
AcDbDictionary
  0
DICTIONARY
  5
E
102
{ACAD_REACTORS
330
C
102
}
330
C
100
AcDbDictionary
  3
STANDARD
350
13
  0
DICTIONARY
  5
566
102
{ACAD_REACTORS
330
C
102
}
330
C
100
AcDbDictionary
  3
A3_0_5倍_
350
758
  3
A3_1倍_
350
757
  3
A3_1倍__2000_
350
707
  3
A3_2倍_
350
759
  3
A4_0_5倍_
350
755
  3
A4_1倍_
350
754
  3
A4_1倍__2000_
350
708
  3
A4_2倍_
350
756
  0
ACDBDICTIONARYWDFLT
  5
563
102
{ACAD_REACTORS
330
C
102
}
330
C
100
AcDbDictionary
281
     1
  3
Normal
350
564
100
AcDbDictionaryWithDefault
340
564
  0
DICTIONARY
  5
10AA
102
{ACAD_REACTORS
330
C
102
}
330
C
100
AcDbDictionary
  3
CEPSNTYPE
350
10B4
  3
DIMSTYLEDATA
350
10B8
  3
FINGERPRINTGUID
350
10B5
  3
HYPERLINKBASE
350
10AD
  3
INSUNITS
350
10B3
  3
LAYOUTDICT
350
10AF
  3
LWETCUNION
350
10B2
  3
PLOTSETDICT
350
10B0
  3
PLOTSTYLNAMDICT
350
10B1
  3
PSVPSCALE
350
10B7
  3
PUCSBASE
350
10BB
  3
PUCSORGBACK
350
10C1
  3
PUCSORGBOTTOM
350
10BD
  3
PUCSORGFRONT
350
10C0
  3
PUCSORGLEFT
350
10BE
  3
PUCSORGRIGHT
350
10BF
  3
PUCSORGTOP
350
10BC
  3
PUCSORTHOREF
350
10B9
  3
PUCSORTHOVIEW
350
10BA
  3
STYLESHEET
350
10AE
  3
TSTACKALIGN
350
10AB
  3
TSTACKSIZE
350
10AC
  3
UCSBASE
350
10C4
  3
UCSORGBACK
350
10CA
  3
UCSORGBOTTOM
350
10C6
  3
UCSORGFRONT
350
10C9
  3
UCSORGLEFT
350
10C7
  3
UCSORGRIGHT
350
10C8
  3
UCSORGTOP
350
10C5
  3
UCSORTHOREF
350
10C2
  3
UCSORTHOVIEW
350
10C3
  3
VERSIONGUID
350
10B6
  0
DICTIONARY
  5
540
102
{ACAD_REACTORS
330
C
102
}
330
C
100
AcDbDictionary
  3
VERSION
350
560
  0
XRECORD
  5
10CC
102
{ACAD_REACTORS
330
D5B
102
}
330
D5B
100
AcDbXrecord
340
1A
  0
XRECORD
  5
10CB
102
{ACAD_REACTORS
330
D59
102
}
330
D59
100
AcDbXrecord
340
17
  0
GROUP
  5
6C7
102
{ACAD_REACTORS
330
D
102
}
330
D
100
AcDbGroup
300

 70
     0
 71
     1
1001
GRPNAME
1000
DMA00
  0
GROUP
  5
6C8
102
{ACAD_REACTORS
330
D
102
}
330
D
100
AcDbGroup
300

 70
     0
 71
     1
1001
GRPNAME
1000
DMA00
  0
GROUP
  5
6D4
102
{ACAD_REACTORS
330
D
102
}
330
D
100
AcDbGroup
300

 70
     0
 71
     1
1001
GRPNAME
1000
DMA00
  0
GROUP
  5
6D5
102
{ACAD_REACTORS
330
D
102
}
330
D
100
AcDbGroup
300

 70
     0
 71
     1
1001
GRPNAME
1000
DMA00
  0
GROUP
  5
5FC
102
{ACAD_REACTORS
330
D
102
}
330
D
100
AcDbGroup
300

 70
     0
 71
     1
1001
GRPNAME
1000
DREC-
1001
GPARA
1000
xsiz
1000
44.182
1000
ysiz
1000
40.677
1000
angl
1000
0
1000
ctyp
1000
0
1000
csiz
1000
5
1000
lfnt
1000
cont
1000
hcnt
1000
hoff
1000
vcnt
1000
voff
1000
opnt
1000
4
1000
dxpt
1000
0
1000
dypt
1000
0
  0
GROUP
  5
654
102
{ACAD_REACTORS
330
D
102
}
330
D
100
AcDbGroup
300

 70
     0
 71
     1
1001
GRPNAME
1000
DREC-
1001
GPARA
1000
xsiz
1000
54.592
1000
ysiz
1000
53.036
1000
angl
1000
0
1000
ctyp
1000
0
1000
csiz
1000
5
1000
lfnt
1000
cont
1000
hcnt
1000
hoff
1000
vcnt
1000
voff
1000
opnt
1000
4
1000
dxpt
1000
0
1000
dypt
1000
0
  0
GROUP
  5
673
102
{ACAD_REACTORS
330
D
102
}
330
D
100
AcDbGroup
300

 70
     0
 71
     1
1001
GRPNAME
1000
DREC-
1001
GPARA
1000
xsiz
1000
30.363
1000
ysiz
1000
36.175
1000
angl
1000
0
1000
ctyp
1000
0
1000
csiz
1000
5
1000
lfnt
1000
cont
1000
hcnt
1000
hoff
1000
vcnt
1000
voff
1000
opnt
1000
4
1000
dxpt
1000
0
1000
dypt
1000
0
  0
MLINESTYLE
  5
13
102
{ACAD_REACTORS
330
E
102
}
330
E
100
AcDbMlineStyle
  2
STANDARD
 70
     0
  3

 62
     0
 51
90.0
 52
90.0
 71
     2
 49
0.5
 62
   256
  6
BYLAYER
 49
-0.5
 62
   256
  6
BYLAYER
  0
PLOTSETTINGS
  5
758
102
{ACAD_REACTORS
330
566
102
}
330
566
100
AcDbPlotSettings
  1
A3(0.5倍)
  2
\\AWTECPC05\HP DeskJet 1120C
  4
A3
  6

 40
5.95841646
 41
13.49375153
 42
6.04309082
 43
3.67242432
 44
296.92599487
 45
419.94665527
 46
89.96
 47
127.14
 48
0.0
 49
0.0
140
0.0
141
0.0
142
1.0
143
2.0
 70
  1716
 72
     1
 73
     1
 74
     2
  7
big.ctb
 75
    17
147
0.5
148
0.0
149
0.0
  0
PLOTSETTINGS
  5
757
102
{ACAD_REACTORS
330
566
102
}
330
566
100
AcDbPlotSettings
  1
A3(1倍)
  2
\\AWTECPC05\HP DeskJet 1120C
  4
A3
  6

 40
5.95841646
 41
13.49375153
 42
6.04309082
 43
3.67242432
 44
296.92599487
 45
419.94665527
 46
37.46
 47
52.89
 48
0.0
 49
0.0
140
0.0
141
0.0
142
1.0
143
1.0
 70
  1716
 72
     1
 73
     1
 74
     2
  7
big.ctb
 75
    16
147
1.0
148
0.0
149
0.0
  0
PLOTSETTINGS
  5
707
102
{ACAD_REACTORS
330
566
102
}
330
566
100
AcDbPlotSettings
  1
A3(1倍)(2000)
  2
SII LS-1300 (D-SCAN)
  4
User258
  6

 40
3.17499995
 41
3.17499995
 42
3.17498779
 43
3.17498779
 44
419.98898315
 45
296.98950195
 46
58.32
 47
40.32
 48
0.0
 49
0.0
140
0.0
141
0.0
142
1.0
143
1.0
 70
  1716
 72
     1
 73
     0
 74
     2
  7
big.ctb
 75
    16
147
1.0
148
0.0
149
0.0
  0
PLOTSETTINGS
  5
759
102
{ACAD_REACTORS
330
566
102
}
330
566
100
AcDbPlotSettings
  1
A3(2倍)
  2
\\AWTECPC05\HP DeskJet 1120C
  4
A3
  6

 40
5.95841646
 41
13.49375153
 42
6.04309082
 43
3.67242432
 44
296.92599487
 45
419.94665527
 46
-67.54
 47
-95.61
 48
0.0
 49
0.0
140
0.0
141
0.0
142
1.0
143
0.5
 70
  1716
 72
     1
 73
     1
 74
     2
  7
big.ctb
 75
    27
147
2.0
148
0.0
149
0.0
  0
PLOTSETTINGS
  5
755
102
{ACAD_REACTORS
330
566
102
}
330
566
100
AcDbPlotSettings
  1
A4(0.5倍)
  2
\\AWTECPC05\HP DeskJet 1120C
  4
A4
  6

 40
4.18041658
 41
13.49374962
 42
4.18040466
 43
3.92642212
 44
209.97332764
 45
296.92599487
 46
48.31
 47
65.5
 48
0.0
 49
0.0
140
0.0
141
0.0
142
1.0
143
2.0
 70
  1716
 72
     1
 73
     1
 74
     2
  7
big.ctb
 75
    17
147
0.5
148
0.0
149
0.0
  0
PLOTSETTINGS
  5
754
102
{ACAD_REACTORS
330
566
102
}
330
566
100
AcDbPlotSettings
  1
A4(1倍)
  2
\\AWTECPC05\HP DeskJet 1120C
  4
A4
  6

 40
4.18041658
 41
13.49374962
 42
4.18040466
 43
3.92642212
 44
209.97332764
 45
296.92599487
 46
-4.19
 47
-8.75
 48
0.0
 49
0.0
140
0.0
141
0.0
142
1.0
143
1.0
 70
  1716
 72
     1
 73
     1
 74
     2
  7
big.ctb
 75
    16
147
1.0
148
0.0
149
0.0
  0
PLOTSETTINGS
  5
708
102
{ACAD_REACTORS
330
566
102
}
330
566
100
AcDbPlotSettings
  1
A4(1倍)(2000)
  2
SII LS-1300 (D-SCAN)
  4
User259
  6

 40
3.17499995
 41
3.17499995
 42
3.17498779
 43
3.17500305
 44
296.98950195
 45
209.99449158
 46
-3.18
 47
-3.18
 48
0.0
 49
0.0
140
0.0
141
0.0
142
1.0
143
1.0
 70
  1716
 72
     1
 73
     0
 74
     2
  7
big.ctb
 75
    16
147
1.0
148
0.0
149
0.0
  0
PLOTSETTINGS
  5
756
102
{ACAD_REACTORS
330
566
102
}
330
566
100
AcDbPlotSettings
  1
A4(2倍)
  2
\\AWTECPC05\HP DeskJet 1120C
  4
A4
  6

 40
4.18041658
 41
13.49374962
 42
4.18040466
 43
3.92642212
 44
209.97332764
 45
296.92599487
 46
-109.19
 47
-157.25
 48
0.0
 49
0.0
140
0.0
141
0.0
142
1.0
143
0.5
 70
  1716
 72
     1
 73
     1
 74
     2
  7
big.ctb
 75
    27
147
2.0
148
0.0
149
0.0
  0
ACDBPLACEHOLDER
  5
564
102
{ACAD_REACTORS
330
563
102
}
330
563
100
AcDbPlaceHolder
280
     0
  0
XRECORD
  5
10B4
102
{ACAD_REACTORS
330
10AA
102
}
330
10AA
100
AcDbXrecord
 90
        0
  0
XRECORD
  5
10B8
102
{ACAD_REACTORS
330
10AA
102
}
330
10AA
100
AcDbXrecord
1000
DSTYLE
1002
{
1070
    79
 70
     2
1070
   179
 70
     3
1070
   341
340
594
1070
   343
340
594
1070
   344
340
594
1070
   371
 70
    -1
1070
   372
 70
    -1
1002
}
  0
XRECORD
  5
10B5
102
{ACAD_REACTORS
330
10AA
102
}
330
10AA
100
AcDbXrecord
  1
{51294030-9CB4-11D3-8E18-00A0C925D94D}
  0
XRECORD
  5
10AD
102
{ACAD_REACTORS
330
10AA
102
}
330
10AA
100
AcDbXrecord
  1

  0
XRECORD
  5
10B3
102
{ACAD_REACTORS
330
10AA
102
}
330
10AA
100
AcDbXrecord
 90
        0
  0
XRECORD
  5
10AF
102
{ACAD_REACTORS
330
10AA
102
}
330
10AA
100
AcDbXrecord
340
565
  0
XRECORD
  5
10B2
102
{ACAD_REACTORS
330
10AA
102
}
330
10AA
100
AcDbXrecord
 90
    10781
  0
XRECORD
  5
10B0
102
{ACAD_REACTORS
330
10AA
102
}
330
10AA
100
AcDbXrecord
340
566
  0
XRECORD
  5
10B1
102
{ACAD_REACTORS
330
10AA
102
}
330
10AA
100
AcDbXrecord
340
563
  0
XRECORD
  5
10B7
102
{ACAD_REACTORS
330
10AA
102
}
330
10AA
100
AcDbXrecord
 40
0.0
  0
XRECORD
  5
10BB
102
{ACAD_REACTORS
330
10AA
102
}
330
10AA
100
AcDbXrecord
340
0
  0
XRECORD
  5
10C1
102
{ACAD_REACTORS
330
10AA
102
}
330
10AA
100
AcDbXrecord
 10
0.0
 20
0.0
 30
0.0
  0
XRECORD
  5
10BD
102
{ACAD_REACTORS
330
10AA
102
}
330
10AA
100
AcDbXrecord
 10
0.0
 20
0.0
 30
0.0
  0
XRECORD
  5
10C0
102
{ACAD_REACTORS
330
10AA
102
}
330
10AA
100
AcDbXrecord
 10
0.0
 20
0.0
 30
0.0
  0
XRECORD
  5
10BE
102
{ACAD_REACTORS
330
10AA
102
}
330
10AA
100
AcDbXrecord
 10
0.0
 20
0.0
 30
0.0
  0
XRECORD
  5
10BF
102
{ACAD_REACTORS
330
10AA
102
}
330
10AA
100
AcDbXrecord
 10
0.0
 20
0.0
 30
0.0
  0
XRECORD
  5
10BC
102
{ACAD_REACTORS
330
10AA
102
}
330
10AA
100
AcDbXrecord
 10
0.0
 20
0.0
 30
0.0
  0
XRECORD
  5
10B9
102
{ACAD_REACTORS
330
10AA
102
}
330
10AA
100
AcDbXrecord
340
0
  0
XRECORD
  5
10BA
102
{ACAD_REACTORS
330
10AA
102
}
330
10AA
100
AcDbXrecord
 70
     0
  0
XRECORD
  5
10AE
102
{ACAD_REACTORS
330
10AA
102
}
330
10AA
100
AcDbXrecord
  1
big.ctb
  0
XRECORD
  5
10AB
102
{ACAD_REACTORS
330
10AA
102
}
330
10AA
100
AcDbXrecord
 90
        1
  0
XRECORD
  5
10AC
102
{ACAD_REACTORS
330
10AA
102
}
330
10AA
100
AcDbXrecord
 90
       70
  0
XRECORD
  5
10C4
102
{ACAD_REACTORS
330
10AA
102
}
330
10AA
100
AcDbXrecord
340
0
  0
XRECORD
  5
10CA
102
{ACAD_REACTORS
330
10AA
102
}
330
10AA
100
AcDbXrecord
 10
0.0
 20
0.0
 30
0.0
  0
XRECORD
  5
10C6
102
{ACAD_REACTORS
330
10AA
102
}
330
10AA
100
AcDbXrecord
 10
0.0
 20
0.0
 30
0.0
  0
XRECORD
  5
10C9
102
{ACAD_REACTORS
330
10AA
102
}
330
10AA
100
AcDbXrecord
 10
0.0
 20
0.0
 30
0.0
  0
XRECORD
  5
10C7
102
{ACAD_REACTORS
330
10AA
102
}
330
10AA
100
AcDbXrecord
 10
0.0
 20
0.0
 30
0.0
  0
XRECORD
  5
10C8
102
{ACAD_REACTORS
330
10AA
102
}
330
10AA
100
AcDbXrecord
 10
0.0
 20
0.0
 30
0.0
  0
XRECORD
  5
10C5
102
{ACAD_REACTORS
330
10AA
102
}
330
10AA
100
AcDbXrecord
 10
0.0
 20
0.0
 30
0.0
  0
XRECORD
  5
10C2
102
{ACAD_REACTORS
330
10AA
102
}
330
10AA
100
AcDbXrecord
340
0
  0
XRECORD
  5
10C3
102
{ACAD_REACTORS
330
10AA
102
}
330
10AA
100
AcDbXrecord
 70
     0
  0
XRECORD
  5
10B6
102
{ACAD_REACTORS
330
10AA
102
}
330
10AA
100
AcDbXrecord
  1
{B206DFA1-9A11-4364-8A33-6F127E8D35EF}
  0
XRECORD
  5
560
102
{ACAD_REACTORS
330
540
102
}
330
540
100
AcDbXrecord
  1
2.0.0
  0
ENDSEC
  0
EOF
