  0
SECTION
  2
HEADER
  9
$ACADVER
  1
AC1014
  9
$ACADMAINTVER
 70
     9
  9
$DWGCODEPAGE
  3
ANSI_932
  9
$INSBASE
 10
0.0
 20
0.0
 30
0.0
  9
$EXTMIN
 10
-48.51429639
 20
-11.07006072
 30
-0.00152582
  9
$EXTMAX
 10
88.27689432
 20
40.00231253
 30
0.00000003
  9
$LIMMIN
 10
0.0
 20
0.0
  9
$LIMMAX
 10
420.0
 20
297.0
  9
$ORTHOMODE
 70
     1
  9
$REGENMODE
 70
     1
  9
$FILLMODE
 70
     1
  9
$QTEXTMODE
 70
     0
  9
$MIRRTEXT
 70
     1
  9
$DRAGMODE
 70
     2
  9
$LTSCALE
 40
10.0
  9
$OSMODE
 70
   549
  9
$ATTMODE
 70
     1
  9
$TEXTSIZE
 40
3.0
  9
$TRACEWID
 40
1.0
  9
$TEXTSTYLE
  7
YOKO
  9
$CLAYER
  8
245
  9
$CELTYPE
  6
BYLAYER
  9
$CECOLOR
 62
   256
  9
$CELTSCALE
 40
1.0
  9
$DELOBJ
 70
     1
  9
$DISPSILH
 70
     0
  9
$DIMSCALE
 40
1.0
  9
$DIMASZ
 40
2.0
  9
$DIMEXO
 40
2.0
  9
$DIMDLI
 40
2.5
  9
$DIMRND
 40
0.0
  9
$DIMDLE
 40
0.0
  9
$DIMEXE
 40
2.0
  9
$DIMTP
 40
0.0
  9
$DIMTM
 40
0.0
  9
$DIMTXT
 40
4.0
  9
$DIMCEN
 40
0.0
  9
$DIMTSZ
 40
0.0
  9
$DIMTOL
 70
     0
  9
$DIMLIM
 70
     0
  9
$DIMTIH
 70
     0
  9
$DIMTOH
 70
     0
  9
$DIMSE1
 70
     0
  9
$DIMSE2
 70
     0
  9
$DIMTAD
 70
     3
  9
$DIMZIN
 70
     8
  9
$DIMBLK
  1

  9
$DIMASO
 70
     1
  9
$DIMSHO
 70
     1
  9
$DIMPOST
  1

  9
$DIMAPOST
  1

  9
$DIMALT
 70
     0
  9
$DIMALTD
 70
     2
  9
$DIMALTF
 40
25.4
  9
$DIMLFAC
 40
1.0
  9
$DIMTOFL
 70
     1
  9
$DIMTVP
 40
0.0
  9
$DIMTIX
 70
     1
  9
$DIMSOXD
 70
     0
  9
$DIMSAH
 70
     1
  9
$DIMBLK1
  1
OPEN
  9
$DIMBLK2
  1
OPEN
  9
$DIMSTYLE
  2
BIGT
  9
$DIMCLRD
 70
   256
  9
$DIMCLRE
 70
   256
  9
$DIMCLRT
 70
    40
  9
$DIMTFAC
 40
1.0
  9
$DIMGAP
 40
1.0
  9
$DIMJUST
 70
     0
  9
$DIMSD1
 70
     0
  9
$DIMSD2
 70
     0
  9
$DIMTOLJ
 70
     1
  9
$DIMTZIN
 70
     8
  9
$DIMALTZ
 70
     0
  9
$DIMALTTZ
 70
     0
  9
$DIMFIT
 70
     3
  9
$DIMUPT
 70
     0
  9
$DIMUNIT
 70
     2
  9
$DIMDEC
 70
     3
  9
$DIMTDEC
 70
     3
  9
$DIMALTU
 70
     2
  9
$DIMALTTD
 70
     2
  9
$DIMTXSTY
  7
STANDARD
  9
$DIMAUNIT
 70
     0
  9
$LUNITS
 70
     2
  9
$LUPREC
 70
     3
  9
$SKETCHINC
 40
1.0
  9
$FILLETRAD
 40
0.0
  9
$AUNITS
 70
     0
  9
$AUPREC
 70
     3
  9
$MENU
  1
.
  9
$ELEVATION
 40
0.0
  9
$PELEVATION
 40
0.0
  9
$THICKNESS
 40
0.0
  9
$LIMCHECK
 70
     0
  9
$BLIPMODE
 70
     0
  9
$CHAMFERA
 40
10.0
  9
$CHAMFERB
 40
10.0
  9
$CHAMFERC
 40
0.0
  9
$CHAMFERD
 40
0.0
  9
$SKPOLY
 70
     0
  9
$TDCREATE
 40
2455128.447924618
  9
$TDUPDATE
 40
2455316.427035949
  9
$TDINDWG
 40
0.0030298727
  9
$TDUSRTIMER
 40
0.0030298727
  9
$USRTIMER
 70
     1
  9
$ANGBASE
 50
0.0
  9
$ANGDIR
 70
     0
  9
$PDMODE
 70
     1
  9
$PDSIZE
 40
-5.0
  9
$PLINEWID
 40
0.0
  9
$COORDS
 70
     0
  9
$SPLFRAME
 70
     0
  9
$SPLINETYPE
 70
     6
  9
$SPLINESEGS
 70
     8
  9
$ATTDIA
 70
     0
  9
$ATTREQ
 70
     1
  9
$HANDLING
 70
-16383
  9
$HANDSEED
  5
11E8
  9
$SURFTAB1
 70
     6
  9
$SURFTAB2
 70
     6
  9
$SURFTYPE
 70
     6
  9
$SURFU
 70
     6
  9
$SURFV
 70
     6
  9
$UCSNAME
  2

  9
$UCSORG
 10
0.0
 20
0.0
 30
0.0
  9
$UCSXDIR
 10
1.0
 20
0.0
 30
0.0
  9
$UCSYDIR
 10
0.0
 20
1.0
 30
0.0
  9
$PUCSNAME
  2

  9
$PUCSORG
 10
0.0
 20
0.0
 30
0.0
  9
$PUCSXDIR
 10
1.0
 20
0.0
 30
0.0
  9
$PUCSYDIR
 10
0.0
 20
1.0
 30
0.0
  9
$USERI1
 70
     1
  9
$USERI2
 70
     0
  9
$USERI3
 70
     0
  9
$USERI4
 70
     0
  9
$USERI5
 70
     0
  9
$USERR1
 40
0.0
  9
$USERR2
 40
0.0
  9
$USERR3
 40
0.0
  9
$USERR4
 40
0.0
  9
$USERR5
 40
0.0
  9
$WORLDVIEW
 70
     1
  9
$SHADEDGE
 70
     3
  9
$SHADEDIF
 70
    70
  9
$TILEMODE
 70
     1
  9
$MAXACTVP
 70
    16
  9
$PINSBASE
 10
0.0
 20
0.0
 30
0.0
  9
$PLIMCHECK
 70
     0
  9
$PEXTMIN
 10
1.00000000E+20
 20
1.00000000E+20
 30
1.00000000E+20
  9
$PEXTMAX
 10
-1.00000000E+20
 20
-1.00000000E+20
 30
-1.00000000E+20
  9
$PLIMMIN
 10
0.0
 20
0.0
  9
$PLIMMAX
 10
420.0
 20
297.0
  9
$UNITMODE
 70
     0
  9
$VISRETAIN
 70
     0
  9
$PLINEGEN
 70
     0
  9
$PSLTSCALE
 70
     1
  9
$TREEDEPTH
 70
  3020
  9
$PICKSTYLE
 70
     0
  9
$CMLSTYLE
  2
STANDARD
  9
$CMLJUST
 70
     0
  9
$CMLSCALE
 40
1.0
  9
$PROXYGRAPHICS
 70
     1
  9
$MEASUREMENT
 70
     1
  0
ENDSEC
  0
SECTION
  2
CLASSES
  0
CLASS
  1
XRECORD
  2
AcDbXrecord
  3
AutoCAD 2000
 90
        0
280
     0
281
     0
  0
CLASS
  1
ACDBDICTIONARYWDFLT
  2
AcDbDictionaryWithDefault
  3
AutoCAD 2000
 90
        0
280
     0
281
     0
  0
CLASS
  1
ACDBPLACEHOLDER
  2
AcDbPlaceHolder
  3
AutoCAD 2000
 90
        0
280
     0
281
     0
  0
CLASS
  1
LAYOUT
  2
AcDbLayout
  3
AutoCAD 2000
 90
        0
280
     0
281
     0
  0
CLASS
  1
PLOTSETTINGS
  2
AcDbPlotSettings
  3
AutoCAD 2000
 90
        0
280
     0
281
     0
  0
CLASS
  1
LONG_TRANSACTION
  2
AcDbLongTransaction
  3
AutoCAD 2000
 90
        0
280
     0
281
     0
  0
CLASS
  1
LWPOLYLINE
  2
AcDbPolyline
  3
AutoCAD 2000
 90
        0
280
     0
281
     1
  0
CLASS
  1
HATCH
  2
AcDbHatch
  3
AutoCAD 2000
 90
        0
280
     0
281
     1
  0
CLASS
  1
XRECORD
  2
AcDbXrecord
  3
AutoCAD 2000
 90
        0
280
     0
281
     0
  0
CLASS
  1
LONG_TRANSACTION
  2
AcDbLongTransaction
  3
AutoCAD 2000
 90
        0
280
     0
281
     0
  0
CLASS
  1
LWPOLYLINE
  2
AcDbPolyline
  3
AutoCAD 2000
 90
        0
280
     0
281
     1
  0
CLASS
  1
HATCH
  2
AcDbHatch
  3
AutoCAD 2000
 90
        0
280
     0
281
     1
  0
CLASS
  1
XRECORD
  2
AcDbXrecord
  3
AutoCAD 2000
 90
        0
280
     0
281
     0
  0
ENDSEC
  0
SECTION
  2
TABLES
  0
TABLE
  2
VPORT
  5
8
330
0
100
AcDbSymbolTable
 70
     2
  0
VPORT
  5
11C3
330
8
100
AcDbSymbolTableRecord
100
AcDbViewportTableRecord
  2
*ACTIVE
 70
     0
 10
0.0
 20
0.0
 11
1.0
 21
1.0
 12
19.88129896
 22
14.4661259
 13
0.0
 23
0.0
 14
7.0
 24
7.0
 15
7.0
 25
7.0
 16
0.0
 26
0.0
 36
1.0
 17
0.0
 27
0.0
 37
0.0
 40
96.04409615
 41
1.43184713
 42
50.0
 43
0.0
 44
0.0
 50
0.0
 51
0.0
 71
     0
 72
  2000
 73
     1
 74
     0
 75
     0
 76
     0
 77
     0
 78
     0
  0
ENDTAB
  0
TABLE
  2
LTYPE
  5
5
330
0
100
AcDbSymbolTable
 70
     3
  0
LTYPE
  5
14
330
5
100
AcDbSymbolTableRecord
100
AcDbLinetypeTableRecord
  2
BYBLOCK
 70
     0
  3

 72
    65
 73
     0
 40
0.0
  0
LTYPE
  5
15
330
5
100
AcDbSymbolTableRecord
100
AcDbLinetypeTableRecord
  2
BYLAYER
 70
     0
  3

 72
    65
 73
     0
 40
0.0
  0
LTYPE
  5
16
330
5
100
AcDbSymbolTableRecord
100
AcDbLinetypeTableRecord
  2
CONTINUOUS
 70
     0
  3
Solid line
 72
    65
 73
     0
 40
0.0
  0
LTYPE
  5
258
330
5
100
AcDbSymbolTableRecord
100
AcDbLinetypeTableRecord
  2
CENTER2
 70
     0
  3
___ _ ___ _ ___ _ ___ _ ___ _ ___ _ ___ _ ___ _
 72
    65
 73
     4
 40
1.125
 49
0.75
 74
     0
 49
-0.125
 74
     0
 49
0.125
 74
     0
 49
-0.125
 74
     0
  0
LTYPE
  5
25C
330
5
100
AcDbSymbolTableRecord
100
AcDbLinetypeTableRecord
  2
HIDDEN2
 70
     0
  3
_ _ _ _ _ _ _ _ _ _ _ _ _ _ _ _ _ _ _ _ _ _ _ _
 72
    65
 73
     2
 40
0.1875
 49
0.125
 74
     0
 49
-0.0625
 74
     0
  0
ENDTAB
  0
TABLE
  2
LAYER
  5
2
330
0
100
AcDbSymbolTable
 70
    11
  0
LAYER
  5
F
330
2
100
AcDbSymbolTableRecord
100
AcDbLayerTableRecord
  2
0
 70
     0
 62
     7
  6
CONTINUOUS
  0
LAYER
  5
1AA
330
2
100
AcDbSymbolTableRecord
100
AcDbLayerTableRecord
  2
240
 70
     0
 62
     4
  6
CONTINUOUS
  0
LAYER
  5
1AB
330
2
100
AcDbSymbolTableRecord
100
AcDbLayerTableRecord
  2
241
 70
     0
 62
   211
  6
CONTINUOUS
  0
LAYER
  5
1AD
330
2
100
AcDbSymbolTableRecord
100
AcDbLayerTableRecord
  2
243
 70
     0
 62
   211
  6
HIDDEN2
  0
LAYER
  5
1AE
330
2
100
AcDbSymbolTableRecord
100
AcDbLayerTableRecord
  2
244
 70
     0
 62
     3
  6
HIDDEN2
  0
LAYER
  5
1AF
330
2
100
AcDbSymbolTableRecord
100
AcDbLayerTableRecord
  2
245
 70
     0
 62
     2
  6
CENTER2
  0
LAYER
  5
21E
330
2
100
AcDbSymbolTableRecord
100
AcDbLayerTableRecord
  2
250
 70
     0
 62
     3
  6
CONTINUOUS
  0
LAYER
  5
21F
330
2
100
AcDbSymbolTableRecord
100
AcDbLayerTableRecord
  2
251
 70
     0
 62
    40
  6
CONTINUOUS
  0
LAYER
  5
5C4
330
2
100
AcDbSymbolTableRecord
100
AcDbLayerTableRecord
  2
DEFPOINTS
 70
     0
 62
     7
  6
CONTINUOUS
  0
LAYER
  5
8B9
330
2
100
AcDbSymbolTableRecord
100
AcDbLayerTableRecord
  2
AM_7
 70
     0
 62
     2
  6
CENTER2
  0
ENDTAB
  0
TABLE
  2
STYLE
  5
3
330
0
100
AcDbSymbolTable
 70
     2
  0
STYLE
  5
10
330
3
100
AcDbSymbolTableRecord
100
AcDbTextStyleTableRecord
  2
STANDARD
 70
     0
 40
0.0
 41
1.0
 50
0.0
 71
     0
 42
3.0
  3
romans.shx
  4
BIGFONT.SHX
  0
STYLE
  5
339
330
3
100
AcDbSymbolTableRecord
100
AcDbTextStyleTableRecord
  2
YOKO
 70
     0
 40
0.0
 41
1.0
 50
0.0
 71
     0
 42
3.0
  3
romans.shx
  4
extfont.shx
  0
ENDTAB
  0
TABLE
  2
VIEW
  5
6
330
0
100
AcDbSymbolTable
 70
     1
  0
VIEW
  5
E55
330
6
100
AcDbSymbolTableRecord
100
AcDbViewTableRecord
  2
OLE1
 70
     0
 40
96.04621221
 10
19.87447411
 20
14.47723427
 41
137.52349367
 11
0.0
 21
0.0
 31
1.0
 12
0.0
 22
0.0
 32
0.0
 42
50.0
 43
0.0
 44
0.0
 50
0.0
 71
     0
  0
ENDTAB
  0
TABLE
  2
UCS
  5
7
330
0
100
AcDbSymbolTable
 70
     0
  0
ENDTAB
  0
TABLE
  2
APPID
  5
9
330
0
100
AcDbSymbolTable
 70
    15
  0
APPID
  5
11
330
9
100
AcDbSymbolTableRecord
100
AcDbRegAppTableRecord
  2
ACAD
 70
     0
  0
APPID
  5
1B1
330
9
100
AcDbSymbolTableRecord
100
AcDbRegAppTableRecord
  2
GLOBAL
 70
     0
  0
APPID
  5
2A4
330
9
100
AcDbSymbolTableRecord
100
AcDbRegAppTableRecord
  2
DETAIL
 70
     0
  0
APPID
  5
5FD
330
9
100
AcDbSymbolTableRecord
100
AcDbRegAppTableRecord
  2
GRPNAME
 70
     0
  0
APPID
  5
5FE
330
9
100
AcDbSymbolTableRecord
100
AcDbRegAppTableRecord
  2
GPARA
 70
     0
  0
APPID
  5
6C4
330
9
100
AcDbSymbolTableRecord
100
AcDbRegAppTableRecord
  2
DCO15
 70
     0
  0
APPID
  5
6C5
330
9
100
AcDbSymbolTableRecord
100
AcDbRegAppTableRecord
  2
ITEMNAME
 70
     0
  0
APPID
  5
6C6
330
9
100
AcDbSymbolTableRecord
100
AcDbRegAppTableRecord
  2
GRADE_0
 70
     0
  0
APPID
  5
8BA
330
9
100
AcDbSymbolTableRecord
100
AcDbRegAppTableRecord
  2
GENIUS_GENODEF_13
 70
     0
  0
APPID
  5
8BB
330
9
100
AcDbSymbolTableRecord
100
AcDbRegAppTableRecord
  2
GENIUS_GENOREF_13
 70
     0
  0
APPID
  5
8BC
330
9
100
AcDbSymbolTableRecord
100
AcDbRegAppTableRecord
  2
GENIUS_GENOBJ-N-FIL_13
 70
     0
  0
APPID
  5
8BD
330
9
100
AcDbSymbolTableRecord
100
AcDbRegAppTableRecord
  2
HATCH_TYPE
 70
     0
  0
APPID
  5
8BE
330
9
100
AcDbSymbolTableRecord
100
AcDbRegAppTableRecord
  2
HATCH_DISPLAY
 70
     0
  0
APPID
  5
8BF
330
9
100
AcDbSymbolTableRecord
100
AcDbRegAppTableRecord
  2
HATCH_DISTANCE
 70
     0
  0
APPID
  5
E7D
330
9
100
AcDbSymbolTableRecord
100
AcDbRegAppTableRecord
  2
CONTENTBLOCKICON
 70
     0
  0
ENDTAB
  0
TABLE
  2
DIMSTYLE
  5
A
330
0
100
AcDbSymbolTable
 70
     1
  0
DIMSTYLE
105
725
102
{ACAD_REACTORS
330
8D1
330
8D6
102
}
330
A
100
AcDbSymbolTableRecord
100
AcDbDimStyleTableRecord
  2
BIGT
 70
     0
  3

  4

  5

  6
OPEN
  7
OPEN
 40
1.0
 41
2.23
 42
0.5
 43
2.5
 44
1.0
 45
0.0
 46
0.0
 47
0.0
 48
0.0
140
2.8
141
0.0
142
0.0
143
25.4
144
1.0
145
0.0
146
1.0
147
1.0
 71
     0
 72
     0
 73
     0
 74
     0
 75
     0
 76
     0
 77
     3
 78
     8
170
     0
171
     2
172
     1
173
     1
174
     1
175
     0
176
   256
177
   256
178
    40
270
     2
271
     3
272
     3
273
     2
274
     2
340
10
275
     0
280
     0
281
     0
282
     0
283
     1
284
     8
285
     0
286
     0
287
     3
288
     0
  0
ENDTAB
  0
TABLE
  2
BLOCK_RECORD
  5
1
330
0
100
AcDbSymbolTable
 70
     6
  0
BLOCK_RECORD
  5
1A
102
{ACAD_XDICTIONARY
360
E7B
102
}
330
1
100
AcDbSymbolTableRecord
100
AcDbBlockTableRecord
  2
*MODEL_SPACE
  0
BLOCK_RECORD
  5
17
102
{ACAD_XDICTIONARY
360
E79
102
}
330
1
100
AcDbSymbolTableRecord
100
AcDbBlockTableRecord
  2
*PAPER_SPACE
  0
BLOCK_RECORD
  5
594
330
1
100
AcDbSymbolTableRecord
100
AcDbBlockTableRecord
  2
_OPEN
  0
BLOCK_RECORD
  5
6E3
330
1
100
AcDbSymbolTableRecord
100
AcDbBlockTableRecord
  2
矢印なし
  0
BLOCK_RECORD
  5
762
330
1
100
AcDbSymbolTableRecord
100
AcDbBlockTableRecord
  2
1
1001
CONTENTBLOCKICON
1071
        0
1004
2800000020000000200000000100080000000000000400000000000000000000000000000000000000000000000080000080000000808000800000008000800080800000C0C0C000C0DCC000F0CAA6000020400000206000002080000020A0000020C0000020E00000400000004020000040400000406000004080000040A0
1004
000040C0000040E00000600000006020000060400000606000006080000060A0000060C0000060E00000800000008020000080400000806000008080000080A0000080C0000080E00000A0000000A0200000A0400000A0600000A0800000A0A00000A0C00000A0E00000C0000000C0200000C0400000C0600000C0800000C0
1004
A00000C0C00000C0E00000E0000000E0200000E0400000E0600000E0800000E0A00000E0C00000E0E00040000000400020004000400040006000400080004000A0004000C0004000E00040200000402020004020400040206000402080004020A0004020C0004020E000404000004040200040404000404060004040800040
1004
40A0004040C0004040E00040600000406020004060400040606000406080004060A0004060C0004060E00040800000408020004080400040806000408080004080A0004080C0004080E00040A0000040A0200040A0400040A0600040A0800040A0A00040A0C00040A0E00040C0000040C0200040C0400040C0600040C08000
1004
40C0A00040C0C00040C0E00040E0000040E0200040E0400040E0600040E0800040E0A00040E0C00040E0E00080000000800020008000400080006000800080008000A0008000C0008000E00080200000802020008020400080206000802080008020A0008020C0008020E00080400000804020008040400080406000804080
1004
008040A0008040C0008040E00080600000806020008060400080606000806080008060A0008060C0008060E00080800000808020008080400080806000808080008080A0008080C0008080E00080A0000080A0200080A0400080A0600080A0800080A0A00080A0C00080A0E00080C0000080C0200080C0400080C0600080C0
1004
800080C0A00080C0C00080C0E00080E0000080E0200080E0400080E0600080E0800080E0A00080E0C00080E0E000C0000000C0002000C0004000C0006000C0008000C000A000C000C000C000E000C0200000C0202000C0204000C0206000C0208000C020A000C020C000C020E000C0400000C0402000C0404000C0406000C0
1004
408000C040A000C040C000C040E000C0600000C0602000C0604000C0606000C0608000C060A000C060C000C060E000C0800000C0802000C0804000C0806000C0808000C080A000C080C000C080E000C0A00000C0A02000C0A04000C0A06000C0A08000C0A0A000C0A0C000C0A0E000C0C00000C0C02000C0C04000C0C06000
1004
C0C08000C0C0A000F0FBFF00A4A0A000808080000000FF0000FF000000FFFF00FF000000FF00FF00FFFF0000FFFFFF0000000000000000000000000000000000000000000000000000000000000000000000000000000000000000000000000000000000000000000000000000000000000000000000000000000000000000
1004
00000000000000000000000000000000000000000000000000000000000000000000000000000000000000000000000000000000000000000000000000000000000000000000000000000000000000000000000000000000000000000000000000000000000000000000000000000000000000000000000000000000000000
1004
00000000000000000000000000000000000000000000000000000000000000000000000000000000000000000000000000000000000000000000000000000000000000000000000000000000000000000000000000000000000000000000000000000000000000000000000000000000000000000000000000000000000000
1004
000000000000000000000000000000000000000000000000000000000000000000000000000000000000000000000000000000000000000000000000000000000000000000000000000000000000000000000000000000000000000000FEFEFEFE0000000000000000000000000000000000000000FEFEFEE7FEFEFEFEFEE7
1004
E7FEFEFEFEFEFEFEFEFEFEFEFEFEFEFEFEFE00000000FE00E7E700E7FBFBE7E7E7E70000000000000000000000E7E70000FE000000FBFEFBE7E7FBE7FBE7E7E7E7E7FFFFFFFFFBFBFBFBFBFBE7E7E7E7E7FEFB000000FEFEFEE7FEFEFEFEFEE7E7FEFEFFFFFFFFFFFFFFFFFFFEFEE7FEFEFE000000000000000000000000FE
1004
FEFEFE00000000000000000000000000000000000000000000000000000000000000000000000000000000000000000000000000000000000000000000000000000000000000000000000000000000000000000000000000000000000000000000000000000000000000000000000000000000000000000000000000000000
1004
00000000000000000000000000000000000000000000000000000000000000000000000000000000000000000000000000000000000000000000000000000000000000000000000000000000000000000000000000000000000000000000000000000000000000000000000000000000000000000000000000000000000000
1004
00000000000000000000000000000000000000000000000000000000000000000000000000000000000000000000000000000000000000000000000000000000000000000000000000000000000000000000000000000000000000000000000000000000000000000000000000000000000000000000000000000000000000
1004
0000000000000000000000000000000000000000000000000000000000000000000000000000000000000000000000000000000000000000
  0
BLOCK_RECORD
  5
8DC
330
1
100
AcDbSymbolTableRecord
100
AcDbBlockTableRecord
  2
*D3
  0
BLOCK_RECORD
  5
8E8
330
1
100
AcDbSymbolTableRecord
100
AcDbBlockTableRecord
  2
*D4
  0
ENDTAB
  0
ENDSEC
  0
SECTION
  2
BLOCKS
  0
BLOCK
  5
1B
330
1A
100
AcDbEntity
  8
0
100
AcDbBlockBegin
  2
*MODEL_SPACE
 70
     0
 10
0.0
 20
0.0
 30
0.0
  3
*MODEL_SPACE
  1

  0
ENDBLK
  5
1C
330
1A
100
AcDbEntity
  8
0
100
AcDbBlockEnd
  0
BLOCK
  5
18
330
17
100
AcDbEntity
 67
     1
  8
0
100
AcDbBlockBegin
  2
*PAPER_SPACE
 70
     0
 10
0.0
 20
0.0
 30
0.0
  3
*PAPER_SPACE
  1

  0
ENDBLK
  5
19
330
17
100
AcDbEntity
 67
     1
  8
0
100
AcDbBlockEnd
  0
BLOCK
  5
598
330
594
100
AcDbEntity
  8
0
100
AcDbBlockBegin
  2
_OPEN
 70
     0
 10
0.0
 20
0.0
 30
0.0
  3
_OPEN
  1

  0
LINE
  5
595
330
594
100
AcDbEntity
  8
0
  6
BYBLOCK
 62
     0
100
AcDbLine
 10
-1.0
 20
0.16666667
 30
0.0
 11
0.0
 21
0.0
 31
0.0
  0
LINE
  5
596
330
594
100
AcDbEntity
  8
0
  6
BYBLOCK
 62
     0
100
AcDbLine
 10
-1.0
 20
-0.16666667
 30
0.0
 11
0.0
 21
0.0
 31
0.0
  0
LINE
  5
597
330
594
100
AcDbEntity
  8
0
  6
BYBLOCK
 62
     0
100
AcDbLine
 10
0.0
 20
0.0
 30
0.0
 11
-1.0
 21
0.0
 31
0.0
  0
ENDBLK
  5
599
330
594
100
AcDbEntity
  8
0
100
AcDbBlockEnd
  0
BLOCK
  5
6E4
330
6E3
100
AcDbEntity
  8
0
100
AcDbBlockBegin
  2
矢印なし
 70
     0
 10
0.0
 20
0.0
 30
0.0
  3
矢印なし
  1

  0
ENDBLK
  5
6E5
330
6E3
100
AcDbEntity
  8
0
100
AcDbBlockEnd
  0
BLOCK
  5
89F
330
762
100
AcDbEntity
  8
0
100
AcDbBlockBegin
  2
1
 70
     0
 10
0.0
 20
0.0
 30
0.0
  3
1
  1

  0
LINE
  5
10A4
330
762
100
AcDbEntity
  8
240
100
AcDbLine
 10
50.0
 20
8.0
 30
0.0
 11
1.57117457
 21
8.0
 31
0.0
  0
LINE
  5
10A5
330
762
100
AcDbEntity
  8
240
100
AcDbLine
 10
50.0
 20
-8.0
 30
0.0
 11
1.57117457
 21
-8.0
 31
0.0
  0
TEXT
  5
10A6
330
762
100
AcDbEntity
  8
0
100
AcDbText
 10
16.81710218
 20
3.03077439
 30
0.0
 40
2.5
  1
MGT6-M4-70
  7
YOKO
100
AcDbText
  0
LINE
  5
10A7
330
762
100
AcDbEntity
  8
AM_7
100
AcDbLine
 10
-48.5
 20
0.0
 30
0.0
 11
71.0
 21
0.0
 31
0.0
1001
GENIUS_GENOREF_13
1005
0
  0
LINE
  5
10A8
330
762
100
AcDbEntity
  8
240
100
AcDbLine
 10
-34.0
 20
6.0
 30
0.0
 11
-29.0
 21
6.0
 31
0.0
  0
LINE
  5
10A9
330
762
100
AcDbEntity
  8
240
100
AcDbLine
 10
-34.0
 20
-6.0
 30
0.0
 11
-29.0
 21
-6.0
 31
0.0
  0
LINE
  5
10AA
330
762
100
AcDbEntity
  8
240
100
AcDbLine
 10
-47.5
 20
-7.0
 30
0.0
 11
-47.5
 21
0.0
 31
0.0
  0
LINE
  5
10AB
330
762
100
AcDbEntity
  8
243
100
AcDbLine
 10
-36.5
 20
6.0
 30
0.0
 11
-36.5
 21
-6.0
 31
0.0
  0
LINE
  5
10AC
330
762
100
AcDbEntity
  8
AM_7
100
AcDbLine
 10
-34.0
 20
-8.0
 30
0.0
 11
-34.0
 21
8.0
 31
0.0
  0
LINE
  5
10AD
330
762
100
AcDbEntity
  8
240
100
AcDbLine
 10
-46.5
 20
-8.0
 30
0.0
 11
-41.0
 21
-8.0
 31
0.0
  0
ARC
  5
10AE
330
762
100
AcDbEntity
  8
240
100
AcDbCircle
 10
-46.5
 20
-7.0
 30
0.0
 40
1.0
100
AcDbArc
 50
180.0
 51
270.0
  0
LINE
  5
10AF
330
762
100
AcDbEntity
  8
240
100
AcDbLine
 10
-39.0
 20
-6.0
 30
0.0
 11
-41.0
 21
-8.0
 31
0.0
  0
LINE
  5
10B0
330
762
100
AcDbEntity
  8
240
100
AcDbLine
 10
-39.0
 20
-6.0
 30
0.0
 11
-34.0
 21
-6.0
 31
0.0
  0
LINE
  5
10B1
330
762
100
AcDbEntity
  8
240
100
AcDbLine
 10
-46.5
 20
8.0
 30
0.0
 11
-41.0
 21
8.0
 31
0.0
  0
LINE
  5
10B2
330
762
100
AcDbEntity
  8
240
100
AcDbLine
 10
-47.5
 20
7.0
 30
0.0
 11
-47.5
 21
0.0
 31
0.0
  0
ARC
  5
10B3
330
762
100
AcDbEntity
  8
240
100
AcDbCircle
 10
-46.5
 20
7.0
 30
0.0
 40
1.0
100
AcDbArc
 50
90.0
 51
180.0
  0
LINE
  5
10B4
330
762
100
AcDbEntity
  8
240
100
AcDbLine
 10
-39.0
 20
6.0
 30
0.0
 11
-34.0
 21
6.0
 31
0.0
  0
LINE
  5
10B5
330
762
100
AcDbEntity
  8
240
100
AcDbLine
 10
-39.0
 20
6.0
 30
0.0
 11
-41.0
 21
8.0
 31
0.0
  0
LINE
  5
10B6
330
762
100
AcDbEntity
  8
241
100
AcDbLine
 10
0.80384758
 20
-8.35874397
 30
0.0
 11
0.80384758
 21
0.0
 31
0.0
  0
LINE
  5
10B7
330
762
100
AcDbEntity
  8
241
100
AcDbLine
 10
-5.12626129
 20
-11.0
 30
0.0
 11
-5.12626129
 21
0.0
 31
0.0
  0
LINE
  5
10B8
330
762
100
AcDbEntity
  8
241
  6
CONTINUOUS
100
AcDbLine
 10
-6.5
 20
-10.50000001
 30
0.0
 11
-6.5
 21
0.0
 31
0.0
  0
LINE
  5
10B9
330
762
100
AcDbEntity
  8
241
100
AcDbLine
 10
-11.0
 20
-8.0
 30
0.0
 11
-11.0
 21
0.0
 31
0.0
  0
LINE
  5
10BA
330
762
100
AcDbEntity
  8
AM_7
100
AcDbLine
 10
-20.0
 20
-0.7698914
 30
0.0
 11
-20.0
 21
-4.52866188
 31
0.0
  0
LINE
  5
10BB
330
762
100
AcDbEntity
  8
241
100
AcDbLine
 10
0.0
 20
-10.64125603
 30
0.0
 11
0.0
 21
0.0
 31
0.0
  0
LINE
  5
10BC
330
762
100
AcDbEntity
  8
241
100
AcDbLine
 10
-2.0
 20
-10.0
 30
0.0
 11
-2.0
 21
0.0
 31
0.0
  0
LINE
  5
10BD
330
762
100
AcDbEntity
  8
241
100
AcDbLine
 10
-4.0
 20
-10.0
 30
0.0
 11
-4.0
 21
0.0
 31
0.0
  0
LINE
  5
10BE
330
762
100
AcDbEntity
  8
241
100
AcDbLine
 10
-14.5
 20
-7.0
 30
0.0
 11
-14.5
 21
0.0
 31
0.0
  0
LINE
  5
10BF
330
762
100
AcDbEntity
  8
241
100
AcDbLine
 10
-16.5
 20
-7.0
 30
0.0
 11
-16.5
 21
0.0
 31
0.0
  0
LINE
  5
10C0
330
762
100
AcDbEntity
  8
241
100
AcDbLine
 10
-23.5
 20
-7.0
 30
0.0
 11
-23.5
 21
0.0
 31
0.0
  0
LINE
  5
10C1
330
762
100
AcDbEntity
  8
241
100
AcDbLine
 10
-25.5
 20
-7.0
 30
0.0
 11
-25.5
 21
0.0
 31
0.0
  0
ELLIPSE
  5
10C2
330
762
100
AcDbEntity
  8
241
100
AcDbEllipse
 10
-20.0
 20
-2.64927664
 30
0.0
 11
-2.000000000000023
 21
0.0
 31
0.0
210
0.0
220
0.0
230
1.0
 40
0.93969262
 41
0.0
 42
6.283185307179584
  0
LINE
  5
10C3
330
762
100
AcDbEntity
  8
243
100
AcDbLine
 10
-31.5
 20
6.0
 30
0.0
 11
-31.5
 21
-6.0
 31
0.0
  0
ARC
  5
10C4
330
762
100
AcDbEntity
  8
240
100
AcDbCircle
 10
-15.5
 20
-7.0
 30
0.0
 40
1.000000000003004
100
AcDbArc
 50
180.0
 51
0.0
  0
ARC
  5
10C5
330
762
100
AcDbEntity
  8
240
100
AcDbCircle
 10
-24.5
 20
-7.0
 30
0.0
 40
1.000000000003004
100
AcDbArc
 50
180.0
 51
0.0
  0
LINE
  5
10C6
330
762
100
AcDbEntity
  8
240
100
AcDbLine
 10
-25.5
 20
-7.0
 30
0.0
 11
-25.5
 21
-8.0
 31
0.0
  0
LINE
  5
10C7
330
762
100
AcDbEntity
  8
240
100
AcDbLine
 10
-29.0
 20
-6.0
 30
0.0
 11
-27.0
 21
-8.0
 31
0.0
  0
LINE
  5
10C8
330
762
100
AcDbEntity
  8
240
100
AcDbLine
 10
-27.0
 20
-8.0
 30
0.0
 11
-25.5
 21
-8.0
 31
0.0
  0
LINE
  5
10C9
330
762
100
AcDbEntity
  8
240
100
AcDbLine
 10
-16.5
 20
-7.0
 30
0.0
 11
-16.5
 21
-8.0
 31
0.0
  0
LINE
  5
10CA
330
762
100
AcDbEntity
  8
240
100
AcDbLine
 10
-23.5
 20
-7.0
 30
0.0
 11
-23.5
 21
-8.0
 31
0.0
  0
LINE
  5
10CB
330
762
100
AcDbEntity
  8
240
100
AcDbLine
 10
-23.5
 20
-8.0
 30
0.0
 11
-16.5
 21
-8.0
 31
0.0
  0
LINE
  5
10CC
330
762
100
AcDbEntity
  8
AM_7
100
AcDbLine
 10
-21.99786162
 20
-2.73616115
 30
0.0
 11
-18.00213838
 21
-2.73616115
 31
0.0
  0
LINE
  5
10CD
330
762
100
AcDbEntity
  8
240
100
AcDbLine
 10
-6.5
 20
-10.50000001
 30
0.0
 11
-5.12626128
 21
-11.0
 31
0.0
  0
LINE
  5
10CE
330
762
100
AcDbEntity
  8
240
100
AcDbLine
 10
-14.5
 20
-7.0
 30
0.0
 11
-14.5
 21
-8.0
 31
0.0
  0
LINE
  5
10CF
330
762
100
AcDbEntity
  8
240
100
AcDbLine
 10
-10.7
 20
-7.7
 30
0.0
 11
-11.0
 21
-8.0
 31
0.0
  0
LINE
  5
10D0
330
762
100
AcDbEntity
  8
240
100
AcDbLine
 10
-14.5
 20
-8.0
 30
0.0
 11
-11.0
 21
-8.0
 31
0.0
  0
LINE
  5
10D1
330
762
100
AcDbEntity
  8
240
100
AcDbLine
 10
-6.50000001
 20
-10.5
 30
0.0
 11
-10.0
 21
-10.5
 31
0.0
  0
LINE
  5
10D2
330
762
100
AcDbEntity
  8
240
100
AcDbLine
 10
-10.0
 20
-10.5
 30
0.0
 11
-10.0
 21
-9.0
 31
0.0
  0
LINE
  5
10D3
330
762
100
AcDbEntity
  8
240
100
AcDbLine
 10
-9.5
 20
-8.5
 30
0.0
 11
-9.5
 21
-7.7
 31
0.0
  0
LINE
  5
10D4
330
762
100
AcDbEntity
  8
240
100
AcDbLine
 10
-10.7
 20
-7.7
 30
0.0
 11
-9.5
 21
-7.7
 31
0.0
  0
LINE
  5
10D5
330
762
100
AcDbEntity
  8
240
100
AcDbLine
 10
-9.5
 20
-8.5
 30
0.0
 11
-10.0
 21
-9.0
 31
0.0
  0
LINE
  5
10D6
330
762
100
AcDbEntity
  8
241
100
AcDbLine
 10
-6.5
 20
-8.2
 30
0.0
 11
-9.5
 21
-8.2
 31
0.0
  0
LINE
  5
10D7
330
762
100
AcDbEntity
  8
240
100
AcDbLine
 10
-0.63567449
 20
-11.0
 30
0.0
 11
-2.0
 21
-11.0
 31
0.0
  0
LINE
  5
10D8
330
762
100
AcDbEntity
  8
240
100
AcDbLine
 10
-4.0
 20
-11.0
 30
0.0
 11
-5.12626129
 21
-11.0
 31
0.0
  0
LINE
  5
10D9
330
762
100
AcDbEntity
  8
240
100
AcDbLine
 10
-4.0
 20
-10.0
 30
0.0
 11
-4.0
 21
-11.0
 31
0.0
  0
LINE
  5
10DA
330
762
100
AcDbEntity
  8
240
100
AcDbLine
 10
-2.0
 20
-10.0
 30
0.0
 11
-2.0
 21
-11.0
 31
0.0
  0
ARC
  5
10DB
330
762
100
AcDbEntity
  8
240
100
AcDbCircle
 10
-3.0
 20
-10.0
 30
0.0
 40
1.000000000000075
100
AcDbArc
 50
180.0
 51
0.0
  0
ARC
  5
10DC
330
762
100
AcDbEntity
  8
240
100
AcDbCircle
 10
1.57117457
 20
-9.0
 30
0.0
 40
1.0
100
AcDbArc
 50
90.0
 51
165.00000008
  0
LINE
  5
10DD
330
762
100
AcDbEntity
  8
240
100
AcDbLine
 10
0.19859884
 20
-10.25881905
 30
0.0
 11
0.60524874
 21
-8.74118096
 31
0.0
  0
ARC
  5
10DE
330
762
100
AcDbEntity
  8
240
100
AcDbCircle
 10
-0.76732699
 20
-10.0
 30
0.0
 40
1.0
100
AcDbArc
 50
285.0
 51
345.0
1001
GENIUS_GENOBJ-N-FIL_13
1002
{
1000
OWNER
1000
GEN
1002
}
1001
GENIUS_GENODEF_13
1002
{
1000
HIER
1070
     0
1002
}
1002
{
1000
MANEDIT
1070
     0
1002
}
1002
{
1000
NOSEL
1070
     0
1002
}
1002
{
1000
BEHIND
1070
     0
1002
}
1002
{
1000
OTHER
1070
     0
1002
}
1002
{
1000
REACTOR
1002
}
  0
LINE
  5
10DF
330
762
100
AcDbEntity
  8
240
100
AcDbLine
 10
-0.50850794
 20
-10.96592583
 30
0.0
 11
-0.63567449
 21
-11.0
 31
0.0
  0
ARC
  5
10E0
330
762
100
AcDbEntity
  8
240
100
AcDbCircle
 10
-15.5
 20
7.0
 30
0.0
 40
1.000000000003004
100
AcDbArc
 50
0.0
 51
180.0
  0
ARC
  5
10E1
330
762
100
AcDbEntity
  8
240
100
AcDbCircle
 10
-24.5
 20
7.0
 30
0.0
 40
1.000000000003004
100
AcDbArc
 50
0.0
 51
180.0
  0
LINE
  5
10E2
330
762
100
AcDbEntity
  8
241
100
AcDbLine
 10
-25.5
 20
7.0
 30
0.0
 11
-25.5
 21
0.0
 31
0.0
  0
LINE
  5
10E3
330
762
100
AcDbEntity
  8
240
100
AcDbLine
 10
-27.0
 20
8.0
 30
0.0
 11
-25.5
 21
8.0
 31
0.0
  0
LINE
  5
10E4
330
762
100
AcDbEntity
  8
240
100
AcDbLine
 10
-25.5
 20
7.0
 30
0.0
 11
-25.5
 21
8.0
 31
0.0
  0
LINE
  5
10E5
330
762
100
AcDbEntity
  8
240
100
AcDbLine
 10
-29.0
 20
6.0
 30
0.0
 11
-27.0
 21
8.0
 31
0.0
  0
LINE
  5
10E6
330
762
100
AcDbEntity
  8
241
100
AcDbLine
 10
-16.5
 20
7.0
 30
0.0
 11
-16.5
 21
0.0
 31
0.0
  0
LINE
  5
10E7
330
762
100
AcDbEntity
  8
241
100
AcDbLine
 10
-23.5
 20
7.0
 30
0.0
 11
-23.5
 21
0.0
 31
0.0
  0
LINE
  5
10E8
330
762
100
AcDbEntity
  8
240
100
AcDbLine
 10
-23.5
 20
8.0
 30
0.0
 11
-16.5
 21
8.0
 31
0.0
  0
LINE
  5
10E9
330
762
100
AcDbEntity
  8
240
100
AcDbLine
 10
-23.5
 20
7.0
 30
0.0
 11
-23.5
 21
8.0
 31
0.0
  0
LINE
  5
10EA
330
762
100
AcDbEntity
  8
240
100
AcDbLine
 10
-16.5
 20
7.0
 30
0.0
 11
-16.5
 21
8.0
 31
0.0
  0
LINE
  5
10EB
330
762
100
AcDbEntity
  8
241
100
AcDbLine
 10
0.0
 20
10.64125603
 30
0.0
 11
0.0
 21
0.0
 31
0.0
  0
LINE
  5
10EC
330
762
100
AcDbEntity
  8
241
100
AcDbLine
 10
-5.12626129
 20
11.0
 30
0.0
 11
-5.12626129
 21
0.0
 31
0.0
  0
LINE
  5
10ED
330
762
100
AcDbEntity
  8
240
100
AcDbLine
 10
-6.50000001
 20
10.5
 30
0.0
 11
-5.12626128
 21
11.0
 31
0.0
  0
ARC
  5
10EE
330
762
100
AcDbEntity
  8
240
100
AcDbCircle
 10
-0.76732699
 20
10.0
 30
0.0
 40
1.0
100
AcDbArc
 50
15.0
 51
75.0
1001
GENIUS_GENOBJ-N-FIL_13
1002
{
1000
OWNER
1000
GEN
1002
}
1001
GENIUS_GENODEF_13
1002
{
1000
HIER
1070
     0
1002
}
1002
{
1000
MANEDIT
1070
     0
1002
}
1002
{
1000
NOSEL
1070
     0
1002
}
1002
{
1000
BEHIND
1070
     0
1002
}
1002
{
1000
OTHER
1070
     0
1002
}
1002
{
1000
REACTOR
1002
}
  0
ARC
  5
10EF
330
762
100
AcDbEntity
  8
240
100
AcDbCircle
 10
-3.0
 20
10.0
 30
0.0
 40
1.000000000000075
100
AcDbArc
 50
0.0
 51
180.0
  0
LINE
  5
10F0
330
762
100
AcDbEntity
  8
240
100
AcDbLine
 10
-2.0
 20
10.0
 30
0.0
 11
-2.0
 21
11.0
 31
0.0
  0
LINE
  5
10F1
330
762
100
AcDbEntity
  8
240
100
AcDbLine
 10
-4.0
 20
10.0
 30
0.0
 11
-4.0
 21
11.0
 31
0.0
  0
LINE
  5
10F2
330
762
100
AcDbEntity
  8
241
100
AcDbLine
 10
-14.5
 20
7.0
 30
0.0
 11
-14.5
 21
0.0
 31
0.0
  0
LINE
  5
10F3
330
762
100
AcDbEntity
  8
241
100
AcDbLine
 10
-11.0
 20
8.0
 30
0.0
 11
-11.0
 21
0.0
 31
0.0
  0
LINE
  5
10F4
330
762
100
AcDbEntity
  8
241
  6
CONTINUOUS
100
AcDbLine
 10
-6.5
 20
10.50000001
 30
0.0
 11
-6.5
 21
0.0
 31
0.0
  0
LINE
  5
10F5
330
762
100
AcDbEntity
  8
240
100
AcDbLine
 10
-10.7
 20
7.7
 30
0.0
 11
-11.0
 21
8.0
 31
0.0
  0
LINE
  5
10F6
330
762
100
AcDbEntity
  8
240
100
AcDbLine
 10
-14.5
 20
8.0
 30
0.0
 11
-11.0
 21
8.0
 31
0.0
  0
LINE
  5
10F7
330
762
100
AcDbEntity
  8
240
100
AcDbLine
 10
-14.5
 20
7.0
 30
0.0
 11
-14.5
 21
8.0
 31
0.0
  0
LINE
  5
10F8
330
762
100
AcDbEntity
  8
240
100
AcDbLine
 10
-6.50000001
 20
10.5
 30
0.0
 11
-10.0
 21
10.5
 31
0.0
  0
LINE
  5
10F9
330
762
100
AcDbEntity
  8
240
100
AcDbLine
 10
-10.0
 20
10.5
 30
0.0
 11
-10.0
 21
9.0
 31
0.0
  0
LINE
  5
10FA
330
762
100
AcDbEntity
  8
240
100
AcDbLine
 10
-10.7
 20
7.7
 30
0.0
 11
-9.5
 21
7.7
 31
0.0
  0
LINE
  5
10FB
330
762
100
AcDbEntity
  8
240
100
AcDbLine
 10
-9.5
 20
8.5
 30
0.0
 11
-9.5
 21
7.7
 31
0.0
  0
LINE
  5
10FC
330
762
100
AcDbEntity
  8
240
100
AcDbLine
 10
-9.5
 20
8.5
 30
0.0
 11
-10.0
 21
9.0
 31
0.0
  0
LINE
  5
10FD
330
762
100
AcDbEntity
  8
241
100
AcDbLine
 10
-6.5
 20
8.2
 30
0.0
 11
-9.5
 21
8.2
 31
0.0
  0
LINE
  5
10FE
330
762
100
AcDbEntity
  8
241
100
AcDbLine
 10
-4.0
 20
10.0
 30
0.0
 11
-4.0
 21
0.0
 31
0.0
  0
LINE
  5
10FF
330
762
100
AcDbEntity
  8
241
100
AcDbLine
 10
-2.0
 20
10.0
 30
0.0
 11
-2.0
 21
0.0
 31
0.0
  0
LINE
  5
1100
330
762
100
AcDbEntity
  8
241
100
AcDbLine
 10
0.80384758
 20
8.35874397
 30
0.0
 11
0.80384758
 21
0.0
 31
0.0
  0
LINE
  5
1101
330
762
100
AcDbEntity
  8
240
100
AcDbLine
 10
0.19859884
 20
10.25881905
 30
0.0
 11
0.60524874
 21
8.74118096
 31
0.0
  0
ARC
  5
1102
330
762
100
AcDbEntity
  8
240
100
AcDbCircle
 10
1.57117457
 20
9.0
 30
0.0
 40
1.0
100
AcDbArc
 50
194.99999992
 51
270.0
  0
LINE
  5
1103
330
762
100
AcDbEntity
  8
240
100
AcDbLine
 10
-0.63567449
 20
11.0
 30
0.0
 11
-2.0
 21
11.0
 31
0.0
  0
LINE
  5
1104
330
762
100
AcDbEntity
  8
240
100
AcDbLine
 10
-4.0
 20
11.0
 30
0.0
 11
-5.12626129
 21
11.0
 31
0.0
  0
LINE
  5
1105
330
762
100
AcDbEntity
  8
240
100
AcDbLine
 10
-0.50850794
 20
10.96592583
 30
0.0
 11
-0.63567449
 21
11.0
 31
0.0
  0
LINE
  5
1106
330
762
100
AcDbEntity
  8
0
100
AcDbLine
 10
11.64252187
 20
2.61584517
 30
0.0
 11
11.93753197
 21
2.91085527
 31
0.0
  0
LINE
  5
1107
330
762
100
AcDbEntity
  8
0
100
AcDbLine
 10
11.05580929
 20
3.99555866
 30
0.0
 11
11.98090179
 21
4.92065116
 31
0.0
  0
LINE
  5
1108
330
762
100
AcDbEntity
  8
0
100
AcDbLine
 10
11.1875688
 20
4.45505585
 30
0.0
 11
12.11265951
 21
5.38014656
 31
0.0
  0
LINE
  5
1109
330
762
100
AcDbEntity
  8
0
100
AcDbLine
 10
11.31932831
 20
4.91455306
 30
0.0
 11
12.11820455
 21
5.71342929
 31
0.0
  0
ARC
  5
110A
330
762
100
AcDbEntity
  8
0
100
AcDbCircle
 10
12.98009975
 20
4.01713235
 30
0.0
 40
0.9587828249999999
100
AcDbArc
 50
163.9997507
 51
304.96387329
  0
LINE
  5
110B
330
762
100
AcDbEntity
  8
0
100
AcDbLine
 10
11.44690037
 20
3.05836031
 30
0.0
 11
12.20822645
 21
5.71342929
 31
0.0
  0
LINE
  5
110C
330
762
100
AcDbEntity
  8
0
100
AcDbLine
 10
11.44690037
 20
3.05836031
 30
0.0
 11
12.20822645
 21
5.71342929
 31
0.0
1001
HATCH_DISTANCE
1040
1.0
1001
HATCH_DISPLAY
1070
     0
1001
HATCH_TYPE
1070
     7
  0
LINE
  5
110D
330
762
100
AcDbEntity
  8
0
100
AcDbLine
 10
11.44690037
 20
3.05836031
 30
0.0
 11
12.20822645
 21
5.71342929
 31
0.0
  0
LINE
  5
110E
330
762
100
AcDbEntity
  8
0
100
AcDbLine
 10
12.20822645
 20
5.71342929
 30
0.0
 11
11.44098636
 21
5.71342929
 31
0.0
  0
LINE
  5
110F
330
762
100
AcDbEntity
  8
0
100
AcDbLine
 10
12.20822645
 20
5.71342929
 30
0.0
 11
11.44098636
 21
5.71342929
 31
0.0
1001
HATCH_DISTANCE
1040
1.0
1001
HATCH_DISPLAY
1070
     0
1001
HATCH_TYPE
1070
     7
  0
LINE
  5
1110
330
762
100
AcDbEntity
  8
0
100
AcDbLine
 10
11.44098636
 20
5.71342929
 30
0.0
 11
12.20822645
 21
5.71342929
 31
0.0
  0
LINE
  5
1111
330
762
100
AcDbEntity
  8
0
100
AcDbLine
 10
8.51468618
 20
2.61584517
 30
0.0
 11
14.50335336
 21
2.61584517
 31
0.0
  0
LINE
  5
1112
330
762
100
AcDbEntity
  8
0
100
AcDbLine
 10
8.51468618
 20
2.91085527
 30
0.0
 11
14.50335336
 21
2.91085527
 31
0.0
  0
LINE
  5
1113
330
762
100
AcDbEntity
  8
0
100
AcDbLine
 10
10.78707031
 20
3.05836031
 30
0.0
 11
11.45535372
 21
5.38892709
 31
0.0
  0
LINE
  5
1114
330
762
100
AcDbEntity
  8
0
100
AcDbLine
 10
11.45535372
 20
5.38892709
 30
0.0
 11
10.78707031
 21
3.05836031
 31
0.0
  0
LINE
  5
1115
330
762
100
AcDbEntity
  8
0
100
AcDbLine
 10
11.45535372
 20
5.38892709
 30
0.0
 11
10.78707031
 21
3.05836031
 31
0.0
1001
HATCH_DISTANCE
1040
1.0
1001
HATCH_DISPLAY
1070
     0
1001
HATCH_TYPE
1070
     7
  0
LINE
  5
1116
330
762
100
AcDbEntity
  8
0
100
AcDbLine
 10
9.88250205
 20
4.13320214
 30
0.0
 11
10.93818941
 21
5.18888952
 31
0.0
  0
LINE
  5
1117
330
762
100
AcDbEntity
  8
0
100
AcDbLine
 10
9.99690561
 20
3.91986803
 30
0.0
 11
10.96425617
 21
4.88721859
 31
0.0
  0
ARC
  5
1118
330
762
100
AcDbEntity
  8
0
100
AcDbCircle
 10
9.90296442
 20
5.00540727
 30
0.0
 40
0.4425027943359379
100
AcDbArc
 50
261.66260169
 51
66.3381551
  0
LINE
  5
1119
330
762
100
AcDbEntity
  8
0
100
AcDbLine
 10
10.08055876
 20
5.41070836
 30
0.0
 11
9.8388013
 21
4.56758103
 31
0.0
  0
ARC
  5
111A
330
762
100
AcDbEntity
  8
0
100
AcDbCircle
 10
10.23208869
 20
4.97591517
 30
0.0
 40
0.73752037734375
100
AcDbArc
 50
287.66957755
 51
90.23615984
  0
LINE
  5
111B
330
762
100
AcDbEntity
  8
0
100
AcDbLine
 10
8.6694863
 20
3.05836031
 30
0.0
 11
9.34622307
 21
5.41841919
 31
0.0
  0
LINE
  5
111C
330
762
100
AcDbEntity
  8
0
100
AcDbLine
 10
9.00921276
 20
4.2431259
 30
0.0
 11
10.04187061
 21
5.27578375
 31
0.0
  0
LINE
  5
111D
330
762
100
AcDbEntity
  8
0
100
AcDbLine
 10
8.87745417
 20
3.78362963
 30
0.0
 11
9.91011638
 21
4.81629183
 31
0.0
  0
LINE
  5
111E
330
762
100
AcDbEntity
  8
0
100
AcDbLine
 10
7.01211724
 20
4.54019414
 30
0.0
 11
8.13912945
 21
5.66720635
 31
0.0
  0
ARC
  5
111F
330
762
100
AcDbEntity
  8
0
100
AcDbCircle
 10
8.51468618
 20
4.1646374
 30
0.0
 40
1.548791887499996
100
AcDbArc
 50
90.0
 51
270.0
  0
ARC
  5
1120
330
762
100
AcDbEntity
  8
0
100
AcDbCircle
 10
8.51468618
 20
4.1646374
 30
0.0
 40
1.253781787499995
100
AcDbArc
 50
90.0
 51
270.0
  0
LINE
  5
1121
330
762
100
AcDbEntity
  8
0
100
AcDbLine
 10
7.1732914
 20
3.39041758
 30
0.0
 11
7.39112102
 21
3.60824719
 31
0.0
  0
LINE
  5
1122
330
762
100
AcDbEntity
  8
0
100
AcDbLine
 10
7.30636954
 20
3.19575805
 30
0.0
 11
7.51653039
 21
3.40591889
 31
0.0
  0
LINE
  5
1123
330
762
100
AcDbEntity
  8
0
100
AcDbLine
 10
6.96589512
 20
4.16623434
 30
0.0
 11
7.30930776
 21
4.50964698
 31
0.0
  0
LINE
  5
1124
330
762
100
AcDbEntity
  8
0
100
AcDbLine
 10
6.99470284
 20
3.86730438
 30
0.0
 11
7.26128165
 21
4.13388319
 31
0.0
  0
LINE
  5
1125
330
762
100
AcDbEntity
  8
0
100
AcDbLine
 10
7.06764945
 20
3.61251332
 30
0.0
 11
7.30187555
 21
3.84673941
 31
0.0
  0
LINE
  5
1126
330
762
100
AcDbEntity
  8
0
100
AcDbLine
 10
10.17390633
 20
3.1136557
 30
0.0
 11
10.57593937
 21
3.51568875
 31
0.0
  0
LINE
  5
1127
330
762
100
AcDbEntity
  8
0
100
AcDbLine
 10
10.79229025
 20
3.07656426
 30
0.0
 11
11.71738635
 21
4.00166036
 31
0.0
  0
LINE
  5
1128
330
762
100
AcDbEntity
  8
0
100
AcDbLine
 10
11.10182398
 20
3.05836031
 30
0.0
 11
11.58562862
 21
3.54216496
 31
0.0
  0
LINE
  5
1129
330
762
100
AcDbEntity
  8
0
100
AcDbLine
 10
9.79087326
 20
3.05836031
 30
0.0
 11
10.62489317
 21
3.89238022
 31
0.0
  0
LINE
  5
112A
330
762
100
AcDbEntity
  8
0
100
AcDbLine
 10
9.46313557
 20
3.05836031
 30
0.0
 11
10.5455947
 21
4.14081945
 31
0.0
  0
ARC
  5
112B
330
762
100
AcDbEntity
  8
0
100
AcDbCircle
 10
9.8937203
 20
3.79587477
 30
0.0
 40
0.7375141125000005
100
AcDbArc
 50
270.0
 51
40.32984065
  0
LINE
  5
112C
330
762
100
AcDbEntity
  8
0
100
AcDbLine
 10
10.00383347
 20
2.61584517
 30
0.0
 11
10.29884357
 21
2.91085527
 31
0.0
  0
LINE
  5
112D
330
762
100
AcDbEntity
  8
0
100
AcDbLine
 10
9.34835811
 20
2.61584517
 30
0.0
 11
9.64336821
 21
2.91085527
 31
0.0
  0
LINE
  5
112E
330
762
100
AcDbEntity
  8
0
100
AcDbLine
 10
9.6760958
 20
2.61584517
 30
0.0
 11
9.97110588
 21
2.91085527
 31
0.0
  0
LINE
  5
112F
330
762
100
AcDbEntity
  8
0
100
AcDbLine
 10
10.33157115
 20
2.61584517
 30
0.0
 11
10.62658124
 21
2.91085527
 31
0.0
  0
LINE
  5
1130
330
762
100
AcDbEntity
  8
0
100
AcDbLine
 10
11.31478419
 20
2.61584517
 30
0.0
 11
11.60979428
 21
2.91085527
 31
0.0
  0
LINE
  5
1131
330
762
100
AcDbEntity
  8
0
100
AcDbLine
 10
11.42956165
 20
3.05836031
 30
0.0
 11
11.4538709
 21
3.08266956
 31
0.0
  0
LINE
  5
1132
330
762
100
AcDbEntity
  8
0
100
AcDbLine
 10
10.65930883
 20
2.61584517
 30
0.0
 11
10.95431893
 21
2.91085527
 31
0.0
  0
LINE
  5
1133
330
762
100
AcDbEntity
  8
0
100
AcDbLine
 10
10.78707031
 20
3.05836031
 30
0.0
 11
11.44690037
 21
3.05836031
 31
0.0
  0
LINE
  5
1134
330
762
100
AcDbEntity
  8
0
100
AcDbLine
 10
10.98704651
 20
2.61584517
 30
0.0
 11
11.28205661
 21
2.91085527
 31
0.0
  0
LINE
  5
1135
330
762
100
AcDbEntity
  8
0
100
AcDbLine
 10
10.78707031
 20
3.05836031
 30
0.0
 11
11.44690037
 21
3.05836031
 31
0.0
  0
LINE
  5
1136
330
762
100
AcDbEntity
  8
0
100
AcDbLine
 10
10.78707031
 20
3.05836031
 30
0.0
 11
11.44690037
 21
3.05836031
 31
0.0
1001
HATCH_DISTANCE
1040
1.0
1001
HATCH_DISPLAY
1070
     0
1001
HATCH_TYPE
1070
     7
  0
ARC
  5
1137
330
762
100
AcDbEntity
  8
0
100
AcDbCircle
 10
9.56459604
 20
3.82537801
 30
0.0
 40
0.4425154545410158
100
AcDbArc
 50
261.66285421
 51
66.33819216
  0
LINE
  5
1138
330
762
100
AcDbEntity
  8
0
100
AcDbLine
 10
9.74219389
 20
4.23069138
 30
0.0
 11
9.50043246
 21
3.38753904
 31
0.0
  0
LINE
  5
1139
330
762
100
AcDbEntity
  8
0
100
AcDbLine
 10
10.92404977
 20
3.53606146
 30
0.0
 11
11.84914407
 21
4.46115577
 31
0.0
  0
LINE
  5
113A
330
762
100
AcDbEntity
  8
0
100
AcDbLine
 10
9.1353979
 20
3.05836031
 30
0.0
 11
9.51484663
 21
3.43780904
 31
0.0
  0
LINE
  5
113B
330
762
100
AcDbEntity
  8
0
100
AcDbLine
 10
8.80766022
 20
3.05836031
 30
0.0
 11
9.64659843
 21
3.89729852
 31
0.0
  0
LINE
  5
113C
330
762
100
AcDbEntity
  8
0
100
AcDbLine
 10
9.02062044
 20
2.61584517
 30
0.0
 11
9.31563052
 21
2.91085527
 31
0.0
  0
LINE
  5
113D
330
762
100
AcDbEntity
  8
0
100
AcDbLine
 10
8.6694863
 20
3.05836031
 30
0.0
 11
9.8937203
 21
3.05836031
 31
0.0
  0
LINE
  5
113E
330
762
100
AcDbEntity
  8
0
100
AcDbLine
 10
8.74569558
 20
3.32413337
 30
0.0
 11
9.99391424
 21
4.57235202
 31
0.0
  0
LINE
  5
113F
330
762
100
AcDbEntity
  8
0
100
AcDbLine
 10
7.46456544
 20
3.02621625
 30
0.0
 11
7.6733788
 21
3.23502961
 31
0.0
  0
LINE
  5
1140
330
762
100
AcDbEntity
  8
0
100
AcDbLine
 10
7.64748142
 20
2.88139456
 30
0.0
 11
7.86089755
 21
3.09481069
 31
0.0
  0
LINE
  5
1141
330
762
100
AcDbEntity
  8
0
100
AcDbLine
 10
7.85648787
 20
2.76266333
 30
0.0
 11
8.08178602
 21
2.98796148
 31
0.0
  0
LINE
  5
1142
330
762
100
AcDbEntity
  8
0
100
AcDbLine
 10
8.09527649
 20
2.67371426
 30
0.0
 11
8.34407959
 21
2.92251737
 31
0.0
  0
LINE
  5
1143
330
762
100
AcDbEntity
  8
0
100
AcDbLine
 10
8.37175478
 20
2.62245488
 30
0.0
 11
8.66015516
 21
2.91085527
 31
0.0
  0
LINE
  5
1144
330
762
100
AcDbEntity
  8
0
100
AcDbLine
 10
8.69288275
 20
2.61584517
 30
0.0
 11
8.98789285
 21
2.91085527
 31
0.0
  0
LINE
  5
1145
330
762
100
AcDbEntity
  8
0
100
AcDbLine
 10
10.33601968
 20
4.91445746
 30
0.0
 11
10.8296906
 21
5.40812838
 31
0.0
  0
LINE
  5
1146
330
762
100
AcDbEntity
  8
0
100
AcDbLine
 10
10.29820776
 20
5.20438322
 30
0.0
 11
10.66606356
 21
5.57223902
 31
0.0
  0
LINE
  5
1147
330
762
100
AcDbEntity
  8
0
100
AcDbLine
 10
10.14314308
 20
5.37705622
 30
0.0
 11
10.44739515
 21
5.68130828
 31
0.0
  0
LINE
  5
1148
330
762
100
AcDbEntity
  8
0
100
AcDbLine
 10
11.34793254
 20
5.38892709
 30
0.0
 11
11.45535372
 21
5.38892709
 31
0.0
  0
LINE
  5
1149
330
762
100
AcDbEntity
  8
0
100
AcDbLine
 10
11.34793254
 20
5.38892709
 30
0.0
 11
11.45535372
 21
5.38892709
 31
0.0
1001
HATCH_DISTANCE
1040
1.0
1001
HATCH_DISPLAY
1070
     0
1001
HATCH_TYPE
1070
     7
  0
LINE
  5
114A
330
762
100
AcDbEntity
  8
0
100
AcDbLine
 10
11.34793254
 20
5.38892709
 30
0.0
 11
11.45535372
 21
5.38892709
 31
0.0
  0
LINE
  5
114B
330
762
100
AcDbEntity
  8
0
100
AcDbLine
 10
11.43224465
 20
5.68294474
 30
0.0
 11
11.46272919
 21
5.71342929
 31
0.0
  0
LINE
  5
114C
330
762
100
AcDbEntity
  8
0
100
AcDbLine
 10
11.45108783
 20
5.37405025
 30
0.0
 11
11.79046687
 21
5.71342929
 31
0.0
  0
LINE
  5
114D
330
762
100
AcDbEntity
  8
0
100
AcDbLine
 10
11.44098636
 20
5.71342929
 30
0.0
 11
11.34793254
 21
5.38892709
 31
0.0
  0
LINE
  5
114E
330
762
100
AcDbEntity
  8
0
100
AcDbLine
 10
11.44098636
 20
5.71342929
 30
0.0
 11
11.34793254
 21
5.38892709
 31
0.0
1001
HATCH_DISTANCE
1040
1.0
1001
HATCH_DISPLAY
1070
     0
1001
HATCH_TYPE
1070
     7
  0
LINE
  5
114F
330
762
100
AcDbEntity
  8
0
100
AcDbLine
 10
11.34793254
 20
5.38892709
 30
0.0
 11
11.44098636
 21
5.71342929
 31
0.0
  0
LINE
  5
1150
330
762
100
AcDbEntity
  8
0
100
AcDbLine
 10
9.27735991
 20
5.71342929
 30
0.0
 11
10.22904881
 21
5.71342929
 31
0.0
  0
LINE
  5
1151
330
762
100
AcDbEntity
  8
0
100
AcDbLine
 10
9.14097135
 20
4.70262217
 30
0.0
 11
10.15177847
 21
5.71342929
 31
0.0
  0
LINE
  5
1152
330
762
100
AcDbEntity
  8
0
100
AcDbLine
 10
9.19277061
 20
5.41841919
 30
0.0
 11
9.34622307
 21
5.41841919
 31
0.0
  0
LINE
  5
1153
330
762
100
AcDbEntity
  8
0
100
AcDbLine
 10
9.20129301
 20
5.41841919
 30
0.0
 11
9.49630311
 21
5.71342929
 31
0.0
  0
LINE
  5
1154
330
762
100
AcDbEntity
  8
0
100
AcDbLine
 10
9.27272993
 20
5.16211843
 30
0.0
 11
9.82404078
 21
5.71342929
 31
0.0
  0
LINE
  5
1155
330
762
100
AcDbEntity
  8
0
100
AcDbLine
 10
9.27735991
 20
5.71342929
 30
0.0
 11
9.19277061
 21
5.41841919
 31
0.0
  0
LINE
  5
1156
330
762
100
AcDbEntity
  8
0
100
AcDbLine
 10
9.12391858
 20
5.71342929
 30
0.0
 11
9.03932926
 21
5.41841919
 31
0.0
  0
LINE
  5
1157
330
762
100
AcDbEntity
  8
0
100
AcDbLine
 10
8.16967661
 20
5.37001583
 30
0.0
 11
8.51308924
 21
5.71342846
 31
0.0
  0
LINE
  5
1158
330
762
100
AcDbEntity
  8
0
100
AcDbLine
 10
8.54581765
 20
5.41841919
 30
0.0
 11
8.84082775
 21
5.71342929
 31
0.0
  0
LINE
  5
1159
330
762
100
AcDbEntity
  8
0
100
AcDbLine
 10
8.51468618
 20
5.71342929
 30
0.0
 11
9.12391858
 21
5.71342929
 31
0.0
  0
LINE
  5
115A
330
762
100
AcDbEntity
  8
0
100
AcDbLine
 10
8.87355533
 20
5.41841919
 30
0.0
 11
9.10597051
 21
5.65083436
 31
0.0
  0
LINE
  5
115B
330
762
100
AcDbEntity
  8
0
100
AcDbLine
 10
8.51468618
 20
5.41841919
 30
0.0
 11
9.03932926
 21
5.41841919
 31
0.0
  0
LINE
  5
115C
330
762
100
AcDbEntity
  8
0
100
AcDbLine
 10
12.06852918
 20
4.35280319
 30
0.0
 11
13.40508243
 21
5.68935644
 31
0.0
  0
LINE
  5
115D
330
762
100
AcDbEntity
  8
0
100
AcDbLine
 10
12.02209045
 20
3.97862679
 30
0.0
 11
12.98402042
 21
4.94055676
 31
0.0
  0
ARC
  5
115E
330
762
100
AcDbEntity
  8
0
100
AcDbCircle
 10
14.54765832
 20
3.96672402
 30
0.0
 40
2.509011449999999
100
AcDbArc
 50
155.20517737
 51
172.79482596
  0
ARC
  5
115F
330
762
100
AcDbEntity
  8
0
100
AcDbCircle
 10
14.50335336
 20
4.1646374
 30
0.0
 40
1.253781787499995
100
AcDbArc
 50
270.0
 51
104.1274365
  0
ARC
  5
1160
330
762
100
AcDbEntity
  8
0
100
AcDbCircle
 10
14.50335336
 20
4.1646374
 30
0.0
 40
1.548791887499996
100
AcDbArc
 50
270.0
 51
104.77079397
  0
LINE
  5
1161
330
762
100
AcDbEntity
  8
0
100
AcDbLine
 10
15.73254991
 20
4.41170945
 30
0.0
 11
15.97331091
 21
4.65247045
 31
0.0
  0
LINE
  5
1162
330
762
100
AcDbEntity
  8
0
100
AcDbLine
 10
12.65066364
 20
3.77801023
 30
0.0
 11
13.04825012
 21
5.16455101
 31
0.0
  0
LINE
  5
1163
330
762
100
AcDbEntity
  8
0
100
AcDbLine
 10
14.26442331
 20
2.61584517
 30
0.0
 11
14.56074813
 21
2.91216999
 31
0.0
  0
LINE
  5
1164
330
762
100
AcDbEntity
  8
0
100
AcDbLine
 10
14.59486736
 20
2.61855153
 30
0.0
 11
14.98222528
 21
3.00590946
 31
0.0
  0
LINE
  5
1165
330
762
100
AcDbEntity
  8
0
100
AcDbLine
 10
13.29456987
 20
4.26789316
 30
0.0
 11
13.58957996
 21
4.56290326
 31
0.0
  0
LINE
  5
1166
330
762
100
AcDbEntity
  8
0
100
AcDbLine
 10
13.3605713
 20
4.00615691
 30
0.0
 11
13.91731765
 21
4.56290326
 31
0.0
  0
LINE
  5
1167
330
762
100
AcDbEntity
  8
0
100
AcDbLine
 10
13.21190775
 20
3.52975568
 30
0.0
 11
14.08936912
 21
4.40721706
 31
0.0
  0
LINE
  5
1168
330
762
100
AcDbEntity
  8
0
100
AcDbLine
 10
13.19010845
 20
4.26789316
 30
0.0
 11
13.4356235
 21
4.26789316
 31
0.0
  0
LINE
  5
1169
330
762
100
AcDbEntity
  8
0
100
AcDbLine
 10
13.24618577
 20
3.60725007
 30
0.0
 11
13.4356235
 21
4.26789316
 31
0.0
  0
LINE
  5
116A
330
762
100
AcDbEntity
  8
0
100
AcDbLine
 10
13.27469776
 20
4.56290326
 30
0.0
 11
14.13401157
 21
4.56290326
 31
0.0
  0
LINE
  5
116B
330
762
100
AcDbEntity
  8
0
100
AcDbLine
 10
13.19010845
 20
4.26789316
 30
0.0
 11
13.27469776
 21
4.56290326
 31
0.0
  0
LINE
  5
116C
330
762
100
AcDbEntity
  8
0
100
AcDbLine
 10
13.54928363
 20
3.2116562
 30
0.0
 11
13.82585114
 21
3.48822372
 31
0.0
  0
LINE
  5
116D
330
762
100
AcDbEntity
  8
0
100
AcDbLine
 10
11.97025956
 20
2.61584517
 30
0.0
 11
12.26526964
 21
2.91085527
 31
0.0
  0
LINE
  5
116E
330
762
100
AcDbEntity
  8
0
100
AcDbLine
 10
12.07422862
 20
3.70302728
 30
0.0
 11
12.85226098
 21
4.48105964
 31
0.0
  0
LINE
  5
116F
330
762
100
AcDbEntity
  8
0
100
AcDbLine
 10
15.00255523
 20
2.69850173
 30
0.0
 11
15.96948901
 21
3.66543551
 31
0.0
  0
LINE
  5
1170
330
762
100
AcDbEntity
  8
0
100
AcDbLine
 10
15.75582076
 20
4.10724262
 30
0.0
 11
16.03603351
 21
4.38745536
 31
0.0
  0
LINE
  5
1171
330
762
100
AcDbEntity
  8
0
100
AcDbLine
 10
15.6620813
 20
3.68576547
 30
0.0
 11
16.04943921
 21
4.0731234
 31
0.0
  0
LINE
  5
1172
330
762
100
AcDbEntity
  8
0
100
AcDbLine
 10
12.76495248
 20
3.08280042
 30
0.0
 11
13.11129917
 21
3.4291471
 31
0.0
  0
LINE
  5
1173
330
762
100
AcDbEntity
  8
0
100
AcDbLine
 10
12.62573492
 20
2.61584517
 30
0.0
 11
12.920745
 21
2.91085527
 31
0.0
  0
ARC
  5
1174
330
762
100
AcDbEntity
  8
0
100
AcDbCircle
 10
12.9484247
 20
3.69263015
 30
0.0
 40
0.3097602395507813
100
AcDbArc
 50
164.00027306
 51
344.00027306
  0
LINE
  5
1175
330
762
100
AcDbEntity
  8
0
100
AcDbLine
 10
12.29799723
 20
2.61584517
 30
0.0
 11
12.59300733
 21
2.91085527
 31
0.0
  0
LINE
  5
1176
330
762
100
AcDbEntity
  8
0
100
AcDbLine
 10
12.18310097
 20
3.48416195
 30
0.0
 11
12.72050154
 21
4.02156252
 31
0.0
  0
LINE
  5
1177
330
762
100
AcDbEntity
  8
0
100
AcDbLine
 10
12.33474133
 20
3.30806463
 30
0.0
 11
12.64717899
 21
3.62050229
 31
0.0
  0
LINE
  5
1178
330
762
100
AcDbEntity
  8
0
100
AcDbLine
 10
12.52672805
 20
3.17231367
 30
0.0
 11
12.78432366
 21
3.42990928
 31
0.0
  0
LINE
  5
1179
330
762
100
AcDbEntity
  8
0
100
AcDbLine
 10
13.07272376
 20
3.06283402
 30
0.0
 11
13.95761013
 21
3.94772039
 31
0.0
  0
LINE
  5
117A
330
762
100
AcDbEntity
  8
0
100
AcDbLine
 10
13.70258937
 20
3.05836031
 30
0.0
 11
14.13401157
 21
4.56290326
 31
0.0
  0
LINE
  5
117B
330
762
100
AcDbEntity
  8
0
100
AcDbLine
 10
13.52953491
 20
3.23140365
 30
0.0
 11
13.70258937
 21
3.05836031
 31
0.0
  0
LINE
  5
117C
330
762
100
AcDbEntity
  8
0
100
AcDbLine
 10
13.28121028
 20
2.61584517
 30
0.0
 11
13.57622036
 21
2.91085527
 31
0.0
  0
LINE
  5
117D
330
762
100
AcDbEntity
  8
0
100
AcDbLine
 10
12.95347259
 20
2.61584517
 30
0.0
 11
13.24848269
 21
2.91085527
 31
0.0
  0
LINE
  5
117E
330
762
100
AcDbEntity
  8
0
100
AcDbLine
 10
13.60894795
 20
2.61584517
 30
0.0
 11
13.90395805
 21
2.91085527
 31
0.0
  0
LINE
  5
117F
330
762
100
AcDbEntity
  8
0
100
AcDbLine
 10
13.93668563
 20
2.61584517
 30
0.0
 11
14.23169572
 21
2.91085527
 31
0.0
  0
ARC
  5
1180
330
762
100
AcDbEntity
  8
0
100
AcDbCircle
 10
13.34601118
 20
5.07915979
 30
0.0
 40
0.3097604570800781
100
AcDbArc
 50
1.71012138
 51
163.99839835
  0
LINE
  5
1181
330
762
100
AcDbEntity
  8
0
100
AcDbLine
 10
14.44367477
 20
5.41699806
 30
0.0
 11
14.72426953
 21
5.69759283
 31
0.0
  0
LINE
  5
1182
330
762
100
AcDbEntity
  8
0
100
AcDbLine
 10
14.19732827
 20
5.38050714
 30
0.0
 11
14.19732827
 21
5.38050714
 31
0.0
  0
LINE
  5
1183
330
762
100
AcDbEntity
  8
0
100
AcDbLine
 10
14.10848443
 20
5.66225248
 30
0.0
 11
14.19732827
 21
5.38050714
 31
0.0
  0
LINE
  5
1184
330
762
100
AcDbEntity
  8
0
100
AcDbLine
 10
14.10848443
 20
5.66225248
 30
0.0
 11
14.10848443
 21
5.66225248
 31
0.0
  0
LINE
  5
1185
330
762
100
AcDbEntity
  8
0
100
AcDbLine
 10
14.19732827
 20
5.38050714
 30
0.0
 11
14.10848443
 21
5.66225248
 31
0.0
  0
LINE
  5
1186
330
762
100
AcDbEntity
  8
0
100
AcDbLine
 10
14.19732827
 20
5.38050714
 30
0.0
 11
14.19732827
 21
5.38050714
 31
0.0
1001
HATCH_DISTANCE
1040
1.0
1001
HATCH_DISPLAY
1070
     0
1001
HATCH_TYPE
1070
     7
  0
LINE
  5
1187
330
762
100
AcDbEntity
  8
0
100
AcDbLine
 10
14.10848443
 20
5.66225248
 30
0.0
 11
14.19732827
 21
5.38050714
 31
0.0
1001
HATCH_DISTANCE
1040
1.0
1001
HATCH_DISPLAY
1070
     0
1001
HATCH_TYPE
1070
     7
  0
LINE
  5
1188
330
762
100
AcDbEntity
  8
0
100
AcDbLine
 10
14.10848443
 20
5.66225248
 30
0.0
 11
14.10848443
 21
5.66225248
 31
0.0
1001
HATCH_DISTANCE
1040
1.0
1001
HATCH_DISPLAY
1070
     0
1001
HATCH_TYPE
1070
     7
  0
LINE
  5
1189
330
762
100
AcDbEntity
  8
0
100
AcDbLine
 10
14.19732827
 20
5.38050714
 30
0.0
 11
14.10848443
 21
5.66225248
 31
0.0
1001
HATCH_DISTANCE
1040
1.0
1001
HATCH_DISPLAY
1070
     0
1001
HATCH_TYPE
1070
     7
  0
LINE
  5
118A
330
762
100
AcDbEntity
  8
0
100
AcDbLine
 10
14.19732827
 20
5.38050714
 30
0.0
 11
14.19732827
 21
5.38050714
 31
0.0
  0
LINE
  5
118B
330
762
100
AcDbEntity
  8
0
100
AcDbLine
 10
14.10848443
 20
5.66225248
 30
0.0
 11
14.19732827
 21
5.38050714
 31
0.0
  0
LINE
  5
118C
330
762
100
AcDbEntity
  8
0
100
AcDbLine
 10
14.10848443
 20
5.66225248
 30
0.0
 11
14.10848443
 21
5.66225248
 31
0.0
  0
LINE
  5
118D
330
762
100
AcDbEntity
  8
0
100
AcDbLine
 10
14.19732827
 20
5.38050714
 30
0.0
 11
14.10848443
 21
5.66225248
 31
0.0
  0
LINE
  5
118E
330
762
100
AcDbEntity
  8
0
100
AcDbLine
 10
14.19732827
 20
5.38050714
 30
0.0
 11
14.19732827
 21
5.38050714
 31
0.0
1001
HATCH_DISTANCE
1040
1.0
1001
HATCH_DISPLAY
1070
     0
1001
HATCH_TYPE
1070
     7
  0
LINE
  5
118F
330
762
100
AcDbEntity
  8
0
100
AcDbLine
 10
14.10848443
 20
5.66225248
 30
0.0
 11
14.19732827
 21
5.38050714
 31
0.0
1001
HATCH_DISTANCE
1040
1.0
1001
HATCH_DISPLAY
1070
     0
1001
HATCH_TYPE
1070
     7
  0
LINE
  5
1190
330
762
100
AcDbEntity
  8
0
100
AcDbLine
 10
14.10848443
 20
5.66225248
 30
0.0
 11
14.10848443
 21
5.66225248
 31
0.0
1001
HATCH_DISTANCE
1040
1.0
1001
HATCH_DISPLAY
1070
     0
1001
HATCH_TYPE
1070
     7
  0
LINE
  5
1191
330
762
100
AcDbEntity
  8
0
100
AcDbLine
 10
14.19732827
 20
5.38050714
 30
0.0
 11
14.10848443
 21
5.66225248
 31
0.0
1001
HATCH_DISTANCE
1040
1.0
1001
HATCH_DISPLAY
1070
     0
1001
HATCH_TYPE
1070
     7
  0
LINE
  5
1192
330
762
100
AcDbEntity
  8
0
100
AcDbLine
 10
13.42273242
 20
5.37926876
 30
0.0
 11
13.64363398
 21
5.60017032
 31
0.0
  0
LINE
  5
1193
330
762
100
AcDbEntity
  8
0
100
AcDbLine
 10
13.61091496
 20
5.23971362
 30
0.0
 11
13.97290981
 21
5.60170847
 31
0.0
  0
LINE
  5
1194
330
762
100
AcDbEntity
  8
0
100
AcDbLine
 10
14.02076543
 20
5.32182641
 30
0.0
 11
14.05148058
 21
5.35254155
 31
0.0
  0
LINE
  5
1195
330
762
100
AcDbEntity
  8
0
100
AcDbLine
 10
14.0566505
 20
5.33614647
 30
0.0
 11
13.96780666
 21
5.61789181
 31
0.0
  0
ARC
  5
1196
330
762
100
AcDbEntity
  8
0
100
AcDbCircle
 10
14.50335336
 20
4.1646374
 30
0.0
 40
1.253785267968747
100
AcDbArc
 50
110.8721834
 51
132.54194894
  0
ARC
  5
1197
330
762
100
AcDbEntity
  8
0
100
AcDbCircle
 10
14.50335336
 20
4.1646374
 30
0.0
 40
1.548792583593745
100
AcDbArc
 50
110.22964506
 51
118.57168892
  0
LINE
  5
1198
330
762
100
AcDbEntity
  8
0
100
AcDbLine
 10
14.19732827
 20
5.38050714
 30
0.0
 11
14.10848443
 21
5.66225248
 31
0.0
  0
LINE
  5
1199
330
762
100
AcDbEntity
  8
0
100
AcDbLine
 10
14.16906759
 20
5.47012857
 30
0.0
 11
14.40952346
 21
5.71058444
 31
0.0
  0
LINE
  5
119A
330
762
100
AcDbEntity
  8
0
100
AcDbLine
 10
14.74861154
 20
5.39419715
 30
0.0
 11
14.98955105
 21
5.63513667
 31
0.0
  0
ARC
  5
119B
330
762
100
AcDbEntity
  8
0
100
AcDbCircle
 10
13.1915786
 20
4.7546576
 30
0.0
 40
0.9587730796874998
100
AcDbArc
 50
53.4440122
 51
164.00018439
  0
LINE
  5
119C
330
762
100
AcDbEntity
  8
0
100
AcDbLine
 10
12.17733574
 20
4.78934743
 30
0.0
 11
13.09671434
 21
5.70872604
 31
0.0
  0
LINE
  5
119D
330
762
100
AcDbEntity
  8
0
100
AcDbLine
 10
14.99860972
 20
5.31645766
 30
0.0
 11
15.2198724
 21
5.53772034
 31
0.0
  0
LINE
  5
119E
330
762
100
AcDbEntity
  8
0
100
AcDbLine
 10
15.65451816
 20
4.66141537
 30
0.0
 11
15.87568916
 21
4.88258637
 31
0.0
  0
LINE
  5
119F
330
762
100
AcDbEntity
  8
0
100
AcDbLine
 10
15.38936652
 20
5.0517391
 30
0.0
 11
15.5979702
 21
5.26034277
 31
0.0
  0
LINE
  5
11A0
330
762
100
AcDbEntity
  8
0
100
AcDbLine
 10
15.53806158
 20
4.87269647
 30
0.0
 11
15.74959216
 21
5.08422706
 31
0.0
  0
LINE
  5
11A1
330
762
100
AcDbEntity
  8
0
100
AcDbLine
 10
15.21011917
 20
5.20022942
 30
0.0
 11
15.42168975
 21
5.4118
 31
0.0
  0
LINE
  5
11A2
330
762
100
AcDbEntity
  8
241
100
AcDbLine
 10
50.0
 20
-6.2
 30
0.0
 11
50.0
 21
0.0
 31
0.0
  0
LINE
  5
11A3
330
762
100
AcDbEntity
  8
240
100
AcDbLine
 10
70.0
 20
-7.0
 30
0.0
 11
70.0
 21
0.0
 31
0.0
  0
LINE
  5
11A4
330
762
100
AcDbEntity
  8
241
100
AcDbLine
 10
54.2
 20
-8.0
 30
0.0
 11
54.2
 21
0.0
 31
0.0
  0
LINE
  5
11A5
330
762
100
AcDbEntity
  8
241
100
AcDbLine
 10
53.0
 20
-8.15
 30
0.0
 11
53.0
 21
0.0
 31
0.0
  0
LINE
  5
11A6
330
762
100
AcDbEntity
  8
241
100
AcDbLine
 10
51.0
 20
-6.2
 30
0.0
 11
51.0
 21
0.0
 31
0.0
  0
LINE
  5
11A7
330
762
100
AcDbEntity
  8
240
100
AcDbLine
 10
53.15
 20
-8.0
 30
0.0
 11
69.0
 21
-8.0
 31
0.0
  0
LINE
  5
11A8
330
762
100
AcDbEntity
  8
240
100
AcDbLine
 10
51.0
 20
-6.2
 30
0.0
 11
51.0
 21
-8.15
 31
0.0
  0
LINE
  5
11A9
330
762
100
AcDbEntity
  8
240
100
AcDbLine
 10
50.0
 20
-6.2
 30
0.0
 11
50.0
 21
-8.0
 31
0.0
  0
LINE
  5
11AA
330
762
100
AcDbEntity
  8
240
100
AcDbLine
 10
53.15
 20
-8.0
 30
0.0
 11
53.0
 21
-8.15
 31
0.0
  0
LINE
  5
11AB
330
762
100
AcDbEntity
  8
240
100
AcDbLine
 10
51.0
 20
-8.15
 30
0.0
 11
53.0
 21
-8.15
 31
0.0
  0
LINE
  5
11AC
330
762
100
AcDbEntity
  8
240
100
AcDbLine
 10
51.0
 20
-6.2
 30
0.0
 11
50.0
 21
-6.2
 31
0.0
  0
ARC
  5
11AD
330
762
100
AcDbEntity
  8
240
100
AcDbCircle
 10
69.0
 20
-7.0
 30
0.0
 40
1.0
100
AcDbArc
 50
270.0
 51
0.0
1001
GENIUS_GENODEF_13
1002
{
1000
HIER
1070
     0
1002
}
1002
{
1000
MANEDIT
1070
     0
1002
}
1002
{
1000
NOSEL
1070
     0
1002
}
1002
{
1000
BEHIND
1070
     0
1002
}
1002
{
1000
OTHER
1070
     0
1002
}
1002
{
1000
REACTOR
1002
}
1001
GENIUS_GENOBJ-N-FIL_13
1002
{
1000
OWNER
1000
GEN
1002
}
  0
LINE
  5
11AE
330
762
100
AcDbEntity
  8
240
100
AcDbLine
 10
53.15
 20
8.0
 30
0.0
 11
69.0
 21
8.0
 31
0.0
  0
LINE
  5
11AF
330
762
100
AcDbEntity
  8
241
  6
HIDDEN2
100
AcDbLine
 10
57.0
 20
2.5
 30
0.0
 11
70.0
 21
2.5
 31
0.0
  0
LINE
  5
11B0
330
762
100
AcDbEntity
  8
244
  6
HIDDEN2
100
AcDbLine
 10
48.0
 20
0.0
 30
0.0
 11
52.0
 21
2.8991378
 31
0.0
  0
LINE
  5
11B1
330
762
100
AcDbEntity
  8
241
  6
HIDDEN2
100
AcDbLine
 10
48.0
 20
2.8991378
 30
0.0
 11
52.0
 21
2.8991378
 31
0.0
  0
LINE
  5
11B2
330
762
100
AcDbEntity
  8
244
  6
HIDDEN2
100
AcDbLine
 10
48.0
 20
2.8991378
 30
0.0
 11
52.0
 21
0.0
 31
0.0
  0
LINE
  5
11B3
330
762
100
AcDbEntity
  8
241
  6
HIDDEN2
100
AcDbLine
 10
48.0
 20
2.8991378
 30
0.0
 11
48.0
 21
0.0
 31
0.0
  0
LINE
  5
11B4
330
762
100
AcDbEntity
  8
241
100
AcDbLine
 10
51.0
 20
6.2
 30
0.0
 11
51.0
 21
0.0
 31
0.0
  0
LINE
  5
11B5
330
762
100
AcDbEntity
  8
241
100
AcDbLine
 10
53.0
 20
8.15
 30
0.0
 11
53.0
 21
0.0
 31
0.0
  0
LINE
  5
11B6
330
762
100
AcDbEntity
  8
241
100
AcDbLine
 10
54.2
 20
8.0
 30
0.0
 11
54.2
 21
0.0
 31
0.0
  0
LINE
  5
11B7
330
762
100
AcDbEntity
  8
241
100
AcDbLine
 10
50.0
 20
6.2
 30
0.0
 11
50.0
 21
0.0
 31
0.0
  0
LINE
  5
11B8
330
762
100
AcDbEntity
  8
241
  6
HIDDEN2
100
AcDbLine
 10
52.0
 20
2.8
 30
0.0
 11
57.0
 21
2.8
 31
0.0
1001
GRPNAME
1000
0000002S
  0
LINE
  5
11B9
330
762
100
AcDbEntity
  8
241
  6
HIDDEN2
100
AcDbLine
 10
52.0
 20
2.8991378
 30
0.0
 11
52.0
 21
0.0
 31
0.0
  0
LINE
  5
11BA
330
762
100
AcDbEntity
  8
241
  6
HIDDEN2
100
AcDbLine
 10
57.0
 20
2.8
 30
0.0
 11
57.0
 21
0.0
 31
0.0
  0
LINE
  5
11BB
330
762
100
AcDbEntity
  8
240
100
AcDbLine
 10
53.15
 20
8.0
 30
0.0
 11
53.0
 21
8.15
 31
0.0
  0
LINE
  5
11BC
330
762
100
AcDbEntity
  8
240
100
AcDbLine
 10
50.0
 20
6.2
 30
0.0
 11
50.0
 21
8.0
 31
0.0
  0
LINE
  5
11BD
330
762
100
AcDbEntity
  8
240
100
AcDbLine
 10
51.0
 20
6.2
 30
0.0
 11
50.0
 21
6.2
 31
0.0
  0
LINE
  5
11BE
330
762
100
AcDbEntity
  8
240
100
AcDbLine
 10
51.0
 20
8.15
 30
0.0
 11
53.0
 21
8.15
 31
0.0
  0
LINE
  5
11BF
330
762
100
AcDbEntity
  8
240
100
AcDbLine
 10
51.0
 20
6.2
 30
0.0
 11
51.0
 21
8.15
 31
0.0
  0
LINE
  5
11C0
330
762
100
AcDbEntity
  8
240
100
AcDbLine
 10
70.0
 20
7.0
 30
0.0
 11
70.0
 21
0.0
 31
0.0
  0
ARC
  5
11C1
330
762
100
AcDbEntity
  8
240
100
AcDbCircle
 10
69.0
 20
7.0
 30
0.0
 40
1.0
100
AcDbArc
 50
359.9999824
 51
90.0
1001
GENIUS_GENODEF_13
1002
{
1000
HIER
1070
     0
1002
}
1002
{
1000
MANEDIT
1070
     0
1002
}
1002
{
1000
NOSEL
1070
     0
1002
}
1002
{
1000
BEHIND
1070
     0
1002
}
1002
{
1000
OTHER
1070
     0
1002
}
1002
{
1000
REACTOR
1002
}
1001
GENIUS_GENOBJ-N-FIL_13
1002
{
1000
OWNER
1000
GEN
1002
}
  0
ENDBLK
  5
8A0
330
762
100
AcDbEntity
  8
0
100
AcDbBlockEnd
  0
BLOCK
  5
8E6
330
8DC
100
AcDbEntity
  8
0
100
AcDbBlockBegin
  2
*D3
 70
     1
 10
0.0
 20
0.0
 30
0.0
  3
*D3
  1

  0
LINE
  5
CDF
330
8DC
100
AcDbEntity
  8
250
  6
CONTINUOUS
100
AcDbLine
 10
0.0
 20
11.14125603
 30
0.0
 11
0.0
 21
22.0
 31
0.0
  0
LINE
  5
CE0
330
8DC
100
AcDbEntity
  8
250
  6
CONTINUOUS
100
AcDbLine
 10
70.0
 20
7.5
 30
0.0
 11
70.0
 21
22.0
 31
0.0
  0
LINE
  5
CE1
330
8DC
100
AcDbEntity
  8
250
  6
CONTINUOUS
100
AcDbLine
 10
2.23
 20
21.0
 30
0.0
 11
67.77
 21
21.0
 31
0.0
  0
INSERT
  5
CE2
330
8DC
100
AcDbEntity
  8
250
  6
CONTINUOUS
100
AcDbBlockReference
  2
_OPEN
 10
0.0
 20
21.0
 30
0.0
 41
2.23
 42
2.23
 43
2.23
 50
180.0
  0
INSERT
  5
CE3
330
8DC
100
AcDbEntity
  8
250
  6
CONTINUOUS
100
AcDbBlockReference
  2
_OPEN
 10
70.0
 20
21.0
 30
0.0
 41
2.23
 42
2.23
 43
2.23
  0
MTEXT
  5
CE4
330
8DC
100
AcDbEntity
  8
250
  6
CONTINUOUS
 62
    40
100
AcDbMText
 10
34.32257157
 20
23.4
 30
0.0
 40
2.8
 41
0.0
 71
     5
 72
     1
  1
\A1;70
1001
ACAD
1000
MTEXTBEGIN
1070
    73
1070
     1
1070
    44
1040
1.0
1070
    74
1070
     0
1000
MTEXTEND
1000
MTEXTBEGIN
1070
    73
1070
     1
1070
    44
1040
1.0
1070
    74
1070
     0
1000
MTEXTEND
  0
POINT
  5
CE5
330
8DC
100
AcDbEntity
  8
DEFPOINTS
  6
CONTINUOUS
 62
     0
100
AcDbPoint
 10
0.0
 20
10.64125603
 30
0.0
  0
POINT
  5
CE6
330
8DC
100
AcDbEntity
  8
DEFPOINTS
  6
CONTINUOUS
 62
     0
100
AcDbPoint
 10
70.0
 20
7.0
 30
0.0
  0
POINT
  5
CE7
330
8DC
100
AcDbEntity
  8
DEFPOINTS
  6
CONTINUOUS
 62
     0
100
AcDbPoint
 10
70.0
 20
21.0
 30
0.0
  0
ENDBLK
  5
8E7
330
8DC
100
AcDbEntity
  8
0
100
AcDbBlockEnd
  0
BLOCK
  5
8F2
330
8E8
100
AcDbEntity
  8
0
100
AcDbBlockBegin
  2
*D4
 70
     1
 10
0.0
 20
0.0
 30
0.0
  3
*D4
  1

  0
LINE
  5
CE8
330
8E8
100
AcDbEntity
  8
250
  6
CONTINUOUS
100
AcDbLine
 10
69.5
 20
-8.0
 30
0.0
 11
88.25
 21
-8.0
 31
0.0
  0
LINE
  5
CE9
330
8E8
100
AcDbEntity
  8
250
  6
CONTINUOUS
100
AcDbLine
 10
69.5
 20
8.0
 30
0.0
 11
88.25
 21
8.0
 31
0.0
  0
LINE
  5
CEA
330
8E8
100
AcDbEntity
  8
250
  6
CONTINUOUS
100
AcDbLine
 10
87.25
 20
-5.77
 30
0.0
 11
87.25
 21
5.77
 31
0.0
  0
INSERT
  5
CEB
330
8E8
100
AcDbEntity
  8
250
  6
CONTINUOUS
100
AcDbBlockReference
  2
_OPEN
 10
87.25
 20
-8.0
 30
0.0
 41
2.23
 42
2.23
 43
2.23
 50
270.0
  0
INSERT
  5
CEC
330
8E8
100
AcDbEntity
  8
250
  6
CONTINUOUS
100
AcDbBlockReference
  2
_OPEN
 10
87.25
 20
8.0
 30
0.0
 41
2.23
 42
2.23
 43
2.23
 50
90.0
  0
MTEXT
  5
CED
330
8E8
100
AcDbEntity
  8
250
  6
CONTINUOUS
 62
    40
100
AcDbMText
 10
84.85
 20
0.0
 30
0.0
 40
2.8
 41
0.0
 71
     5
 72
     1
  1
\A1;{\H2.8;\U+2205}16
 11
0.0
 21
1.0
 31
0.0
1001
ACAD
1000
MTEXTBEGIN
1070
    73
1070
     1
1070
    44
1040
1.0
1070
    74
1070
     0
1000
MTEXTEND
1000
MTEXTBEGIN
1070
    73
1070
     1
1070
    44
1040
1.0
1070
    74
1070
     0
1000
MTEXTEND
  0
POINT
  5
CEE
330
8E8
100
AcDbEntity
  8
DEFPOINTS
  6
CONTINUOUS
 62
     0
100
AcDbPoint
 10
69.0
 20
-8.0
 30
0.0
  0
POINT
  5
CEF
330
8E8
100
AcDbEntity
  8
DEFPOINTS
  6
CONTINUOUS
 62
     0
100
AcDbPoint
 10
69.0
 20
8.0
 30
0.0
  0
POINT
  5
CF0
330
8E8
100
AcDbEntity
  8
DEFPOINTS
  6
CONTINUOUS
 62
     0
100
AcDbPoint
 10
87.25
 20
8.0
 30
0.0
  0
ENDBLK
  5
8F3
330
8E8
100
AcDbEntity
  8
0
100
AcDbBlockEnd
  0
ENDSEC
  0
SECTION
  2
ENTITIES
  0
INSERT
  5
6E6
330
1A
100
AcDbEntity
  8
245
100
AcDbBlockReference
  2
矢印なし
 10
175.62382697
 20
90.55123572
 30
0.0
  0
INSERT
  5
8D0
330
1A
100
AcDbEntity
  8
245
100
AcDbBlockReference
  2
矢印なし
 10
357.62382697
 20
237.55123572
 30
0.0
  0
DIMENSION
  5
8D1
330
1A
100
AcDbEntity
  8
250
  6
CONTINUOUS
100
AcDbDimension
  2
*D3
 10
70.0
 20
21.0
 30
0.0
 11
34.32257157
 21
21.0
 31
0.0
 70
   160
  3
BIGT
100
AcDbAlignedDimension
 13
0.0
 23
10.64125603
 33
0.0
 14
70.0
 24
7.0
 34
0.0
100
AcDbRotatedDimension
  0
TEXT
  5
8D2
330
1A
100
AcDbEntity
  8
241
100
AcDbText
 10
-47.5
 20
35.0
 30
0.0
 40
5.0
  1
MGT6-M4-70
  7
YOKO
 11
-47.5
 21
35.0
 31
0.0
100
AcDbText
 73
     1
  0
LINE
  5
8D3
330
1A
100
AcDbEntity
  8
250
  6
CONTINUOUS
100
AcDbLine
 10
56.8414831
 20
14.06872346
 30
0.0
 11
67.82814976
 21
14.06872346
 31
0.0
1001
ITEMNAME
1000
LNSP2
  0
MTEXT
  5
8D4
330
1A
100
AcDbEntity
  8
251
  6
CONTINUOUS
100
AcDbMText
 10
59.6414831
 20
15.06872346
 30
0.0
 40
2.8
 41
0.0
 71
     7
 72
     1
  1
□4
  7
YOKO
1001
ITEMNAME
1000
LNSP3
1001
ACAD
1000
MTEXTBEGIN
1070
    73
1070
     1
1070
    44
1040
1.0
1070
    74
1070
     0
1000
MTEXTEND
1000
MTEXTBEGIN
1070
    73
1070
     1
1070
    44
1040
1.0
1070
    74
1070
     0
1000
MTEXTEND
1000
MTEXTBEGIN
1070
    73
1070
     1
1070
    44
1040
1.0
1070
    74
1070
     0
1000
MTEXTEND
1000
MTEXTBEGIN
1070
    73
1070
     1
1070
    44
1040
1.0
1070
    74
1070
     0
1000
MTEXTEND
  0
LEADER
  5
8D5
330
1A
100
AcDbEntity
  8
250
  6
CONTINUOUS
100
AcDbLeader
  3
BIGT
 76
     2
 10
51.63704303
 20
2.8991378
 30
0.0
 10
56.8414831
 20
14.06872346
 30
0.0
1001
ACAD
1000
DSTYLE
1002
{
1070
     6
1000
OPEN
1070
    41
1040
2.0
1070
    42
1040
2.0
1070
    44
1040
2.0
1070
   140
1040
4.0
1070
   343
1005
594
1002
}
  0
DIMENSION
  5
8D6
330
1A
100
AcDbEntity
  8
250
  6
CONTINUOUS
100
AcDbDimension
  2
*D4
 10
87.25
 20
8.0
 30
0.0
 11
84.85
 21
0.0
 31
0.0
 70
    32
  1
{\H2.8;\U+2205}<>
  3
BIGT
100
AcDbAlignedDimension
 13
69.0
 23
-8.0
 33
0.0
 14
69.0
 24
8.0
 34
0.0
 50
90.0
100
AcDbRotatedDimension
  0
LINE
  5
8D7
330
1A
100
AcDbEntity
  8
250
  6
CONTINUOUS
100
AcDbLine
 10
80.25
 20
-2.5
 30
0.0
 11
80.25
 21
2.5
 31
0.0
  0
MTEXT
  5
8D8
330
1A
100
AcDbEntity
  8
250
  6
CONTINUOUS
 62
    40
100
AcDbMText
 10
77.85
 20
-0.57085465
 30
0.0
 40
2.8
 41
0.0
 71
     5
 72
     1
  1
\A1;{\H2.8;\U+2205}5
 11
0.0
 21
1.0
 31
0.0
1001
ACAD
1000
MTEXTBEGIN
1070
    73
1070
     1
1070
    44
1040
1.0
1070
    74
1070
     0
1000
MTEXTEND
1000
MTEXTBEGIN
1070
    73
1070
     1
1070
    44
1040
1.0
1070
    74
1070
     0
1000
MTEXTEND
1000
MTEXTBEGIN
1070
    73
1070
     1
1070
    44
1040
1.0
1070
    74
1070
     0
1000
MTEXTEND
1000
MTEXTBEGIN
1070
    73
1070
     1
1070
    44
1040
1.0
1070
    74
1070
     0
1000
MTEXTEND
1000
MTEXTBEGIN
1070
    73
1070
     1
1070
    44
1040
1.0
1070
    74
1070
     0
1000
MTEXTEND
1000
MTEXTBEGIN
1070
    73
1070
     1
1070
    44
1040
1.0
1070
    74
1070
     0
1000
MTEXTEND
  0
LINE
  5
8D9
330
1A
100
AcDbEntity
  8
250
  6
CONTINUOUS
100
AcDbLine
 10
70.5
 20
2.5
 30
0.0
 11
81.25
 21
2.5
 31
0.0
  0
INSERT
  5
8DA
330
1A
100
AcDbEntity
  8
250
  6
CONTINUOUS
100
AcDbBlockReference
  2
_OPEN
 10
80.25
 20
2.5
 30
0.0
 41
2.23
 42
2.23
 43
2.23
 50
90.0
  0
INSERT
  5
11C2
330
1A
100
AcDbEntity
  8
245
100
AcDbBlockReference
  2
1
 10
0.0
 20
0.0
 30
0.0
  0
VIEWPORT
  5
22
330
17
100
AcDbEntity
 67
     1
  8
0
100
AcDbViewport
 10
261.51769912
 20
148.5
 30
0.0
 40
523.03539823
 41
297.0
 68
     1
 69
     1
1001
ACAD
1000
MVIEW
1002
{
1070
    16
1010
0.0
1020
0.0
1030
0.0
1010
0.0
1020
0.0
1030
1.0
1040
0.0
1040
297.0
1040
261.51769912
1040
148.5
1040
50.0
1040
0.0
1040
0.0
1070
     0
1070
   100
1070
     1
1070
     1
1070
     0
1070
     0
1070
     0
1070
     0
1040
0.0
1040
0.0
1040
0.0
1040
1.0
1040
1.0
1040
10.0
1040
10.0
1070
     0
1002
{
1002
}
1002
}
  0
ENDSEC
  0
SECTION
  2
OBJECTS
  0
DICTIONARY
  5
C
330
0
100
AcDbDictionary
  3
ACAD_GROUP
350
D
  3
ACAD_LAYOUT
350
565
  3
ACAD_MLINESTYLE
350
E
  3
ACAD_PLOTSETTINGS
350
566
  3
ACAD_PLOTSTYLENAME
350
563
  3
ACDBHEADERROUNDTRIPXREC
350
11C4
  3
GRADE_DWG
350
540
  0
DICTIONARY
  5
E7B
330
1A
100
AcDbDictionary
280
     1
  3
ACAD_LAYOUTSELFREF
360
11E6
  0
DICTIONARY
  5
E79
330
17
100
AcDbDictionary
280
     1
  3
ACAD_LAYOUTSELFREF
360
11E5
  0
DICTIONARY
  5
D
102
{ACAD_REACTORS
330
C
102
}
330
C
100
AcDbDictionary
  3
*A1
350
6C7
  3
*A2
350
6C8
  3
*A3
350
6D4
  3
*A4
350
6D5
  3
DREC-1
350
5FC
  3
DREC-2
350
654
  3
DREC-3
350
673
  0
DICTIONARY
  5
565
102
{ACAD_REACTORS
330
C
102
}
330
C
100
AcDbDictionary
  0
DICTIONARY
  5
E
102
{ACAD_REACTORS
330
C
102
}
330
C
100
AcDbDictionary
  3
STANDARD
350
13
  0
DICTIONARY
  5
566
102
{ACAD_REACTORS
330
C
102
}
330
C
100
AcDbDictionary
  3
A3_0_5倍_
350
758
  3
A3_1倍_
350
757
  3
A3_1倍__2000_
350
707
  3
A3_2倍_
350
759
  3
A4_0_5倍_
350
755
  3
A4_1倍_
350
754
  3
A4_1倍__2000_
350
708
  3
A4_2倍_
350
756
  0
ACDBDICTIONARYWDFLT
  5
563
102
{ACAD_REACTORS
330
C
102
}
330
C
100
AcDbDictionary
281
     1
  3
Normal
350
564
100
AcDbDictionaryWithDefault
340
564
  0
DICTIONARY
  5
11C4
102
{ACAD_REACTORS
330
C
102
}
330
C
100
AcDbDictionary
  3
CEPSNTYPE
350
11CE
  3
DIMSTYLEDATA
350
11D2
  3
FINGERPRINTGUID
350
11CF
  3
HYPERLINKBASE
350
11C7
  3
INSUNITS
350
11CD
  3
LAYOUTDICT
350
11C9
  3
LWETCUNION
350
11CC
  3
PLOTSETDICT
350
11CA
  3
PLOTSTYLNAMDICT
350
11CB
  3
PSVPSCALE
350
11D1
  3
PUCSBASE
350
11D5
  3
PUCSORGBACK
350
11DB
  3
PUCSORGBOTTOM
350
11D7
  3
PUCSORGFRONT
350
11DA
  3
PUCSORGLEFT
350
11D8
  3
PUCSORGRIGHT
350
11D9
  3
PUCSORGTOP
350
11D6
  3
PUCSORTHOREF
350
11D3
  3
PUCSORTHOVIEW
350
11D4
  3
STYLESHEET
350
11C8
  3
TSTACKALIGN
350
11C5
  3
TSTACKSIZE
350
11C6
  3
UCSBASE
350
11DE
  3
UCSORGBACK
350
11E4
  3
UCSORGBOTTOM
350
11E0
  3
UCSORGFRONT
350
11E3
  3
UCSORGLEFT
350
11E1
  3
UCSORGRIGHT
350
11E2
  3
UCSORGTOP
350
11DF
  3
UCSORTHOREF
350
11DC
  3
UCSORTHOVIEW
350
11DD
  3
VERSIONGUID
350
11D0
  0
DICTIONARY
  5
540
102
{ACAD_REACTORS
330
C
102
}
330
C
100
AcDbDictionary
  3
VERSION
350
560
  0
XRECORD
  5
11E6
102
{ACAD_REACTORS
330
E7B
102
}
330
E7B
100
AcDbXrecord
340
1A
  0
XRECORD
  5
11E5
102
{ACAD_REACTORS
330
E79
102
}
330
E79
100
AcDbXrecord
340
17
  0
GROUP
  5
6C7
102
{ACAD_REACTORS
330
D
102
}
330
D
100
AcDbGroup
300

 70
     0
 71
     1
1001
GRPNAME
1000
DMA00
  0
GROUP
  5
6C8
102
{ACAD_REACTORS
330
D
102
}
330
D
100
AcDbGroup
300

 70
     0
 71
     1
1001
GRPNAME
1000
DMA00
  0
GROUP
  5
6D4
102
{ACAD_REACTORS
330
D
102
}
330
D
100
AcDbGroup
300

 70
     0
 71
     1
1001
GRPNAME
1000
DMA00
  0
GROUP
  5
6D5
102
{ACAD_REACTORS
330
D
102
}
330
D
100
AcDbGroup
300

 70
     0
 71
     1
1001
GRPNAME
1000
DMA00
  0
GROUP
  5
5FC
102
{ACAD_REACTORS
330
D
102
}
330
D
100
AcDbGroup
300

 70
     0
 71
     1
1001
GRPNAME
1000
DREC-
1001
GPARA
1000
xsiz
1000
44.182
1000
ysiz
1000
40.677
1000
angl
1000
0
1000
ctyp
1000
0
1000
csiz
1000
5
1000
lfnt
1000
cont
1000
hcnt
1000
hoff
1000
vcnt
1000
voff
1000
opnt
1000
4
1000
dxpt
1000
0
1000
dypt
1000
0
  0
GROUP
  5
654
102
{ACAD_REACTORS
330
D
102
}
330
D
100
AcDbGroup
300

 70
     0
 71
     1
1001
GRPNAME
1000
DREC-
1001
GPARA
1000
xsiz
1000
54.592
1000
ysiz
1000
53.036
1000
angl
1000
0
1000
ctyp
1000
0
1000
csiz
1000
5
1000
lfnt
1000
cont
1000
hcnt
1000
hoff
1000
vcnt
1000
voff
1000
opnt
1000
4
1000
dxpt
1000
0
1000
dypt
1000
0
  0
GROUP
  5
673
102
{ACAD_REACTORS
330
D
102
}
330
D
100
AcDbGroup
300

 70
     0
 71
     1
1001
GRPNAME
1000
DREC-
1001
GPARA
1000
xsiz
1000
30.363
1000
ysiz
1000
36.175
1000
angl
1000
0
1000
ctyp
1000
0
1000
csiz
1000
5
1000
lfnt
1000
cont
1000
hcnt
1000
hoff
1000
vcnt
1000
voff
1000
opnt
1000
4
1000
dxpt
1000
0
1000
dypt
1000
0
  0
MLINESTYLE
  5
13
102
{ACAD_REACTORS
330
E
102
}
330
E
100
AcDbMlineStyle
  2
STANDARD
 70
     0
  3

 62
     0
 51
90.0
 52
90.0
 71
     2
 49
0.5
 62
   256
  6
BYLAYER
 49
-0.5
 62
   256
  6
BYLAYER
  0
PLOTSETTINGS
  5
758
102
{ACAD_REACTORS
330
566
102
}
330
566
100
AcDbPlotSettings
  1
A3(0.5倍)
  2
\\AWTECPC05\HP DeskJet 1120C
  4
A3
  6

 40
5.95841646
 41
13.49375153
 42
6.04309082
 43
3.67242432
 44
296.92599487
 45
419.94665527
 46
89.96
 47
127.14
 48
0.0
 49
0.0
140
0.0
141
0.0
142
1.0
143
2.0
 70
  1716
 72
     1
 73
     1
 74
     2
  7
big.ctb
 75
    17
147
0.5
148
0.0
149
0.0
  0
PLOTSETTINGS
  5
757
102
{ACAD_REACTORS
330
566
102
}
330
566
100
AcDbPlotSettings
  1
A3(1倍)
  2
\\AWTECPC05\HP DeskJet 1120C
  4
A3
  6

 40
5.95841646
 41
13.49375153
 42
6.04309082
 43
3.67242432
 44
296.92599487
 45
419.94665527
 46
37.46
 47
52.89
 48
0.0
 49
0.0
140
0.0
141
0.0
142
1.0
143
1.0
 70
  1716
 72
     1
 73
     1
 74
     2
  7
big.ctb
 75
    16
147
1.0
148
0.0
149
0.0
  0
PLOTSETTINGS
  5
707
102
{ACAD_REACTORS
330
566
102
}
330
566
100
AcDbPlotSettings
  1
A3(1倍)(2000)
  2
SII LS-1300 (D-SCAN)
  4
User258
  6

 40
3.17499995
 41
3.17499995
 42
3.17498779
 43
3.17498779
 44
419.98898315
 45
296.98950195
 46
58.32
 47
40.32
 48
0.0
 49
0.0
140
0.0
141
0.0
142
1.0
143
1.0
 70
  1716
 72
     1
 73
     0
 74
     2
  7
big.ctb
 75
    16
147
1.0
148
0.0
149
0.0
  0
PLOTSETTINGS
  5
759
102
{ACAD_REACTORS
330
566
102
}
330
566
100
AcDbPlotSettings
  1
A3(2倍)
  2
\\AWTECPC05\HP DeskJet 1120C
  4
A3
  6

 40
5.95841646
 41
13.49375153
 42
6.04309082
 43
3.67242432
 44
296.92599487
 45
419.94665527
 46
-67.54
 47
-95.61
 48
0.0
 49
0.0
140
0.0
141
0.0
142
1.0
143
0.5
 70
  1716
 72
     1
 73
     1
 74
     2
  7
big.ctb
 75
    27
147
2.0
148
0.0
149
0.0
  0
PLOTSETTINGS
  5
755
102
{ACAD_REACTORS
330
566
102
}
330
566
100
AcDbPlotSettings
  1
A4(0.5倍)
  2
\\AWTECPC05\HP DeskJet 1120C
  4
A4
  6

 40
4.18041658
 41
13.49374962
 42
4.18040466
 43
3.92642212
 44
209.97332764
 45
296.92599487
 46
48.31
 47
65.5
 48
0.0
 49
0.0
140
0.0
141
0.0
142
1.0
143
2.0
 70
  1716
 72
     1
 73
     1
 74
     2
  7
big.ctb
 75
    17
147
0.5
148
0.0
149
0.0
  0
PLOTSETTINGS
  5
754
102
{ACAD_REACTORS
330
566
102
}
330
566
100
AcDbPlotSettings
  1
A4(1倍)
  2
\\AWTECPC05\HP DeskJet 1120C
  4
A4
  6

 40
4.18041658
 41
13.49374962
 42
4.18040466
 43
3.92642212
 44
209.97332764
 45
296.92599487
 46
-4.19
 47
-8.75
 48
0.0
 49
0.0
140
0.0
141
0.0
142
1.0
143
1.0
 70
  1716
 72
     1
 73
     1
 74
     2
  7
big.ctb
 75
    16
147
1.0
148
0.0
149
0.0
  0
PLOTSETTINGS
  5
708
102
{ACAD_REACTORS
330
566
102
}
330
566
100
AcDbPlotSettings
  1
A4(1倍)(2000)
  2
SII LS-1300 (D-SCAN)
  4
User259
  6

 40
3.17499995
 41
3.17499995
 42
3.17498779
 43
3.17500305
 44
296.98950195
 45
209.99449158
 46
-3.18
 47
-3.18
 48
0.0
 49
0.0
140
0.0
141
0.0
142
1.0
143
1.0
 70
  1716
 72
     1
 73
     0
 74
     2
  7
big.ctb
 75
    16
147
1.0
148
0.0
149
0.0
  0
PLOTSETTINGS
  5
756
102
{ACAD_REACTORS
330
566
102
}
330
566
100
AcDbPlotSettings
  1
A4(2倍)
  2
\\AWTECPC05\HP DeskJet 1120C
  4
A4
  6

 40
4.18041658
 41
13.49374962
 42
4.18040466
 43
3.92642212
 44
209.97332764
 45
296.92599487
 46
-109.19
 47
-157.25
 48
0.0
 49
0.0
140
0.0
141
0.0
142
1.0
143
0.5
 70
  1716
 72
     1
 73
     1
 74
     2
  7
big.ctb
 75
    27
147
2.0
148
0.0
149
0.0
  0
ACDBPLACEHOLDER
  5
564
102
{ACAD_REACTORS
330
563
102
}
330
563
100
AcDbPlaceHolder
280
     0
  0
XRECORD
  5
11CE
102
{ACAD_REACTORS
330
11C4
102
}
330
11C4
100
AcDbXrecord
 90
        0
  0
XRECORD
  5
11D2
102
{ACAD_REACTORS
330
11C4
102
}
330
11C4
100
AcDbXrecord
1000
DSTYLE
1002
{
1070
    79
 70
     2
1070
   179
 70
     3
1070
   341
340
594
1070
   343
340
594
1070
   344
340
594
1070
   371
 70
    -1
1070
   372
 70
    -1
1002
}
  0
XRECORD
  5
11CF
102
{ACAD_REACTORS
330
11C4
102
}
330
11C4
100
AcDbXrecord
  1
{51294030-9CB4-11D3-8E18-00A0C925D94D}
  0
XRECORD
  5
11C7
102
{ACAD_REACTORS
330
11C4
102
}
330
11C4
100
AcDbXrecord
  1

  0
XRECORD
  5
11CD
102
{ACAD_REACTORS
330
11C4
102
}
330
11C4
100
AcDbXrecord
 90
        0
  0
XRECORD
  5
11C9
102
{ACAD_REACTORS
330
11C4
102
}
330
11C4
100
AcDbXrecord
340
565
  0
XRECORD
  5
11CC
102
{ACAD_REACTORS
330
11C4
102
}
330
11C4
100
AcDbXrecord
 90
    10781
  0
XRECORD
  5
11CA
102
{ACAD_REACTORS
330
11C4
102
}
330
11C4
100
AcDbXrecord
340
566
  0
XRECORD
  5
11CB
102
{ACAD_REACTORS
330
11C4
102
}
330
11C4
100
AcDbXrecord
340
563
  0
XRECORD
  5
11D1
102
{ACAD_REACTORS
330
11C4
102
}
330
11C4
100
AcDbXrecord
 40
0.0
  0
XRECORD
  5
11D5
102
{ACAD_REACTORS
330
11C4
102
}
330
11C4
100
AcDbXrecord
340
0
  0
XRECORD
  5
11DB
102
{ACAD_REACTORS
330
11C4
102
}
330
11C4
100
AcDbXrecord
 10
0.0
 20
0.0
 30
0.0
  0
XRECORD
  5
11D7
102
{ACAD_REACTORS
330
11C4
102
}
330
11C4
100
AcDbXrecord
 10
0.0
 20
0.0
 30
0.0
  0
XRECORD
  5
11DA
102
{ACAD_REACTORS
330
11C4
102
}
330
11C4
100
AcDbXrecord
 10
0.0
 20
0.0
 30
0.0
  0
XRECORD
  5
11D8
102
{ACAD_REACTORS
330
11C4
102
}
330
11C4
100
AcDbXrecord
 10
0.0
 20
0.0
 30
0.0
  0
XRECORD
  5
11D9
102
{ACAD_REACTORS
330
11C4
102
}
330
11C4
100
AcDbXrecord
 10
0.0
 20
0.0
 30
0.0
  0
XRECORD
  5
11D6
102
{ACAD_REACTORS
330
11C4
102
}
330
11C4
100
AcDbXrecord
 10
0.0
 20
0.0
 30
0.0
  0
XRECORD
  5
11D3
102
{ACAD_REACTORS
330
11C4
102
}
330
11C4
100
AcDbXrecord
340
0
  0
XRECORD
  5
11D4
102
{ACAD_REACTORS
330
11C4
102
}
330
11C4
100
AcDbXrecord
 70
     0
  0
XRECORD
  5
11C8
102
{ACAD_REACTORS
330
11C4
102
}
330
11C4
100
AcDbXrecord
  1
big.ctb
  0
XRECORD
  5
11C5
102
{ACAD_REACTORS
330
11C4
102
}
330
11C4
100
AcDbXrecord
 90
        1
  0
XRECORD
  5
11C6
102
{ACAD_REACTORS
330
11C4
102
}
330
11C4
100
AcDbXrecord
 90
       70
  0
XRECORD
  5
11DE
102
{ACAD_REACTORS
330
11C4
102
}
330
11C4
100
AcDbXrecord
340
0
  0
XRECORD
  5
11E4
102
{ACAD_REACTORS
330
11C4
102
}
330
11C4
100
AcDbXrecord
 10
0.0
 20
0.0
 30
0.0
  0
XRECORD
  5
11E0
102
{ACAD_REACTORS
330
11C4
102
}
330
11C4
100
AcDbXrecord
 10
0.0
 20
0.0
 30
0.0
  0
XRECORD
  5
11E3
102
{ACAD_REACTORS
330
11C4
102
}
330
11C4
100
AcDbXrecord
 10
0.0
 20
0.0
 30
0.0
  0
XRECORD
  5
11E1
102
{ACAD_REACTORS
330
11C4
102
}
330
11C4
100
AcDbXrecord
 10
0.0
 20
0.0
 30
0.0
  0
XRECORD
  5
11E2
102
{ACAD_REACTORS
330
11C4
102
}
330
11C4
100
AcDbXrecord
 10
0.0
 20
0.0
 30
0.0
  0
XRECORD
  5
11DF
102
{ACAD_REACTORS
330
11C4
102
}
330
11C4
100
AcDbXrecord
 10
0.0
 20
0.0
 30
0.0
  0
XRECORD
  5
11DC
102
{ACAD_REACTORS
330
11C4
102
}
330
11C4
100
AcDbXrecord
340
0
  0
XRECORD
  5
11DD
102
{ACAD_REACTORS
330
11C4
102
}
330
11C4
100
AcDbXrecord
 70
     0
  0
XRECORD
  5
11D0
102
{ACAD_REACTORS
330
11C4
102
}
330
11C4
100
AcDbXrecord
  1
{40D24692-D6D7-4232-B95D-90173DF5533B}
  0
XRECORD
  5
560
102
{ACAD_REACTORS
330
540
102
}
330
540
100
AcDbXrecord
  1
2.0.0
  0
ENDSEC
  0
EOF
