  0
SECTION
  2
HEADER
  9
$ACADVER
  1
AC1014
  9
$ACADMAINTVER
 70
     9
  9
$DWGCODEPAGE
  3
ANSI_932
  9
$INSBASE
 10
0.0
 20
0.0
 30
0.0
  9
$EXTMIN
 10
-48.51429639
 20
-11.07006072
 30
-0.00152582
  9
$EXTMAX
 10
48.279679
 20
40.00231253
 30
0.00000003
  9
$LIMMIN
 10
0.0
 20
0.0
  9
$LIMMAX
 10
420.0
 20
297.0
  9
$ORTHOMODE
 70
     1
  9
$REGENMODE
 70
     1
  9
$FILLMODE
 70
     1
  9
$QTEXTMODE
 70
     0
  9
$MIRRTEXT
 70
     1
  9
$DRAGMODE
 70
     2
  9
$LTSCALE
 40
10.0
  9
$OSMODE
 70
   549
  9
$ATTMODE
 70
     1
  9
$TEXTSIZE
 40
3.0
  9
$TRACEWID
 40
1.0
  9
$TEXTSTYLE
  7
YOKO
  9
$CLAYER
  8
245
  9
$CELTYPE
  6
BYLAYER
  9
$CECOLOR
 62
   256
  9
$CELTSCALE
 40
1.0
  9
$DELOBJ
 70
     1
  9
$DISPSILH
 70
     0
  9
$DIMSCALE
 40
1.0
  9
$DIMASZ
 40
2.0
  9
$DIMEXO
 40
2.0
  9
$DIMDLI
 40
2.5
  9
$DIMRND
 40
0.0
  9
$DIMDLE
 40
0.0
  9
$DIMEXE
 40
2.0
  9
$DIMTP
 40
0.0
  9
$DIMTM
 40
0.0
  9
$DIMTXT
 40
4.0
  9
$DIMCEN
 40
0.0
  9
$DIMTSZ
 40
0.0
  9
$DIMTOL
 70
     0
  9
$DIMLIM
 70
     0
  9
$DIMTIH
 70
     0
  9
$DIMTOH
 70
     0
  9
$DIMSE1
 70
     0
  9
$DIMSE2
 70
     0
  9
$DIMTAD
 70
     3
  9
$DIMZIN
 70
     8
  9
$DIMBLK
  1

  9
$DIMASO
 70
     1
  9
$DIMSHO
 70
     1
  9
$DIMPOST
  1

  9
$DIMAPOST
  1

  9
$DIMALT
 70
     0
  9
$DIMALTD
 70
     2
  9
$DIMALTF
 40
25.4
  9
$DIMLFAC
 40
1.0
  9
$DIMTOFL
 70
     1
  9
$DIMTVP
 40
0.0
  9
$DIMTIX
 70
     1
  9
$DIMSOXD
 70
     0
  9
$DIMSAH
 70
     1
  9
$DIMBLK1
  1
OPEN
  9
$DIMBLK2
  1
OPEN
  9
$DIMSTYLE
  2
BIGT
  9
$DIMCLRD
 70
   256
  9
$DIMCLRE
 70
   256
  9
$DIMCLRT
 70
    40
  9
$DIMTFAC
 40
1.0
  9
$DIMGAP
 40
1.0
  9
$DIMJUST
 70
     0
  9
$DIMSD1
 70
     0
  9
$DIMSD2
 70
     0
  9
$DIMTOLJ
 70
     1
  9
$DIMTZIN
 70
     8
  9
$DIMALTZ
 70
     0
  9
$DIMALTTZ
 70
     0
  9
$DIMFIT
 70
     3
  9
$DIMUPT
 70
     0
  9
$DIMUNIT
 70
     2
  9
$DIMDEC
 70
     3
  9
$DIMTDEC
 70
     3
  9
$DIMALTU
 70
     2
  9
$DIMALTTD
 70
     2
  9
$DIMTXSTY
  7
STANDARD
  9
$DIMAUNIT
 70
     0
  9
$LUNITS
 70
     2
  9
$LUPREC
 70
     3
  9
$SKETCHINC
 40
1.0
  9
$FILLETRAD
 40
0.0
  9
$AUNITS
 70
     0
  9
$AUPREC
 70
     3
  9
$MENU
  1
.
  9
$ELEVATION
 40
0.0
  9
$PELEVATION
 40
0.0
  9
$THICKNESS
 40
0.0
  9
$LIMCHECK
 70
     0
  9
$BLIPMODE
 70
     0
  9
$CHAMFERA
 40
10.0
  9
$CHAMFERB
 40
10.0
  9
$CHAMFERC
 40
0.0
  9
$CHAMFERD
 40
0.0
  9
$SKPOLY
 70
     0
  9
$TDCREATE
 40
2455128.449213322
  9
$TDUPDATE
 40
2455316.428461550
  9
$TDINDWG
 40
0.0063199884
  9
$TDUSRTIMER
 40
0.0063199884
  9
$USRTIMER
 70
     1
  9
$ANGBASE
 50
0.0
  9
$ANGDIR
 70
     0
  9
$PDMODE
 70
     1
  9
$PDSIZE
 40
-5.0
  9
$PLINEWID
 40
0.0
  9
$COORDS
 70
     0
  9
$SPLFRAME
 70
     0
  9
$SPLINETYPE
 70
     6
  9
$SPLINESEGS
 70
     8
  9
$ATTDIA
 70
     0
  9
$ATTREQ
 70
     1
  9
$HANDLING
 70
-16383
  9
$HANDSEED
  5
12AC
  9
$SURFTAB1
 70
     6
  9
$SURFTAB2
 70
     6
  9
$SURFTYPE
 70
     6
  9
$SURFU
 70
     6
  9
$SURFV
 70
     6
  9
$UCSNAME
  2

  9
$UCSORG
 10
0.0
 20
0.0
 30
0.0
  9
$UCSXDIR
 10
1.0
 20
0.0
 30
0.0
  9
$UCSYDIR
 10
0.0
 20
1.0
 30
0.0
  9
$PUCSNAME
  2

  9
$PUCSORG
 10
0.0
 20
0.0
 30
0.0
  9
$PUCSXDIR
 10
1.0
 20
0.0
 30
0.0
  9
$PUCSYDIR
 10
0.0
 20
1.0
 30
0.0
  9
$USERI1
 70
     1
  9
$USERI2
 70
     0
  9
$USERI3
 70
     0
  9
$USERI4
 70
     0
  9
$USERI5
 70
     0
  9
$USERR1
 40
0.0
  9
$USERR2
 40
0.0
  9
$USERR3
 40
0.0
  9
$USERR4
 40
0.0
  9
$USERR5
 40
0.0
  9
$WORLDVIEW
 70
     1
  9
$SHADEDGE
 70
     3
  9
$SHADEDIF
 70
    70
  9
$TILEMODE
 70
     1
  9
$MAXACTVP
 70
    16
  9
$PINSBASE
 10
0.0
 20
0.0
 30
0.0
  9
$PLIMCHECK
 70
     0
  9
$PEXTMIN
 10
1.00000000E+20
 20
1.00000000E+20
 30
1.00000000E+20
  9
$PEXTMAX
 10
-1.00000000E+20
 20
-1.00000000E+20
 30
-1.00000000E+20
  9
$PLIMMIN
 10
0.0
 20
0.0
  9
$PLIMMAX
 10
420.0
 20
297.0
  9
$UNITMODE
 70
     0
  9
$VISRETAIN
 70
     0
  9
$PLINEGEN
 70
     0
  9
$PSLTSCALE
 70
     1
  9
$TREEDEPTH
 70
  3020
  9
$PICKSTYLE
 70
     0
  9
$CMLSTYLE
  2
STANDARD
  9
$CMLJUST
 70
     0
  9
$CMLSCALE
 40
1.0
  9
$PROXYGRAPHICS
 70
     1
  9
$MEASUREMENT
 70
     1
  0
ENDSEC
  0
SECTION
  2
CLASSES
  0
CLASS
  1
XRECORD
  2
AcDbXrecord
  3
AutoCAD 2000
 90
        0
280
     0
281
     0
  0
CLASS
  1
ACDBDICTIONARYWDFLT
  2
AcDbDictionaryWithDefault
  3
AutoCAD 2000
 90
        0
280
     0
281
     0
  0
CLASS
  1
ACDBPLACEHOLDER
  2
AcDbPlaceHolder
  3
AutoCAD 2000
 90
        0
280
     0
281
     0
  0
CLASS
  1
LAYOUT
  2
AcDbLayout
  3
AutoCAD 2000
 90
        0
280
     0
281
     0
  0
CLASS
  1
PLOTSETTINGS
  2
AcDbPlotSettings
  3
AutoCAD 2000
 90
        0
280
     0
281
     0
  0
CLASS
  1
LONG_TRANSACTION
  2
AcDbLongTransaction
  3
AutoCAD 2000
 90
        0
280
     0
281
     0
  0
CLASS
  1
LWPOLYLINE
  2
AcDbPolyline
  3
AutoCAD 2000
 90
        0
280
     0
281
     1
  0
CLASS
  1
HATCH
  2
AcDbHatch
  3
AutoCAD 2000
 90
        0
280
     0
281
     1
  0
CLASS
  1
XRECORD
  2
AcDbXrecord
  3
AutoCAD 2000
 90
        0
280
     0
281
     0
  0
CLASS
  1
LONG_TRANSACTION
  2
AcDbLongTransaction
  3
AutoCAD 2000
 90
        0
280
     0
281
     0
  0
CLASS
  1
LWPOLYLINE
  2
AcDbPolyline
  3
AutoCAD 2000
 90
        0
280
     0
281
     1
  0
CLASS
  1
HATCH
  2
AcDbHatch
  3
AutoCAD 2000
 90
        0
280
     0
281
     1
  0
CLASS
  1
XRECORD
  2
AcDbXrecord
  3
AutoCAD 2000
 90
        0
280
     0
281
     0
  0
ENDSEC
  0
SECTION
  2
TABLES
  0
TABLE
  2
VPORT
  5
8
330
0
100
AcDbSymbolTable
 70
     2
  0
VPORT
  5
1287
330
8
100
AcDbSymbolTableRecord
100
AcDbViewportTableRecord
  2
*ACTIVE
 70
     0
 10
0.0
 20
0.0
 11
1.0
 21
1.0
 12
-0.1173087
 22
14.4661259
 13
0.0
 23
0.0
 14
7.0
 24
7.0
 15
7.0
 25
7.0
 16
0.0
 26
0.0
 36
1.0
 17
0.0
 27
0.0
 37
0.0
 40
67.96117375
 41
1.43184713
 42
50.0
 43
0.0
 44
0.0
 50
0.0
 51
0.0
 71
     0
 72
  2000
 73
     1
 74
     0
 75
     0
 76
     0
 77
     0
 78
     0
  0
ENDTAB
  0
TABLE
  2
LTYPE
  5
5
330
0
100
AcDbSymbolTable
 70
     3
  0
LTYPE
  5
14
330
5
100
AcDbSymbolTableRecord
100
AcDbLinetypeTableRecord
  2
BYBLOCK
 70
     0
  3

 72
    65
 73
     0
 40
0.0
  0
LTYPE
  5
15
330
5
100
AcDbSymbolTableRecord
100
AcDbLinetypeTableRecord
  2
BYLAYER
 70
     0
  3

 72
    65
 73
     0
 40
0.0
  0
LTYPE
  5
16
330
5
100
AcDbSymbolTableRecord
100
AcDbLinetypeTableRecord
  2
CONTINUOUS
 70
     0
  3
Solid line
 72
    65
 73
     0
 40
0.0
  0
LTYPE
  5
258
330
5
100
AcDbSymbolTableRecord
100
AcDbLinetypeTableRecord
  2
CENTER2
 70
     0
  3
___ _ ___ _ ___ _ ___ _ ___ _ ___ _ ___ _ ___ _
 72
    65
 73
     4
 40
1.125
 49
0.75
 74
     0
 49
-0.125
 74
     0
 49
0.125
 74
     0
 49
-0.125
 74
     0
  0
LTYPE
  5
25C
330
5
100
AcDbSymbolTableRecord
100
AcDbLinetypeTableRecord
  2
HIDDEN2
 70
     0
  3
_ _ _ _ _ _ _ _ _ _ _ _ _ _ _ _ _ _ _ _ _ _ _ _
 72
    65
 73
     2
 40
0.1875
 49
0.125
 74
     0
 49
-0.0625
 74
     0
  0
ENDTAB
  0
TABLE
  2
LAYER
  5
2
330
0
100
AcDbSymbolTable
 70
    11
  0
LAYER
  5
F
330
2
100
AcDbSymbolTableRecord
100
AcDbLayerTableRecord
  2
0
 70
     0
 62
     7
  6
CONTINUOUS
  0
LAYER
  5
1AA
330
2
100
AcDbSymbolTableRecord
100
AcDbLayerTableRecord
  2
240
 70
     0
 62
     4
  6
CONTINUOUS
  0
LAYER
  5
1AB
330
2
100
AcDbSymbolTableRecord
100
AcDbLayerTableRecord
  2
241
 70
     0
 62
   211
  6
CONTINUOUS
  0
LAYER
  5
1AD
330
2
100
AcDbSymbolTableRecord
100
AcDbLayerTableRecord
  2
243
 70
     0
 62
   211
  6
HIDDEN2
  0
LAYER
  5
1AE
330
2
100
AcDbSymbolTableRecord
100
AcDbLayerTableRecord
  2
244
 70
     0
 62
     3
  6
HIDDEN2
  0
LAYER
  5
1AF
330
2
100
AcDbSymbolTableRecord
100
AcDbLayerTableRecord
  2
245
 70
     0
 62
     2
  6
CENTER2
  0
LAYER
  5
21E
330
2
100
AcDbSymbolTableRecord
100
AcDbLayerTableRecord
  2
250
 70
     0
 62
     3
  6
CONTINUOUS
  0
LAYER
  5
21F
330
2
100
AcDbSymbolTableRecord
100
AcDbLayerTableRecord
  2
251
 70
     0
 62
    40
  6
CONTINUOUS
  0
LAYER
  5
5C4
330
2
100
AcDbSymbolTableRecord
100
AcDbLayerTableRecord
  2
DEFPOINTS
 70
     0
 62
     7
  6
CONTINUOUS
  0
LAYER
  5
8B9
330
2
100
AcDbSymbolTableRecord
100
AcDbLayerTableRecord
  2
AM_7
 70
     0
 62
     2
  6
CENTER2
  0
ENDTAB
  0
TABLE
  2
STYLE
  5
3
330
0
100
AcDbSymbolTable
 70
     2
  0
STYLE
  5
10
330
3
100
AcDbSymbolTableRecord
100
AcDbTextStyleTableRecord
  2
STANDARD
 70
     0
 40
0.0
 41
1.0
 50
0.0
 71
     0
 42
3.0
  3
romans.shx
  4
BIGFONT.SHX
  0
STYLE
  5
339
330
3
100
AcDbSymbolTableRecord
100
AcDbTextStyleTableRecord
  2
YOKO
 70
     0
 40
0.0
 41
1.0
 50
0.0
 71
     0
 42
3.0
  3
romans.shx
  4
extfont.shx
  0
ENDTAB
  0
TABLE
  2
VIEW
  5
6
330
0
100
AcDbSymbolTable
 70
     0
  0
ENDTAB
  0
TABLE
  2
UCS
  5
7
330
0
100
AcDbSymbolTable
 70
     0
  0
ENDTAB
  0
TABLE
  2
APPID
  5
9
330
0
100
AcDbSymbolTable
 70
    15
  0
APPID
  5
11
330
9
100
AcDbSymbolTableRecord
100
AcDbRegAppTableRecord
  2
ACAD
 70
     0
  0
APPID
  5
1B1
330
9
100
AcDbSymbolTableRecord
100
AcDbRegAppTableRecord
  2
GLOBAL
 70
     0
  0
APPID
  5
2A4
330
9
100
AcDbSymbolTableRecord
100
AcDbRegAppTableRecord
  2
DETAIL
 70
     0
  0
APPID
  5
5FD
330
9
100
AcDbSymbolTableRecord
100
AcDbRegAppTableRecord
  2
GRPNAME
 70
     0
  0
APPID
  5
5FE
330
9
100
AcDbSymbolTableRecord
100
AcDbRegAppTableRecord
  2
GPARA
 70
     0
  0
APPID
  5
6C4
330
9
100
AcDbSymbolTableRecord
100
AcDbRegAppTableRecord
  2
DCO15
 70
     0
  0
APPID
  5
6C5
330
9
100
AcDbSymbolTableRecord
100
AcDbRegAppTableRecord
  2
ITEMNAME
 70
     0
  0
APPID
  5
6C6
330
9
100
AcDbSymbolTableRecord
100
AcDbRegAppTableRecord
  2
GRADE_0
 70
     0
  0
APPID
  5
8BA
330
9
100
AcDbSymbolTableRecord
100
AcDbRegAppTableRecord
  2
GENIUS_GENODEF_13
 70
     0
  0
APPID
  5
8BB
330
9
100
AcDbSymbolTableRecord
100
AcDbRegAppTableRecord
  2
GENIUS_GENOREF_13
 70
     0
  0
APPID
  5
8BC
330
9
100
AcDbSymbolTableRecord
100
AcDbRegAppTableRecord
  2
GENIUS_GENOBJ-N-FIL_13
 70
     0
  0
APPID
  5
8BD
330
9
100
AcDbSymbolTableRecord
100
AcDbRegAppTableRecord
  2
HATCH_TYPE
 70
     0
  0
APPID
  5
8BE
330
9
100
AcDbSymbolTableRecord
100
AcDbRegAppTableRecord
  2
HATCH_DISPLAY
 70
     0
  0
APPID
  5
8BF
330
9
100
AcDbSymbolTableRecord
100
AcDbRegAppTableRecord
  2
HATCH_DISTANCE
 70
     0
  0
APPID
  5
E81
330
9
100
AcDbSymbolTableRecord
100
AcDbRegAppTableRecord
  2
CONTENTBLOCKICON
 70
     0
  0
ENDTAB
  0
TABLE
  2
DIMSTYLE
  5
A
330
0
100
AcDbSymbolTable
 70
     1
  0
DIMSTYLE
105
725
102
{ACAD_REACTORS
330
8D3
330
8D8
102
}
330
A
100
AcDbSymbolTableRecord
100
AcDbDimStyleTableRecord
  2
BIGT
 70
     0
  3

  4

  5

  6
OPEN
  7
OPEN
 40
1.0
 41
2.23
 42
0.5
 43
2.5
 44
1.0
 45
0.0
 46
0.0
 47
0.0
 48
0.0
140
2.8
141
0.0
142
0.0
143
25.4
144
1.0
145
0.0
146
1.0
147
1.0
 71
     0
 72
     0
 73
     0
 74
     0
 75
     0
 76
     0
 77
     3
 78
     8
170
     0
171
     2
172
     1
173
     1
174
     1
175
     0
176
   256
177
   256
178
    40
270
     2
271
     3
272
     3
273
     2
274
     2
340
10
275
     0
280
     0
281
     0
282
     0
283
     1
284
     8
285
     0
286
     0
287
     3
288
     0
  0
ENDTAB
  0
TABLE
  2
BLOCK_RECORD
  5
1
330
0
100
AcDbSymbolTable
 70
     6
  0
BLOCK_RECORD
  5
1A
102
{ACAD_XDICTIONARY
360
E7F
102
}
330
1
100
AcDbSymbolTableRecord
100
AcDbBlockTableRecord
  2
*MODEL_SPACE
  0
BLOCK_RECORD
  5
17
102
{ACAD_XDICTIONARY
360
E7D
102
}
330
1
100
AcDbSymbolTableRecord
100
AcDbBlockTableRecord
  2
*PAPER_SPACE
  0
BLOCK_RECORD
  5
594
330
1
100
AcDbSymbolTableRecord
100
AcDbBlockTableRecord
  2
_OPEN
  0
BLOCK_RECORD
  5
6E3
330
1
100
AcDbSymbolTableRecord
100
AcDbBlockTableRecord
  2
矢印なし
  0
BLOCK_RECORD
  5
762
330
1
100
AcDbSymbolTableRecord
100
AcDbBlockTableRecord
  2
1
1001
CONTENTBLOCKICON
1071
        0
1004
2800000020000000200000000100080000000000000400000000000000000000000000000000000000000000000080000080000000808000800000008000800080800000C0C0C000C0DCC000F0CAA6000020400000206000002080000020A0000020C0000020E00000400000004020000040400000406000004080000040A0
1004
000040C0000040E00000600000006020000060400000606000006080000060A0000060C0000060E00000800000008020000080400000806000008080000080A0000080C0000080E00000A0000000A0200000A0400000A0600000A0800000A0A00000A0C00000A0E00000C0000000C0200000C0400000C0600000C0800000C0
1004
A00000C0C00000C0E00000E0000000E0200000E0400000E0600000E0800000E0A00000E0C00000E0E00040000000400020004000400040006000400080004000A0004000C0004000E00040200000402020004020400040206000402080004020A0004020C0004020E000404000004040200040404000404060004040800040
1004
40A0004040C0004040E00040600000406020004060400040606000406080004060A0004060C0004060E00040800000408020004080400040806000408080004080A0004080C0004080E00040A0000040A0200040A0400040A0600040A0800040A0A00040A0C00040A0E00040C0000040C0200040C0400040C0600040C08000
1004
40C0A00040C0C00040C0E00040E0000040E0200040E0400040E0600040E0800040E0A00040E0C00040E0E00080000000800020008000400080006000800080008000A0008000C0008000E00080200000802020008020400080206000802080008020A0008020C0008020E00080400000804020008040400080406000804080
1004
008040A0008040C0008040E00080600000806020008060400080606000806080008060A0008060C0008060E00080800000808020008080400080806000808080008080A0008080C0008080E00080A0000080A0200080A0400080A0600080A0800080A0A00080A0C00080A0E00080C0000080C0200080C0400080C0600080C0
1004
800080C0A00080C0C00080C0E00080E0000080E0200080E0400080E0600080E0800080E0A00080E0C00080E0E000C0000000C0002000C0004000C0006000C0008000C000A000C000C000C000E000C0200000C0202000C0204000C0206000C0208000C020A000C020C000C020E000C0400000C0402000C0404000C0406000C0
1004
408000C040A000C040C000C040E000C0600000C0602000C0604000C0606000C0608000C060A000C060C000C060E000C0800000C0802000C0804000C0806000C0808000C080A000C080C000C080E000C0A00000C0A02000C0A04000C0A06000C0A08000C0A0A000C0A0C000C0A0E000C0C00000C0C02000C0C04000C0C06000
1004
C0C08000C0C0A000F0FBFF00A4A0A000808080000000FF0000FF000000FFFF00FF000000FF00FF00FFFF0000FFFFFF0000000000000000000000000000000000000000000000000000000000000000000000000000000000000000000000000000000000000000000000000000000000000000000000000000000000000000
1004
00000000000000000000000000000000000000000000000000000000000000000000000000000000000000000000000000000000000000000000000000000000000000000000000000000000000000000000000000000000000000000000000000000000000000000000000000000000000000000000000000000000000000
1004
00000000000000000000000000000000000000000000000000000000000000000000000000000000000000000000000000000000000000000000000000000000000000000000000000000000000000000000000000000000000000000000000000000000000000000000000000000000000000000000000000000000000000
1004
000000000000000000000000000000000000000000000000000000000000000000000000000000000000000000000000000000000000000000000000000000000000FEFEFEFEFE0000000000000000000000000000FEFEFEFEFEE7FEFEFEFEFEFEFEE7E7E7E7FEFEFEFEFEFEFEFEFEFEFE00000000FE000000E7E70000E7E7
1004
E7E700E7E7E7E7E7FFFFE7E7E700000000FE00000000FE000000E7E70000E7FBFBE700E7E7E7E7E7FFFFE7E7E700000000FE000000FBFEFBFBFBE7E7FBFBE7FBFBE7FBE7E7E7E7E7FFE7E7E7E7E7E7E7E7FEFB000000FE000000E7E70000E70000E700E7E7E7E7E7FFE7E7E7E700000000FE00000000FEFEFEFEFEE7FEFEFE
1004
FEFEFEFEE7E7E7E7FEFEFEFEFEE7FEFEFEFEFE0000000000000000000000000000000000FEFEFEFEFE0000000000000000000000000000000000000000000000000000000000000000000000000000000000000000000000000000000000000000000000000000000000000000000000000000000000000000000000000000
1004
00000000000000000000000000000000000000000000000000000000000000000000000000000000000000000000000000000000000000000000000000000000000000000000000000000000000000000000000000000000000000000000000000000000000000000000000000000000000000000000000000000000000000
1004
00000000000000000000000000000000000000000000000000000000000000000000000000000000000000000000000000000000000000000000000000000000000000000000000000000000000000000000000000000000000000000000000000000000000000000000000000000000000000000000000000000000000000
1004
0000000000000000000000000000000000000000000000000000000000000000000000000000000000000000000000000000000000000000
  0
BLOCK_RECORD
  5
8DE
330
1
100
AcDbSymbolTableRecord
100
AcDbBlockTableRecord
  2
*D3
  0
BLOCK_RECORD
  5
8EA
330
1
100
AcDbSymbolTableRecord
100
AcDbBlockTableRecord
  2
*D4
  0
ENDTAB
  0
ENDSEC
  0
SECTION
  2
BLOCKS
  0
BLOCK
  5
1B
330
1A
100
AcDbEntity
  8
0
100
AcDbBlockBegin
  2
*MODEL_SPACE
 70
     0
 10
0.0
 20
0.0
 30
0.0
  3
*MODEL_SPACE
  1

  0
ENDBLK
  5
1C
330
1A
100
AcDbEntity
  8
0
100
AcDbBlockEnd
  0
BLOCK
  5
18
330
17
100
AcDbEntity
 67
     1
  8
0
100
AcDbBlockBegin
  2
*PAPER_SPACE
 70
     0
 10
0.0
 20
0.0
 30
0.0
  3
*PAPER_SPACE
  1

  0
ENDBLK
  5
19
330
17
100
AcDbEntity
 67
     1
  8
0
100
AcDbBlockEnd
  0
BLOCK
  5
598
330
594
100
AcDbEntity
  8
0
100
AcDbBlockBegin
  2
_OPEN
 70
     0
 10
0.0
 20
0.0
 30
0.0
  3
_OPEN
  1

  0
LINE
  5
595
330
594
100
AcDbEntity
  8
0
  6
BYBLOCK
 62
     0
100
AcDbLine
 10
-1.0
 20
0.16666667
 30
0.0
 11
0.0
 21
0.0
 31
0.0
  0
LINE
  5
596
330
594
100
AcDbEntity
  8
0
  6
BYBLOCK
 62
     0
100
AcDbLine
 10
-1.0
 20
-0.16666667
 30
0.0
 11
0.0
 21
0.0
 31
0.0
  0
LINE
  5
597
330
594
100
AcDbEntity
  8
0
  6
BYBLOCK
 62
     0
100
AcDbLine
 10
0.0
 20
0.0
 30
0.0
 11
-1.0
 21
0.0
 31
0.0
  0
ENDBLK
  5
599
330
594
100
AcDbEntity
  8
0
100
AcDbBlockEnd
  0
BLOCK
  5
6E4
330
6E3
100
AcDbEntity
  8
0
100
AcDbBlockBegin
  2
矢印なし
 70
     0
 10
0.0
 20
0.0
 30
0.0
  3
矢印なし
  1

  0
ENDBLK
  5
6E5
330
6E3
100
AcDbEntity
  8
0
100
AcDbBlockEnd
  0
BLOCK
  5
89F
330
762
100
AcDbEntity
  8
0
100
AcDbBlockBegin
  2
1
 70
     0
 10
0.0
 20
0.0
 30
0.0
  3
1
  1

  0
LINE
  5
1168
330
762
100
AcDbEntity
  8
240
100
AcDbLine
 10
-34.0
 20
6.0
 30
0.0
 11
-29.0
 21
6.0
 31
0.0
  0
LINE
  5
1169
330
762
100
AcDbEntity
  8
240
100
AcDbLine
 10
-34.0
 20
-6.0
 30
0.0
 11
-29.0
 21
-6.0
 31
0.0
  0
LINE
  5
116A
330
762
100
AcDbEntity
  8
AM_7
100
AcDbLine
 10
-48.5
 20
0.0
 30
0.0
 11
31.0
 21
0.0
 31
0.0
1001
GENIUS_GENOREF_13
1005
0
  0
LINE
  5
116B
330
762
100
AcDbEntity
  8
240
100
AcDbLine
 10
-47.5
 20
-7.0
 30
0.0
 11
-47.5
 21
0.0
 31
0.0
  0
LINE
  5
116C
330
762
100
AcDbEntity
  8
243
100
AcDbLine
 10
-36.5
 20
6.0
 30
0.0
 11
-36.5
 21
-6.0
 31
0.0
  0
LINE
  5
116D
330
762
100
AcDbEntity
  8
AM_7
100
AcDbLine
 10
-34.0
 20
-8.0
 30
0.0
 11
-34.0
 21
8.0
 31
0.0
  0
LINE
  5
116E
330
762
100
AcDbEntity
  8
240
100
AcDbLine
 10
-46.5
 20
-8.0
 30
0.0
 11
-41.0
 21
-8.0
 31
0.0
  0
ARC
  5
116F
330
762
100
AcDbEntity
  8
240
100
AcDbCircle
 10
-46.5
 20
-7.0
 30
0.0
 40
1.0
100
AcDbArc
 50
180.0
 51
270.0
  0
LINE
  5
1170
330
762
100
AcDbEntity
  8
240
100
AcDbLine
 10
-39.0
 20
-6.0
 30
0.0
 11
-41.0
 21
-8.0
 31
0.0
  0
LINE
  5
1171
330
762
100
AcDbEntity
  8
240
100
AcDbLine
 10
-39.0
 20
-6.0
 30
0.0
 11
-34.0
 21
-6.0
 31
0.0
  0
LINE
  5
1172
330
762
100
AcDbEntity
  8
240
100
AcDbLine
 10
-46.5
 20
8.0
 30
0.0
 11
-41.0
 21
8.0
 31
0.0
  0
LINE
  5
1173
330
762
100
AcDbEntity
  8
240
100
AcDbLine
 10
-47.5
 20
7.0
 30
0.0
 11
-47.5
 21
0.0
 31
0.0
  0
ARC
  5
1174
330
762
100
AcDbEntity
  8
240
100
AcDbCircle
 10
-46.5
 20
7.0
 30
0.0
 40
1.0
100
AcDbArc
 50
90.0
 51
180.0
  0
LINE
  5
1175
330
762
100
AcDbEntity
  8
240
100
AcDbLine
 10
-39.0
 20
6.0
 30
0.0
 11
-34.0
 21
6.0
 31
0.0
  0
LINE
  5
1176
330
762
100
AcDbEntity
  8
240
100
AcDbLine
 10
-39.0
 20
6.0
 30
0.0
 11
-41.0
 21
8.0
 31
0.0
  0
LINE
  5
1177
330
762
100
AcDbEntity
  8
240
100
AcDbLine
 10
30.0
 20
-7.0
 30
0.0
 11
30.0
 21
0.0
 31
0.0
  0
LINE
  5
1178
330
762
100
AcDbEntity
  8
241
100
AcDbLine
 10
14.2
 20
-8.0
 30
0.0
 11
14.2
 21
0.0
 31
0.0
  0
LINE
  5
1179
330
762
100
AcDbEntity
  8
241
100
AcDbLine
 10
13.0
 20
-8.15
 30
0.0
 11
13.0
 21
0.0
 31
0.0
  0
LINE
  5
117A
330
762
100
AcDbEntity
  8
241
100
AcDbLine
 10
11.0
 20
-6.2
 30
0.0
 11
11.0
 21
0.0
 31
0.0
  0
LINE
  5
117B
330
762
100
AcDbEntity
  8
241
100
AcDbLine
 10
10.0
 20
-6.2
 30
0.0
 11
10.0
 21
0.0
 31
0.0
  0
LINE
  5
117C
330
762
100
AcDbEntity
  8
0
100
AcDbLine
 10
4.00471325
 20
-1.50783196
 30
0.0
 11
4.00471325
 21
1.56892928
 31
0.0
  0
LINE
  5
117D
330
762
100
AcDbEntity
  8
0
100
AcDbLine
 10
4.1562788
 20
-1.50783196
 30
0.0
 11
4.1562788
 21
1.56892928
 31
0.0
  0
LINE
  5
117E
330
762
100
AcDbEntity
  8
0
100
AcDbLine
 10
2.71641732
 20
-1.50783196
 30
0.0
 11
2.71641732
 21
-1.23828927
 31
0.0
  0
LINE
  5
117F
330
762
100
AcDbEntity
  8
0
100
AcDbLine
 10
2.56485177
 20
-1.50783196
 30
0.0
 11
2.56485177
 21
-1.19483033
 31
0.0
  0
LINE
  5
1180
330
762
100
AcDbEntity
  8
0
100
AcDbLine
 10
2.71641732
 20
-1.49183774
 30
0.0
 11
2.56485177
 21
-1.34027219
 31
0.0
  0
LINE
  5
1181
330
762
100
AcDbEntity
  8
0
100
AcDbLine
 10
4.15288297
 20
-1.58126497
 30
0.0
 11
4.00471325
 21
-1.43309525
 31
0.0
  0
TEXT
  5
1182
330
762
100
AcDbEntity
  8
0
100
AcDbText
 10
6.5466138
 20
-6.12386523
 30
0.0
 40
1.25
  1
MGT6-M4-30
 50
90.0
  7
YOKO
100
AcDbText
  0
LINE
  5
1183
330
762
100
AcDbEntity
  8
241
100
AcDbLine
 10
0.80384758
 20
-8.35874397
 30
0.0
 11
0.80384758
 21
0.0
 31
0.0
  0
LINE
  5
1184
330
762
100
AcDbEntity
  8
241
100
AcDbLine
 10
-5.12626129
 20
-11.0
 30
0.0
 11
-5.12626129
 21
0.0
 31
0.0
  0
LINE
  5
1185
330
762
100
AcDbEntity
  8
241
  6
CONTINUOUS
100
AcDbLine
 10
-6.5
 20
-10.50000001
 30
0.0
 11
-6.5
 21
0.0
 31
0.0
  0
LINE
  5
1186
330
762
100
AcDbEntity
  8
241
100
AcDbLine
 10
-11.0
 20
-8.0
 30
0.0
 11
-11.0
 21
0.0
 31
0.0
  0
LINE
  5
1187
330
762
100
AcDbEntity
  8
AM_7
100
AcDbLine
 10
-20.0
 20
-0.7698914
 30
0.0
 11
-20.0
 21
-4.52866188
 31
0.0
  0
LINE
  5
1188
330
762
100
AcDbEntity
  8
241
100
AcDbLine
 10
0.0
 20
-10.64125603
 30
0.0
 11
0.0
 21
0.0
 31
0.0
  0
LINE
  5
1189
330
762
100
AcDbEntity
  8
241
100
AcDbLine
 10
-2.0
 20
-10.0
 30
0.0
 11
-2.0
 21
0.0
 31
0.0
  0
LINE
  5
118A
330
762
100
AcDbEntity
  8
241
100
AcDbLine
 10
-4.0
 20
-10.0
 30
0.0
 11
-4.0
 21
0.0
 31
0.0
  0
LINE
  5
118B
330
762
100
AcDbEntity
  8
241
100
AcDbLine
 10
-14.5
 20
-7.0
 30
0.0
 11
-14.5
 21
0.0
 31
0.0
  0
LINE
  5
118C
330
762
100
AcDbEntity
  8
241
100
AcDbLine
 10
-16.5
 20
-7.0
 30
0.0
 11
-16.5
 21
0.0
 31
0.0
  0
LINE
  5
118D
330
762
100
AcDbEntity
  8
241
100
AcDbLine
 10
-23.5
 20
-7.0
 30
0.0
 11
-23.5
 21
0.0
 31
0.0
  0
LINE
  5
118E
330
762
100
AcDbEntity
  8
241
100
AcDbLine
 10
-25.5
 20
-7.0
 30
0.0
 11
-25.5
 21
0.0
 31
0.0
  0
ELLIPSE
  5
118F
330
762
100
AcDbEntity
  8
241
100
AcDbEllipse
 10
-20.0
 20
-2.64927664
 30
0.0
 11
-2.000000000000023
 21
0.0
 31
0.0
210
0.0
220
0.0
230
1.0
 40
0.93969262
 41
0.0
 42
6.283185307179584
  0
LINE
  5
1190
330
762
100
AcDbEntity
  8
243
100
AcDbLine
 10
-31.5
 20
6.0
 30
0.0
 11
-31.5
 21
-6.0
 31
0.0
  0
LINE
  5
1191
330
762
100
AcDbEntity
  8
240
100
AcDbLine
 10
10.0
 20
-8.0
 30
0.0
 11
1.57117457
 21
-8.0
 31
0.0
  0
ARC
  5
1192
330
762
100
AcDbEntity
  8
0
100
AcDbCircle
 10
3.3605652
 20
-1.50783196
 30
0.0
 40
0.7957134246826169
100
AcDbArc
 50
180.0
 51
0.0
  0
ARC
  5
1193
330
762
100
AcDbEntity
  8
0
100
AcDbCircle
 10
3.3605652
 20
-1.50783196
 30
0.0
 40
0.644147872924803
100
AcDbArc
 50
180.0
 51
0.0
  0
LINE
  5
1194
330
762
100
AcDbEntity
  8
0
100
AcDbLine
 10
3.16761769
 20
-2.27979771
 30
0.0
 11
2.58859945
 21
-1.70077947
 31
0.0
  0
ARC
  5
1195
330
762
100
AcDbEntity
  8
240
100
AcDbCircle
 10
-15.5
 20
-7.0
 30
0.0
 40
1.000000000003004
100
AcDbArc
 50
180.0
 51
0.0
  0
ARC
  5
1196
330
762
100
AcDbEntity
  8
240
100
AcDbCircle
 10
-24.5
 20
-7.0
 30
0.0
 40
1.000000000003004
100
AcDbArc
 50
180.0
 51
0.0
  0
LINE
  5
1197
330
762
100
AcDbEntity
  8
240
100
AcDbLine
 10
-25.5
 20
-7.0
 30
0.0
 11
-25.5
 21
-8.0
 31
0.0
  0
LINE
  5
1198
330
762
100
AcDbEntity
  8
240
100
AcDbLine
 10
-29.0
 20
-6.0
 30
0.0
 11
-27.0
 21
-8.0
 31
0.0
  0
LINE
  5
1199
330
762
100
AcDbEntity
  8
240
100
AcDbLine
 10
-27.0
 20
-8.0
 30
0.0
 11
-25.5
 21
-8.0
 31
0.0
  0
LINE
  5
119A
330
762
100
AcDbEntity
  8
240
100
AcDbLine
 10
-16.5
 20
-7.0
 30
0.0
 11
-16.5
 21
-8.0
 31
0.0
  0
LINE
  5
119B
330
762
100
AcDbEntity
  8
240
100
AcDbLine
 10
-23.5
 20
-7.0
 30
0.0
 11
-23.5
 21
-8.0
 31
0.0
  0
LINE
  5
119C
330
762
100
AcDbEntity
  8
240
100
AcDbLine
 10
-23.5
 20
-8.0
 30
0.0
 11
-16.5
 21
-8.0
 31
0.0
  0
LINE
  5
119D
330
762
100
AcDbEntity
  8
AM_7
100
AcDbLine
 10
-21.99786162
 20
-2.73616115
 30
0.0
 11
-18.00213838
 21
-2.73616115
 31
0.0
  0
LINE
  5
119E
330
762
100
AcDbEntity
  8
240
100
AcDbLine
 10
-6.5
 20
-10.50000001
 30
0.0
 11
-5.12626128
 21
-11.0
 31
0.0
  0
LINE
  5
119F
330
762
100
AcDbEntity
  8
240
100
AcDbLine
 10
-14.5
 20
-7.0
 30
0.0
 11
-14.5
 21
-8.0
 31
0.0
  0
LINE
  5
11A0
330
762
100
AcDbEntity
  8
240
100
AcDbLine
 10
-10.7
 20
-7.7
 30
0.0
 11
-11.0
 21
-8.0
 31
0.0
  0
LINE
  5
11A1
330
762
100
AcDbEntity
  8
240
100
AcDbLine
 10
-14.5
 20
-8.0
 30
0.0
 11
-11.0
 21
-8.0
 31
0.0
  0
LINE
  5
11A2
330
762
100
AcDbEntity
  8
240
100
AcDbLine
 10
-6.50000001
 20
-10.5
 30
0.0
 11
-10.0
 21
-10.5
 31
0.0
  0
LINE
  5
11A3
330
762
100
AcDbEntity
  8
240
100
AcDbLine
 10
-10.0
 20
-10.5
 30
0.0
 11
-10.0
 21
-9.0
 31
0.0
  0
LINE
  5
11A4
330
762
100
AcDbEntity
  8
240
100
AcDbLine
 10
-9.5
 20
-8.5
 30
0.0
 11
-9.5
 21
-7.7
 31
0.0
  0
LINE
  5
11A5
330
762
100
AcDbEntity
  8
240
100
AcDbLine
 10
-10.7
 20
-7.7
 30
0.0
 11
-9.5
 21
-7.7
 31
0.0
  0
LINE
  5
11A6
330
762
100
AcDbEntity
  8
240
100
AcDbLine
 10
-9.5
 20
-8.5
 30
0.0
 11
-10.0
 21
-9.0
 31
0.0
  0
LINE
  5
11A7
330
762
100
AcDbEntity
  8
241
100
AcDbLine
 10
-6.5
 20
-8.2
 30
0.0
 11
-9.5
 21
-8.2
 31
0.0
  0
LINE
  5
11A8
330
762
100
AcDbEntity
  8
240
100
AcDbLine
 10
-0.63567449
 20
-11.0
 30
0.0
 11
-2.0
 21
-11.0
 31
0.0
  0
LINE
  5
11A9
330
762
100
AcDbEntity
  8
240
100
AcDbLine
 10
-4.0
 20
-11.0
 30
0.0
 11
-5.12626129
 21
-11.0
 31
0.0
  0
LINE
  5
11AA
330
762
100
AcDbEntity
  8
240
100
AcDbLine
 10
-4.0
 20
-10.0
 30
0.0
 11
-4.0
 21
-11.0
 31
0.0
  0
LINE
  5
11AB
330
762
100
AcDbEntity
  8
240
100
AcDbLine
 10
-2.0
 20
-10.0
 30
0.0
 11
-2.0
 21
-11.0
 31
0.0
  0
ARC
  5
11AC
330
762
100
AcDbEntity
  8
240
100
AcDbCircle
 10
-3.0
 20
-10.0
 30
0.0
 40
1.000000000000075
100
AcDbArc
 50
180.0
 51
0.0
  0
ARC
  5
11AD
330
762
100
AcDbEntity
  8
240
100
AcDbCircle
 10
1.57117457
 20
-9.0
 30
0.0
 40
1.0
100
AcDbArc
 50
90.0
 51
165.00000008
  0
LINE
  5
11AE
330
762
100
AcDbEntity
  8
240
100
AcDbLine
 10
0.19859884
 20
-10.25881905
 30
0.0
 11
0.60524874
 21
-8.74118096
 31
0.0
  0
ARC
  5
11AF
330
762
100
AcDbEntity
  8
240
100
AcDbCircle
 10
-0.76732699
 20
-10.0
 30
0.0
 40
1.0
100
AcDbArc
 50
285.0
 51
345.0
1001
GENIUS_GENOBJ-N-FIL_13
1002
{
1000
OWNER
1000
GEN
1002
}
1001
GENIUS_GENODEF_13
1002
{
1000
HIER
1070
     0
1002
}
1002
{
1000
MANEDIT
1070
     0
1002
}
1002
{
1000
NOSEL
1070
     0
1002
}
1002
{
1000
BEHIND
1070
     0
1002
}
1002
{
1000
OTHER
1070
     0
1002
}
1002
{
1000
REACTOR
1002
}
  0
LINE
  5
11B0
330
762
100
AcDbEntity
  8
240
100
AcDbLine
 10
-0.50850794
 20
-10.96592583
 30
0.0
 11
-0.63567449
 21
-11.0
 31
0.0
  0
LINE
  5
11B1
330
762
100
AcDbEntity
  8
0
100
AcDbLine
 10
2.74128522
 20
-1.68508544
 30
0.0
 11
2.56485219
 21
-1.50865242
 31
0.0
  0
LINE
  5
11B2
330
762
100
AcDbEntity
  8
240
100
AcDbLine
 10
13.15
 20
-8.0
 30
0.0
 11
29.0
 21
-8.0
 31
0.0
  0
LINE
  5
11B3
330
762
100
AcDbEntity
  8
240
100
AcDbLine
 10
11.0
 20
-8.15
 30
0.0
 11
13.0
 21
-8.15
 31
0.0
  0
LINE
  5
11B4
330
762
100
AcDbEntity
  8
240
100
AcDbLine
 10
11.0
 20
-6.2
 30
0.0
 11
11.0
 21
-8.15
 31
0.0
  0
LINE
  5
11B5
330
762
100
AcDbEntity
  8
240
100
AcDbLine
 10
10.0
 20
-6.2
 30
0.0
 11
10.0
 21
-8.0
 31
0.0
  0
LINE
  5
11B6
330
762
100
AcDbEntity
  8
0
100
AcDbLine
 10
3.85834047
 20
-2.12862148
 30
0.0
 11
3.75036741
 21
-2.02064842
 31
0.0
  0
LINE
  5
11B7
330
762
100
AcDbEntity
  8
0
100
AcDbLine
 10
4.12654775
 20
-1.72330955
 30
0.0
 11
3.99872168
 21
-1.59548348
 31
0.0
  0
LINE
  5
11B8
330
762
100
AcDbEntity
  8
0
100
AcDbLine
 10
3.75833142
 20
-2.19699224
 30
0.0
 11
3.64641842
 21
-2.08507924
 31
0.0
  0
LINE
  5
11B9
330
762
100
AcDbEntity
  8
0
100
AcDbLine
 10
3.64422664
 20
-2.25126726
 30
0.0
 11
3.52388972
 21
-2.13093034
 31
0.0
  0
LINE
  5
11BA
330
762
100
AcDbEntity
  8
0
100
AcDbLine
 10
3.51332418
 20
-2.2887446
 30
0.0
 11
3.3763656
 21
-2.15178602
 31
0.0
  0
LINE
  5
11BB
330
762
100
AcDbEntity
  8
0
100
AcDbLine
 10
3.35974474
 20
-2.30354496
 30
0.0
 11
3.18331172
 21
-2.12711194
 31
0.0
  0
LINE
  5
11BC
330
762
100
AcDbEntity
  8
0
100
AcDbLine
 10
4.08084892
 20
-1.84599052
 30
0.0
 11
3.96509885
 21
-1.73024046
 31
0.0
  0
LINE
  5
11BD
330
762
100
AcDbEntity
  8
0
100
AcDbLine
 10
4.0198491
 20
-1.9533705
 30
0.0
 11
3.91020358
 21
-1.84372499
 31
0.0
  0
LINE
  5
11BE
330
762
100
AcDbEntity
  8
0
100
AcDbLine
 10
3.94544493
 20
-2.04734614
 30
0.0
 11
3.83816416
 21
-1.94006537
 31
0.0
  0
LINE
  5
11BF
330
762
100
AcDbEntity
  8
240
100
AcDbLine
 10
11.0
 20
-6.2
 30
0.0
 11
10.0
 21
-6.2
 31
0.0
  0
LINE
  5
11C0
330
762
100
AcDbEntity
  8
240
100
AcDbLine
 10
13.15
 20
-8.0
 30
0.0
 11
13.0
 21
-8.15
 31
0.0
  0
ARC
  5
11C1
330
762
100
AcDbEntity
  8
240
100
AcDbCircle
 10
29.0
 20
-7.0
 30
0.0
 40
1.0
100
AcDbArc
 50
270.0
 51
0.0
1001
GENIUS_GENODEF_13
1002
{
1000
HIER
1070
     0
1002
}
1002
{
1000
MANEDIT
1070
     0
1002
}
1002
{
1000
NOSEL
1070
     0
1002
}
1002
{
1000
BEHIND
1070
     0
1002
}
1002
{
1000
OTHER
1070
     0
1002
}
1002
{
1000
REACTOR
1002
}
1001
GENIUS_GENOBJ-N-FIL_13
1002
{
1000
OWNER
1000
GEN
1002
}
  0
LINE
  5
11C2
330
762
100
AcDbEntity
  8
240
100
AcDbLine
 10
10.0
 20
8.0
 30
0.0
 11
1.57117457
 21
8.0
 31
0.0
  0
LINE
  5
11C3
330
762
100
AcDbEntity
  8
0
100
AcDbLine
 10
2.84809541
 20
-1.11837642
 30
0.0
 11
2.56485177
 21
-0.83513278
 31
0.0
  0
LINE
  5
11C4
330
762
100
AcDbEntity
  8
0
100
AcDbLine
 10
3.08416802
 20
-1.18606923
 30
0.0
 11
2.56485177
 21
-0.66675298
 31
0.0
  0
LINE
  5
11C5
330
762
100
AcDbEntity
  8
0
100
AcDbLine
 10
3.92893047
 20
-1.42830125
 30
0.0
 11
2.71641732
 21
-1.08061829
 31
0.0
  0
LINE
  5
11C6
330
762
100
AcDbEntity
  8
0
100
AcDbLine
 10
3.92893047
 20
-0.00136605
 30
0.0
 11
2.56485177
 21
0.38977584
 31
0.0
  0
LINE
  5
11C7
330
762
100
AcDbEntity
  8
0
100
AcDbLine
 10
2.7315693
 20
0.00297698
 30
0.0
 11
3.92893047
 21
-0.34036294
 31
0.0
1001
HATCH_DISTANCE
1040
1.0
1001
HATCH_DISPLAY
1070
     0
1001
HATCH_TYPE
1070
     7
  0
LINE
  5
11C8
330
762
100
AcDbEntity
  8
0
100
AcDbLine
 10
3.92893047
 20
-0.00136605
 30
0.0
 11
2.56485177
 21
0.38977584
 31
0.0
1001
HATCH_DISTANCE
1040
1.0
1001
HATCH_DISPLAY
1070
     0
1001
HATCH_TYPE
1070
     7
  0
LINE
  5
11C9
330
762
100
AcDbEntity
  8
0
100
AcDbLine
 10
2.7315693
 20
0.00297698
 30
0.0
 11
3.92893047
 21
-0.34036294
 31
0.0
  0
LINE
  5
11CA
330
762
100
AcDbEntity
  8
0
100
AcDbLine
 10
3.92893047
 20
-0.00136605
 30
0.0
 11
2.56485177
 21
0.38977584
 31
0.0
  0
LINE
  5
11CB
330
762
100
AcDbEntity
  8
0
100
AcDbLine
 10
3.92893047
 20
-0.34036294
 30
0.0
 11
2.7315693
 21
0.00297698
 31
0.0
  0
ARC
  5
11CC
330
762
100
AcDbEntity
  8
0
100
AcDbCircle
 10
3.3605652
 20
1.56892928
 30
0.0
 40
0.7957134246826169
100
AcDbArc
 50
0.0
 51
194.77079397
  0
ARC
  5
11CD
330
762
100
AcDbEntity
  8
0
100
AcDbCircle
 10
3.3605652
 20
1.56892928
 30
0.0
 40
0.644147872924803
100
AcDbArc
 50
0.0
 51
194.1274365
  0
ARC
  5
11CE
330
762
100
AcDbEntity
  8
0
100
AcDbCircle
 10
2.94375993
 20
-0.62549249
 30
0.0
 40
0.3789113759994507
100
AcDbArc
 50
17.66957755
 51
180.23615984
  0
LINE
  5
11CF
330
762
100
AcDbEntity
  8
0
100
AcDbLine
 10
2.82638128
 20
-0.59152289
 30
0.0
 11
2.63739024
 21
-0.40253185
 31
0.0
  0
LINE
  5
11D0
330
762
100
AcDbEntity
  8
0
100
AcDbLine
 10
2.97533469
 20
-0.57209649
 30
0.0
 11
2.72170437
 21
-0.31846617
 31
0.0
  0
LINE
  5
11D1
330
762
100
AcDbEntity
  8
0
100
AcDbLine
 10
2.82851535
 20
1.93204008
 30
0.0
 11
2.71981802
 21
2.04073741
 31
0.0
  0
LINE
  5
11D2
330
762
100
AcDbEntity
  8
0
100
AcDbLine
 10
2.76880148
 20
1.82337415
 30
0.0
 11
2.65512469
 21
1.93705093
 31
0.0
  0
ARC
  5
11D3
330
762
100
AcDbEntity
  8
0
100
AcDbCircle
 10
2.89071656
 20
0.97432861
 30
0.0
 40
0.159143753349781
100
AcDbArc
 50
91.71012138
 51
253.99839835
  0
LINE
  5
11D4
330
762
100
AcDbEntity
  8
0
100
AcDbLine
 10
2.75868608
 20
1.33942947
 30
0.0
 11
2.61393548
 21
1.29378471
 31
0.0
  0
LINE
  5
11D5
330
762
100
AcDbEntity
  8
0
100
AcDbLine
 10
2.8082298
 20
1.11042662
 30
0.0
 11
2.6222499
 21
1.29640652
 31
0.0
  0
LINE
  5
11D6
330
762
100
AcDbEntity
  8
0
100
AcDbLine
 10
3.26389239
 20
0.31800442
 30
0.0
 11
2.57721953
 21
1.00467728
 31
0.0
  0
LINE
  5
11D7
330
762
100
AcDbEntity
  8
0
100
AcDbLine
 10
3.03961171
 20
0.37390531
 30
0.0
 11
2.56726813
 21
0.84624888
 31
0.0
  0
LINE
  5
11D8
330
762
100
AcDbEntity
  8
0
100
AcDbLine
 10
3.21135866
 20
-0.13460126
 30
0.0
 11
2.73608042
 21
0.34067699
 31
0.0
  0
LINE
  5
11D9
330
762
100
AcDbEntity
  8
0
100
AcDbLine
 10
2.97528557
 20
-0.06690797
 30
0.0
 11
2.56485177
 21
0.34352583
 31
0.0
  0
ARC
  5
11DA
330
762
100
AcDbEntity
  8
0
100
AcDbCircle
 10
3.05743409
 20
0.89498672
 30
0.0
 40
0.4925830364227294
100
AcDbArc
 50
143.4440122
 51
254.00018439
  0
LINE
  5
11DB
330
762
100
AcDbEntity
  8
0
100
AcDbLine
 10
2.72037886
 20
-0.7033431
 30
0.0
 11
3.15354729
 21
-0.82754937
 31
0.0
  0
ARC
  5
11DC
330
762
100
AcDbEntity
  8
0
100
AcDbCircle
 10
2.92860795
 20
-0.79458466
 30
0.0
 40
0.2273419797420503
100
AcDbArc
 50
351.66260169
 51
156.3381551
  0
ARC
  5
11DD
330
762
100
AcDbEntity
  8
240
100
AcDbCircle
 10
-15.5
 20
7.0
 30
0.0
 40
1.000000000003004
100
AcDbArc
 50
0.0
 51
180.0
  0
ARC
  5
11DE
330
762
100
AcDbEntity
  8
240
100
AcDbCircle
 10
-24.5
 20
7.0
 30
0.0
 40
1.000000000003004
100
AcDbArc
 50
0.0
 51
180.0
  0
LINE
  5
11DF
330
762
100
AcDbEntity
  8
241
100
AcDbLine
 10
-25.5
 20
7.0
 30
0.0
 11
-25.5
 21
0.0
 31
0.0
  0
LINE
  5
11E0
330
762
100
AcDbEntity
  8
240
100
AcDbLine
 10
-27.0
 20
8.0
 30
0.0
 11
-25.5
 21
8.0
 31
0.0
  0
LINE
  5
11E1
330
762
100
AcDbEntity
  8
240
100
AcDbLine
 10
-25.5
 20
7.0
 30
0.0
 11
-25.5
 21
8.0
 31
0.0
  0
LINE
  5
11E2
330
762
100
AcDbEntity
  8
240
100
AcDbLine
 10
-29.0
 20
6.0
 30
0.0
 11
-27.0
 21
8.0
 31
0.0
  0
LINE
  5
11E3
330
762
100
AcDbEntity
  8
241
100
AcDbLine
 10
-16.5
 20
7.0
 30
0.0
 11
-16.5
 21
0.0
 31
0.0
  0
LINE
  5
11E4
330
762
100
AcDbEntity
  8
241
100
AcDbLine
 10
-23.5
 20
7.0
 30
0.0
 11
-23.5
 21
0.0
 31
0.0
  0
LINE
  5
11E5
330
762
100
AcDbEntity
  8
240
100
AcDbLine
 10
-23.5
 20
8.0
 30
0.0
 11
-16.5
 21
8.0
 31
0.0
  0
LINE
  5
11E6
330
762
100
AcDbEntity
  8
240
100
AcDbLine
 10
-23.5
 20
7.0
 30
0.0
 11
-23.5
 21
8.0
 31
0.0
  0
LINE
  5
11E7
330
762
100
AcDbEntity
  8
240
100
AcDbLine
 10
-16.5
 20
7.0
 30
0.0
 11
-16.5
 21
8.0
 31
0.0
  0
LINE
  5
11E8
330
762
100
AcDbEntity
  8
241
100
AcDbLine
 10
0.0
 20
10.64125603
 30
0.0
 11
0.0
 21
0.0
 31
0.0
  0
LINE
  5
11E9
330
762
100
AcDbEntity
  8
241
100
AcDbLine
 10
-5.12626129
 20
11.0
 30
0.0
 11
-5.12626129
 21
0.0
 31
0.0
  0
LINE
  5
11EA
330
762
100
AcDbEntity
  8
240
100
AcDbLine
 10
-6.50000001
 20
10.5
 30
0.0
 11
-5.12626128
 21
11.0
 31
0.0
  0
ARC
  5
11EB
330
762
100
AcDbEntity
  8
240
100
AcDbCircle
 10
-0.76732699
 20
10.0
 30
0.0
 40
1.0
100
AcDbArc
 50
15.0
 51
75.0
1001
GENIUS_GENOBJ-N-FIL_13
1002
{
1000
OWNER
1000
GEN
1002
}
1001
GENIUS_GENODEF_13
1002
{
1000
HIER
1070
     0
1002
}
1002
{
1000
MANEDIT
1070
     0
1002
}
1002
{
1000
NOSEL
1070
     0
1002
}
1002
{
1000
BEHIND
1070
     0
1002
}
1002
{
1000
OTHER
1070
     0
1002
}
1002
{
1000
REACTOR
1002
}
  0
ARC
  5
11EC
330
762
100
AcDbEntity
  8
240
100
AcDbCircle
 10
-3.0
 20
10.0
 30
0.0
 40
1.000000000000075
100
AcDbArc
 50
0.0
 51
180.0
  0
LINE
  5
11ED
330
762
100
AcDbEntity
  8
240
100
AcDbLine
 10
-2.0
 20
10.0
 30
0.0
 11
-2.0
 21
11.0
 31
0.0
  0
LINE
  5
11EE
330
762
100
AcDbEntity
  8
240
100
AcDbLine
 10
-4.0
 20
10.0
 30
0.0
 11
-4.0
 21
11.0
 31
0.0
  0
LINE
  5
11EF
330
762
100
AcDbEntity
  8
241
100
AcDbLine
 10
-14.5
 20
7.0
 30
0.0
 11
-14.5
 21
0.0
 31
0.0
  0
LINE
  5
11F0
330
762
100
AcDbEntity
  8
241
100
AcDbLine
 10
-11.0
 20
8.0
 30
0.0
 11
-11.0
 21
0.0
 31
0.0
  0
LINE
  5
11F1
330
762
100
AcDbEntity
  8
241
  6
CONTINUOUS
100
AcDbLine
 10
-6.5
 20
10.50000001
 30
0.0
 11
-6.5
 21
0.0
 31
0.0
  0
LINE
  5
11F2
330
762
100
AcDbEntity
  8
240
100
AcDbLine
 10
-10.7
 20
7.7
 30
0.0
 11
-11.0
 21
8.0
 31
0.0
  0
LINE
  5
11F3
330
762
100
AcDbEntity
  8
240
100
AcDbLine
 10
-14.5
 20
8.0
 30
0.0
 11
-11.0
 21
8.0
 31
0.0
  0
LINE
  5
11F4
330
762
100
AcDbEntity
  8
240
100
AcDbLine
 10
-14.5
 20
7.0
 30
0.0
 11
-14.5
 21
8.0
 31
0.0
  0
LINE
  5
11F5
330
762
100
AcDbEntity
  8
240
100
AcDbLine
 10
-6.50000001
 20
10.5
 30
0.0
 11
-10.0
 21
10.5
 31
0.0
  0
LINE
  5
11F6
330
762
100
AcDbEntity
  8
240
100
AcDbLine
 10
-10.0
 20
10.5
 30
0.0
 11
-10.0
 21
9.0
 31
0.0
  0
LINE
  5
11F7
330
762
100
AcDbEntity
  8
240
100
AcDbLine
 10
-10.7
 20
7.7
 30
0.0
 11
-9.5
 21
7.7
 31
0.0
  0
LINE
  5
11F8
330
762
100
AcDbEntity
  8
240
100
AcDbLine
 10
-9.5
 20
8.5
 30
0.0
 11
-9.5
 21
7.7
 31
0.0
  0
LINE
  5
11F9
330
762
100
AcDbEntity
  8
240
100
AcDbLine
 10
-9.5
 20
8.5
 30
0.0
 11
-10.0
 21
9.0
 31
0.0
  0
LINE
  5
11FA
330
762
100
AcDbEntity
  8
241
100
AcDbLine
 10
-6.5
 20
8.2
 30
0.0
 11
-9.5
 21
8.2
 31
0.0
  0
LINE
  5
11FB
330
762
100
AcDbEntity
  8
241
100
AcDbLine
 10
-4.0
 20
10.0
 30
0.0
 11
-4.0
 21
0.0
 31
0.0
  0
LINE
  5
11FC
330
762
100
AcDbEntity
  8
241
100
AcDbLine
 10
-2.0
 20
10.0
 30
0.0
 11
-2.0
 21
0.0
 31
0.0
  0
LINE
  5
11FD
330
762
100
AcDbEntity
  8
241
100
AcDbLine
 10
0.80384758
 20
8.35874397
 30
0.0
 11
0.80384758
 21
0.0
 31
0.0
  0
LINE
  5
11FE
330
762
100
AcDbEntity
  8
0
100
AcDbLine
 10
2.56485177
 20
-1.1159977
 30
0.0
 11
2.56485177
 21
-0.62705427
 31
0.0
  0
LINE
  5
11FF
330
762
100
AcDbEntity
  8
0
100
AcDbLine
 10
2.56485177
 20
-1.19483033
 30
0.0
 11
2.71641732
 21
-1.23828927
 31
0.0
  0
LINE
  5
1200
330
762
100
AcDbEntity
  8
0
100
AcDbLine
 10
2.71641732
 20
-1.15945664
 30
0.0
 11
2.71641732
 21
-1.08061829
 31
0.0
  0
LINE
  5
1201
330
762
100
AcDbEntity
  8
0
100
AcDbLine
 10
2.56485177
 20
-1.1159977
 30
0.0
 11
2.71641732
 21
-1.15945664
 31
0.0
  0
LINE
  5
1202
330
762
100
AcDbEntity
  8
0
100
AcDbLine
 10
2.71641732
 20
-1.15507814
 30
0.0
 11
2.56485177
 21
-1.00351259
 31
0.0
  0
LINE
  5
1203
330
762
100
AcDbEntity
  8
0
100
AcDbLine
 10
2.71641732
 20
-1.32345794
 30
0.0
 11
2.59701078
 21
-1.2040514
 31
0.0
  0
LINE
  5
1204
330
762
100
AcDbEntity
  8
0
100
AcDbLine
 10
2.73766813
 20
-0.67118953
 30
0.0
 11
2.58135439
 21
-0.51487579
 31
0.0
  0
LINE
  5
1205
330
762
100
AcDbEntity
  8
0
100
AcDbLine
 10
2.71714744
 20
1.53826858
 30
0.0
 11
2.57298797
 21
1.68242805
 31
0.0
  0
LINE
  5
1206
330
762
100
AcDbEntity
  8
0
100
AcDbLine
 10
2.72886173
 20
1.69493409
 30
0.0
 11
2.60507569
 21
1.81872013
 31
0.0
  0
LINE
  5
1207
330
762
100
AcDbEntity
  8
0
100
AcDbLine
 10
2.73589517
 20
1.41170463
 30
0.0
 11
2.59114457
 21
1.36605987
 31
0.0
  0
ARC
  5
1208
330
762
100
AcDbEntity
  8
0
100
AcDbCircle
 10
3.3605652
 20
1.56892928
 30
0.0
 40
0.7957137823104845
100
AcDbArc
 50
200.22964506
 51
208.57168892
  0
LINE
  5
1209
330
762
100
AcDbEntity
  8
0
100
AcDbLine
 10
2.7315693
 20
-0.05221215
 30
0.0
 11
2.7315693
 21
0.00297698
 31
0.0
  0
LINE
  5
120A
330
762
100
AcDbEntity
  8
0
100
AcDbLine
 10
2.7315693
 20
-0.05221215
 30
0.0
 11
2.56485177
 21
-0.00440446
 31
0.0
  0
LINE
  5
120B
330
762
100
AcDbEntity
  8
0
100
AcDbLine
 10
2.56485177
 20
-0.00440446
 30
0.0
 11
2.56485177
 21
0.38977584
 31
0.0
  0
LINE
  5
120C
330
762
100
AcDbEntity
  8
0
100
AcDbLine
 10
2.7365314
 20
1.01374522
 30
0.0
 11
2.62304015
 21
1.12723647
 31
0.0
  0
LINE
  5
120D
330
762
100
AcDbEntity
  8
0
100
AcDbLine
 10
2.73589517
 20
1.41170463
 30
0.0
 11
2.59114457
 21
1.36605987
 31
0.0
1001
HATCH_DISTANCE
1040
1.0
1001
HATCH_DISPLAY
1070
     0
1001
HATCH_TYPE
1070
     7
  0
LINE
  5
120E
330
762
100
AcDbEntity
  8
0
100
AcDbLine
 10
2.59114457
 20
1.36605987
 30
0.0
 11
2.59114457
 21
1.36605987
 31
0.0
1001
HATCH_DISTANCE
1040
1.0
1001
HATCH_DISPLAY
1070
     0
1001
HATCH_TYPE
1070
     7
  0
LINE
  5
120F
330
762
100
AcDbEntity
  8
0
100
AcDbLine
 10
2.59114457
 20
1.36605987
 30
0.0
 11
2.73589517
 21
1.41170463
 31
0.0
1001
HATCH_DISTANCE
1040
1.0
1001
HATCH_DISPLAY
1070
     0
1001
HATCH_TYPE
1070
     7
  0
LINE
  5
1210
330
762
100
AcDbEntity
  8
0
100
AcDbLine
 10
2.73589517
 20
1.41170463
 30
0.0
 11
2.73589517
 21
1.41170463
 31
0.0
1001
HATCH_DISTANCE
1040
1.0
1001
HATCH_DISPLAY
1070
     0
1001
HATCH_TYPE
1070
     7
  0
LINE
  5
1211
330
762
100
AcDbEntity
  8
0
100
AcDbLine
 10
2.73589517
 20
1.41170463
 30
0.0
 11
2.59114457
 21
1.36605987
 31
0.0
  0
LINE
  5
1212
330
762
100
AcDbEntity
  8
0
100
AcDbLine
 10
2.59114457
 20
1.36605987
 30
0.0
 11
2.59114457
 21
1.36605987
 31
0.0
  0
LINE
  5
1213
330
762
100
AcDbEntity
  8
0
100
AcDbLine
 10
2.59114457
 20
1.36605987
 30
0.0
 11
2.73589517
 21
1.41170463
 31
0.0
  0
LINE
  5
1214
330
762
100
AcDbEntity
  8
0
100
AcDbLine
 10
2.73589517
 20
1.41170463
 30
0.0
 11
2.73589517
 21
1.41170463
 31
0.0
  0
LINE
  5
1215
330
762
100
AcDbEntity
  8
0
100
AcDbLine
 10
2.73589517
 20
1.41170463
 30
0.0
 11
2.59114457
 21
1.36605987
 31
0.0
1001
HATCH_DISTANCE
1040
1.0
1001
HATCH_DISPLAY
1070
     0
1001
HATCH_TYPE
1070
     7
  0
LINE
  5
1216
330
762
100
AcDbEntity
  8
0
100
AcDbLine
 10
2.59114457
 20
1.36605987
 30
0.0
 11
2.59114457
 21
1.36605987
 31
0.0
1001
HATCH_DISTANCE
1040
1.0
1001
HATCH_DISPLAY
1070
     0
1001
HATCH_TYPE
1070
     7
  0
LINE
  5
1217
330
762
100
AcDbEntity
  8
0
100
AcDbLine
 10
2.59114457
 20
1.36605987
 30
0.0
 11
2.73589517
 21
1.41170463
 31
0.0
1001
HATCH_DISTANCE
1040
1.0
1001
HATCH_DISPLAY
1070
     0
1001
HATCH_TYPE
1070
     7
  0
LINE
  5
1218
330
762
100
AcDbEntity
  8
0
100
AcDbLine
 10
2.73589517
 20
1.41170463
 30
0.0
 11
2.73589517
 21
1.41170463
 31
0.0
1001
HATCH_DISTANCE
1040
1.0
1001
HATCH_DISPLAY
1070
     0
1001
HATCH_TYPE
1070
     7
  0
LINE
  5
1219
330
762
100
AcDbEntity
  8
0
100
AcDbLine
 10
2.73589517
 20
1.41170463
 30
0.0
 11
2.59114457
 21
1.36605987
 31
0.0
  0
LINE
  5
121A
330
762
100
AcDbEntity
  8
0
100
AcDbLine
 10
2.59114457
 20
1.36605987
 30
0.0
 11
2.59114457
 21
1.36605987
 31
0.0
  0
LINE
  5
121B
330
762
100
AcDbEntity
  8
0
100
AcDbLine
 10
2.59114457
 20
1.36605987
 30
0.0
 11
2.73589517
 21
1.41170463
 31
0.0
  0
LINE
  5
121C
330
762
100
AcDbEntity
  8
0
100
AcDbLine
 10
2.73589517
 20
1.41170463
 30
0.0
 11
2.73589517
 21
1.41170463
 31
0.0
  0
LINE
  5
121D
330
762
100
AcDbEntity
  8
0
100
AcDbLine
 10
2.56485177
 20
-0.00440446
 30
0.0
 11
2.7315693
 21
-0.05221215
 31
0.0
1001
HATCH_DISTANCE
1040
1.0
1001
HATCH_DISPLAY
1070
     0
1001
HATCH_TYPE
1070
     7
  0
LINE
  5
121E
330
762
100
AcDbEntity
  8
0
100
AcDbLine
 10
2.7315693
 20
-0.05221215
 30
0.0
 11
2.7315693
 21
0.00297698
 31
0.0
1001
HATCH_DISTANCE
1040
1.0
1001
HATCH_DISPLAY
1070
     0
1001
HATCH_TYPE
1070
     7
  0
LINE
  5
121F
330
762
100
AcDbEntity
  8
0
100
AcDbLine
 10
2.56485177
 20
0.38977584
 30
0.0
 11
2.56485177
 21
-0.00440446
 31
0.0
1001
HATCH_DISTANCE
1040
1.0
1001
HATCH_DISPLAY
1070
     0
1001
HATCH_TYPE
1070
     7
  0
LINE
  5
1220
330
762
100
AcDbEntity
  8
0
100
AcDbLine
 10
2.56485177
 20
-0.00440446
 30
0.0
 11
2.7315693
 21
-0.05221215
 31
0.0
  0
LINE
  5
1221
330
762
100
AcDbEntity
  8
0
100
AcDbLine
 10
2.7315693
 20
-0.05221215
 30
0.0
 11
2.7315693
 21
0.00297698
 31
0.0
  0
LINE
  5
1222
330
762
100
AcDbEntity
  8
0
100
AcDbLine
 10
2.56485177
 20
0.38977584
 30
0.0
 11
2.56485177
 21
-0.00440446
 31
0.0
  0
LINE
  5
1223
330
762
100
AcDbEntity
  8
0
100
AcDbLine
 10
2.73921248
 20
0.00078532
 30
0.0
 11
2.56485177
 21
0.17514603
 31
0.0
  0
LINE
  5
1224
330
762
100
AcDbEntity
  8
0
100
AcDbLine
 10
2.58051363
 20
-0.00889563
 30
0.0
 11
2.56485177
 21
0.00676623
 31
0.0
  0
LINE
  5
1225
330
762
100
AcDbEntity
  8
0
100
AcDbLine
 10
2.68985091
 20
1.39718531
 30
0.0
 11
2.56631335
 21
1.52072287
 31
0.0
  0
LINE
  5
1226
330
762
100
AcDbEntity
  8
240
100
AcDbLine
 10
0.19859884
 20
10.25881905
 30
0.0
 11
0.60524874
 21
8.74118096
 31
0.0
  0
ARC
  5
1227
330
762
100
AcDbEntity
  8
240
100
AcDbCircle
 10
1.57117457
 20
9.0
 30
0.0
 40
1.0
100
AcDbArc
 50
194.99999992
 51
270.0
  0
LINE
  5
1228
330
762
100
AcDbEntity
  8
240
100
AcDbLine
 10
-0.63567449
 20
11.0
 30
0.0
 11
-2.0
 21
11.0
 31
0.0
  0
LINE
  5
1229
330
762
100
AcDbEntity
  8
240
100
AcDbLine
 10
-4.0
 20
11.0
 30
0.0
 11
-5.12626129
 21
11.0
 31
0.0
  0
LINE
  5
122A
330
762
100
AcDbEntity
  8
240
100
AcDbLine
 10
-0.50850794
 20
10.96592583
 30
0.0
 11
-0.63567449
 21
11.0
 31
0.0
  0
LINE
  5
122B
330
762
100
AcDbEntity
  8
240
100
AcDbLine
 10
13.15
 20
8.0
 30
0.0
 11
29.0
 21
8.0
 31
0.0
  0
LINE
  5
122C
330
762
100
AcDbEntity
  8
241
  6
HIDDEN2
100
AcDbLine
 10
17.0
 20
2.5
 30
0.0
 11
30.0
 21
2.5
 31
0.0
  0
LINE
  5
122D
330
762
100
AcDbEntity
  8
240
100
AcDbLine
 10
11.0
 20
8.15
 30
0.0
 11
13.0
 21
8.15
 31
0.0
  0
LINE
  5
122E
330
762
100
AcDbEntity
  8
244
  6
HIDDEN2
100
AcDbLine
 10
8.0
 20
2.8991378
 30
0.0
 11
12.0
 21
0.0
 31
0.0
  0
LINE
  5
122F
330
762
100
AcDbEntity
  8
241
  6
HIDDEN2
100
AcDbLine
 10
8.0
 20
2.8991378
 30
0.0
 11
12.0
 21
2.8991378
 31
0.0
  0
LINE
  5
1230
330
762
100
AcDbEntity
  8
244
  6
HIDDEN2
100
AcDbLine
 10
8.0
 20
0.0
 30
0.0
 11
12.0
 21
2.8991378
 31
0.0
  0
LINE
  5
1231
330
762
100
AcDbEntity
  8
241
100
AcDbLine
 10
10.0
 20
6.2
 30
0.0
 11
10.0
 21
0.0
 31
0.0
  0
LINE
  5
1232
330
762
100
AcDbEntity
  8
241
100
AcDbLine
 10
11.0
 20
6.2
 30
0.0
 11
11.0
 21
0.0
 31
0.0
  0
LINE
  5
1233
330
762
100
AcDbEntity
  8
0
100
AcDbLine
 10
3.55631325
 20
-1.32145485
 30
0.0
 11
3.02576865
 21
-0.79091025
 31
0.0
  0
LINE
  5
1234
330
762
100
AcDbEntity
  8
0
100
AcDbLine
 10
3.32662904
 20
-0.87718277
 30
0.0
 11
3.75981031
 21
-1.00139108
 31
0.0
  0
LINE
  5
1235
330
762
100
AcDbEntity
  8
0
100
AcDbLine
 10
3.92893047
 20
-1.35731247
 30
0.0
 11
3.49791427
 21
-0.92629627
 31
0.0
  0
LINE
  5
1236
330
762
100
AcDbEntity
  8
0
100
AcDbLine
 10
3.92893047
 20
-1.42830125
 30
0.0
 11
3.92893047
 21
-0.79933396
 31
0.0
  0
LINE
  5
1237
330
762
100
AcDbEntity
  8
0
100
AcDbLine
 10
4.1562788
 20
-1.07952139
 30
0.0
 11
4.00471325
 21
-0.92795584
 31
0.0
  0
LINE
  5
1238
330
762
100
AcDbEntity
  8
0
100
AcDbLine
 10
3.32024064
 20
-1.25376204
 30
0.0
 11
2.78969827
 21
-0.72321968
 31
0.0
  0
ARC
  5
1239
330
762
100
AcDbEntity
  8
0
100
AcDbCircle
 10
3.53486444
 20
-0.96842614
 30
0.0
 40
0.2273484840989113
100
AcDbArc
 50
351.66285421
 51
156.33819216
  0
LINE
  5
123A
330
762
100
AcDbEntity
  8
0
100
AcDbLine
 10
3.92893047
 20
-1.02055287
 30
0.0
 11
3.372802
 21
-0.4644244
 31
0.0
  0
LINE
  5
123B
330
762
100
AcDbEntity
  8
0
100
AcDbLine
 10
3.79238586
 20
-1.38914766
 30
0.0
 11
3.15109613
 21
-0.74785793
 31
0.0
  0
LINE
  5
123C
330
762
100
AcDbEntity
  8
0
100
AcDbLine
 10
4.1562788
 20
-1.41628099
 30
0.0
 11
4.00471325
 21
-1.26471545
 31
0.0
  0
LINE
  5
123D
330
762
100
AcDbEntity
  8
0
100
AcDbLine
 10
4.1562788
 20
-1.24790119
 30
0.0
 11
4.00471325
 21
-1.09633564
 31
0.0
  0
LINE
  5
123E
330
762
100
AcDbEntity
  8
0
100
AcDbLine
 10
3.92893047
 20
-1.18893267
 30
0.0
 11
3.73398339
 21
-0.99398559
 31
0.0
  0
ARC
  5
123F
330
762
100
AcDbEntity
  8
0
100
AcDbCircle
 10
3.6030655
 20
0.77006301
 30
0.0
 40
0.1591436415910721
100
AcDbArc
 50
254.00027306
 51
74.00027306
  0
LINE
  5
1240
330
762
100
AcDbEntity
  8
0
100
AcDbLine
 10
3.92893047
 20
1.15752563
 30
0.0
 11
3.15595056
 21
1.3791748
 31
0.0
  0
LINE
  5
1241
330
762
100
AcDbEntity
  8
0
100
AcDbLine
 10
3.92663204
 20
0.83392339
 30
0.0
 11
3.47200933
 21
1.2885461
 31
0.0
  0
LINE
  5
1242
330
762
100
AcDbEntity
  8
0
100
AcDbLine
 10
3.8006414
 20
0.45477463
 30
0.0
 11
3.6401222
 21
0.61529383
 31
0.0
  0
LINE
  5
1243
330
762
100
AcDbEntity
  8
0
100
AcDbLine
 10
3.71016895
 20
0.37686727
 30
0.0
 11
3.43407191
 21
0.65296431
 31
0.0
  0
LINE
  5
1244
330
762
100
AcDbEntity
  8
0
100
AcDbLine
 10
3.91957794
 20
-0.33768113
 30
0.0
 11
3.44429692
 21
0.13759989
 31
0.0
  0
ARC
  5
1245
330
762
100
AcDbEntity
  8
0
100
AcDbCircle
 10
3.43634797
 20
0.78633651
 30
0.0
 40
0.4925880432128908
100
AcDbArc
 50
253.9997507
 51
34.96387329
  0
LINE
  5
1246
330
762
100
AcDbEntity
  8
0
100
AcDbLine
 10
4.11381283
 20
1.82540121
 30
0.0
 11
3.61703712
 21
2.32217692
 31
0.0
  0
LINE
  5
1247
330
762
100
AcDbEntity
  8
0
100
AcDbLine
 10
3.68674453
 20
0.9054311
 30
0.0
 11
3.23593651
 21
1.35623912
 31
0.0
  0
LINE
  5
1248
330
762
100
AcDbEntity
  8
0
100
AcDbLine
 10
3.68350485
 20
-0.26998784
 30
0.0
 11
3.20822475
 21
0.20529226
 31
0.0
  0
ARC
  5
1249
330
762
100
AcDbEntity
  8
0
100
AcDbCircle
 10
3.55002214
 20
-0.79933396
 30
0.0
 40
0.3789081573486329
100
AcDbArc
 50
0.0
 51
130.32984065
  0
LINE
  5
124A
330
762
100
AcDbEntity
  8
0
100
AcDbLine
 10
3.92893047
 20
-0.85217307
 30
0.0
 11
3.50044111
 21
-0.42368371
 31
0.0
  0
LINE
  5
124B
330
762
100
AcDbEntity
  8
0
100
AcDbLine
 10
3.48631887
 20
-0.74632107
 30
0.0
 11
2.98932904
 21
-0.24933123
 31
0.0
  0
LINE
  5
124C
330
762
100
AcDbEntity
  8
0
100
AcDbLine
 10
3.60659232
 20
2.16424192
 30
0.0
 11
3.40758179
 21
2.36325245
 31
0.0
  0
LINE
  5
124D
330
762
100
AcDbEntity
  8
0
100
AcDbLine
 10
3.39005257
 20
2.21240188
 30
0.0
 11
3.24608936
 21
2.35636508
 31
0.0
  0
LINE
  5
124E
330
762
100
AcDbEntity
  8
0
100
AcDbLine
 10
3.23362849
 20
2.20044615
 30
0.0
 11
3.10993417
 21
2.32414047
 31
0.0
  0
LINE
  5
124F
330
762
100
AcDbEntity
  8
0
100
AcDbLine
 10
3.10533858
 20
2.16035625
 30
0.0
 11
2.9917089
 21
2.27398594
 31
0.0
  0
LINE
  5
1250
330
762
100
AcDbEntity
  8
0
100
AcDbLine
 10
2.99678997
 20
2.10052506
 30
0.0
 11
2.88811319
 21
2.20920185
 31
0.0
  0
LINE
  5
1251
330
762
100
AcDbEntity
  8
0
100
AcDbLine
 10
2.90480433
 20
2.0241309
 30
0.0
 11
2.79763128
 21
2.13130395
 31
0.0
  0
LINE
  5
1252
330
762
100
AcDbEntity
  8
0
100
AcDbLine
 10
3.64693071
 20
0.92304191
 30
0.0
 11
3.30751611
 21
1.02036819
 31
0.0
  0
LINE
  5
1253
330
762
100
AcDbEntity
  8
0
100
AcDbLine
 10
3.30751611
 20
0.89423141
 30
0.0
 11
3.30751611
 21
1.02036819
 31
0.0
  0
LINE
  5
1254
330
762
100
AcDbEntity
  8
0
100
AcDbLine
 10
3.30751611
 20
0.89423141
 30
0.0
 11
3.15595056
 21
0.93769035
 31
0.0
  0
LINE
  5
1255
330
762
100
AcDbEntity
  8
0
100
AcDbLine
 10
3.15595056
 20
0.93769035
 30
0.0
 11
3.15595056
 21
1.3791748
 31
0.0
  0
ARC
  5
1256
330
762
100
AcDbEntity
  8
0
100
AcDbCircle
 10
3.3605652
 20
1.56892928
 30
0.0
 40
0.6441496610641467
100
AcDbArc
 50
200.8721834
 51
222.54194894
  0
LINE
  5
1257
330
762
100
AcDbEntity
  8
0
100
AcDbLine
 10
3.5592003
 20
0.61708411
 30
0.0
 11
2.84684564
 21
0.82134971
 31
0.0
  0
ARC
  5
1258
330
762
100
AcDbEntity
  8
0
100
AcDbCircle
 10
3.46224595
 20
1.59169158
 30
0.0
 40
1.289039611816406
100
AcDbArc
 50
245.20517737
 51
262.79482596
  0
LINE
  5
1259
330
762
100
AcDbEntity
  8
0
100
AcDbLine
 10
3.44198676
 20
0.98180907
 30
0.0
 11
3.15595056
 21
1.26784527
 31
0.0
  0
LINE
  5
125A
330
762
100
AcDbEntity
  8
0
100
AcDbLine
 10
3.30751611
 20
0.94789991
 30
0.0
 11
3.15595056
 21
1.09946547
 31
0.0
  0
LINE
  5
125B
330
762
100
AcDbEntity
  8
0
100
AcDbLine
 10
2.76604321
 20
1.32099301
 30
0.0
 11
2.75026287
 21
1.33677335
 31
0.0
  0
LINE
  5
125C
330
762
100
AcDbEntity
  8
0
100
AcDbLine
 10
3.59772383
 20
0.32093259
 30
0.0
 11
3.19799886
 21
0.72065756
 31
0.0
  0
LINE
  5
125D
330
762
100
AcDbEntity
  8
0
100
AcDbLine
 10
3.45613074
 20
0.29414587
 30
0.0
 11
2.96192581
 21
0.78835081
 31
0.0
  0
LINE
  5
125E
330
762
100
AcDbEntity
  8
0
100
AcDbLine
 10
3.44743176
 20
-0.20229455
 30
0.0
 11
2.97215258
 21
0.27298462
 31
0.0
  0
LINE
  5
125F
330
762
100
AcDbEntity
  8
0
100
AcDbLine
 10
3.3767155
 20
-0.8050975
 30
0.0
 11
2.83434139
 21
-0.26272339
 31
0.0
  0
LINE
  5
1260
330
762
100
AcDbEntity
  8
0
100
AcDbLine
 10
4.1562788
 20
-0.74276178
 30
0.0
 11
4.00471325
 21
-0.59119624
 31
0.0
  0
LINE
  5
1261
330
762
100
AcDbEntity
  8
0
100
AcDbLine
 10
3.92893047
 20
-0.17865386
 30
0.0
 11
3.68036909
 21
0.06990753
 31
0.0
  0
LINE
  5
1262
330
762
100
AcDbEntity
  8
0
100
AcDbLine
 10
4.15488836
 20
1.61594588
 30
0.0
 11
3.95587783
 21
1.81495641
 31
0.0
  0
LINE
  5
1263
330
762
100
AcDbEntity
  8
0
100
AcDbLine
 10
3.84002705
 20
1.06861648
 30
0.0
 11
3.92893047
 21
1.15752563
 31
0.0
  0
LINE
  5
1264
330
762
100
AcDbEntity
  8
0
100
AcDbLine
 10
3.85017257
 20
1.07876266
 30
0.0
 11
3.70808216
 21
1.22085308
 31
0.0
  0
LINE
  5
1265
330
762
100
AcDbEntity
  8
0
100
AcDbLine
 10
3.91637403
 20
0.6758016
 30
0.0
 11
3.73843359
 21
0.85374204
 31
0.0
  0
LINE
  5
1266
330
762
100
AcDbEntity
  8
0
100
AcDbLine
 10
3.87038535
 20
0.55341048
 30
0.0
 11
3.73804201
 21
0.68575381
 31
0.0
  0
LINE
  5
1267
330
762
100
AcDbEntity
  8
0
100
AcDbLine
 10
3.92893047
 20
-0.34036294
 30
0.0
 11
3.92893047
 21
-0.00136605
 31
0.0
1001
HATCH_DISTANCE
1040
1.0
1001
HATCH_DISPLAY
1070
     0
1001
HATCH_TYPE
1070
     7
  0
LINE
  5
1268
330
762
100
AcDbEntity
  8
0
100
AcDbLine
 10
3.92893047
 20
-0.34036294
 30
0.0
 11
3.92893047
 21
-0.00136605
 31
0.0
  0
LINE
  5
1269
330
762
100
AcDbEntity
  8
0
100
AcDbLine
 10
3.92893047
 20
-0.01027405
 30
0.0
 11
3.91644126
 21
0.00221516
 31
0.0
  0
LINE
  5
126A
330
762
100
AcDbEntity
  8
0
100
AcDbLine
 10
4.1562788
 20
1.44617564
 30
0.0
 11
4.00403779
 21
1.59841665
 31
0.0
  0
LINE
  5
126B
330
762
100
AcDbEntity
  8
0
100
AcDbLine
 10
4.1562788
 20
1.27779584
 30
0.0
 11
4.00471325
 21
1.42936139
 31
0.0
  0
LINE
  5
126C
330
762
100
AcDbEntity
  8
0
100
AcDbLine
 10
4.1562788
 20
1.10941604
 30
0.0
 11
4.00471325
 21
1.26098159
 31
0.0
  0
LINE
  5
126D
330
762
100
AcDbEntity
  8
0
100
AcDbLine
 10
4.1562788
 20
0.94103624
 30
0.0
 11
4.00471325
 21
1.09260179
 31
0.0
  0
LINE
  5
126E
330
762
100
AcDbEntity
  8
0
100
AcDbLine
 10
4.1562788
 20
0.77265644
 30
0.0
 11
4.00471325
 21
0.92422198
 31
0.0
  0
LINE
  5
126F
330
762
100
AcDbEntity
  8
0
100
AcDbLine
 10
4.1562788
 20
0.60427663
 30
0.0
 11
4.00471325
 21
0.75584218
 31
0.0
  0
LINE
  5
1270
330
762
100
AcDbEntity
  8
0
100
AcDbLine
 10
4.1562788
 20
0.43589683
 30
0.0
 11
4.00471325
 21
0.58746238
 31
0.0
  0
LINE
  5
1271
330
762
100
AcDbEntity
  8
0
100
AcDbLine
 10
4.1562788
 20
0.26751703
 30
0.0
 11
4.00471325
 21
0.41908258
 31
0.0
  0
LINE
  5
1272
330
762
100
AcDbEntity
  8
0
100
AcDbLine
 10
4.1562788
 20
0.09913723
 30
0.0
 11
4.00471325
 21
0.25070277
 31
0.0
  0
LINE
  5
1273
330
762
100
AcDbEntity
  8
0
100
AcDbLine
 10
4.1562788
 20
-0.06924258
 30
0.0
 11
4.00471325
 21
0.08232297
 31
0.0
  0
LINE
  5
1274
330
762
100
AcDbEntity
  8
0
100
AcDbLine
 10
4.1562788
 20
-0.23762238
 30
0.0
 11
4.00471325
 21
-0.08605683
 31
0.0
  0
LINE
  5
1275
330
762
100
AcDbEntity
  8
0
100
AcDbLine
 10
4.1562788
 20
-0.40600218
 30
0.0
 11
4.00471325
 21
-0.25443663
 31
0.0
  0
LINE
  5
1276
330
762
100
AcDbEntity
  8
0
100
AcDbLine
 10
4.1562788
 20
-0.57438198
 30
0.0
 11
4.00471325
 21
-0.42281643
 31
0.0
  0
LINE
  5
1277
330
762
100
AcDbEntity
  8
0
100
AcDbLine
 10
3.92893047
 20
-0.34036294
 30
0.0
 11
3.92893047
 21
-0.00136605
 31
0.0
  0
LINE
  5
1278
330
762
100
AcDbEntity
  8
0
100
AcDbLine
 10
3.90052169
 20
-0.65538448
 30
0.0
 11
3.69397161
 21
-0.4488344
 31
0.0
  0
LINE
  5
1279
330
762
100
AcDbEntity
  8
0
100
AcDbLine
 10
4.1562788
 20
-0.91114159
 30
0.0
 11
4.00471325
 21
-0.75957604
 31
0.0
  0
LINE
  5
127A
330
762
100
AcDbEntity
  8
241
  6
HIDDEN2
100
AcDbLine
 10
8.0
 20
2.8991378
 30
0.0
 11
8.0
 21
0.0
 31
0.0
  0
LINE
  5
127B
330
762
100
AcDbEntity
  8
240
100
AcDbLine
 10
10.0
 20
6.2
 30
0.0
 11
10.0
 21
8.0
 31
0.0
  0
LINE
  5
127C
330
762
100
AcDbEntity
  8
240
100
AcDbLine
 10
11.0
 20
6.2
 30
0.0
 11
10.0
 21
6.2
 31
0.0
  0
LINE
  5
127D
330
762
100
AcDbEntity
  8
240
100
AcDbLine
 10
11.0
 20
6.2
 30
0.0
 11
11.0
 21
8.15
 31
0.0
  0
LINE
  5
127E
330
762
100
AcDbEntity
  8
241
100
AcDbLine
 10
13.0
 20
8.15
 30
0.0
 11
13.0
 21
0.0
 31
0.0
  0
LINE
  5
127F
330
762
100
AcDbEntity
  8
241
100
AcDbLine
 10
14.2
 20
8.0
 30
0.0
 11
14.2
 21
0.0
 31
0.0
  0
LINE
  5
1280
330
762
100
AcDbEntity
  8
241
  6
HIDDEN2
100
AcDbLine
 10
12.0
 20
2.8
 30
0.0
 11
17.0
 21
2.8
 31
0.0
1001
GRPNAME
1000
0000002S
  0
LINE
  5
1281
330
762
100
AcDbEntity
  8
241
  6
HIDDEN2
100
AcDbLine
 10
12.0
 20
2.8991378
 30
0.0
 11
12.0
 21
0.0
 31
0.0
  0
LINE
  5
1282
330
762
100
AcDbEntity
  8
241
  6
HIDDEN2
100
AcDbLine
 10
17.0
 20
2.8
 30
0.0
 11
17.0
 21
0.0
 31
0.0
  0
LINE
  5
1283
330
762
100
AcDbEntity
  8
240
100
AcDbLine
 10
13.15
 20
8.0
 30
0.0
 11
13.0
 21
8.15
 31
0.0
  0
ARC
  5
1284
330
762
100
AcDbEntity
  8
240
100
AcDbCircle
 10
29.0
 20
7.0
 30
0.0
 40
1.0
100
AcDbArc
 50
359.9999824
 51
90.0
1001
GENIUS_GENODEF_13
1002
{
1000
HIER
1070
     0
1002
}
1002
{
1000
MANEDIT
1070
     0
1002
}
1002
{
1000
NOSEL
1070
     0
1002
}
1002
{
1000
BEHIND
1070
     0
1002
}
1002
{
1000
OTHER
1070
     0
1002
}
1002
{
1000
REACTOR
1002
}
1001
GENIUS_GENOBJ-N-FIL_13
1002
{
1000
OWNER
1000
GEN
1002
}
  0
LINE
  5
1285
330
762
100
AcDbEntity
  8
240
100
AcDbLine
 10
30.0
 20
7.0
 30
0.0
 11
30.0
 21
0.0
 31
0.0
  0
ENDBLK
  5
8A0
330
762
100
AcDbEntity
  8
0
100
AcDbBlockEnd
  0
BLOCK
  5
8E8
330
8DE
100
AcDbEntity
  8
0
100
AcDbBlockBegin
  2
*D3
 70
     1
 10
0.0
 20
0.0
 30
0.0
  3
*D3
  1

  0
LINE
  5
CEE
330
8DE
100
AcDbEntity
  8
250
  6
CONTINUOUS
100
AcDbLine
 10
0.0
 20
11.14125603
 30
0.0
 11
0.0
 21
22.0
 31
0.0
  0
LINE
  5
CEF
330
8DE
100
AcDbEntity
  8
250
  6
CONTINUOUS
100
AcDbLine
 10
30.0
 20
7.5
 30
0.0
 11
30.0
 21
22.0
 31
0.0
  0
LINE
  5
CF0
330
8DE
100
AcDbEntity
  8
250
  6
CONTINUOUS
100
AcDbLine
 10
2.23
 20
21.0
 30
0.0
 11
27.77
 21
21.0
 31
0.0
  0
INSERT
  5
CF1
330
8DE
100
AcDbEntity
  8
250
  6
CONTINUOUS
100
AcDbBlockReference
  2
_OPEN
 10
0.0
 20
21.0
 30
0.0
 41
2.23
 42
2.23
 43
2.23
 50
180.0
  0
INSERT
  5
CF2
330
8DE
100
AcDbEntity
  8
250
  6
CONTINUOUS
100
AcDbBlockReference
  2
_OPEN
 10
30.0
 20
21.0
 30
0.0
 41
2.23
 42
2.23
 43
2.23
  0
MTEXT
  5
CF3
330
8DE
100
AcDbEntity
  8
250
  6
CONTINUOUS
 62
    40
100
AcDbMText
 10
15.03584688
 20
23.4
 30
0.0
 40
2.8
 41
0.0
 71
     5
 72
     1
  1
\A1;30
1001
ACAD
1000
MTEXTBEGIN
1070
    73
1070
     1
1070
    44
1040
1.0
1070
    74
1070
     0
1000
MTEXTEND
1000
MTEXTBEGIN
1070
    73
1070
     1
1070
    44
1040
1.0
1070
    74
1070
     0
1000
MTEXTEND
  0
POINT
  5
CF4
330
8DE
100
AcDbEntity
  8
DEFPOINTS
  6
CONTINUOUS
 62
     0
100
AcDbPoint
 10
0.0
 20
10.64125603
 30
0.0
  0
POINT
  5
CF5
330
8DE
100
AcDbEntity
  8
DEFPOINTS
  6
CONTINUOUS
 62
     0
100
AcDbPoint
 10
30.0
 20
7.0
 30
0.0
  0
POINT
  5
CF6
330
8DE
100
AcDbEntity
  8
DEFPOINTS
  6
CONTINUOUS
 62
     0
100
AcDbPoint
 10
30.0
 20
21.0
 30
0.0
  0
ENDBLK
  5
8E9
330
8DE
100
AcDbEntity
  8
0
100
AcDbBlockEnd
  0
BLOCK
  5
8F4
330
8EA
100
AcDbEntity
  8
0
100
AcDbBlockBegin
  2
*D4
 70
     1
 10
0.0
 20
0.0
 30
0.0
  3
*D4
  1

  0
LINE
  5
CE5
330
8EA
100
AcDbEntity
  8
250
  6
CONTINUOUS
100
AcDbLine
 10
29.5
 20
-8.0
 30
0.0
 11
48.25
 21
-8.0
 31
0.0
  0
LINE
  5
CE6
330
8EA
100
AcDbEntity
  8
250
  6
CONTINUOUS
100
AcDbLine
 10
29.5
 20
8.0
 30
0.0
 11
48.25
 21
8.0
 31
0.0
  0
LINE
  5
CE7
330
8EA
100
AcDbEntity
  8
250
  6
CONTINUOUS
100
AcDbLine
 10
47.25
 20
-5.77
 30
0.0
 11
47.25
 21
5.77
 31
0.0
  0
INSERT
  5
CE8
330
8EA
100
AcDbEntity
  8
250
  6
CONTINUOUS
100
AcDbBlockReference
  2
_OPEN
 10
47.25
 20
-8.0
 30
0.0
 41
2.23
 42
2.23
 43
2.23
 50
270.0
  0
INSERT
  5
CE9
330
8EA
100
AcDbEntity
  8
250
  6
CONTINUOUS
100
AcDbBlockReference
  2
_OPEN
 10
47.25
 20
8.0
 30
0.0
 41
2.23
 42
2.23
 43
2.23
 50
90.0
  0
MTEXT
  5
CEA
330
8EA
100
AcDbEntity
  8
250
  6
CONTINUOUS
 62
    40
100
AcDbMText
 10
44.85
 20
0.0
 30
0.0
 40
2.8
 41
0.0
 71
     5
 72
     1
  1
\A1;{\H2.8;\U+2205}16
 11
0.0
 21
1.0
 31
0.0
1001
ACAD
1000
MTEXTBEGIN
1070
    73
1070
     1
1070
    44
1040
1.0
1070
    74
1070
     0
1000
MTEXTEND
1000
MTEXTBEGIN
1070
    73
1070
     1
1070
    44
1040
1.0
1070
    74
1070
     0
1000
MTEXTEND
  0
POINT
  5
CEB
330
8EA
100
AcDbEntity
  8
DEFPOINTS
  6
CONTINUOUS
 62
     0
100
AcDbPoint
 10
29.0
 20
-8.0
 30
0.0
  0
POINT
  5
CEC
330
8EA
100
AcDbEntity
  8
DEFPOINTS
  6
CONTINUOUS
 62
     0
100
AcDbPoint
 10
29.0
 20
8.0
 30
0.0
  0
POINT
  5
CED
330
8EA
100
AcDbEntity
  8
DEFPOINTS
  6
CONTINUOUS
 62
     0
100
AcDbPoint
 10
47.25
 20
8.0
 30
0.0
  0
ENDBLK
  5
8F5
330
8EA
100
AcDbEntity
  8
0
100
AcDbBlockEnd
  0
ENDSEC
  0
SECTION
  2
ENTITIES
  0
INSERT
  5
6E6
330
1A
100
AcDbEntity
  8
245
100
AcDbBlockReference
  2
矢印なし
 10
175.62382697
 20
90.55123572
 30
0.0
  0
INSERT
  5
8D1
330
1A
100
AcDbEntity
  8
245
100
AcDbBlockReference
  2
矢印なし
 10
371.62382697
 20
237.55123572
 30
0.0
  0
INSERT
  5
8D2
330
1A
100
AcDbEntity
  8
245
100
AcDbBlockReference
  2
矢印なし
 10
553.62382697
 20
384.55123572
 30
0.0
  0
DIMENSION
  5
8D3
330
1A
100
AcDbEntity
  8
250
  6
CONTINUOUS
100
AcDbDimension
  2
*D3
 10
30.0
 20
21.0
 30
0.0
 11
15.03584688
 21
21.0
 31
0.0
 70
   160
  3
BIGT
100
AcDbAlignedDimension
 13
0.0
 23
10.64125603
 33
0.0
 14
30.0
 24
7.0
 34
0.0
100
AcDbRotatedDimension
  0
TEXT
  5
8D4
330
1A
100
AcDbEntity
  8
241
100
AcDbText
 10
-47.5
 20
35.0
 30
0.0
 40
5.0
  1
MGT6-M4-30
  7
YOKO
 11
-47.5
 21
35.0
 31
0.0
100
AcDbText
 73
     1
  0
LINE
  5
8D5
330
1A
100
AcDbEntity
  8
250
  6
CONTINUOUS
100
AcDbLine
 10
16.8414831
 20
14.06872346
 30
0.0
 11
27.82814976
 21
14.06872346
 31
0.0
1001
ITEMNAME
1000
LNSP2
  0
MTEXT
  5
8D6
330
1A
100
AcDbEntity
  8
251
  6
CONTINUOUS
100
AcDbMText
 10
19.6414831
 20
15.06872346
 30
0.0
 40
2.8
 41
0.0
 71
     7
 72
     1
  1
□4
  7
YOKO
1001
ITEMNAME
1000
LNSP3
1001
ACAD
1000
MTEXTBEGIN
1070
    73
1070
     1
1070
    44
1040
1.0
1070
    74
1070
     0
1000
MTEXTEND
1000
MTEXTBEGIN
1070
    73
1070
     1
1070
    44
1040
1.0
1070
    74
1070
     0
1000
MTEXTEND
1000
MTEXTBEGIN
1070
    73
1070
     1
1070
    44
1040
1.0
1070
    74
1070
     0
1000
MTEXTEND
1000
MTEXTBEGIN
1070
    73
1070
     1
1070
    44
1040
1.0
1070
    74
1070
     0
1000
MTEXTEND
  0
LEADER
  5
8D7
330
1A
100
AcDbEntity
  8
250
  6
CONTINUOUS
100
AcDbLeader
  3
BIGT
 76
     2
 10
11.63704303
 20
2.8991378
 30
0.0
 10
16.8414831
 20
14.06872346
 30
0.0
1001
ACAD
1000
DSTYLE
1002
{
1070
     6
1000
OPEN
1070
    41
1040
2.0
1070
    42
1040
2.0
1070
    44
1040
2.0
1070
   140
1040
4.0
1070
   343
1005
594
1002
}
  0
DIMENSION
  5
8D8
330
1A
100
AcDbEntity
  8
250
  6
CONTINUOUS
100
AcDbDimension
  2
*D4
 10
47.25
 20
8.0
 30
0.0
 11
44.85
 21
0.0
 31
0.0
 70
    32
  1
{\H2.8;\U+2205}<>
  3
BIGT
100
AcDbAlignedDimension
 13
29.0
 23
-8.0
 33
0.0
 14
29.0
 24
8.0
 34
0.0
 50
90.0
100
AcDbRotatedDimension
  0
LINE
  5
8D9
330
1A
100
AcDbEntity
  8
250
  6
CONTINUOUS
100
AcDbLine
 10
40.25
 20
-2.5
 30
0.0
 11
40.25
 21
2.5
 31
0.0
  0
MTEXT
  5
8DA
330
1A
100
AcDbEntity
  8
250
  6
CONTINUOUS
 62
    40
100
AcDbMText
 10
37.85
 20
-0.57085465
 30
0.0
 40
2.8
 41
0.0
 71
     5
 72
     1
  1
\A1;{\H2.8;\U+2205}5
 11
0.0
 21
1.0
 31
0.0
1001
ACAD
1000
MTEXTBEGIN
1070
    73
1070
     1
1070
    44
1040
1.0
1070
    74
1070
     0
1000
MTEXTEND
1000
MTEXTBEGIN
1070
    73
1070
     1
1070
    44
1040
1.0
1070
    74
1070
     0
1000
MTEXTEND
1000
MTEXTBEGIN
1070
    73
1070
     1
1070
    44
1040
1.0
1070
    74
1070
     0
1000
MTEXTEND
1000
MTEXTBEGIN
1070
    73
1070
     1
1070
    44
1040
1.0
1070
    74
1070
     0
1000
MTEXTEND
1000
MTEXTBEGIN
1070
    73
1070
     1
1070
    44
1040
1.0
1070
    74
1070
     0
1000
MTEXTEND
1000
MTEXTBEGIN
1070
    73
1070
     1
1070
    44
1040
1.0
1070
    74
1070
     0
1000
MTEXTEND
  0
LINE
  5
8DB
330
1A
100
AcDbEntity
  8
250
  6
CONTINUOUS
100
AcDbLine
 10
30.5
 20
2.5
 30
0.0
 11
41.25
 21
2.5
 31
0.0
  0
INSERT
  5
8DC
330
1A
100
AcDbEntity
  8
250
  6
CONTINUOUS
100
AcDbBlockReference
  2
_OPEN
 10
40.25
 20
2.5
 30
0.0
 41
2.23
 42
2.23
 43
2.23
 50
90.0
  0
INSERT
  5
1286
330
1A
100
AcDbEntity
  8
245
100
AcDbBlockReference
  2
1
 10
0.0
 20
0.0
 30
0.0
  0
VIEWPORT
  5
22
330
17
100
AcDbEntity
 67
     1
  8
0
100
AcDbViewport
 10
261.51769912
 20
148.5
 30
0.0
 40
523.03539823
 41
297.0
 68
     1
 69
     1
1001
ACAD
1000
MVIEW
1002
{
1070
    16
1010
0.0
1020
0.0
1030
0.0
1010
0.0
1020
0.0
1030
1.0
1040
0.0
1040
297.0
1040
261.51769912
1040
148.5
1040
50.0
1040
0.0
1040
0.0
1070
     0
1070
   100
1070
     1
1070
     1
1070
     0
1070
     0
1070
     0
1070
     0
1040
0.0
1040
0.0
1040
0.0
1040
1.0
1040
1.0
1040
10.0
1040
10.0
1070
     0
1002
{
1002
}
1002
}
  0
ENDSEC
  0
SECTION
  2
OBJECTS
  0
DICTIONARY
  5
C
330
0
100
AcDbDictionary
  3
ACAD_GROUP
350
D
  3
ACAD_LAYOUT
350
565
  3
ACAD_MLINESTYLE
350
E
  3
ACAD_PLOTSETTINGS
350
566
  3
ACAD_PLOTSTYLENAME
350
563
  3
ACDBHEADERROUNDTRIPXREC
350
1288
  3
GRADE_DWG
350
540
  0
DICTIONARY
  5
E7F
330
1A
100
AcDbDictionary
280
     1
  3
ACAD_LAYOUTSELFREF
360
12AA
  0
DICTIONARY
  5
E7D
330
17
100
AcDbDictionary
280
     1
  3
ACAD_LAYOUTSELFREF
360
12A9
  0
DICTIONARY
  5
D
102
{ACAD_REACTORS
330
C
102
}
330
C
100
AcDbDictionary
  3
*A1
350
6C7
  3
*A2
350
6C8
  3
*A3
350
6D4
  3
*A4
350
6D5
  3
DREC-1
350
5FC
  3
DREC-2
350
654
  3
DREC-3
350
673
  0
DICTIONARY
  5
565
102
{ACAD_REACTORS
330
C
102
}
330
C
100
AcDbDictionary
  0
DICTIONARY
  5
E
102
{ACAD_REACTORS
330
C
102
}
330
C
100
AcDbDictionary
  3
STANDARD
350
13
  0
DICTIONARY
  5
566
102
{ACAD_REACTORS
330
C
102
}
330
C
100
AcDbDictionary
  3
A3_0_5倍_
350
758
  3
A3_1倍_
350
757
  3
A3_1倍__2000_
350
707
  3
A3_2倍_
350
759
  3
A4_0_5倍_
350
755
  3
A4_1倍_
350
754
  3
A4_1倍__2000_
350
708
  3
A4_2倍_
350
756
  0
ACDBDICTIONARYWDFLT
  5
563
102
{ACAD_REACTORS
330
C
102
}
330
C
100
AcDbDictionary
281
     1
  3
Normal
350
564
100
AcDbDictionaryWithDefault
340
564
  0
DICTIONARY
  5
1288
102
{ACAD_REACTORS
330
C
102
}
330
C
100
AcDbDictionary
  3
CEPSNTYPE
350
1292
  3
DIMSTYLEDATA
350
1296
  3
FINGERPRINTGUID
350
1293
  3
HYPERLINKBASE
350
128B
  3
INSUNITS
350
1291
  3
LAYOUTDICT
350
128D
  3
LWETCUNION
350
1290
  3
PLOTSETDICT
350
128E
  3
PLOTSTYLNAMDICT
350
128F
  3
PSVPSCALE
350
1295
  3
PUCSBASE
350
1299
  3
PUCSORGBACK
350
129F
  3
PUCSORGBOTTOM
350
129B
  3
PUCSORGFRONT
350
129E
  3
PUCSORGLEFT
350
129C
  3
PUCSORGRIGHT
350
129D
  3
PUCSORGTOP
350
129A
  3
PUCSORTHOREF
350
1297
  3
PUCSORTHOVIEW
350
1298
  3
STYLESHEET
350
128C
  3
TSTACKALIGN
350
1289
  3
TSTACKSIZE
350
128A
  3
UCSBASE
350
12A2
  3
UCSORGBACK
350
12A8
  3
UCSORGBOTTOM
350
12A4
  3
UCSORGFRONT
350
12A7
  3
UCSORGLEFT
350
12A5
  3
UCSORGRIGHT
350
12A6
  3
UCSORGTOP
350
12A3
  3
UCSORTHOREF
350
12A0
  3
UCSORTHOVIEW
350
12A1
  3
VERSIONGUID
350
1294
  0
DICTIONARY
  5
540
102
{ACAD_REACTORS
330
C
102
}
330
C
100
AcDbDictionary
  3
VERSION
350
560
  0
XRECORD
  5
12AA
102
{ACAD_REACTORS
330
E7F
102
}
330
E7F
100
AcDbXrecord
340
1A
  0
XRECORD
  5
12A9
102
{ACAD_REACTORS
330
E7D
102
}
330
E7D
100
AcDbXrecord
340
17
  0
GROUP
  5
6C7
102
{ACAD_REACTORS
330
D
102
}
330
D
100
AcDbGroup
300

 70
     0
 71
     1
1001
GRPNAME
1000
DMA00
  0
GROUP
  5
6C8
102
{ACAD_REACTORS
330
D
102
}
330
D
100
AcDbGroup
300

 70
     0
 71
     1
1001
GRPNAME
1000
DMA00
  0
GROUP
  5
6D4
102
{ACAD_REACTORS
330
D
102
}
330
D
100
AcDbGroup
300

 70
     0
 71
     1
1001
GRPNAME
1000
DMA00
  0
GROUP
  5
6D5
102
{ACAD_REACTORS
330
D
102
}
330
D
100
AcDbGroup
300

 70
     0
 71
     1
1001
GRPNAME
1000
DMA00
  0
GROUP
  5
5FC
102
{ACAD_REACTORS
330
D
102
}
330
D
100
AcDbGroup
300

 70
     0
 71
     1
1001
GRPNAME
1000
DREC-
1001
GPARA
1000
xsiz
1000
44.182
1000
ysiz
1000
40.677
1000
angl
1000
0
1000
ctyp
1000
0
1000
csiz
1000
5
1000
lfnt
1000
cont
1000
hcnt
1000
hoff
1000
vcnt
1000
voff
1000
opnt
1000
4
1000
dxpt
1000
0
1000
dypt
1000
0
  0
GROUP
  5
654
102
{ACAD_REACTORS
330
D
102
}
330
D
100
AcDbGroup
300

 70
     0
 71
     1
1001
GRPNAME
1000
DREC-
1001
GPARA
1000
xsiz
1000
54.592
1000
ysiz
1000
53.036
1000
angl
1000
0
1000
ctyp
1000
0
1000
csiz
1000
5
1000
lfnt
1000
cont
1000
hcnt
1000
hoff
1000
vcnt
1000
voff
1000
opnt
1000
4
1000
dxpt
1000
0
1000
dypt
1000
0
  0
GROUP
  5
673
102
{ACAD_REACTORS
330
D
102
}
330
D
100
AcDbGroup
300

 70
     0
 71
     1
1001
GRPNAME
1000
DREC-
1001
GPARA
1000
xsiz
1000
30.363
1000
ysiz
1000
36.175
1000
angl
1000
0
1000
ctyp
1000
0
1000
csiz
1000
5
1000
lfnt
1000
cont
1000
hcnt
1000
hoff
1000
vcnt
1000
voff
1000
opnt
1000
4
1000
dxpt
1000
0
1000
dypt
1000
0
  0
MLINESTYLE
  5
13
102
{ACAD_REACTORS
330
E
102
}
330
E
100
AcDbMlineStyle
  2
STANDARD
 70
     0
  3

 62
     0
 51
90.0
 52
90.0
 71
     2
 49
0.5
 62
   256
  6
BYLAYER
 49
-0.5
 62
   256
  6
BYLAYER
  0
PLOTSETTINGS
  5
758
102
{ACAD_REACTORS
330
566
102
}
330
566
100
AcDbPlotSettings
  1
A3(0.5倍)
  2
\\AWTECPC05\HP DeskJet 1120C
  4
A3
  6

 40
5.95841646
 41
13.49375153
 42
6.04309082
 43
3.67242432
 44
296.92599487
 45
419.94665527
 46
89.96
 47
127.14
 48
0.0
 49
0.0
140
0.0
141
0.0
142
1.0
143
2.0
 70
  1716
 72
     1
 73
     1
 74
     2
  7
big.ctb
 75
    17
147
0.5
148
0.0
149
0.0
  0
PLOTSETTINGS
  5
757
102
{ACAD_REACTORS
330
566
102
}
330
566
100
AcDbPlotSettings
  1
A3(1倍)
  2
\\AWTECPC05\HP DeskJet 1120C
  4
A3
  6

 40
5.95841646
 41
13.49375153
 42
6.04309082
 43
3.67242432
 44
296.92599487
 45
419.94665527
 46
37.46
 47
52.89
 48
0.0
 49
0.0
140
0.0
141
0.0
142
1.0
143
1.0
 70
  1716
 72
     1
 73
     1
 74
     2
  7
big.ctb
 75
    16
147
1.0
148
0.0
149
0.0
  0
PLOTSETTINGS
  5
707
102
{ACAD_REACTORS
330
566
102
}
330
566
100
AcDbPlotSettings
  1
A3(1倍)(2000)
  2
SII LS-1300 (D-SCAN)
  4
User258
  6

 40
3.17499995
 41
3.17499995
 42
3.17498779
 43
3.17498779
 44
419.98898315
 45
296.98950195
 46
58.32
 47
40.32
 48
0.0
 49
0.0
140
0.0
141
0.0
142
1.0
143
1.0
 70
  1716
 72
     1
 73
     0
 74
     2
  7
big.ctb
 75
    16
147
1.0
148
0.0
149
0.0
  0
PLOTSETTINGS
  5
759
102
{ACAD_REACTORS
330
566
102
}
330
566
100
AcDbPlotSettings
  1
A3(2倍)
  2
\\AWTECPC05\HP DeskJet 1120C
  4
A3
  6

 40
5.95841646
 41
13.49375153
 42
6.04309082
 43
3.67242432
 44
296.92599487
 45
419.94665527
 46
-67.54
 47
-95.61
 48
0.0
 49
0.0
140
0.0
141
0.0
142
1.0
143
0.5
 70
  1716
 72
     1
 73
     1
 74
     2
  7
big.ctb
 75
    27
147
2.0
148
0.0
149
0.0
  0
PLOTSETTINGS
  5
755
102
{ACAD_REACTORS
330
566
102
}
330
566
100
AcDbPlotSettings
  1
A4(0.5倍)
  2
\\AWTECPC05\HP DeskJet 1120C
  4
A4
  6

 40
4.18041658
 41
13.49374962
 42
4.18040466
 43
3.92642212
 44
209.97332764
 45
296.92599487
 46
48.31
 47
65.5
 48
0.0
 49
0.0
140
0.0
141
0.0
142
1.0
143
2.0
 70
  1716
 72
     1
 73
     1
 74
     2
  7
big.ctb
 75
    17
147
0.5
148
0.0
149
0.0
  0
PLOTSETTINGS
  5
754
102
{ACAD_REACTORS
330
566
102
}
330
566
100
AcDbPlotSettings
  1
A4(1倍)
  2
\\AWTECPC05\HP DeskJet 1120C
  4
A4
  6

 40
4.18041658
 41
13.49374962
 42
4.18040466
 43
3.92642212
 44
209.97332764
 45
296.92599487
 46
-4.19
 47
-8.75
 48
0.0
 49
0.0
140
0.0
141
0.0
142
1.0
143
1.0
 70
  1716
 72
     1
 73
     1
 74
     2
  7
big.ctb
 75
    16
147
1.0
148
0.0
149
0.0
  0
PLOTSETTINGS
  5
708
102
{ACAD_REACTORS
330
566
102
}
330
566
100
AcDbPlotSettings
  1
A4(1倍)(2000)
  2
SII LS-1300 (D-SCAN)
  4
User259
  6

 40
3.17499995
 41
3.17499995
 42
3.17498779
 43
3.17500305
 44
296.98950195
 45
209.99449158
 46
-3.18
 47
-3.18
 48
0.0
 49
0.0
140
0.0
141
0.0
142
1.0
143
1.0
 70
  1716
 72
     1
 73
     0
 74
     2
  7
big.ctb
 75
    16
147
1.0
148
0.0
149
0.0
  0
PLOTSETTINGS
  5
756
102
{ACAD_REACTORS
330
566
102
}
330
566
100
AcDbPlotSettings
  1
A4(2倍)
  2
\\AWTECPC05\HP DeskJet 1120C
  4
A4
  6

 40
4.18041658
 41
13.49374962
 42
4.18040466
 43
3.92642212
 44
209.97332764
 45
296.92599487
 46
-109.19
 47
-157.25
 48
0.0
 49
0.0
140
0.0
141
0.0
142
1.0
143
0.5
 70
  1716
 72
     1
 73
     1
 74
     2
  7
big.ctb
 75
    27
147
2.0
148
0.0
149
0.0
  0
ACDBPLACEHOLDER
  5
564
102
{ACAD_REACTORS
330
563
102
}
330
563
100
AcDbPlaceHolder
280
     0
  0
XRECORD
  5
1292
102
{ACAD_REACTORS
330
1288
102
}
330
1288
100
AcDbXrecord
 90
        0
  0
XRECORD
  5
1296
102
{ACAD_REACTORS
330
1288
102
}
330
1288
100
AcDbXrecord
1000
DSTYLE
1002
{
1070
    79
 70
     2
1070
   179
 70
     3
1070
   341
340
594
1070
   343
340
594
1070
   344
340
594
1070
   371
 70
    -1
1070
   372
 70
    -1
1002
}
  0
XRECORD
  5
1293
102
{ACAD_REACTORS
330
1288
102
}
330
1288
100
AcDbXrecord
  1
{51294030-9CB4-11D3-8E18-00A0C925D94D}
  0
XRECORD
  5
128B
102
{ACAD_REACTORS
330
1288
102
}
330
1288
100
AcDbXrecord
  1

  0
XRECORD
  5
1291
102
{ACAD_REACTORS
330
1288
102
}
330
1288
100
AcDbXrecord
 90
        0
  0
XRECORD
  5
128D
102
{ACAD_REACTORS
330
1288
102
}
330
1288
100
AcDbXrecord
340
565
  0
XRECORD
  5
1290
102
{ACAD_REACTORS
330
1288
102
}
330
1288
100
AcDbXrecord
 90
    10781
  0
XRECORD
  5
128E
102
{ACAD_REACTORS
330
1288
102
}
330
1288
100
AcDbXrecord
340
566
  0
XRECORD
  5
128F
102
{ACAD_REACTORS
330
1288
102
}
330
1288
100
AcDbXrecord
340
563
  0
XRECORD
  5
1295
102
{ACAD_REACTORS
330
1288
102
}
330
1288
100
AcDbXrecord
 40
0.0
  0
XRECORD
  5
1299
102
{ACAD_REACTORS
330
1288
102
}
330
1288
100
AcDbXrecord
340
0
  0
XRECORD
  5
129F
102
{ACAD_REACTORS
330
1288
102
}
330
1288
100
AcDbXrecord
 10
0.0
 20
0.0
 30
0.0
  0
XRECORD
  5
129B
102
{ACAD_REACTORS
330
1288
102
}
330
1288
100
AcDbXrecord
 10
0.0
 20
0.0
 30
0.0
  0
XRECORD
  5
129E
102
{ACAD_REACTORS
330
1288
102
}
330
1288
100
AcDbXrecord
 10
0.0
 20
0.0
 30
0.0
  0
XRECORD
  5
129C
102
{ACAD_REACTORS
330
1288
102
}
330
1288
100
AcDbXrecord
 10
0.0
 20
0.0
 30
0.0
  0
XRECORD
  5
129D
102
{ACAD_REACTORS
330
1288
102
}
330
1288
100
AcDbXrecord
 10
0.0
 20
0.0
 30
0.0
  0
XRECORD
  5
129A
102
{ACAD_REACTORS
330
1288
102
}
330
1288
100
AcDbXrecord
 10
0.0
 20
0.0
 30
0.0
  0
XRECORD
  5
1297
102
{ACAD_REACTORS
330
1288
102
}
330
1288
100
AcDbXrecord
340
0
  0
XRECORD
  5
1298
102
{ACAD_REACTORS
330
1288
102
}
330
1288
100
AcDbXrecord
 70
     0
  0
XRECORD
  5
128C
102
{ACAD_REACTORS
330
1288
102
}
330
1288
100
AcDbXrecord
  1
big.ctb
  0
XRECORD
  5
1289
102
{ACAD_REACTORS
330
1288
102
}
330
1288
100
AcDbXrecord
 90
        1
  0
XRECORD
  5
128A
102
{ACAD_REACTORS
330
1288
102
}
330
1288
100
AcDbXrecord
 90
       70
  0
XRECORD
  5
12A2
102
{ACAD_REACTORS
330
1288
102
}
330
1288
100
AcDbXrecord
340
0
  0
XRECORD
  5
12A8
102
{ACAD_REACTORS
330
1288
102
}
330
1288
100
AcDbXrecord
 10
0.0
 20
0.0
 30
0.0
  0
XRECORD
  5
12A4
102
{ACAD_REACTORS
330
1288
102
}
330
1288
100
AcDbXrecord
 10
0.0
 20
0.0
 30
0.0
  0
XRECORD
  5
12A7
102
{ACAD_REACTORS
330
1288
102
}
330
1288
100
AcDbXrecord
 10
0.0
 20
0.0
 30
0.0
  0
XRECORD
  5
12A5
102
{ACAD_REACTORS
330
1288
102
}
330
1288
100
AcDbXrecord
 10
0.0
 20
0.0
 30
0.0
  0
XRECORD
  5
12A6
102
{ACAD_REACTORS
330
1288
102
}
330
1288
100
AcDbXrecord
 10
0.0
 20
0.0
 30
0.0
  0
XRECORD
  5
12A3
102
{ACAD_REACTORS
330
1288
102
}
330
1288
100
AcDbXrecord
 10
0.0
 20
0.0
 30
0.0
  0
XRECORD
  5
12A0
102
{ACAD_REACTORS
330
1288
102
}
330
1288
100
AcDbXrecord
340
0
  0
XRECORD
  5
12A1
102
{ACAD_REACTORS
330
1288
102
}
330
1288
100
AcDbXrecord
 70
     0
  0
XRECORD
  5
1294
102
{ACAD_REACTORS
330
1288
102
}
330
1288
100
AcDbXrecord
  1
{82EE6EDB-8031-4388-8C9B-D2A82D13A215}
  0
XRECORD
  5
560
102
{ACAD_REACTORS
330
540
102
}
330
540
100
AcDbXrecord
  1
2.0.0
  0
ENDSEC
  0
EOF
