  0
SECTION
  2
HEADER
  9
$ACADVER
  1
AC1014
  9
$ACADMAINTVER
 70
     9
  9
$DWGCODEPAGE
  3
ANSI_932
  9
$INSBASE
 10
0.0
 20
0.0
 30
0.0
  9
$EXTMIN
 10
-48.51429639
 20
-11.07006072
 30
-0.00152582
  9
$EXTMAX
 10
218.27678003
 20
40.00231253
 30
0.00000003
  9
$LIMMIN
 10
0.0
 20
0.0
  9
$LIMMAX
 10
420.0
 20
297.0
  9
$ORTHOMODE
 70
     1
  9
$REGENMODE
 70
     1
  9
$FILLMODE
 70
     1
  9
$QTEXTMODE
 70
     0
  9
$MIRRTEXT
 70
     1
  9
$DRAGMODE
 70
     2
  9
$LTSCALE
 40
10.0
  9
$OSMODE
 70
   549
  9
$ATTMODE
 70
     1
  9
$TEXTSIZE
 40
3.0
  9
$TRACEWID
 40
1.0
  9
$TEXTSTYLE
  7
YOKO
  9
$CLAYER
  8
245
  9
$CELTYPE
  6
BYLAYER
  9
$CECOLOR
 62
   256
  9
$CELTSCALE
 40
1.0
  9
$DELOBJ
 70
     1
  9
$DISPSILH
 70
     0
  9
$DIMSCALE
 40
1.0
  9
$DIMASZ
 40
2.23
  9
$DIMEXO
 40
0.5
  9
$DIMDLI
 40
2.5
  9
$DIMRND
 40
0.0
  9
$DIMDLE
 40
0.0
  9
$DIMEXE
 40
1.0
  9
$DIMTP
 40
0.0
  9
$DIMTM
 40
0.0
  9
$DIMTXT
 40
2.8
  9
$DIMCEN
 40
0.0
  9
$DIMTSZ
 40
0.0
  9
$DIMTOL
 70
     0
  9
$DIMLIM
 70
     0
  9
$DIMTIH
 70
     0
  9
$DIMTOH
 70
     0
  9
$DIMSE1
 70
     0
  9
$DIMSE2
 70
     0
  9
$DIMTAD
 70
     3
  9
$DIMZIN
 70
     8
  9
$DIMBLK
  1

  9
$DIMASO
 70
     1
  9
$DIMSHO
 70
     1
  9
$DIMPOST
  1

  9
$DIMAPOST
  1

  9
$DIMALT
 70
     0
  9
$DIMALTD
 70
     2
  9
$DIMALTF
 40
25.4
  9
$DIMLFAC
 40
1.0
  9
$DIMTOFL
 70
     1
  9
$DIMTVP
 40
0.0
  9
$DIMTIX
 70
     1
  9
$DIMSOXD
 70
     0
  9
$DIMSAH
 70
     1
  9
$DIMBLK1
  1
OPEN
  9
$DIMBLK2
  1
OPEN
  9
$DIMSTYLE
  2
BIGT
  9
$DIMCLRD
 70
   256
  9
$DIMCLRE
 70
   256
  9
$DIMCLRT
 70
    40
  9
$DIMTFAC
 40
1.0
  9
$DIMGAP
 40
1.0
  9
$DIMJUST
 70
     0
  9
$DIMSD1
 70
     0
  9
$DIMSD2
 70
     0
  9
$DIMTOLJ
 70
     1
  9
$DIMTZIN
 70
     8
  9
$DIMALTZ
 70
     0
  9
$DIMALTTZ
 70
     0
  9
$DIMFIT
 70
     3
  9
$DIMUPT
 70
     0
  9
$DIMUNIT
 70
     2
  9
$DIMDEC
 70
     3
  9
$DIMTDEC
 70
     3
  9
$DIMALTU
 70
     2
  9
$DIMALTTD
 70
     2
  9
$DIMTXSTY
  7
STANDARD
  9
$DIMAUNIT
 70
     0
  9
$LUNITS
 70
     2
  9
$LUPREC
 70
     3
  9
$SKETCHINC
 40
1.0
  9
$FILLETRAD
 40
0.0
  9
$AUNITS
 70
     0
  9
$AUPREC
 70
     3
  9
$MENU
  1
.
  9
$ELEVATION
 40
0.0
  9
$PELEVATION
 40
0.0
  9
$THICKNESS
 40
0.0
  9
$LIMCHECK
 70
     0
  9
$BLIPMODE
 70
     0
  9
$CHAMFERA
 40
10.0
  9
$CHAMFERB
 40
10.0
  9
$CHAMFERC
 40
0.0
  9
$CHAMFERD
 40
0.0
  9
$SKPOLY
 70
     0
  9
$TDCREATE
 40
2455316.354890046
  9
$TDUPDATE
 40
2455316.634370833
  9
$TDINDWG
 40
0.2786416667
  9
$TDUSRTIMER
 40
0.2786409375
  9
$USRTIMER
 70
     1
  9
$ANGBASE
 50
0.0
  9
$ANGDIR
 70
     0
  9
$PDMODE
 70
     1
  9
$PDSIZE
 40
-5.0
  9
$PLINEWID
 40
0.0
  9
$COORDS
 70
     2
  9
$SPLFRAME
 70
     0
  9
$SPLINETYPE
 70
     6
  9
$SPLINESEGS
 70
     8
  9
$ATTDIA
 70
     0
  9
$ATTREQ
 70
     1
  9
$HANDLING
 70
-16383
  9
$HANDSEED
  5
E38
  9
$SURFTAB1
 70
     6
  9
$SURFTAB2
 70
     6
  9
$SURFTYPE
 70
     6
  9
$SURFU
 70
     6
  9
$SURFV
 70
     6
  9
$UCSNAME
  2

  9
$UCSORG
 10
0.0
 20
0.0
 30
0.0
  9
$UCSXDIR
 10
1.0
 20
0.0
 30
0.0
  9
$UCSYDIR
 10
0.0
 20
1.0
 30
0.0
  9
$PUCSNAME
  2

  9
$PUCSORG
 10
0.0
 20
0.0
 30
0.0
  9
$PUCSXDIR
 10
1.0
 20
0.0
 30
0.0
  9
$PUCSYDIR
 10
0.0
 20
1.0
 30
0.0
  9
$USERI1
 70
     1
  9
$USERI2
 70
     0
  9
$USERI3
 70
     0
  9
$USERI4
 70
     0
  9
$USERI5
 70
     0
  9
$USERR1
 40
0.0
  9
$USERR2
 40
0.0
  9
$USERR3
 40
0.0
  9
$USERR4
 40
0.0
  9
$USERR5
 40
0.0
  9
$WORLDVIEW
 70
     1
  9
$SHADEDGE
 70
     3
  9
$SHADEDIF
 70
    70
  9
$TILEMODE
 70
     1
  9
$MAXACTVP
 70
    16
  9
$PINSBASE
 10
0.0
 20
0.0
 30
0.0
  9
$PLIMCHECK
 70
     0
  9
$PEXTMIN
 10
1.00000000E+20
 20
1.00000000E+20
 30
1.00000000E+20
  9
$PEXTMAX
 10
-1.00000000E+20
 20
-1.00000000E+20
 30
-1.00000000E+20
  9
$PLIMMIN
 10
0.0
 20
0.0
  9
$PLIMMAX
 10
420.0
 20
297.0
  9
$UNITMODE
 70
     0
  9
$VISRETAIN
 70
     0
  9
$PLINEGEN
 70
     0
  9
$PSLTSCALE
 70
     1
  9
$TREEDEPTH
 70
  3020
  9
$PICKSTYLE
 70
     0
  9
$CMLSTYLE
  2
STANDARD
  9
$CMLJUST
 70
     0
  9
$CMLSCALE
 40
1.0
  9
$PROXYGRAPHICS
 70
     1
  9
$MEASUREMENT
 70
     1
  0
ENDSEC
  0
SECTION
  2
CLASSES
  0
CLASS
  1
XRECORD
  2
AcDbXrecord
  3
AutoCAD 2000
 90
        0
280
     0
281
     0
  0
CLASS
  1
ACDBDICTIONARYWDFLT
  2
AcDbDictionaryWithDefault
  3
AutoCAD 2000
 90
        0
280
     0
281
     0
  0
CLASS
  1
ACDBPLACEHOLDER
  2
AcDbPlaceHolder
  3
AutoCAD 2000
 90
        0
280
     0
281
     0
  0
CLASS
  1
LAYOUT
  2
AcDbLayout
  3
AutoCAD 2000
 90
        0
280
     0
281
     0
  0
CLASS
  1
PLOTSETTINGS
  2
AcDbPlotSettings
  3
AutoCAD 2000
 90
        0
280
     0
281
     0
  0
CLASS
  1
LONG_TRANSACTION
  2
AcDbLongTransaction
  3
AutoCAD 2000
 90
        0
280
     0
281
     0
  0
CLASS
  1
LWPOLYLINE
  2
AcDbPolyline
  3
AutoCAD 2000
 90
        0
280
     0
281
     1
  0
CLASS
  1
HATCH
  2
AcDbHatch
  3
AutoCAD 2000
 90
        0
280
     0
281
     1
  0
CLASS
  1
XRECORD
  2
AcDbXrecord
  3
AutoCAD 2000
 90
        0
280
     0
281
     0
  0
CLASS
  1
LONG_TRANSACTION
  2
AcDbLongTransaction
  3
AutoCAD 2000
 90
        0
280
     0
281
     0
  0
CLASS
  1
LWPOLYLINE
  2
AcDbPolyline
  3
AutoCAD 2000
 90
        0
280
     0
281
     1
  0
CLASS
  1
HATCH
  2
AcDbHatch
  3
AutoCAD 2000
 90
        0
280
     0
281
     1
  0
CLASS
  1
XRECORD
  2
AcDbXrecord
  3
AutoCAD 2000
 90
        0
280
     0
281
     0
  0
ENDSEC
  0
SECTION
  2
TABLES
  0
TABLE
  2
VPORT
  5
8
330
0
100
AcDbSymbolTable
 70
     3
  0
VPORT
  5
E13
330
8
100
AcDbSymbolTableRecord
100
AcDbViewportTableRecord
  2
*ACTIVE
 70
     0
 10
0.0
 20
0.0
 11
1.0
 21
1.0
 12
84.88124182
 22
14.4661259
 13
0.0
 23
0.0
 14
7.0
 24
7.0
 15
7.0
 25
7.0
 16
0.0
 26
0.0
 36
1.0
 17
0.0
 27
0.0
 37
0.0
 40
187.31986806
 41
1.43184713
 42
50.0
 43
0.0
 44
0.0
 50
0.0
 51
0.0
 71
     0
 72
  2000
 73
     1
 74
     0
 75
     0
 76
     0
 77
     0
 78
     0
  0
ENDTAB
  0
TABLE
  2
LTYPE
  5
5
330
0
100
AcDbSymbolTable
 70
     3
  0
LTYPE
  5
14
330
5
100
AcDbSymbolTableRecord
100
AcDbLinetypeTableRecord
  2
BYBLOCK
 70
     0
  3

 72
    65
 73
     0
 40
0.0
  0
LTYPE
  5
15
330
5
100
AcDbSymbolTableRecord
100
AcDbLinetypeTableRecord
  2
BYLAYER
 70
     0
  3

 72
    65
 73
     0
 40
0.0
  0
LTYPE
  5
16
330
5
100
AcDbSymbolTableRecord
100
AcDbLinetypeTableRecord
  2
CONTINUOUS
 70
     0
  3
Solid line
 72
    65
 73
     0
 40
0.0
  0
LTYPE
  5
258
330
5
100
AcDbSymbolTableRecord
100
AcDbLinetypeTableRecord
  2
CENTER2
 70
     0
  3
___ _ ___ _ ___ _ ___ _ ___ _ ___ _ ___ _ ___ _
 72
    65
 73
     4
 40
1.125
 49
0.75
 74
     0
 49
-0.125
 74
     0
 49
0.125
 74
     0
 49
-0.125
 74
     0
  0
LTYPE
  5
25C
330
5
100
AcDbSymbolTableRecord
100
AcDbLinetypeTableRecord
  2
HIDDEN2
 70
     0
  3
_ _ _ _ _ _ _ _ _ _ _ _ _ _ _ _ _ _ _ _ _ _ _ _
 72
    65
 73
     2
 40
0.1875
 49
0.125
 74
     0
 49
-0.0625
 74
     0
  0
ENDTAB
  0
TABLE
  2
LAYER
  5
2
330
0
100
AcDbSymbolTable
 70
    12
  0
LAYER
  5
F
330
2
100
AcDbSymbolTableRecord
100
AcDbLayerTableRecord
  2
0
 70
     0
 62
     7
  6
CONTINUOUS
  0
LAYER
  5
1AA
330
2
100
AcDbSymbolTableRecord
100
AcDbLayerTableRecord
  2
240
 70
     0
 62
     4
  6
CONTINUOUS
  0
LAYER
  5
1AB
330
2
100
AcDbSymbolTableRecord
100
AcDbLayerTableRecord
  2
241
 70
     0
 62
   211
  6
CONTINUOUS
  0
LAYER
  5
1AD
330
2
100
AcDbSymbolTableRecord
100
AcDbLayerTableRecord
  2
243
 70
     0
 62
   211
  6
HIDDEN2
  0
LAYER
  5
1AE
330
2
100
AcDbSymbolTableRecord
100
AcDbLayerTableRecord
  2
244
 70
     0
 62
     3
  6
HIDDEN2
  0
LAYER
  5
1AF
330
2
100
AcDbSymbolTableRecord
100
AcDbLayerTableRecord
  2
245
 70
     0
 62
     2
  6
CENTER2
  0
LAYER
  5
21E
330
2
100
AcDbSymbolTableRecord
100
AcDbLayerTableRecord
  2
250
 70
     0
 62
     3
  6
CONTINUOUS
  0
LAYER
  5
21F
330
2
100
AcDbSymbolTableRecord
100
AcDbLayerTableRecord
  2
251
 70
     0
 62
    40
  6
CONTINUOUS
  0
LAYER
  5
5C4
330
2
100
AcDbSymbolTableRecord
100
AcDbLayerTableRecord
  2
DEFPOINTS
 70
     0
 62
     7
  6
CONTINUOUS
  0
LAYER
  5
89C
330
2
100
AcDbSymbolTableRecord
100
AcDbLayerTableRecord
  2
AM_7
 70
     0
 62
     2
  6
CENTER2
  0
ENDTAB
  0
TABLE
  2
STYLE
  5
3
330
0
100
AcDbSymbolTable
 70
     2
  0
STYLE
  5
10
330
3
100
AcDbSymbolTableRecord
100
AcDbTextStyleTableRecord
  2
STANDARD
 70
     0
 40
0.0
 41
1.0
 50
0.0
 71
     0
 42
3.0
  3
romans.shx
  4
BIGFONT.SHX
  0
STYLE
  5
339
330
3
100
AcDbSymbolTableRecord
100
AcDbTextStyleTableRecord
  2
YOKO
 70
     0
 40
0.0
 41
1.0
 50
0.0
 71
     0
 42
3.0
  3
romans.shx
  4
extfont.shx
  0
ENDTAB
  0
TABLE
  2
VIEW
  5
6
330
0
100
AcDbSymbolTable
 70
     0
  0
ENDTAB
  0
TABLE
  2
UCS
  5
7
330
0
100
AcDbSymbolTable
 70
     0
  0
ENDTAB
  0
TABLE
  2
APPID
  5
9
330
0
100
AcDbSymbolTable
 70
    15
  0
APPID
  5
11
330
9
100
AcDbSymbolTableRecord
100
AcDbRegAppTableRecord
  2
ACAD
 70
     0
  0
APPID
  5
1B1
330
9
100
AcDbSymbolTableRecord
100
AcDbRegAppTableRecord
  2
GLOBAL
 70
     0
  0
APPID
  5
2A4
330
9
100
AcDbSymbolTableRecord
100
AcDbRegAppTableRecord
  2
DETAIL
 70
     0
  0
APPID
  5
5FD
330
9
100
AcDbSymbolTableRecord
100
AcDbRegAppTableRecord
  2
GRPNAME
 70
     0
  0
APPID
  5
5FE
330
9
100
AcDbSymbolTableRecord
100
AcDbRegAppTableRecord
  2
GPARA
 70
     0
  0
APPID
  5
6C4
330
9
100
AcDbSymbolTableRecord
100
AcDbRegAppTableRecord
  2
DCO15
 70
     0
  0
APPID
  5
6C5
330
9
100
AcDbSymbolTableRecord
100
AcDbRegAppTableRecord
  2
ITEMNAME
 70
     0
  0
APPID
  5
6C6
330
9
100
AcDbSymbolTableRecord
100
AcDbRegAppTableRecord
  2
GRADE_0
 70
     0
  0
APPID
  5
89D
330
9
100
AcDbSymbolTableRecord
100
AcDbRegAppTableRecord
  2
GENIUS_GENODEF_13
 70
     0
  0
APPID
  5
89E
330
9
100
AcDbSymbolTableRecord
100
AcDbRegAppTableRecord
  2
GENIUS_GENOREF_13
 70
     0
  0
APPID
  5
89F
330
9
100
AcDbSymbolTableRecord
100
AcDbRegAppTableRecord
  2
GENIUS_GENOBJ-N-FIL_13
 70
     0
  0
APPID
  5
8A0
330
9
100
AcDbSymbolTableRecord
100
AcDbRegAppTableRecord
  2
HATCH_TYPE
 70
     0
  0
APPID
  5
8A1
330
9
100
AcDbSymbolTableRecord
100
AcDbRegAppTableRecord
  2
HATCH_DISPLAY
 70
     0
  0
APPID
  5
8A2
330
9
100
AcDbSymbolTableRecord
100
AcDbRegAppTableRecord
  2
HATCH_DISTANCE
 70
     0
  0
APPID
  5
B80
330
9
100
AcDbSymbolTableRecord
100
AcDbRegAppTableRecord
  2
CONTENTBLOCKICON
 70
     0
  0
ENDTAB
  0
TABLE
  2
DIMSTYLE
  5
A
330
0
100
AcDbSymbolTable
 70
     1
  0
DIMSTYLE
105
725
102
{ACAD_REACTORS
330
8B3
330
8B5
102
}
330
A
100
AcDbSymbolTableRecord
100
AcDbDimStyleTableRecord
  2
BIGT
 70
     0
  3

  4

  5

  6
OPEN
  7
OPEN
 40
1.0
 41
2.23
 42
0.5
 43
2.5
 44
1.0
 45
0.0
 46
0.0
 47
0.0
 48
0.0
140
2.8
141
0.0
142
0.0
143
25.4
144
1.0
145
0.0
146
1.0
147
1.0
 71
     0
 72
     0
 73
     0
 74
     0
 75
     0
 76
     0
 77
     3
 78
     8
170
     0
171
     2
172
     1
173
     1
174
     1
175
     0
176
   256
177
   256
178
    40
270
     2
271
     3
272
     3
273
     2
274
     2
340
10
275
     0
280
     0
281
     0
282
     0
283
     1
284
     8
285
     0
286
     0
287
     3
288
     0
  0
ENDTAB
  0
TABLE
  2
BLOCK_RECORD
  5
1
330
0
100
AcDbSymbolTable
 70
     5
  0
BLOCK_RECORD
  5
1A
102
{ACAD_XDICTIONARY
360
B7E
102
}
330
1
100
AcDbSymbolTableRecord
100
AcDbBlockTableRecord
  2
*MODEL_SPACE
  0
BLOCK_RECORD
  5
17
102
{ACAD_XDICTIONARY
360
B7C
102
}
330
1
100
AcDbSymbolTableRecord
100
AcDbBlockTableRecord
  2
*PAPER_SPACE
  0
BLOCK_RECORD
  5
594
330
1
100
AcDbSymbolTableRecord
100
AcDbBlockTableRecord
  2
_OPEN
  0
BLOCK_RECORD
  5
6E3
330
1
100
AcDbSymbolTableRecord
100
AcDbBlockTableRecord
  2
矢印なし
  0
BLOCK_RECORD
  5
763
330
1
100
AcDbSymbolTableRecord
100
AcDbBlockTableRecord
  2
1
1001
CONTENTBLOCKICON
1071
        0
1004
2800000020000000200000000100080000000000000400000000000000000000000000000000000000000000000080000080000000808000800000008000800080800000C0C0C000C0DCC000F0CAA6000020400000206000002080000020A0000020C0000020E00000400000004020000040400000406000004080000040A0
1004
000040C0000040E00000600000006020000060400000606000006080000060A0000060C0000060E00000800000008020000080400000806000008080000080A0000080C0000080E00000A0000000A0200000A0400000A0600000A0800000A0A00000A0C00000A0E00000C0000000C0200000C0400000C0600000C0800000C0
1004
A00000C0C00000C0E00000E0000000E0200000E0400000E0600000E0800000E0A00000E0C00000E0E00040000000400020004000400040006000400080004000A0004000C0004000E00040200000402020004020400040206000402080004020A0004020C0004020E000404000004040200040404000404060004040800040
1004
40A0004040C0004040E00040600000406020004060400040606000406080004060A0004060C0004060E00040800000408020004080400040806000408080004080A0004080C0004080E00040A0000040A0200040A0400040A0600040A0800040A0A00040A0C00040A0E00040C0000040C0200040C0400040C0600040C08000
1004
40C0A00040C0C00040C0E00040E0000040E0200040E0400040E0600040E0800040E0A00040E0C00040E0E00080000000800020008000400080006000800080008000A0008000C0008000E00080200000802020008020400080206000802080008020A0008020C0008020E00080400000804020008040400080406000804080
1004
008040A0008040C0008040E00080600000806020008060400080606000806080008060A0008060C0008060E00080800000808020008080400080806000808080008080A0008080C0008080E00080A0000080A0200080A0400080A0600080A0800080A0A00080A0C00080A0E00080C0000080C0200080C0400080C0600080C0
1004
800080C0A00080C0C00080C0E00080E0000080E0200080E0400080E0600080E0800080E0A00080E0C00080E0E000C0000000C0002000C0004000C0006000C0008000C000A000C000C000C000E000C0200000C0202000C0204000C0206000C0208000C020A000C020C000C020E000C0400000C0402000C0404000C0406000C0
1004
408000C040A000C040C000C040E000C0600000C0602000C0604000C0606000C0608000C060A000C060C000C060E000C0800000C0802000C0804000C0806000C0808000C080A000C080C000C080E000C0A00000C0A02000C0A04000C0A06000C0A08000C0A0A000C0A0C000C0A0E000C0C00000C0C02000C0C04000C0C06000
1004
C0C08000C0C0A000F0FBFF00A4A0A000808080000000FF0000FF000000FFFF00FF000000FF00FF00FFFF0000FFFFFF0000000000000000000000000000000000000000000000000000000000000000000000000000000000000000000000000000000000000000000000000000000000000000000000000000000000000000
1004
00000000000000000000000000000000000000000000000000000000000000000000000000000000000000000000000000000000000000000000000000000000000000000000000000000000000000000000000000000000000000000000000000000000000000000000000000000000000000000000000000000000000000
1004
00000000000000000000000000000000000000000000000000000000000000000000000000000000000000000000000000000000000000000000000000000000000000000000000000000000000000000000000000000000000000000000000000000000000000000000000000000000000000000000000000000000000000
1004
00000000000000000000000000000000000000000000000000000000000000000000000000000000000000000000000000000000000000000000000000000000000000000000000000000000000000000000000000000000000000000000000000000000000000000000000000000000000000000000000000FEFE00000000
1004
00000000000000000000000000000000000000000000FEE7FBFEE7FEFEFEFEFEFEFEFEFEFEFEFEFEFEFEFEFEFEFEFEFEFEFE000000FBFEE7FEFEE7FEFEFEFEFEFEFEFEFFFFFFFFFFFEFEFEFEFEFEFEFEE7FEFB00000000000000FEFE0000000000000000000000000000000000000000000000000000000000000000000000
1004
00000000000000000000000000000000000000000000000000000000000000000000000000000000000000000000000000000000000000000000000000000000000000000000000000000000000000000000000000000000000000000000000000000000000000000000000000000000000000000000000000000000000000
1004
00000000000000000000000000000000000000000000000000000000000000000000000000000000000000000000000000000000000000000000000000000000000000000000000000000000000000000000000000000000000000000000000000000000000000000000000000000000000000000000000000000000000000
1004
00000000000000000000000000000000000000000000000000000000000000000000000000000000000000000000000000000000000000000000000000000000000000000000000000000000000000000000000000000000000000000000000000000000000000000000000000000000000000000000000000000000000000
1004
0000000000000000000000000000000000000000000000000000000000000000000000000000000000000000000000000000000000000000
  0
BLOCK_RECORD
  5
8BD
330
1
100
AcDbSymbolTableRecord
100
AcDbBlockTableRecord
  2
*D3
  0
BLOCK_RECORD
  5
8C9
330
1
100
AcDbSymbolTableRecord
100
AcDbBlockTableRecord
  2
*D4
  0
ENDTAB
  0
ENDSEC
  0
SECTION
  2
BLOCKS
  0
BLOCK
  5
1B
330
1A
100
AcDbEntity
  8
0
100
AcDbBlockBegin
  2
*MODEL_SPACE
 70
     0
 10
0.0
 20
0.0
 30
0.0
  3
*MODEL_SPACE
  1

  0
ENDBLK
  5
1C
330
1A
100
AcDbEntity
  8
0
100
AcDbBlockEnd
  0
BLOCK
  5
18
330
17
100
AcDbEntity
 67
     1
  8
0
100
AcDbBlockBegin
  2
*PAPER_SPACE
 70
     0
 10
0.0
 20
0.0
 30
0.0
  3
*PAPER_SPACE
  1

  0
ENDBLK
  5
19
330
17
100
AcDbEntity
 67
     1
  8
0
100
AcDbBlockEnd
  0
BLOCK
  5
598
330
594
100
AcDbEntity
  8
0
100
AcDbBlockBegin
  2
_OPEN
 70
     0
 10
0.0
 20
0.0
 30
0.0
  3
_OPEN
  1

  0
LINE
  5
595
330
594
100
AcDbEntity
  8
0
  6
BYBLOCK
 62
     0
100
AcDbLine
 10
-1.0
 20
0.16666667
 30
0.0
 11
0.0
 21
0.0
 31
0.0
  0
LINE
  5
596
330
594
100
AcDbEntity
  8
0
  6
BYBLOCK
 62
     0
100
AcDbLine
 10
-1.0
 20
-0.16666667
 30
0.0
 11
0.0
 21
0.0
 31
0.0
  0
LINE
  5
597
330
594
100
AcDbEntity
  8
0
  6
BYBLOCK
 62
     0
100
AcDbLine
 10
0.0
 20
0.0
 30
0.0
 11
-1.0
 21
0.0
 31
0.0
  0
ENDBLK
  5
599
330
594
100
AcDbEntity
  8
0
100
AcDbBlockEnd
  0
BLOCK
  5
6E4
330
6E3
100
AcDbEntity
  8
0
100
AcDbBlockBegin
  2
矢印なし
 70
     0
 10
0.0
 20
0.0
 30
0.0
  3
矢印なし
  1

  0
ENDBLK
  5
6E5
330
6E3
100
AcDbEntity
  8
0
100
AcDbBlockEnd
  0
BLOCK
  5
882
330
763
100
AcDbEntity
  8
0
100
AcDbBlockBegin
  2
1
 70
     0
 10
0.0
 20
0.0
 30
0.0
  3
1
  1

  0
LINE
  5
CCF
330
763
100
AcDbEntity
  8
241
  6
HIDDEN2
100
AcDbLine
 10
182.0
 20
2.8
 30
0.0
 11
187.0
 21
2.8
 31
0.0
1001
GRPNAME
1000
0000002S
  0
LINE
  5
CD0
330
763
100
AcDbEntity
  8
240
100
AcDbLine
 10
183.15
 20
8.0
 30
0.0
 11
199.0
 21
8.0
 31
0.0
  0
LINE
  5
CD1
330
763
100
AcDbEntity
  8
240
100
AcDbLine
 10
183.15
 20
-8.0
 30
0.0
 11
199.0
 21
-8.0
 31
0.0
  0
LINE
  5
CD2
330
763
100
AcDbEntity
  8
AM_7
100
AcDbLine
 10
-48.5
 20
0.0
 30
0.0
 11
201.0
 21
0.0
 31
0.0
1001
GENIUS_GENOREF_13
1005
0
  0
LINE
  5
CD3
330
763
100
AcDbEntity
  8
240
100
AcDbLine
 10
180.0
 20
-8.0
 30
0.0
 11
1.57117457
 21
-8.0
 31
0.0
  0
LINE
  5
CD4
330
763
100
AcDbEntity
  8
240
100
AcDbLine
 10
180.0
 20
8.0
 30
0.0
 11
1.57117457
 21
8.0
 31
0.0
  0
LINE
  5
CD5
330
763
100
AcDbEntity
  8
240
100
AcDbLine
 10
-34.0
 20
6.0
 30
0.0
 11
-29.0
 21
6.0
 31
0.0
  0
LINE
  5
CD6
330
763
100
AcDbEntity
  8
240
100
AcDbLine
 10
-34.0
 20
-6.0
 30
0.0
 11
-29.0
 21
-6.0
 31
0.0
  0
LINE
  5
CD7
330
763
100
AcDbEntity
  8
243
100
AcDbLine
 10
-36.5
 20
6.0
 30
0.0
 11
-36.5
 21
-6.0
 31
0.0
  0
LINE
  5
CD8
330
763
100
AcDbEntity
  8
AM_7
100
AcDbLine
 10
-34.0
 20
-8.0
 30
0.0
 11
-34.0
 21
8.0
 31
0.0
  0
LINE
  5
CD9
330
763
100
AcDbEntity
  8
240
100
AcDbLine
 10
-47.5
 20
-7.0
 30
0.0
 11
-47.5
 21
0.0
 31
0.0
  0
LINE
  5
CDA
330
763
100
AcDbEntity
  8
240
100
AcDbLine
 10
-46.5
 20
-8.0
 30
0.0
 11
-41.0
 21
-8.0
 31
0.0
  0
ARC
  5
CDB
330
763
100
AcDbEntity
  8
240
100
AcDbCircle
 10
-46.5
 20
-7.0
 30
0.0
 40
1.0
100
AcDbArc
 50
180.0
 51
270.0
  0
LINE
  5
CDC
330
763
100
AcDbEntity
  8
240
100
AcDbLine
 10
-39.0
 20
-6.0
 30
0.0
 11
-41.0
 21
-8.0
 31
0.0
  0
LINE
  5
CDD
330
763
100
AcDbEntity
  8
240
100
AcDbLine
 10
-39.0
 20
-6.0
 30
0.0
 11
-34.0
 21
-6.0
 31
0.0
  0
LINE
  5
CDE
330
763
100
AcDbEntity
  8
240
100
AcDbLine
 10
-46.5
 20
8.0
 30
0.0
 11
-41.0
 21
8.0
 31
0.0
  0
LINE
  5
CDF
330
763
100
AcDbEntity
  8
240
100
AcDbLine
 10
-47.5
 20
7.0
 30
0.0
 11
-47.5
 21
0.0
 31
0.0
  0
ARC
  5
CE0
330
763
100
AcDbEntity
  8
240
100
AcDbCircle
 10
-46.5
 20
7.0
 30
0.0
 40
1.0
100
AcDbArc
 50
90.0
 51
180.0
  0
LINE
  5
CE1
330
763
100
AcDbEntity
  8
240
100
AcDbLine
 10
-39.0
 20
6.0
 30
0.0
 11
-34.0
 21
6.0
 31
0.0
  0
LINE
  5
CE2
330
763
100
AcDbEntity
  8
240
100
AcDbLine
 10
-39.0
 20
6.0
 30
0.0
 11
-41.0
 21
8.0
 31
0.0
  0
LINE
  5
CE3
330
763
100
AcDbEntity
  8
241
100
AcDbLine
 10
0.80384758
 20
-8.35874397
 30
0.0
 11
0.80384758
 21
0.0
 31
0.0
  0
LINE
  5
CE4
330
763
100
AcDbEntity
  8
241
100
AcDbLine
 10
-11.0
 20
-8.0
 30
0.0
 11
-11.0
 21
0.0
 31
0.0
  0
LINE
  5
CE5
330
763
100
AcDbEntity
  8
241
100
AcDbLine
 10
-4.0
 20
-10.0
 30
0.0
 11
-4.0
 21
0.0
 31
0.0
  0
LINE
  5
CE6
330
763
100
AcDbEntity
  8
241
100
AcDbLine
 10
-2.0
 20
-10.0
 30
0.0
 11
-2.0
 21
0.0
 31
0.0
  0
LINE
  5
CE7
330
763
100
AcDbEntity
  8
241
100
AcDbLine
 10
0.0
 20
-10.64125603
 30
0.0
 11
0.0
 21
0.0
 31
0.0
  0
LINE
  5
CE8
330
763
100
AcDbEntity
  8
241
  6
CONTINUOUS
100
AcDbLine
 10
-6.5
 20
-10.50000001
 30
0.0
 11
-6.5
 21
0.0
 31
0.0
  0
LINE
  5
CE9
330
763
100
AcDbEntity
  8
241
100
AcDbLine
 10
-5.12626129
 20
-11.0
 30
0.0
 11
-5.12626129
 21
0.0
 31
0.0
  0
LINE
  5
CEA
330
763
100
AcDbEntity
  8
241
100
AcDbLine
 10
-25.5
 20
-7.0
 30
0.0
 11
-25.5
 21
0.0
 31
0.0
  0
LINE
  5
CEB
330
763
100
AcDbEntity
  8
241
100
AcDbLine
 10
-23.5
 20
-7.0
 30
0.0
 11
-23.5
 21
0.0
 31
0.0
  0
LINE
  5
CEC
330
763
100
AcDbEntity
  8
241
100
AcDbLine
 10
-16.5
 20
-7.0
 30
0.0
 11
-16.5
 21
0.0
 31
0.0
  0
LINE
  5
CED
330
763
100
AcDbEntity
  8
241
100
AcDbLine
 10
-14.5
 20
-7.0
 30
0.0
 11
-14.5
 21
0.0
 31
0.0
  0
ELLIPSE
  5
CEE
330
763
100
AcDbEntity
  8
241
100
AcDbEllipse
 10
-20.0
 20
-2.64927664
 30
0.0
 11
-2.000000000000023
 21
0.0
 31
0.0
210
0.0
220
0.0
230
1.0
 40
0.93969262
 41
0.0
 42
6.283185307179584
  0
LINE
  5
CEF
330
763
100
AcDbEntity
  8
AM_7
100
AcDbLine
 10
-20.0
 20
-0.7698914
 30
0.0
 11
-20.0
 21
-4.52866188
 31
0.0
  0
LINE
  5
CF0
330
763
100
AcDbEntity
  8
243
100
AcDbLine
 10
-31.5
 20
6.0
 30
0.0
 11
-31.5
 21
-6.0
 31
0.0
  0
ARC
  5
CF1
330
763
100
AcDbEntity
  8
240
100
AcDbCircle
 10
-15.5
 20
-7.0
 30
0.0
 40
1.000000000003004
100
AcDbArc
 50
180.0
 51
0.0
  0
ARC
  5
CF2
330
763
100
AcDbEntity
  8
240
100
AcDbCircle
 10
-24.5
 20
-7.0
 30
0.0
 40
1.000000000003004
100
AcDbArc
 50
180.0
 51
0.0
  0
LINE
  5
CF3
330
763
100
AcDbEntity
  8
240
100
AcDbLine
 10
-25.5
 20
-7.0
 30
0.0
 11
-25.5
 21
-8.0
 31
0.0
  0
LINE
  5
CF4
330
763
100
AcDbEntity
  8
240
100
AcDbLine
 10
-29.0
 20
-6.0
 30
0.0
 11
-27.0
 21
-8.0
 31
0.0
  0
LINE
  5
CF5
330
763
100
AcDbEntity
  8
240
100
AcDbLine
 10
-27.0
 20
-8.0
 30
0.0
 11
-25.5
 21
-8.0
 31
0.0
  0
LINE
  5
CF6
330
763
100
AcDbEntity
  8
240
100
AcDbLine
 10
-16.5
 20
-7.0
 30
0.0
 11
-16.5
 21
-8.0
 31
0.0
  0
LINE
  5
CF7
330
763
100
AcDbEntity
  8
240
100
AcDbLine
 10
-23.5
 20
-7.0
 30
0.0
 11
-23.5
 21
-8.0
 31
0.0
  0
LINE
  5
CF8
330
763
100
AcDbEntity
  8
240
100
AcDbLine
 10
-23.5
 20
-8.0
 30
0.0
 11
-16.5
 21
-8.0
 31
0.0
  0
LINE
  5
CF9
330
763
100
AcDbEntity
  8
AM_7
100
AcDbLine
 10
-21.99786162
 20
-2.73616115
 30
0.0
 11
-18.00213838
 21
-2.73616115
 31
0.0
  0
LINE
  5
CFA
330
763
100
AcDbEntity
  8
240
100
AcDbLine
 10
-6.5
 20
-10.50000001
 30
0.0
 11
-5.12626128
 21
-11.0
 31
0.0
  0
LINE
  5
CFB
330
763
100
AcDbEntity
  8
240
100
AcDbLine
 10
-14.5
 20
-7.0
 30
0.0
 11
-14.5
 21
-8.0
 31
0.0
  0
LINE
  5
CFC
330
763
100
AcDbEntity
  8
240
100
AcDbLine
 10
-10.7
 20
-7.7
 30
0.0
 11
-11.0
 21
-8.0
 31
0.0
  0
LINE
  5
CFD
330
763
100
AcDbEntity
  8
240
100
AcDbLine
 10
-14.5
 20
-8.0
 30
0.0
 11
-11.0
 21
-8.0
 31
0.0
  0
LINE
  5
CFE
330
763
100
AcDbEntity
  8
240
100
AcDbLine
 10
-9.5
 20
-8.5
 30
0.0
 11
-10.0
 21
-9.0
 31
0.0
  0
LINE
  5
CFF
330
763
100
AcDbEntity
  8
240
100
AcDbLine
 10
-10.7
 20
-7.7
 30
0.0
 11
-9.5
 21
-7.7
 31
0.0
  0
LINE
  5
D00
330
763
100
AcDbEntity
  8
240
100
AcDbLine
 10
-9.5
 20
-8.5
 30
0.0
 11
-9.5
 21
-7.7
 31
0.0
  0
LINE
  5
D01
330
763
100
AcDbEntity
  8
241
100
AcDbLine
 10
-6.5
 20
-8.2
 30
0.0
 11
-9.5
 21
-8.2
 31
0.0
  0
LINE
  5
D02
330
763
100
AcDbEntity
  8
240
100
AcDbLine
 10
-6.50000001
 20
-10.5
 30
0.0
 11
-10.0
 21
-10.5
 31
0.0
  0
LINE
  5
D03
330
763
100
AcDbEntity
  8
240
100
AcDbLine
 10
-10.0
 20
-10.5
 30
0.0
 11
-10.0
 21
-9.0
 31
0.0
  0
LINE
  5
D04
330
763
100
AcDbEntity
  8
240
100
AcDbLine
 10
-0.63567449
 20
-11.0
 30
0.0
 11
-2.0
 21
-11.0
 31
0.0
  0
LINE
  5
D05
330
763
100
AcDbEntity
  8
240
100
AcDbLine
 10
-2.0
 20
-10.0
 30
0.0
 11
-2.0
 21
-11.0
 31
0.0
  0
LINE
  5
D06
330
763
100
AcDbEntity
  8
240
100
AcDbLine
 10
-4.0
 20
-10.0
 30
0.0
 11
-4.0
 21
-11.0
 31
0.0
  0
LINE
  5
D07
330
763
100
AcDbEntity
  8
240
100
AcDbLine
 10
-4.0
 20
-11.0
 30
0.0
 11
-5.12626129
 21
-11.0
 31
0.0
  0
ARC
  5
D08
330
763
100
AcDbEntity
  8
240
100
AcDbCircle
 10
-3.0
 20
-10.0
 30
0.0
 40
1.000000000000075
100
AcDbArc
 50
180.0
 51
0.0
  0
ARC
  5
D09
330
763
100
AcDbEntity
  8
240
100
AcDbCircle
 10
1.57117457
 20
-9.0
 30
0.0
 40
1.0
100
AcDbArc
 50
90.0
 51
165.00000008
  0
LINE
  5
D0A
330
763
100
AcDbEntity
  8
240
100
AcDbLine
 10
-0.50850794
 20
-10.96592583
 30
0.0
 11
-0.63567449
 21
-11.0
 31
0.0
  0
ARC
  5
D0B
330
763
100
AcDbEntity
  8
240
100
AcDbCircle
 10
-0.76732699
 20
-10.0
 30
0.0
 40
1.0
100
AcDbArc
 50
285.0
 51
345.0
1001
GENIUS_GENOBJ-N-FIL_13
1002
{
1000
OWNER
1000
GEN
1002
}
1001
GENIUS_GENODEF_13
1002
{
1000
HIER
1070
     0
1002
}
1002
{
1000
MANEDIT
1070
     0
1002
}
1002
{
1000
NOSEL
1070
     0
1002
}
1002
{
1000
BEHIND
1070
     0
1002
}
1002
{
1000
OTHER
1070
     0
1002
}
1002
{
1000
REACTOR
1002
}
  0
LINE
  5
D0C
330
763
100
AcDbEntity
  8
240
100
AcDbLine
 10
0.19859884
 20
-10.25881905
 30
0.0
 11
0.60524874
 21
-8.74118096
 31
0.0
  0
ARC
  5
D0D
330
763
100
AcDbEntity
  8
240
100
AcDbCircle
 10
-15.5
 20
7.0
 30
0.0
 40
1.000000000003004
100
AcDbArc
 50
0.0
 51
180.0
  0
ARC
  5
D0E
330
763
100
AcDbEntity
  8
240
100
AcDbCircle
 10
-24.5
 20
7.0
 30
0.0
 40
1.000000000003004
100
AcDbArc
 50
0.0
 51
180.0
  0
LINE
  5
D0F
330
763
100
AcDbEntity
  8
241
100
AcDbLine
 10
-25.5
 20
7.0
 30
0.0
 11
-25.5
 21
0.0
 31
0.0
  0
LINE
  5
D10
330
763
100
AcDbEntity
  8
240
100
AcDbLine
 10
-25.5
 20
7.0
 30
0.0
 11
-25.5
 21
8.0
 31
0.0
  0
LINE
  5
D11
330
763
100
AcDbEntity
  8
240
100
AcDbLine
 10
-27.0
 20
8.0
 30
0.0
 11
-25.5
 21
8.0
 31
0.0
  0
LINE
  5
D12
330
763
100
AcDbEntity
  8
240
100
AcDbLine
 10
-29.0
 20
6.0
 30
0.0
 11
-27.0
 21
8.0
 31
0.0
  0
LINE
  5
D13
330
763
100
AcDbEntity
  8
241
100
AcDbLine
 10
-23.5
 20
7.0
 30
0.0
 11
-23.5
 21
0.0
 31
0.0
  0
LINE
  5
D14
330
763
100
AcDbEntity
  8
241
100
AcDbLine
 10
-16.5
 20
7.0
 30
0.0
 11
-16.5
 21
0.0
 31
0.0
  0
LINE
  5
D15
330
763
100
AcDbEntity
  8
240
100
AcDbLine
 10
-23.5
 20
8.0
 30
0.0
 11
-16.5
 21
8.0
 31
0.0
  0
LINE
  5
D16
330
763
100
AcDbEntity
  8
240
100
AcDbLine
 10
-23.5
 20
7.0
 30
0.0
 11
-23.5
 21
8.0
 31
0.0
  0
LINE
  5
D17
330
763
100
AcDbEntity
  8
240
100
AcDbLine
 10
-16.5
 20
7.0
 30
0.0
 11
-16.5
 21
8.0
 31
0.0
  0
LINE
  5
D18
330
763
100
AcDbEntity
  8
240
100
AcDbLine
 10
-6.50000001
 20
10.5
 30
0.0
 11
-5.12626128
 21
11.0
 31
0.0
  0
ARC
  5
D19
330
763
100
AcDbEntity
  8
240
100
AcDbCircle
 10
-3.0
 20
10.0
 30
0.0
 40
1.000000000000075
100
AcDbArc
 50
0.0
 51
180.0
  0
LINE
  5
D1A
330
763
100
AcDbEntity
  8
241
100
AcDbLine
 10
-5.12626129
 20
11.0
 30
0.0
 11
-5.12626129
 21
0.0
 31
0.0
  0
LINE
  5
D1B
330
763
100
AcDbEntity
  8
241
100
AcDbLine
 10
0.0
 20
10.64125603
 30
0.0
 11
0.0
 21
0.0
 31
0.0
  0
LINE
  5
D1C
330
763
100
AcDbEntity
  8
240
100
AcDbLine
 10
-2.0
 20
10.0
 30
0.0
 11
-2.0
 21
11.0
 31
0.0
  0
ARC
  5
D1D
330
763
100
AcDbEntity
  8
240
100
AcDbCircle
 10
-0.76732699
 20
10.0
 30
0.0
 40
1.0
100
AcDbArc
 50
15.0
 51
75.0
1001
GENIUS_GENOBJ-N-FIL_13
1002
{
1000
OWNER
1000
GEN
1002
}
1001
GENIUS_GENODEF_13
1002
{
1000
HIER
1070
     0
1002
}
1002
{
1000
MANEDIT
1070
     0
1002
}
1002
{
1000
NOSEL
1070
     0
1002
}
1002
{
1000
BEHIND
1070
     0
1002
}
1002
{
1000
OTHER
1070
     0
1002
}
1002
{
1000
REACTOR
1002
}
  0
LINE
  5
D1E
330
763
100
AcDbEntity
  8
240
100
AcDbLine
 10
-4.0
 20
10.0
 30
0.0
 11
-4.0
 21
11.0
 31
0.0
  0
LINE
  5
D1F
330
763
100
AcDbEntity
  8
241
100
AcDbLine
 10
-14.5
 20
7.0
 30
0.0
 11
-14.5
 21
0.0
 31
0.0
  0
LINE
  5
D20
330
763
100
AcDbEntity
  8
241
  6
CONTINUOUS
100
AcDbLine
 10
-6.5
 20
10.50000001
 30
0.0
 11
-6.5
 21
0.0
 31
0.0
  0
LINE
  5
D21
330
763
100
AcDbEntity
  8
241
100
AcDbLine
 10
-11.0
 20
8.0
 30
0.0
 11
-11.0
 21
0.0
 31
0.0
  0
LINE
  5
D22
330
763
100
AcDbEntity
  8
240
100
AcDbLine
 10
-10.7
 20
7.7
 30
0.0
 11
-11.0
 21
8.0
 31
0.0
  0
LINE
  5
D23
330
763
100
AcDbEntity
  8
240
100
AcDbLine
 10
-14.5
 20
7.0
 30
0.0
 11
-14.5
 21
8.0
 31
0.0
  0
LINE
  5
D24
330
763
100
AcDbEntity
  8
240
100
AcDbLine
 10
-14.5
 20
8.0
 30
0.0
 11
-11.0
 21
8.0
 31
0.0
  0
LINE
  5
D25
330
763
100
AcDbEntity
  8
240
100
AcDbLine
 10
-9.5
 20
8.5
 30
0.0
 11
-9.5
 21
7.7
 31
0.0
  0
LINE
  5
D26
330
763
100
AcDbEntity
  8
240
100
AcDbLine
 10
-10.7
 20
7.7
 30
0.0
 11
-9.5
 21
7.7
 31
0.0
  0
LINE
  5
D27
330
763
100
AcDbEntity
  8
240
100
AcDbLine
 10
-9.5
 20
8.5
 30
0.0
 11
-10.0
 21
9.0
 31
0.0
  0
LINE
  5
D28
330
763
100
AcDbEntity
  8
240
100
AcDbLine
 10
-10.0
 20
10.5
 30
0.0
 11
-10.0
 21
9.0
 31
0.0
  0
LINE
  5
D29
330
763
100
AcDbEntity
  8
241
100
AcDbLine
 10
-6.5
 20
8.2
 30
0.0
 11
-9.5
 21
8.2
 31
0.0
  0
LINE
  5
D2A
330
763
100
AcDbEntity
  8
240
100
AcDbLine
 10
-6.50000001
 20
10.5
 30
0.0
 11
-10.0
 21
10.5
 31
0.0
  0
LINE
  5
D2B
330
763
100
AcDbEntity
  8
241
100
AcDbLine
 10
-2.0
 20
10.0
 30
0.0
 11
-2.0
 21
0.0
 31
0.0
  0
LINE
  5
D2C
330
763
100
AcDbEntity
  8
241
100
AcDbLine
 10
-4.0
 20
10.0
 30
0.0
 11
-4.0
 21
0.0
 31
0.0
  0
LINE
  5
D2D
330
763
100
AcDbEntity
  8
241
100
AcDbLine
 10
0.80384758
 20
8.35874397
 30
0.0
 11
0.80384758
 21
0.0
 31
0.0
  0
ARC
  5
D2E
330
763
100
AcDbEntity
  8
240
100
AcDbCircle
 10
1.57117457
 20
9.0
 30
0.0
 40
1.0
100
AcDbArc
 50
194.99999992
 51
270.0
  0
LINE
  5
D2F
330
763
100
AcDbEntity
  8
240
100
AcDbLine
 10
0.19859884
 20
10.25881905
 30
0.0
 11
0.60524874
 21
8.74118096
 31
0.0
  0
LINE
  5
D30
330
763
100
AcDbEntity
  8
240
100
AcDbLine
 10
-0.63567449
 20
11.0
 30
0.0
 11
-2.0
 21
11.0
 31
0.0
  0
LINE
  5
D31
330
763
100
AcDbEntity
  8
240
100
AcDbLine
 10
-4.0
 20
11.0
 30
0.0
 11
-5.12626129
 21
11.0
 31
0.0
  0
LINE
  5
D32
330
763
100
AcDbEntity
  8
240
100
AcDbLine
 10
-0.50850794
 20
10.96592583
 30
0.0
 11
-0.63567449
 21
11.0
 31
0.0
  0
ARC
  5
D33
330
763
100
AcDbEntity
  8
0
100
AcDbCircle
 10
76.2519826
 20
4.7546576
 30
0.0
 40
0.9587730796874998
100
AcDbArc
 50
53.4440122
 51
164.00018439
  0
LINE
  5
D34
330
763
100
AcDbEntity
  8
0
100
AcDbLine
 10
75.23773974
 20
4.78934743
 30
0.0
 11
76.15711834
 21
5.70872604
 31
0.0
  0
LINE
  5
D35
330
763
100
AcDbEntity
  8
0
100
AcDbLine
 10
75.82535648
 20
3.08280042
 30
0.0
 11
76.17170317
 21
3.4291471
 31
0.0
  0
LINE
  5
D36
330
763
100
AcDbEntity
  8
0
100
AcDbLine
 10
75.68613892
 20
2.61584517
 30
0.0
 11
75.981149
 21
2.91085527
 31
0.0
  0
ARC
  5
D37
330
763
100
AcDbEntity
  8
0
100
AcDbCircle
 10
76.0088287
 20
3.69263015
 30
0.0
 40
0.3097602395507813
100
AcDbArc
 50
164.00027306
 51
344.00027306
  0
ARC
  5
D38
330
763
100
AcDbEntity
  8
0
100
AcDbCircle
 10
76.04050375
 20
4.01713235
 30
0.0
 40
0.9587828249999999
100
AcDbArc
 50
163.9997507
 51
304.96387329
  0
LINE
  5
D39
330
763
100
AcDbEntity
  8
0
100
AcDbLine
 10
75.71106764
 20
3.77801023
 30
0.0
 11
76.10865412
 21
5.16455101
 31
0.0
  0
LINE
  5
D3A
330
763
100
AcDbEntity
  8
0
100
AcDbLine
 10
75.08249445
 20
3.97862679
 30
0.0
 11
76.04442442
 21
4.94055676
 31
0.0
  0
LINE
  5
D3B
330
763
100
AcDbEntity
  8
0
100
AcDbLine
 10
75.12893318
 20
4.35280319
 30
0.0
 11
76.46548643
 21
5.68935644
 31
0.0
  0
LINE
  5
D3C
330
763
100
AcDbEntity
  8
0
100
AcDbLine
 10
71.57509018
 20
2.61584517
 30
0.0
 11
77.56375736
 21
2.61584517
 31
0.0
  0
LINE
  5
D3D
330
763
100
AcDbEntity
  8
0
100
AcDbLine
 10
71.57509018
 20
2.91085527
 30
0.0
 11
77.56375736
 21
2.91085527
 31
0.0
  0
ARC
  5
D3E
330
763
100
AcDbEntity
  8
0
100
AcDbCircle
 10
77.60806232
 20
3.96672402
 30
0.0
 40
2.509011449999999
100
AcDbArc
 50
155.20517737
 51
172.79482596
  0
LINE
  5
D3F
330
763
100
AcDbEntity
  8
0
100
AcDbLine
 10
74.50730437
 20
3.05836031
 30
0.0
 11
75.26863045
 21
5.71342929
 31
0.0
  0
LINE
  5
D40
330
763
100
AcDbEntity
  8
0
100
AcDbLine
 10
74.50730437
 20
3.05836031
 30
0.0
 11
75.26863045
 21
5.71342929
 31
0.0
1001
HATCH_DISTANCE
1040
1.0
1001
HATCH_DISPLAY
1070
     0
1001
HATCH_TYPE
1070
     7
  0
LINE
  5
D41
330
763
100
AcDbEntity
  8
0
100
AcDbLine
 10
74.50730437
 20
3.05836031
 30
0.0
 11
75.26863045
 21
5.71342929
 31
0.0
  0
LINE
  5
D42
330
763
100
AcDbEntity
  8
0
100
AcDbLine
 10
74.11621329
 20
3.99555866
 30
0.0
 11
75.04130579
 21
4.92065116
 31
0.0
  0
LINE
  5
D43
330
763
100
AcDbEntity
  8
0
100
AcDbLine
 10
74.2479728
 20
4.45505585
 30
0.0
 11
75.17306351
 21
5.38014656
 31
0.0
  0
LINE
  5
D44
330
763
100
AcDbEntity
  8
0
100
AcDbLine
 10
73.84747431
 20
3.05836031
 30
0.0
 11
74.51575772
 21
5.38892709
 31
0.0
  0
LINE
  5
D45
330
763
100
AcDbEntity
  8
0
100
AcDbLine
 10
74.51575772
 20
5.38892709
 30
0.0
 11
73.84747431
 21
3.05836031
 31
0.0
  0
LINE
  5
D46
330
763
100
AcDbEntity
  8
0
100
AcDbLine
 10
74.51575772
 20
5.38892709
 30
0.0
 11
73.84747431
 21
3.05836031
 31
0.0
1001
HATCH_DISTANCE
1040
1.0
1001
HATCH_DISPLAY
1070
     0
1001
HATCH_TYPE
1070
     7
  0
LINE
  5
D47
330
763
100
AcDbEntity
  8
0
100
AcDbLine
 10
72.94290605
 20
4.13320214
 30
0.0
 11
73.99859341
 21
5.18888952
 31
0.0
  0
LINE
  5
D48
330
763
100
AcDbEntity
  8
0
100
AcDbLine
 10
73.05730961
 20
3.91986803
 30
0.0
 11
74.02466017
 21
4.88721859
 31
0.0
  0
ARC
  5
D49
330
763
100
AcDbEntity
  8
0
100
AcDbCircle
 10
73.29249269
 20
4.97591517
 30
0.0
 40
0.73752037734375
100
AcDbArc
 50
287.66957755
 51
90.23615984
  0
ARC
  5
D4A
330
763
100
AcDbEntity
  8
0
100
AcDbCircle
 10
71.57509018
 20
4.1646374
 30
0.0
 40
1.253781787499995
100
AcDbArc
 50
90.0
 51
270.0
  0
ARC
  5
D4B
330
763
100
AcDbEntity
  8
0
100
AcDbCircle
 10
71.57509018
 20
4.1646374
 30
0.0
 40
1.548791887499995
100
AcDbArc
 50
90.0
 51
270.0
  0
LINE
  5
D4C
330
763
100
AcDbEntity
  8
0
100
AcDbLine
 10
70.07252124
 20
4.54019414
 30
0.0
 11
71.19953345
 21
5.66720635
 31
0.0
  0
LINE
  5
D4D
330
763
100
AcDbEntity
  8
0
100
AcDbLine
 10
71.7298903
 20
3.05836031
 30
0.0
 11
72.40662707
 21
5.41841919
 31
0.0
  0
ARC
  5
D4E
330
763
100
AcDbEntity
  8
0
100
AcDbCircle
 10
72.96336842
 20
5.00540727
 30
0.0
 40
0.4425027943359379
100
AcDbArc
 50
261.66260169
 51
66.3381551
  0
LINE
  5
D4F
330
763
100
AcDbEntity
  8
0
100
AcDbLine
 10
73.14096276
 20
5.41070836
 30
0.0
 11
72.8992053
 21
4.56758103
 31
0.0
  0
LINE
  5
D50
330
763
100
AcDbEntity
  8
0
100
AcDbLine
 10
72.06961676
 20
4.2431259
 30
0.0
 11
73.10227461
 21
5.27578375
 31
0.0
  0
LINE
  5
D51
330
763
100
AcDbEntity
  8
0
100
AcDbLine
 10
71.93785817
 20
3.78362963
 30
0.0
 11
72.97052038
 21
4.81629183
 31
0.0
  0
LINE
  5
D52
330
763
100
AcDbEntity
  8
0
100
AcDbLine
 10
71.15568049
 20
2.67371426
 30
0.0
 11
71.40448359
 21
2.92251737
 31
0.0
  0
LINE
  5
D53
330
763
100
AcDbEntity
  8
0
100
AcDbLine
 10
70.02629912
 20
4.16623434
 30
0.0
 11
70.36971176
 21
4.50964698
 31
0.0
  0
LINE
  5
D54
330
763
100
AcDbEntity
  8
0
100
AcDbLine
 10
70.05510684
 20
3.86730438
 30
0.0
 11
70.32168565
 21
4.13388319
 31
0.0
  0
LINE
  5
D55
330
763
100
AcDbEntity
  8
0
100
AcDbLine
 10
70.12805345
 20
3.61251332
 30
0.0
 11
70.36227955
 21
3.84673941
 31
0.0
  0
LINE
  5
D56
330
763
100
AcDbEntity
  8
0
100
AcDbLine
 10
70.70788542
 20
2.88139456
 30
0.0
 11
70.92130155
 21
3.09481069
 31
0.0
  0
LINE
  5
D57
330
763
100
AcDbEntity
  8
0
100
AcDbLine
 10
70.2336954
 20
3.39041758
 30
0.0
 11
70.45152502
 21
3.60824719
 31
0.0
  0
LINE
  5
D58
330
763
100
AcDbEntity
  8
0
100
AcDbLine
 10
70.36677354
 20
3.19575805
 30
0.0
 11
70.57693439
 21
3.40591889
 31
0.0
  0
LINE
  5
D59
330
763
100
AcDbEntity
  8
0
100
AcDbLine
 10
70.52496944
 20
3.02621625
 30
0.0
 11
70.7337828
 21
3.23502961
 31
0.0
  0
LINE
  5
D5A
330
763
100
AcDbEntity
  8
0
100
AcDbLine
 10
70.91689187
 20
2.76266333
 30
0.0
 11
71.14219002
 21
2.98796148
 31
0.0
  0
LINE
  5
D5B
330
763
100
AcDbEntity
  8
0
100
AcDbLine
 10
75.13463262
 20
3.70302728
 30
0.0
 11
75.91266498
 21
4.48105964
 31
0.0
  0
LINE
  5
D5C
330
763
100
AcDbEntity
  8
0
100
AcDbLine
 10
74.37518819
 20
2.61584517
 30
0.0
 11
74.67019828
 21
2.91085527
 31
0.0
  0
LINE
  5
D5D
330
763
100
AcDbEntity
  8
0
100
AcDbLine
 10
74.48996565
 20
3.05836031
 30
0.0
 11
74.5142749
 21
3.08266956
 31
0.0
  0
LINE
  5
D5E
330
763
100
AcDbEntity
  8
0
100
AcDbLine
 10
74.70292587
 20
2.61584517
 30
0.0
 11
74.99793597
 21
2.91085527
 31
0.0
  0
LINE
  5
D5F
330
763
100
AcDbEntity
  8
0
100
AcDbLine
 10
75.35840123
 20
2.61584517
 30
0.0
 11
75.65341133
 21
2.91085527
 31
0.0
  0
LINE
  5
D60
330
763
100
AcDbEntity
  8
0
100
AcDbLine
 10
75.03066356
 20
2.61584517
 30
0.0
 11
75.32567364
 21
2.91085527
 31
0.0
  0
LINE
  5
D61
330
763
100
AcDbEntity
  8
0
100
AcDbLine
 10
75.58713205
 20
3.17231367
 30
0.0
 11
75.84472766
 21
3.42990928
 31
0.0
  0
LINE
  5
D62
330
763
100
AcDbEntity
  8
0
100
AcDbLine
 10
75.39514533
 20
3.30806463
 30
0.0
 11
75.70758299
 21
3.62050229
 31
0.0
  0
LINE
  5
D63
330
763
100
AcDbEntity
  8
0
100
AcDbLine
 10
75.24350497
 20
3.48416195
 30
0.0
 11
75.78090554
 21
4.02156252
 31
0.0
  0
LINE
  5
D64
330
763
100
AcDbEntity
  8
0
100
AcDbLine
 10
73.84747431
 20
3.05836031
 30
0.0
 11
74.50730437
 21
3.05836031
 31
0.0
  0
LINE
  5
D65
330
763
100
AcDbEntity
  8
0
100
AcDbLine
 10
74.04745051
 20
2.61584517
 30
0.0
 11
74.34246061
 21
2.91085527
 31
0.0
  0
LINE
  5
D66
330
763
100
AcDbEntity
  8
0
100
AcDbLine
 10
73.84747431
 20
3.05836031
 30
0.0
 11
74.50730437
 21
3.05836031
 31
0.0
  0
LINE
  5
D67
330
763
100
AcDbEntity
  8
0
100
AcDbLine
 10
73.84747431
 20
3.05836031
 30
0.0
 11
74.50730437
 21
3.05836031
 31
0.0
1001
HATCH_DISTANCE
1040
1.0
1001
HATCH_DISPLAY
1070
     0
1001
HATCH_TYPE
1070
     7
  0
LINE
  5
D68
330
763
100
AcDbEntity
  8
0
100
AcDbLine
 10
74.16222798
 20
3.05836031
 30
0.0
 11
74.64603262
 21
3.54216496
 31
0.0
  0
LINE
  5
D69
330
763
100
AcDbEntity
  8
0
100
AcDbLine
 10
73.85269425
 20
3.07656426
 30
0.0
 11
74.77779035
 21
4.00166036
 31
0.0
  0
LINE
  5
D6A
330
763
100
AcDbEntity
  8
0
100
AcDbLine
 10
73.98445377
 20
3.53606146
 30
0.0
 11
74.90954807
 21
4.46115577
 31
0.0
  0
LINE
  5
D6B
330
763
100
AcDbEntity
  8
0
100
AcDbLine
 10
73.71971283
 20
2.61584517
 30
0.0
 11
74.01472293
 21
2.91085527
 31
0.0
  0
LINE
  5
D6C
330
763
100
AcDbEntity
  8
0
100
AcDbLine
 10
73.06423747
 20
2.61584517
 30
0.0
 11
73.35924757
 21
2.91085527
 31
0.0
  0
LINE
  5
D6D
330
763
100
AcDbEntity
  8
0
100
AcDbLine
 10
73.39197515
 20
2.61584517
 30
0.0
 11
73.68698524
 21
2.91085527
 31
0.0
  0
LINE
  5
D6E
330
763
100
AcDbEntity
  8
0
100
AcDbLine
 10
73.23431033
 20
3.1136557
 30
0.0
 11
73.63634337
 21
3.51568875
 31
0.0
  0
ARC
  5
D6F
330
763
100
AcDbEntity
  8
0
100
AcDbCircle
 10
72.9541243
 20
3.79587477
 30
0.0
 40
0.7375141125000006
100
AcDbArc
 50
270.0
 51
40.32984065
  0
LINE
  5
D70
330
763
100
AcDbEntity
  8
0
100
AcDbLine
 10
72.40876211
 20
2.61584517
 30
0.0
 11
72.70377221
 21
2.91085527
 31
0.0
  0
LINE
  5
D71
330
763
100
AcDbEntity
  8
0
100
AcDbLine
 10
72.1958019
 20
3.05836031
 30
0.0
 11
72.57525063
 21
3.43780904
 31
0.0
  0
LINE
  5
D72
330
763
100
AcDbEntity
  8
0
100
AcDbLine
 10
72.08102444
 20
2.61584517
 30
0.0
 11
72.37603452
 21
2.91085527
 31
0.0
  0
LINE
  5
D73
330
763
100
AcDbEntity
  8
0
100
AcDbLine
 10
71.43215878
 20
2.62245488
 30
0.0
 11
71.72055916
 21
2.91085527
 31
0.0
  0
LINE
  5
D74
330
763
100
AcDbEntity
  8
0
100
AcDbLine
 10
71.75328675
 20
2.61584517
 30
0.0
 11
72.04829685
 21
2.91085527
 31
0.0
  0
LINE
  5
D75
330
763
100
AcDbEntity
  8
0
100
AcDbLine
 10
71.86806422
 20
3.05836031
 30
0.0
 11
72.70700243
 21
3.89729852
 31
0.0
  0
LINE
  5
D76
330
763
100
AcDbEntity
  8
0
100
AcDbLine
 10
72.80259789
 20
4.23069138
 30
0.0
 11
72.56083646
 21
3.38753904
 31
0.0
  0
LINE
  5
D77
330
763
100
AcDbEntity
  8
0
100
AcDbLine
 10
72.7364998
 20
2.61584517
 30
0.0
 11
73.03150988
 21
2.91085527
 31
0.0
  0
LINE
  5
D78
330
763
100
AcDbEntity
  8
0
100
AcDbLine
 10
71.7298903
 20
3.05836031
 30
0.0
 11
72.9541243
 21
3.05836031
 31
0.0
  0
LINE
  5
D79
330
763
100
AcDbEntity
  8
0
100
AcDbLine
 10
72.85127726
 20
3.05836031
 30
0.0
 11
73.68529717
 21
3.89238022
 31
0.0
  0
LINE
  5
D7A
330
763
100
AcDbEntity
  8
0
100
AcDbLine
 10
72.52353957
 20
3.05836031
 30
0.0
 11
73.6059987
 21
4.14081945
 31
0.0
  0
LINE
  5
D7B
330
763
100
AcDbEntity
  8
0
100
AcDbLine
 10
71.80609958
 20
3.32413337
 30
0.0
 11
73.05431824
 21
4.57235202
 31
0.0
  0
ARC
  5
D7C
330
763
100
AcDbEntity
  8
0
100
AcDbCircle
 10
72.62500004
 20
3.82537801
 30
0.0
 40
0.4425154545410158
100
AcDbArc
 50
261.66285421
 51
66.33819216
  0
LINE
  5
D7D
330
763
100
AcDbEntity
  8
0
100
AcDbLine
 10
71.23008061
 20
5.37001583
 30
0.0
 11
71.57349324
 21
5.71342846
 31
0.0
  0
LINE
  5
D7E
330
763
100
AcDbEntity
  8
0
100
AcDbLine
 10
74.51149183
 20
5.37405025
 30
0.0
 11
74.85087087
 21
5.71342929
 31
0.0
  0
LINE
  5
D7F
330
763
100
AcDbEntity
  8
0
100
AcDbLine
 10
74.50139036
 20
5.71342929
 30
0.0
 11
74.40833654
 21
5.38892709
 31
0.0
  0
LINE
  5
D80
330
763
100
AcDbEntity
  8
0
100
AcDbLine
 10
74.50139036
 20
5.71342929
 30
0.0
 11
74.40833654
 21
5.38892709
 31
0.0
1001
HATCH_DISTANCE
1040
1.0
1001
HATCH_DISPLAY
1070
     0
1001
HATCH_TYPE
1070
     7
  0
LINE
  5
D81
330
763
100
AcDbEntity
  8
0
100
AcDbLine
 10
74.40833654
 20
5.38892709
 30
0.0
 11
74.50139036
 21
5.71342929
 31
0.0
  0
LINE
  5
D82
330
763
100
AcDbEntity
  8
0
100
AcDbLine
 10
75.26863045
 20
5.71342929
 30
0.0
 11
74.50139036
 21
5.71342929
 31
0.0
  0
LINE
  5
D83
330
763
100
AcDbEntity
  8
0
100
AcDbLine
 10
75.26863045
 20
5.71342929
 30
0.0
 11
74.50139036
 21
5.71342929
 31
0.0
1001
HATCH_DISTANCE
1040
1.0
1001
HATCH_DISPLAY
1070
     0
1001
HATCH_TYPE
1070
     7
  0
LINE
  5
D84
330
763
100
AcDbEntity
  8
0
100
AcDbLine
 10
74.50139036
 20
5.71342929
 30
0.0
 11
75.26863045
 21
5.71342929
 31
0.0
  0
LINE
  5
D85
330
763
100
AcDbEntity
  8
0
100
AcDbLine
 10
74.37973231
 20
4.91455306
 30
0.0
 11
75.17860855
 21
5.71342929
 31
0.0
  0
LINE
  5
D86
330
763
100
AcDbEntity
  8
0
100
AcDbLine
 10
74.40833654
 20
5.38892709
 30
0.0
 11
74.51575772
 21
5.38892709
 31
0.0
  0
LINE
  5
D87
330
763
100
AcDbEntity
  8
0
100
AcDbLine
 10
74.40833654
 20
5.38892709
 30
0.0
 11
74.51575772
 21
5.38892709
 31
0.0
1001
HATCH_DISTANCE
1040
1.0
1001
HATCH_DISPLAY
1070
     0
1001
HATCH_TYPE
1070
     7
  0
LINE
  5
D88
330
763
100
AcDbEntity
  8
0
100
AcDbLine
 10
74.40833654
 20
5.38892709
 30
0.0
 11
74.51575772
 21
5.38892709
 31
0.0
  0
LINE
  5
D89
330
763
100
AcDbEntity
  8
0
100
AcDbLine
 10
73.39642368
 20
4.91445746
 30
0.0
 11
73.8900946
 21
5.40812838
 31
0.0
  0
LINE
  5
D8A
330
763
100
AcDbEntity
  8
0
100
AcDbLine
 10
73.35861176
 20
5.20438322
 30
0.0
 11
73.72646756
 21
5.57223902
 31
0.0
  0
LINE
  5
D8B
330
763
100
AcDbEntity
  8
0
100
AcDbLine
 10
73.20354708
 20
5.37705622
 30
0.0
 11
73.50779915
 21
5.68130828
 31
0.0
  0
LINE
  5
D8C
330
763
100
AcDbEntity
  8
0
100
AcDbLine
 10
74.49264865
 20
5.68294474
 30
0.0
 11
74.52313319
 21
5.71342929
 31
0.0
  0
LINE
  5
D8D
330
763
100
AcDbEntity
  8
0
100
AcDbLine
 10
72.25317461
 20
5.41841919
 30
0.0
 11
72.40662707
 21
5.41841919
 31
0.0
  0
LINE
  5
D8E
330
763
100
AcDbEntity
  8
0
100
AcDbLine
 10
72.26169701
 20
5.41841919
 30
0.0
 11
72.55670711
 21
5.71342929
 31
0.0
  0
LINE
  5
D8F
330
763
100
AcDbEntity
  8
0
100
AcDbLine
 10
72.33776391
 20
5.71342929
 30
0.0
 11
72.25317461
 21
5.41841919
 31
0.0
  0
LINE
  5
D90
330
763
100
AcDbEntity
  8
0
100
AcDbLine
 10
72.18432258
 20
5.71342929
 30
0.0
 11
72.09973326
 21
5.41841919
 31
0.0
  0
LINE
  5
D91
330
763
100
AcDbEntity
  8
0
100
AcDbLine
 10
71.60622165
 20
5.41841919
 30
0.0
 11
71.90123175
 21
5.71342929
 31
0.0
  0
LINE
  5
D92
330
763
100
AcDbEntity
  8
0
100
AcDbLine
 10
71.57509018
 20
5.71342929
 30
0.0
 11
72.18432258
 21
5.71342929
 31
0.0
  0
LINE
  5
D93
330
763
100
AcDbEntity
  8
0
100
AcDbLine
 10
71.93395933
 20
5.41841919
 30
0.0
 11
72.16637451
 21
5.65083436
 31
0.0
  0
LINE
  5
D94
330
763
100
AcDbEntity
  8
0
100
AcDbLine
 10
71.57509018
 20
5.41841919
 30
0.0
 11
72.09973326
 21
5.41841919
 31
0.0
  0
LINE
  5
D95
330
763
100
AcDbEntity
  8
0
100
AcDbLine
 10
72.33313393
 20
5.16211843
 30
0.0
 11
72.88444478
 21
5.71342929
 31
0.0
  0
LINE
  5
D96
330
763
100
AcDbEntity
  8
0
100
AcDbLine
 10
72.33776391
 20
5.71342929
 30
0.0
 11
73.28945281
 21
5.71342929
 31
0.0
  0
LINE
  5
D97
330
763
100
AcDbEntity
  8
0
100
AcDbLine
 10
72.20137535
 20
4.70262217
 30
0.0
 11
73.21218247
 21
5.71342929
 31
0.0
  0
TEXT
  5
D98
330
763
100
AcDbEntity
  8
0
100
AcDbText
 10
79.87750618
 20
3.03077439
 30
0.0
 40
2.5
  1
MGT6-M4-200
  7
YOKO
100
AcDbText
  0
LINE
  5
D99
330
763
100
AcDbEntity
  8
0
100
AcDbLine
 10
78.79295391
 20
4.41170945
 30
0.0
 11
79.03371491
 21
4.65247045
 31
0.0
  0
ARC
  5
D9A
330
763
100
AcDbEntity
  8
0
100
AcDbCircle
 10
77.56375736
 20
4.1646374
 30
0.0
 40
1.253781787499995
100
AcDbArc
 50
270.0
 51
104.1274365
  0
ARC
  5
D9B
330
763
100
AcDbEntity
  8
0
100
AcDbCircle
 10
77.56375736
 20
4.1646374
 30
0.0
 40
1.548791887499995
100
AcDbArc
 50
270.0
 51
104.77079397
  0
LINE
  5
D9C
330
763
100
AcDbEntity
  8
0
100
AcDbLine
 10
78.81622476
 20
4.10724262
 30
0.0
 11
79.09643751
 21
4.38745536
 31
0.0
  0
LINE
  5
D9D
330
763
100
AcDbEntity
  8
0
100
AcDbLine
 10
78.7224853
 20
3.68576547
 30
0.0
 11
79.10984321
 21
4.0731234
 31
0.0
  0
LINE
  5
D9E
330
763
100
AcDbEntity
  8
0
100
AcDbLine
 10
77.65527136
 20
2.61855153
 30
0.0
 11
78.04262928
 21
3.00590946
 31
0.0
  0
LINE
  5
D9F
330
763
100
AcDbEntity
  8
0
100
AcDbLine
 10
78.06295923
 20
2.69850173
 30
0.0
 11
79.02989301
 21
3.66543551
 31
0.0
  0
LINE
  5
DA0
330
763
100
AcDbEntity
  8
0
100
AcDbLine
 10
76.60968763
 20
3.2116562
 30
0.0
 11
76.88625514
 21
3.48822372
 31
0.0
  0
LINE
  5
DA1
330
763
100
AcDbEntity
  8
0
100
AcDbLine
 10
76.66935195
 20
2.61584517
 30
0.0
 11
76.96436205
 21
2.91085527
 31
0.0
  0
LINE
  5
DA2
330
763
100
AcDbEntity
  8
0
100
AcDbLine
 10
76.58993891
 20
3.23140365
 30
0.0
 11
76.76299337
 21
3.05836031
 31
0.0
  0
LINE
  5
DA3
330
763
100
AcDbEntity
  8
0
100
AcDbLine
 10
76.01387659
 20
2.61584517
 30
0.0
 11
76.30888669
 21
2.91085527
 31
0.0
  0
LINE
  5
DA4
330
763
100
AcDbEntity
  8
0
100
AcDbLine
 10
76.34161428
 20
2.61584517
 30
0.0
 11
76.63662436
 21
2.91085527
 31
0.0
  0
LINE
  5
DA5
330
763
100
AcDbEntity
  8
0
100
AcDbLine
 10
76.27231175
 20
3.52975568
 30
0.0
 11
77.14977312
 21
4.40721706
 31
0.0
  0
LINE
  5
DA6
330
763
100
AcDbEntity
  8
0
100
AcDbLine
 10
76.30658977
 20
3.60725007
 30
0.0
 11
76.4960275
 21
4.26789316
 31
0.0
  0
LINE
  5
DA7
330
763
100
AcDbEntity
  8
0
100
AcDbLine
 10
76.76299337
 20
3.05836031
 30
0.0
 11
77.19441557
 21
4.56290326
 31
0.0
  0
LINE
  5
DA8
330
763
100
AcDbEntity
  8
0
100
AcDbLine
 10
76.13312776
 20
3.06283402
 30
0.0
 11
77.01801413
 21
3.94772039
 31
0.0
  0
LINE
  5
DA9
330
763
100
AcDbEntity
  8
0
100
AcDbLine
 10
76.99708963
 20
2.61584517
 30
0.0
 11
77.29209972
 21
2.91085527
 31
0.0
  0
LINE
  5
DAA
330
763
100
AcDbEntity
  8
0
100
AcDbLine
 10
76.4209753
 20
4.00615691
 30
0.0
 11
76.97772165
 21
4.56290326
 31
0.0
  0
LINE
  5
DAB
330
763
100
AcDbEntity
  8
0
100
AcDbLine
 10
76.33510176
 20
4.56290326
 30
0.0
 11
77.19441557
 21
4.56290326
 31
0.0
  0
LINE
  5
DAC
330
763
100
AcDbEntity
  8
0
100
AcDbLine
 10
76.35497387
 20
4.26789316
 30
0.0
 11
76.64998396
 21
4.56290326
 31
0.0
  0
LINE
  5
DAD
330
763
100
AcDbEntity
  8
0
100
AcDbLine
 10
76.25051245
 20
4.26789316
 30
0.0
 11
76.33510176
 21
4.56290326
 31
0.0
  0
LINE
  5
DAE
330
763
100
AcDbEntity
  8
0
100
AcDbLine
 10
76.25051245
 20
4.26789316
 30
0.0
 11
76.4960275
 21
4.26789316
 31
0.0
  0
LINE
  5
DAF
330
763
100
AcDbEntity
  8
0
100
AcDbLine
 10
77.32482731
 20
2.61584517
 30
0.0
 11
77.62115213
 21
2.91216999
 31
0.0
  0
LINE
  5
DB0
330
763
100
AcDbEntity
  8
0
100
AcDbLine
 10
78.71492216
 20
4.66141537
 30
0.0
 11
78.93609316
 21
4.88258637
 31
0.0
  0
LINE
  5
DB1
330
763
100
AcDbEntity
  8
0
100
AcDbLine
 10
78.05901372
 20
5.31645766
 30
0.0
 11
78.2802764
 21
5.53772034
 31
0.0
  0
LINE
  5
DB2
330
763
100
AcDbEntity
  8
0
100
AcDbLine
 10
77.50407877
 20
5.41699806
 30
0.0
 11
77.78467353
 21
5.69759283
 31
0.0
  0
LINE
  5
DB3
330
763
100
AcDbEntity
  8
0
100
AcDbLine
 10
77.80901554
 20
5.39419715
 30
0.0
 11
78.04995505
 21
5.63513667
 31
0.0
  0
LINE
  5
DB4
330
763
100
AcDbEntity
  8
0
100
AcDbLine
 10
78.27052317
 20
5.20022942
 30
0.0
 11
78.48209375
 21
5.4118
 31
0.0
  0
LINE
  5
DB5
330
763
100
AcDbEntity
  8
0
100
AcDbLine
 10
78.44977052
 20
5.0517391
 30
0.0
 11
78.6583742
 21
5.26034277
 31
0.0
  0
LINE
  5
DB6
330
763
100
AcDbEntity
  8
0
100
AcDbLine
 10
78.59846558
 20
4.87269647
 30
0.0
 11
78.80999616
 21
5.08422706
 31
0.0
  0
LINE
  5
DB7
330
763
100
AcDbEntity
  8
0
100
AcDbLine
 10
77.25773227
 20
5.38050714
 30
0.0
 11
77.25773227
 21
5.38050714
 31
0.0
  0
LINE
  5
DB8
330
763
100
AcDbEntity
  8
0
100
AcDbLine
 10
77.25773227
 20
5.38050714
 30
0.0
 11
77.25773227
 21
5.38050714
 31
0.0
1001
HATCH_DISTANCE
1040
1.0
1001
HATCH_DISPLAY
1070
     0
1001
HATCH_TYPE
1070
     7
  0
LINE
  5
DB9
330
763
100
AcDbEntity
  8
0
100
AcDbLine
 10
77.25773227
 20
5.38050714
 30
0.0
 11
77.25773227
 21
5.38050714
 31
0.0
  0
LINE
  5
DBA
330
763
100
AcDbEntity
  8
0
100
AcDbLine
 10
77.25773227
 20
5.38050714
 30
0.0
 11
77.25773227
 21
5.38050714
 31
0.0
1001
HATCH_DISTANCE
1040
1.0
1001
HATCH_DISPLAY
1070
     0
1001
HATCH_TYPE
1070
     7
  0
LINE
  5
DBB
330
763
100
AcDbEntity
  8
0
100
AcDbLine
 10
77.22947159
 20
5.47012857
 30
0.0
 11
77.46992746
 21
5.71058444
 31
0.0
  0
LINE
  5
DBC
330
763
100
AcDbEntity
  8
0
100
AcDbLine
 10
77.16888843
 20
5.66225248
 30
0.0
 11
77.25773227
 21
5.38050714
 31
0.0
  0
LINE
  5
DBD
330
763
100
AcDbEntity
  8
0
100
AcDbLine
 10
77.25773227
 20
5.38050714
 30
0.0
 11
77.16888843
 21
5.66225248
 31
0.0
  0
LINE
  5
DBE
330
763
100
AcDbEntity
  8
0
100
AcDbLine
 10
77.16888843
 20
5.66225248
 30
0.0
 11
77.25773227
 21
5.38050714
 31
0.0
1001
HATCH_DISTANCE
1040
1.0
1001
HATCH_DISPLAY
1070
     0
1001
HATCH_TYPE
1070
     7
  0
LINE
  5
DBF
330
763
100
AcDbEntity
  8
0
100
AcDbLine
 10
77.25773227
 20
5.38050714
 30
0.0
 11
77.16888843
 21
5.66225248
 31
0.0
1001
HATCH_DISTANCE
1040
1.0
1001
HATCH_DISPLAY
1070
     0
1001
HATCH_TYPE
1070
     7
  0
LINE
  5
DC0
330
763
100
AcDbEntity
  8
0
100
AcDbLine
 10
77.16888843
 20
5.66225248
 30
0.0
 11
77.25773227
 21
5.38050714
 31
0.0
  0
LINE
  5
DC1
330
763
100
AcDbEntity
  8
0
100
AcDbLine
 10
77.25773227
 20
5.38050714
 30
0.0
 11
77.16888843
 21
5.66225248
 31
0.0
  0
LINE
  5
DC2
330
763
100
AcDbEntity
  8
0
100
AcDbLine
 10
77.16888843
 20
5.66225248
 30
0.0
 11
77.25773227
 21
5.38050714
 31
0.0
1001
HATCH_DISTANCE
1040
1.0
1001
HATCH_DISPLAY
1070
     0
1001
HATCH_TYPE
1070
     7
  0
LINE
  5
DC3
330
763
100
AcDbEntity
  8
0
100
AcDbLine
 10
77.25773227
 20
5.38050714
 30
0.0
 11
77.16888843
 21
5.66225248
 31
0.0
1001
HATCH_DISTANCE
1040
1.0
1001
HATCH_DISPLAY
1070
     0
1001
HATCH_TYPE
1070
     7
  0
LINE
  5
DC4
330
763
100
AcDbEntity
  8
0
100
AcDbLine
 10
77.25773227
 20
5.38050714
 30
0.0
 11
77.16888843
 21
5.66225248
 31
0.0
  0
LINE
  5
DC5
330
763
100
AcDbEntity
  8
0
100
AcDbLine
 10
76.48313642
 20
5.37926876
 30
0.0
 11
76.70403798
 21
5.60017032
 31
0.0
  0
LINE
  5
DC6
330
763
100
AcDbEntity
  8
0
100
AcDbLine
 10
76.67131896
 20
5.23971362
 30
0.0
 11
77.03331381
 21
5.60170847
 31
0.0
  0
ARC
  5
DC7
330
763
100
AcDbEntity
  8
0
100
AcDbCircle
 10
76.40641518
 20
5.07915979
 30
0.0
 40
0.3097604570800781
100
AcDbArc
 50
1.71012138
 51
163.99839835
  0
LINE
  5
DC8
330
763
100
AcDbEntity
  8
0
100
AcDbLine
 10
77.16888843
 20
5.66225248
 30
0.0
 11
77.16888843
 21
5.66225248
 31
0.0
  0
LINE
  5
DC9
330
763
100
AcDbEntity
  8
0
100
AcDbLine
 10
77.16888843
 20
5.66225248
 30
0.0
 11
77.16888843
 21
5.66225248
 31
0.0
1001
HATCH_DISTANCE
1040
1.0
1001
HATCH_DISPLAY
1070
     0
1001
HATCH_TYPE
1070
     7
  0
LINE
  5
DCA
330
763
100
AcDbEntity
  8
0
100
AcDbLine
 10
77.16888843
 20
5.66225248
 30
0.0
 11
77.16888843
 21
5.66225248
 31
0.0
  0
LINE
  5
DCB
330
763
100
AcDbEntity
  8
0
100
AcDbLine
 10
77.16888843
 20
5.66225248
 30
0.0
 11
77.16888843
 21
5.66225248
 31
0.0
1001
HATCH_DISTANCE
1040
1.0
1001
HATCH_DISPLAY
1070
     0
1001
HATCH_TYPE
1070
     7
  0
LINE
  5
DCC
330
763
100
AcDbEntity
  8
0
100
AcDbLine
 10
77.08116943
 20
5.32182641
 30
0.0
 11
77.11188458
 21
5.35254155
 31
0.0
  0
LINE
  5
DCD
330
763
100
AcDbEntity
  8
0
100
AcDbLine
 10
77.1170545
 20
5.33614647
 30
0.0
 11
77.02821066
 21
5.61789181
 31
0.0
  0
ARC
  5
DCE
330
763
100
AcDbEntity
  8
0
100
AcDbCircle
 10
77.56375736
 20
4.1646374
 30
0.0
 40
1.253785267968747
100
AcDbArc
 50
110.8721834
 51
132.54194894
  0
ARC
  5
DCF
330
763
100
AcDbEntity
  8
0
100
AcDbCircle
 10
77.56375736
 20
4.1646374
 30
0.0
 40
1.548792583593745
100
AcDbArc
 50
110.22964506
 51
118.57168892
  0
LINE
  5
DD0
330
763
100
AcDbEntity
  8
241
100
AcDbLine
 10
180.0
 20
-6.2
 30
0.0
 11
180.0
 21
0.0
 31
0.0
  0
LINE
  5
DD1
330
763
100
AcDbEntity
  8
241
100
AcDbLine
 10
184.2
 20
-8.0
 30
0.0
 11
184.2
 21
0.0
 31
0.0
  0
LINE
  5
DD2
330
763
100
AcDbEntity
  8
241
100
AcDbLine
 10
183.0
 20
-8.15
 30
0.0
 11
183.0
 21
0.0
 31
0.0
  0
LINE
  5
DD3
330
763
100
AcDbEntity
  8
241
100
AcDbLine
 10
181.0
 20
-6.2
 30
0.0
 11
181.0
 21
0.0
 31
0.0
  0
LINE
  5
DD4
330
763
100
AcDbEntity
  8
240
100
AcDbLine
 10
181.0
 20
-6.2
 30
0.0
 11
181.0
 21
-8.15
 31
0.0
  0
LINE
  5
DD5
330
763
100
AcDbEntity
  8
240
100
AcDbLine
 10
180.0
 20
-6.2
 30
0.0
 11
180.0
 21
-8.0
 31
0.0
  0
LINE
  5
DD6
330
763
100
AcDbEntity
  8
240
100
AcDbLine
 10
181.0
 20
-8.15
 30
0.0
 11
183.0
 21
-8.15
 31
0.0
  0
LINE
  5
DD7
330
763
100
AcDbEntity
  8
240
100
AcDbLine
 10
183.15
 20
-8.0
 30
0.0
 11
183.0
 21
-8.15
 31
0.0
  0
LINE
  5
DD8
330
763
100
AcDbEntity
  8
240
100
AcDbLine
 10
181.0
 20
-6.2
 30
0.0
 11
180.0
 21
-6.2
 31
0.0
  0
LINE
  5
DD9
330
763
100
AcDbEntity
  8
241
100
AcDbLine
 10
183.0
 20
8.15
 30
0.0
 11
183.0
 21
0.0
 31
0.0
  0
LINE
  5
DDA
330
763
100
AcDbEntity
  8
241
100
AcDbLine
 10
184.2
 20
8.0
 30
0.0
 11
184.2
 21
0.0
 31
0.0
  0
LINE
  5
DDB
330
763
100
AcDbEntity
  8
241
100
AcDbLine
 10
181.0
 20
6.2
 30
0.0
 11
181.0
 21
0.0
 31
0.0
  0
LINE
  5
DDC
330
763
100
AcDbEntity
  8
241
100
AcDbLine
 10
180.0
 20
6.2
 30
0.0
 11
180.0
 21
0.0
 31
0.0
  0
LINE
  5
DDD
330
763
100
AcDbEntity
  8
244
  6
HIDDEN2
100
AcDbLine
 10
178.0
 20
2.8991378
 30
0.0
 11
182.0
 21
0.0
 31
0.0
  0
LINE
  5
DDE
330
763
100
AcDbEntity
  8
241
  6
HIDDEN2
100
AcDbLine
 10
178.0
 20
2.8991378
 30
0.0
 11
182.0
 21
2.8991378
 31
0.0
  0
LINE
  5
DDF
330
763
100
AcDbEntity
  8
244
  6
HIDDEN2
100
AcDbLine
 10
178.0
 20
0.0
 30
0.0
 11
182.0
 21
2.8991378
 31
0.0
  0
LINE
  5
DE0
330
763
100
AcDbEntity
  8
241
  6
HIDDEN2
100
AcDbLine
 10
178.0
 20
2.8991378
 30
0.0
 11
178.0
 21
0.0
 31
0.0
  0
LINE
  5
DE1
330
763
100
AcDbEntity
  8
241
  6
HIDDEN2
100
AcDbLine
 10
182.0
 20
2.8991378
 30
0.0
 11
182.0
 21
0.0
 31
0.0
  0
LINE
  5
DE2
330
763
100
AcDbEntity
  8
240
100
AcDbLine
 10
181.0
 20
8.15
 30
0.0
 11
183.0
 21
8.15
 31
0.0
  0
LINE
  5
DE3
330
763
100
AcDbEntity
  8
240
100
AcDbLine
 10
181.0
 20
6.2
 30
0.0
 11
181.0
 21
8.15
 31
0.0
  0
LINE
  5
DE4
330
763
100
AcDbEntity
  8
240
100
AcDbLine
 10
180.0
 20
6.2
 30
0.0
 11
180.0
 21
8.0
 31
0.0
  0
LINE
  5
DE5
330
763
100
AcDbEntity
  8
240
100
AcDbLine
 10
181.0
 20
6.2
 30
0.0
 11
180.0
 21
6.2
 31
0.0
  0
LINE
  5
DE6
330
763
100
AcDbEntity
  8
240
100
AcDbLine
 10
183.15
 20
8.0
 30
0.0
 11
183.0
 21
8.15
 31
0.0
  0
LINE
  5
DE7
330
763
100
AcDbEntity
  8
240
100
AcDbLine
 10
200.0
 20
-7.0
 30
0.0
 11
200.0
 21
0.0
 31
0.0
  0
ARC
  5
DE8
330
763
100
AcDbEntity
  8
240
100
AcDbCircle
 10
199.0
 20
-7.0
 30
0.0
 40
1.0
100
AcDbArc
 50
270.0
 51
0.0
1001
GENIUS_GENODEF_13
1002
{
1000
HIER
1070
     0
1002
}
1002
{
1000
MANEDIT
1070
     0
1002
}
1002
{
1000
NOSEL
1070
     0
1002
}
1002
{
1000
BEHIND
1070
     0
1002
}
1002
{
1000
OTHER
1070
     0
1002
}
1002
{
1000
REACTOR
1002
}
1001
GENIUS_GENOBJ-N-FIL_13
1002
{
1000
OWNER
1000
GEN
1002
}
  0
LINE
  5
DE9
330
763
100
AcDbEntity
  8
241
  6
HIDDEN2
100
AcDbLine
 10
187.0
 20
2.5
 30
0.0
 11
200.0
 21
2.5
 31
0.0
  0
LINE
  5
DEA
330
763
100
AcDbEntity
  8
241
  6
HIDDEN2
100
AcDbLine
 10
187.0
 20
2.8
 30
0.0
 11
187.0
 21
0.0
 31
0.0
  0
LINE
  5
DEB
330
763
100
AcDbEntity
  8
240
100
AcDbLine
 10
200.0
 20
7.0
 30
0.0
 11
200.0
 21
0.0
 31
0.0
  0
ARC
  5
DEC
330
763
100
AcDbEntity
  8
240
100
AcDbCircle
 10
199.0
 20
7.0
 30
0.0
 40
1.0
100
AcDbArc
 50
359.9999824
 51
90.0
1001
GENIUS_GENODEF_13
1002
{
1000
HIER
1070
     0
1002
}
1002
{
1000
MANEDIT
1070
     0
1002
}
1002
{
1000
NOSEL
1070
     0
1002
}
1002
{
1000
BEHIND
1070
     0
1002
}
1002
{
1000
OTHER
1070
     0
1002
}
1002
{
1000
REACTOR
1002
}
1001
GENIUS_GENOBJ-N-FIL_13
1002
{
1000
OWNER
1000
GEN
1002
}
  0
ENDBLK
  5
883
330
763
100
AcDbEntity
  8
0
100
AcDbBlockEnd
  0
BLOCK
  5
8C7
330
8BD
100
AcDbEntity
  8
0
100
AcDbBlockBegin
  2
*D3
 70
     1
 10
0.0
 20
0.0
 30
0.0
  3
*D3
  1

  0
LINE
  5
CC6
330
8BD
100
AcDbEntity
  8
250
  6
CONTINUOUS
100
AcDbLine
 10
0.0
 20
11.14125603
 30
0.0
 11
0.0
 21
22.0
 31
0.0
  0
LINE
  5
CC7
330
8BD
100
AcDbEntity
  8
250
  6
CONTINUOUS
100
AcDbLine
 10
200.0
 20
7.5
 30
0.0
 11
200.0
 21
22.0
 31
0.0
  0
LINE
  5
CC8
330
8BD
100
AcDbEntity
  8
250
  6
CONTINUOUS
100
AcDbLine
 10
2.23
 20
21.0
 30
0.0
 11
197.77
 21
21.0
 31
0.0
  0
INSERT
  5
CC9
330
8BD
100
AcDbEntity
  8
250
  6
CONTINUOUS
100
AcDbBlockReference
  2
_OPEN
 10
0.0
 20
21.0
 30
0.0
 41
2.23
 42
2.23
 43
2.23
 50
180.0
  0
INSERT
  5
CCA
330
8BD
100
AcDbEntity
  8
250
  6
CONTINUOUS
100
AcDbBlockReference
  2
_OPEN
 10
200.0
 20
21.0
 30
0.0
 41
2.23
 42
2.23
 43
2.23
  0
MTEXT
  5
CCB
330
8BD
100
AcDbEntity
  8
250
  6
CONTINUOUS
 62
    40
100
AcDbMText
 10
104.49037942
 20
23.4
 30
0.0
 40
2.8
 41
0.0
 71
     5
 72
     1
  1
\A1;200
1001
ACAD
1000
MTEXTBEGIN
1070
    73
1070
     1
1070
    44
1040
1.0
1070
    74
1070
     0
1000
MTEXTEND
  0
POINT
  5
CCC
330
8BD
100
AcDbEntity
  8
DEFPOINTS
  6
CONTINUOUS
 62
     0
100
AcDbPoint
 10
0.0
 20
10.64125603
 30
0.0
  0
POINT
  5
CCD
330
8BD
100
AcDbEntity
  8
DEFPOINTS
  6
CONTINUOUS
 62
     0
100
AcDbPoint
 10
200.0
 20
7.0
 30
0.0
  0
POINT
  5
CCE
330
8BD
100
AcDbEntity
  8
DEFPOINTS
  6
CONTINUOUS
 62
     0
100
AcDbPoint
 10
200.0
 20
21.0
 30
0.0
  0
ENDBLK
  5
8C8
330
8BD
100
AcDbEntity
  8
0
100
AcDbBlockEnd
  0
BLOCK
  5
8D3
330
8C9
100
AcDbEntity
  8
0
100
AcDbBlockBegin
  2
*D4
 70
     1
 10
0.0
 20
0.0
 30
0.0
  3
*D4
  1

  0
LINE
  5
CBD
330
8C9
100
AcDbEntity
  8
250
  6
CONTINUOUS
100
AcDbLine
 10
199.5
 20
-8.0
 30
0.0
 11
218.25
 21
-8.0
 31
0.0
  0
LINE
  5
CBE
330
8C9
100
AcDbEntity
  8
250
  6
CONTINUOUS
100
AcDbLine
 10
199.5
 20
8.0
 30
0.0
 11
218.25
 21
8.0
 31
0.0
  0
LINE
  5
CBF
330
8C9
100
AcDbEntity
  8
250
  6
CONTINUOUS
100
AcDbLine
 10
217.25
 20
-5.77
 30
0.0
 11
217.25
 21
5.77
 31
0.0
  0
INSERT
  5
CC0
330
8C9
100
AcDbEntity
  8
250
  6
CONTINUOUS
100
AcDbBlockReference
  2
_OPEN
 10
217.25
 20
-8.0
 30
0.0
 41
2.23
 42
2.23
 43
2.23
 50
270.0
  0
INSERT
  5
CC1
330
8C9
100
AcDbEntity
  8
250
  6
CONTINUOUS
100
AcDbBlockReference
  2
_OPEN
 10
217.25
 20
8.0
 30
0.0
 41
2.23
 42
2.23
 43
2.23
 50
90.0
  0
MTEXT
  5
CC2
330
8C9
100
AcDbEntity
  8
250
  6
CONTINUOUS
 62
    40
100
AcDbMText
 10
214.85
 20
0.0
 30
0.0
 40
2.8
 41
0.0
 71
     5
 72
     1
  1
\A1;{\H2.8;\U+2205}16
 11
0.0
 21
1.0
 31
0.0
1001
ACAD
1000
MTEXTBEGIN
1070
    73
1070
     1
1070
    44
1040
1.0
1070
    74
1070
     0
1000
MTEXTEND
  0
POINT
  5
CC3
330
8C9
100
AcDbEntity
  8
DEFPOINTS
  6
CONTINUOUS
 62
     0
100
AcDbPoint
 10
199.0
 20
-8.0
 30
0.0
  0
POINT
  5
CC4
330
8C9
100
AcDbEntity
  8
DEFPOINTS
  6
CONTINUOUS
 62
     0
100
AcDbPoint
 10
199.0
 20
8.0
 30
0.0
  0
POINT
  5
CC5
330
8C9
100
AcDbEntity
  8
DEFPOINTS
  6
CONTINUOUS
 62
     0
100
AcDbPoint
 10
217.25
 20
8.0
 30
0.0
  0
ENDBLK
  5
8D4
330
8C9
100
AcDbEntity
  8
0
100
AcDbBlockEnd
  0
ENDSEC
  0
SECTION
  2
ENTITIES
  0
INSERT
  5
6E6
330
1A
100
AcDbEntity
  8
245
100
AcDbBlockReference
  2
矢印なし
 10
175.62382697
 20
90.55123572
 30
0.0
  0
DIMENSION
  5
8B3
330
1A
100
AcDbEntity
  8
250
  6
CONTINUOUS
100
AcDbDimension
  2
*D3
 10
200.0
 20
21.0
 30
0.0
 11
104.49037942
 21
21.0
 31
0.0
 70
   160
  3
BIGT
100
AcDbAlignedDimension
 13
0.0
 23
10.64125603
 33
0.0
 14
200.0
 24
7.0
 34
0.0
100
AcDbRotatedDimension
  0
TEXT
  5
8B4
330
1A
100
AcDbEntity
  8
241
100
AcDbText
 10
-47.5
 20
35.0
 30
0.0
 40
5.0
  1
MGT6-M4-200
  7
YOKO
 11
-47.5
 21
35.0
 31
0.0
100
AcDbText
 73
     1
  0
DIMENSION
  5
8B5
330
1A
100
AcDbEntity
  8
250
  6
CONTINUOUS
100
AcDbDimension
  2
*D4
 10
217.25
 20
8.0
 30
0.0
 11
214.85
 21
0.0
 31
0.0
 70
    32
  1
{\H2.8;\U+2205}<>
  3
BIGT
100
AcDbAlignedDimension
 13
199.0
 23
-8.0
 33
0.0
 14
199.0
 24
8.0
 34
0.0
 50
90.0
100
AcDbRotatedDimension
  0
MTEXT
  5
8B6
330
1A
100
AcDbEntity
  8
250
  6
CONTINUOUS
 62
    40
100
AcDbMText
 10
207.85
 20
-0.57085465
 30
0.0
 40
2.8
 41
0.0
 71
     5
 72
     1
  1
\A1;{\H2.8;\U+2205}5
 11
0.0
 21
1.0
 31
0.0
1001
ACAD
1000
MTEXTBEGIN
1070
    73
1070
     1
1070
    44
1040
1.0
1070
    74
1070
     0
1000
MTEXTEND
1000
MTEXTBEGIN
1070
    73
1070
     1
1070
    44
1040
1.0
1070
    74
1070
     0
1000
MTEXTEND
1000
MTEXTBEGIN
1070
    73
1070
     1
1070
    44
1040
1.0
1070
    74
1070
     0
1000
MTEXTEND
1000
MTEXTBEGIN
1070
    73
1070
     1
1070
    44
1040
1.0
1070
    74
1070
     0
1000
MTEXTEND
1000
MTEXTBEGIN
1070
    73
1070
     1
1070
    44
1040
1.0
1070
    74
1070
     0
1000
MTEXTEND
1000
MTEXTBEGIN
1070
    73
1070
     1
1070
    44
1040
1.0
1070
    74
1070
     0
1000
MTEXTEND
1000
MTEXTBEGIN
1070
    73
1070
     1
1070
    44
1040
1.0
1070
    74
1070
     0
1000
MTEXTEND
1000
MTEXTBEGIN
1070
    73
1070
     1
1070
    44
1040
1.0
1070
    74
1070
     0
1000
MTEXTEND
  0
LINE
  5
8B7
330
1A
100
AcDbEntity
  8
250
  6
CONTINUOUS
100
AcDbLine
 10
210.25
 20
-2.5
 30
0.0
 11
210.25
 21
2.5
 31
0.0
  0
MTEXT
  5
8B8
330
1A
100
AcDbEntity
  8
251
  6
CONTINUOUS
100
AcDbMText
 10
189.6414831
 20
15.06872346
 30
0.0
 40
2.8
 41
0.0
 71
     7
 72
     1
  1
□4
  7
YOKO
1001
ITEMNAME
1000
LNSP3
1001
ACAD
1000
MTEXTBEGIN
1070
    73
1070
     1
1070
    44
1040
1.0
1070
    74
1070
     0
1000
MTEXTEND
1000
MTEXTBEGIN
1070
    73
1070
     1
1070
    44
1040
1.0
1070
    74
1070
     0
1000
MTEXTEND
1000
MTEXTBEGIN
1070
    73
1070
     1
1070
    44
1040
1.0
1070
    74
1070
     0
1000
MTEXTEND
1000
MTEXTBEGIN
1070
    73
1070
     1
1070
    44
1040
1.0
1070
    74
1070
     0
1000
MTEXTEND
1000
MTEXTBEGIN
1070
    73
1070
     1
1070
    44
1040
1.0
1070
    74
1070
     0
1000
MTEXTEND
1000
MTEXTBEGIN
1070
    73
1070
     1
1070
    44
1040
1.0
1070
    74
1070
     0
1000
MTEXTEND
  0
LINE
  5
8B9
330
1A
100
AcDbEntity
  8
250
  6
CONTINUOUS
100
AcDbLine
 10
186.8414831
 20
14.06872346
 30
0.0
 11
197.82814976
 21
14.06872346
 31
0.0
1001
ITEMNAME
1000
LNSP2
  0
LEADER
  5
8BA
330
1A
100
AcDbEntity
  8
250
  6
CONTINUOUS
100
AcDbLeader
  3
BIGT
 76
     2
 10
181.63704303
 20
2.8991378
 30
0.0
 10
186.8414831
 20
14.06872346
 30
0.0
1001
ACAD
1000
DSTYLE
1002
{
1070
     6
1000
OPEN
1070
    41
1040
2.0
1070
    42
1040
2.0
1070
    44
1040
2.0
1070
   140
1040
4.0
1070
   343
1005
594
1002
}
  0
LINE
  5
8BB
330
1A
100
AcDbEntity
  8
250
  6
CONTINUOUS
100
AcDbLine
 10
200.5
 20
2.5
 30
0.0
 11
211.25
 21
2.5
 31
0.0
  0
INSERT
  5
8BC
330
1A
100
AcDbEntity
  8
250
  6
CONTINUOUS
100
AcDbBlockReference
  2
_OPEN
 10
210.25
 20
2.5
 30
0.0
 41
2.23
 42
2.23
 43
2.23
 50
90.0
  0
INSERT
  5
DED
330
1A
100
AcDbEntity
  8
245
100
AcDbBlockReference
  2
1
 10
0.0
 20
0.0
 30
0.0
  0
VIEWPORT
  5
22
330
17
100
AcDbEntity
 67
     1
  8
0
100
AcDbViewport
 10
261.51769912
 20
148.5
 30
0.0
 40
523.03539823
 41
297.0
 68
     1
 69
     1
1001
ACAD
1000
MVIEW
1002
{
1070
    16
1010
0.0
1020
0.0
1030
0.0
1010
0.0
1020
0.0
1030
1.0
1040
0.0
1040
297.0
1040
261.51769912
1040
148.5
1040
50.0
1040
0.0
1040
0.0
1070
     0
1070
   100
1070
     1
1070
     1
1070
     0
1070
     0
1070
     0
1070
     0
1040
0.0
1040
0.0
1040
0.0
1040
1.0
1040
1.0
1040
10.0
1040
10.0
1070
     0
1002
{
1002
}
1002
}
  0
ENDSEC
  0
SECTION
  2
OBJECTS
  0
DICTIONARY
  5
C
330
0
100
AcDbDictionary
  3
ACAD_GROUP
350
D
  3
ACAD_LAYOUT
350
565
  3
ACAD_MLINESTYLE
350
E
  3
ACAD_PLOTSETTINGS
350
566
  3
ACAD_PLOTSTYLENAME
350
563
  3
ACDBHEADERROUNDTRIPXREC
350
E14
  3
GRADE_DWG
350
540
  0
DICTIONARY
  5
B7E
330
1A
100
AcDbDictionary
280
     1
  3
ACAD_LAYOUTSELFREF
360
E36
  0
DICTIONARY
  5
B7C
330
17
100
AcDbDictionary
280
     1
  3
ACAD_LAYOUTSELFREF
360
E35
  0
DICTIONARY
  5
D
102
{ACAD_REACTORS
330
C
102
}
330
C
100
AcDbDictionary
  3
*A1
350
6C7
  3
*A2
350
6C8
  3
*A3
350
6D4
  3
*A4
350
6D5
  3
DREC-1
350
5FC
  3
DREC-2
350
654
  3
DREC-3
350
673
  0
DICTIONARY
  5
565
102
{ACAD_REACTORS
330
C
102
}
330
C
100
AcDbDictionary
  0
DICTIONARY
  5
E
102
{ACAD_REACTORS
330
C
102
}
330
C
100
AcDbDictionary
  3
STANDARD
350
13
  0
DICTIONARY
  5
566
102
{ACAD_REACTORS
330
C
102
}
330
C
100
AcDbDictionary
  3
A3_0_5倍_
350
758
  3
A3_1倍_
350
757
  3
A3_1倍__2000_
350
707
  3
A3_2倍_
350
759
  3
A4_0_5倍_
350
755
  3
A4_1倍_
350
754
  3
A4_1倍__2000_
350
708
  3
A4_2倍_
350
756
  0
ACDBDICTIONARYWDFLT
  5
563
102
{ACAD_REACTORS
330
C
102
}
330
C
100
AcDbDictionary
281
     1
  3
Normal
350
564
100
AcDbDictionaryWithDefault
340
564
  0
DICTIONARY
  5
E14
102
{ACAD_REACTORS
330
C
102
}
330
C
100
AcDbDictionary
  3
CEPSNTYPE
350
E1E
  3
DIMSTYLEDATA
350
E22
  3
FINGERPRINTGUID
350
E1F
  3
HYPERLINKBASE
350
E17
  3
INSUNITS
350
E1D
  3
LAYOUTDICT
350
E19
  3
LWETCUNION
350
E1C
  3
PLOTSETDICT
350
E1A
  3
PLOTSTYLNAMDICT
350
E1B
  3
PSVPSCALE
350
E21
  3
PUCSBASE
350
E25
  3
PUCSORGBACK
350
E2B
  3
PUCSORGBOTTOM
350
E27
  3
PUCSORGFRONT
350
E2A
  3
PUCSORGLEFT
350
E28
  3
PUCSORGRIGHT
350
E29
  3
PUCSORGTOP
350
E26
  3
PUCSORTHOREF
350
E23
  3
PUCSORTHOVIEW
350
E24
  3
STYLESHEET
350
E18
  3
TSTACKALIGN
350
E15
  3
TSTACKSIZE
350
E16
  3
UCSBASE
350
E2E
  3
UCSORGBACK
350
E34
  3
UCSORGBOTTOM
350
E30
  3
UCSORGFRONT
350
E33
  3
UCSORGLEFT
350
E31
  3
UCSORGRIGHT
350
E32
  3
UCSORGTOP
350
E2F
  3
UCSORTHOREF
350
E2C
  3
UCSORTHOVIEW
350
E2D
  3
VERSIONGUID
350
E20
  0
DICTIONARY
  5
540
102
{ACAD_REACTORS
330
C
102
}
330
C
100
AcDbDictionary
  3
VERSION
350
560
  0
XRECORD
  5
E36
102
{ACAD_REACTORS
330
B7E
102
}
330
B7E
100
AcDbXrecord
340
1A
  0
XRECORD
  5
E35
102
{ACAD_REACTORS
330
B7C
102
}
330
B7C
100
AcDbXrecord
340
17
  0
GROUP
  5
6C7
102
{ACAD_REACTORS
330
D
102
}
330
D
100
AcDbGroup
300

 70
     0
 71
     1
1001
GRPNAME
1000
DMA00
  0
GROUP
  5
6C8
102
{ACAD_REACTORS
330
D
102
}
330
D
100
AcDbGroup
300

 70
     0
 71
     1
1001
GRPNAME
1000
DMA00
  0
GROUP
  5
6D4
102
{ACAD_REACTORS
330
D
102
}
330
D
100
AcDbGroup
300

 70
     0
 71
     1
1001
GRPNAME
1000
DMA00
  0
GROUP
  5
6D5
102
{ACAD_REACTORS
330
D
102
}
330
D
100
AcDbGroup
300

 70
     0
 71
     1
1001
GRPNAME
1000
DMA00
  0
GROUP
  5
5FC
102
{ACAD_REACTORS
330
D
102
}
330
D
100
AcDbGroup
300

 70
     0
 71
     1
1001
GRPNAME
1000
DREC-
1001
GPARA
1000
xsiz
1000
44.182
1000
ysiz
1000
40.677
1000
angl
1000
0
1000
ctyp
1000
0
1000
csiz
1000
5
1000
lfnt
1000
cont
1000
hcnt
1000
hoff
1000
vcnt
1000
voff
1000
opnt
1000
4
1000
dxpt
1000
0
1000
dypt
1000
0
  0
GROUP
  5
654
102
{ACAD_REACTORS
330
D
102
}
330
D
100
AcDbGroup
300

 70
     0
 71
     1
1001
GRPNAME
1000
DREC-
1001
GPARA
1000
xsiz
1000
54.592
1000
ysiz
1000
53.036
1000
angl
1000
0
1000
ctyp
1000
0
1000
csiz
1000
5
1000
lfnt
1000
cont
1000
hcnt
1000
hoff
1000
vcnt
1000
voff
1000
opnt
1000
4
1000
dxpt
1000
0
1000
dypt
1000
0
  0
GROUP
  5
673
102
{ACAD_REACTORS
330
D
102
}
330
D
100
AcDbGroup
300

 70
     0
 71
     1
1001
GRPNAME
1000
DREC-
1001
GPARA
1000
xsiz
1000
30.363
1000
ysiz
1000
36.175
1000
angl
1000
0
1000
ctyp
1000
0
1000
csiz
1000
5
1000
lfnt
1000
cont
1000
hcnt
1000
hoff
1000
vcnt
1000
voff
1000
opnt
1000
4
1000
dxpt
1000
0
1000
dypt
1000
0
  0
MLINESTYLE
  5
13
102
{ACAD_REACTORS
330
E
102
}
330
E
100
AcDbMlineStyle
  2
STANDARD
 70
     0
  3

 62
     0
 51
90.0
 52
90.0
 71
     2
 49
0.5
 62
   256
  6
BYLAYER
 49
-0.5
 62
   256
  6
BYLAYER
  0
PLOTSETTINGS
  5
758
102
{ACAD_REACTORS
330
566
102
}
330
566
100
AcDbPlotSettings
  1
A3(0.5倍)
  2
\\AWTECPC05\HP DeskJet 1120C
  4
A3
  6

 40
5.95841646
 41
13.49375153
 42
6.04309082
 43
3.67242432
 44
296.92599487
 45
419.94665527
 46
89.96
 47
127.14
 48
0.0
 49
0.0
140
0.0
141
0.0
142
1.0
143
2.0
 70
  1716
 72
     1
 73
     1
 74
     2
  7
big.ctb
 75
    17
147
0.5
148
0.0
149
0.0
  0
PLOTSETTINGS
  5
757
102
{ACAD_REACTORS
330
566
102
}
330
566
100
AcDbPlotSettings
  1
A3(1倍)
  2
\\AWTECPC05\HP DeskJet 1120C
  4
A3
  6

 40
5.95841646
 41
13.49375153
 42
6.04309082
 43
3.67242432
 44
296.92599487
 45
419.94665527
 46
37.46
 47
52.89
 48
0.0
 49
0.0
140
0.0
141
0.0
142
1.0
143
1.0
 70
  1716
 72
     1
 73
     1
 74
     2
  7
big.ctb
 75
    16
147
1.0
148
0.0
149
0.0
  0
PLOTSETTINGS
  5
707
102
{ACAD_REACTORS
330
566
102
}
330
566
100
AcDbPlotSettings
  1
A3(1倍)(2000)
  2
SII LS-1300 (D-SCAN)
  4
User258
  6

 40
3.17499995
 41
3.17499995
 42
3.17498779
 43
3.17498779
 44
419.98898315
 45
296.98950195
 46
58.32
 47
40.32
 48
0.0
 49
0.0
140
0.0
141
0.0
142
1.0
143
1.0
 70
  1716
 72
     1
 73
     0
 74
     2
  7
big.ctb
 75
    16
147
1.0
148
0.0
149
0.0
  0
PLOTSETTINGS
  5
759
102
{ACAD_REACTORS
330
566
102
}
330
566
100
AcDbPlotSettings
  1
A3(2倍)
  2
\\AWTECPC05\HP DeskJet 1120C
  4
A3
  6

 40
5.95841646
 41
13.49375153
 42
6.04309082
 43
3.67242432
 44
296.92599487
 45
419.94665527
 46
-67.54
 47
-95.61
 48
0.0
 49
0.0
140
0.0
141
0.0
142
1.0
143
0.5
 70
  1716
 72
     1
 73
     1
 74
     2
  7
big.ctb
 75
    27
147
2.0
148
0.0
149
0.0
  0
PLOTSETTINGS
  5
755
102
{ACAD_REACTORS
330
566
102
}
330
566
100
AcDbPlotSettings
  1
A4(0.5倍)
  2
\\AWTECPC05\HP DeskJet 1120C
  4
A4
  6

 40
4.18041658
 41
13.49374962
 42
4.18040466
 43
3.92642212
 44
209.97332764
 45
296.92599487
 46
48.31
 47
65.5
 48
0.0
 49
0.0
140
0.0
141
0.0
142
1.0
143
2.0
 70
  1716
 72
     1
 73
     1
 74
     2
  7
big.ctb
 75
    17
147
0.5
148
0.0
149
0.0
  0
PLOTSETTINGS
  5
754
102
{ACAD_REACTORS
330
566
102
}
330
566
100
AcDbPlotSettings
  1
A4(1倍)
  2
\\AWTECPC05\HP DeskJet 1120C
  4
A4
  6

 40
4.18041658
 41
13.49374962
 42
4.18040466
 43
3.92642212
 44
209.97332764
 45
296.92599487
 46
-4.19
 47
-8.75
 48
0.0
 49
0.0
140
0.0
141
0.0
142
1.0
143
1.0
 70
  1716
 72
     1
 73
     1
 74
     2
  7
big.ctb
 75
    16
147
1.0
148
0.0
149
0.0
  0
PLOTSETTINGS
  5
708
102
{ACAD_REACTORS
330
566
102
}
330
566
100
AcDbPlotSettings
  1
A4(1倍)(2000)
  2
SII LS-1300 (D-SCAN)
  4
User259
  6

 40
3.17499995
 41
3.17499995
 42
3.17498779
 43
3.17500305
 44
296.98950195
 45
209.99449158
 46
-3.18
 47
-3.18
 48
0.0
 49
0.0
140
0.0
141
0.0
142
1.0
143
1.0
 70
  1716
 72
     1
 73
     0
 74
     2
  7
big.ctb
 75
    16
147
1.0
148
0.0
149
0.0
  0
PLOTSETTINGS
  5
756
102
{ACAD_REACTORS
330
566
102
}
330
566
100
AcDbPlotSettings
  1
A4(2倍)
  2
\\AWTECPC05\HP DeskJet 1120C
  4
A4
  6

 40
4.18041658
 41
13.49374962
 42
4.18040466
 43
3.92642212
 44
209.97332764
 45
296.92599487
 46
-109.19
 47
-157.25
 48
0.0
 49
0.0
140
0.0
141
0.0
142
1.0
143
0.5
 70
  1716
 72
     1
 73
     1
 74
     2
  7
big.ctb
 75
    27
147
2.0
148
0.0
149
0.0
  0
ACDBPLACEHOLDER
  5
564
102
{ACAD_REACTORS
330
563
102
}
330
563
100
AcDbPlaceHolder
280
     0
  0
XRECORD
  5
E1E
102
{ACAD_REACTORS
330
E14
102
}
330
E14
100
AcDbXrecord
 90
        0
  0
XRECORD
  5
E22
102
{ACAD_REACTORS
330
E14
102
}
330
E14
100
AcDbXrecord
1000
DSTYLE
1002
{
1070
    79
 70
     2
1070
   179
 70
     3
1070
   341
340
594
1070
   343
340
594
1070
   344
340
594
1070
   371
 70
    -1
1070
   372
 70
    -1
1002
}
  0
XRECORD
  5
E1F
102
{ACAD_REACTORS
330
E14
102
}
330
E14
100
AcDbXrecord
  1
{51294030-9CB4-11D3-8E18-00A0C925D94D}
  0
XRECORD
  5
E17
102
{ACAD_REACTORS
330
E14
102
}
330
E14
100
AcDbXrecord
  1

  0
XRECORD
  5
E1D
102
{ACAD_REACTORS
330
E14
102
}
330
E14
100
AcDbXrecord
 90
        0
  0
XRECORD
  5
E19
102
{ACAD_REACTORS
330
E14
102
}
330
E14
100
AcDbXrecord
340
565
  0
XRECORD
  5
E1C
102
{ACAD_REACTORS
330
E14
102
}
330
E14
100
AcDbXrecord
 90
    10781
  0
XRECORD
  5
E1A
102
{ACAD_REACTORS
330
E14
102
}
330
E14
100
AcDbXrecord
340
566
  0
XRECORD
  5
E1B
102
{ACAD_REACTORS
330
E14
102
}
330
E14
100
AcDbXrecord
340
563
  0
XRECORD
  5
E21
102
{ACAD_REACTORS
330
E14
102
}
330
E14
100
AcDbXrecord
 40
0.0
  0
XRECORD
  5
E25
102
{ACAD_REACTORS
330
E14
102
}
330
E14
100
AcDbXrecord
340
0
  0
XRECORD
  5
E2B
102
{ACAD_REACTORS
330
E14
102
}
330
E14
100
AcDbXrecord
 10
0.0
 20
0.0
 30
0.0
  0
XRECORD
  5
E27
102
{ACAD_REACTORS
330
E14
102
}
330
E14
100
AcDbXrecord
 10
0.0
 20
0.0
 30
0.0
  0
XRECORD
  5
E2A
102
{ACAD_REACTORS
330
E14
102
}
330
E14
100
AcDbXrecord
 10
0.0
 20
0.0
 30
0.0
  0
XRECORD
  5
E28
102
{ACAD_REACTORS
330
E14
102
}
330
E14
100
AcDbXrecord
 10
0.0
 20
0.0
 30
0.0
  0
XRECORD
  5
E29
102
{ACAD_REACTORS
330
E14
102
}
330
E14
100
AcDbXrecord
 10
0.0
 20
0.0
 30
0.0
  0
XRECORD
  5
E26
102
{ACAD_REACTORS
330
E14
102
}
330
E14
100
AcDbXrecord
 10
0.0
 20
0.0
 30
0.0
  0
XRECORD
  5
E23
102
{ACAD_REACTORS
330
E14
102
}
330
E14
100
AcDbXrecord
340
0
  0
XRECORD
  5
E24
102
{ACAD_REACTORS
330
E14
102
}
330
E14
100
AcDbXrecord
 70
     0
  0
XRECORD
  5
E18
102
{ACAD_REACTORS
330
E14
102
}
330
E14
100
AcDbXrecord
  1
big.ctb
  0
XRECORD
  5
E15
102
{ACAD_REACTORS
330
E14
102
}
330
E14
100
AcDbXrecord
 90
        1
  0
XRECORD
  5
E16
102
{ACAD_REACTORS
330
E14
102
}
330
E14
100
AcDbXrecord
 90
       70
  0
XRECORD
  5
E2E
102
{ACAD_REACTORS
330
E14
102
}
330
E14
100
AcDbXrecord
340
0
  0
XRECORD
  5
E34
102
{ACAD_REACTORS
330
E14
102
}
330
E14
100
AcDbXrecord
 10
0.0
 20
0.0
 30
0.0
  0
XRECORD
  5
E30
102
{ACAD_REACTORS
330
E14
102
}
330
E14
100
AcDbXrecord
 10
0.0
 20
0.0
 30
0.0
  0
XRECORD
  5
E33
102
{ACAD_REACTORS
330
E14
102
}
330
E14
100
AcDbXrecord
 10
0.0
 20
0.0
 30
0.0
  0
XRECORD
  5
E31
102
{ACAD_REACTORS
330
E14
102
}
330
E14
100
AcDbXrecord
 10
0.0
 20
0.0
 30
0.0
  0
XRECORD
  5
E32
102
{ACAD_REACTORS
330
E14
102
}
330
E14
100
AcDbXrecord
 10
0.0
 20
0.0
 30
0.0
  0
XRECORD
  5
E2F
102
{ACAD_REACTORS
330
E14
102
}
330
E14
100
AcDbXrecord
 10
0.0
 20
0.0
 30
0.0
  0
XRECORD
  5
E2C
102
{ACAD_REACTORS
330
E14
102
}
330
E14
100
AcDbXrecord
340
0
  0
XRECORD
  5
E2D
102
{ACAD_REACTORS
330
E14
102
}
330
E14
100
AcDbXrecord
 70
     0
  0
XRECORD
  5
E20
102
{ACAD_REACTORS
330
E14
102
}
330
E14
100
AcDbXrecord
  1
{36ECCD0B-4317-408B-8627-DEFE25020CA7}
  0
XRECORD
  5
560
102
{ACAD_REACTORS
330
540
102
}
330
540
100
AcDbXrecord
  1
2.0.0
  0
ENDSEC
  0
EOF
