  0
SECTION
  2
HEADER
  9
$ACADVER
  1
AC1014
  9
$ACADMAINTVER
 70
     9
  9
$DWGCODEPAGE
  3
ANSI_932
  9
$INSBASE
 10
0.0
 20
0.0
 30
0.0
  9
$EXTMIN
 10
-48.51429639
 20
-11.07006072
 30
-0.00152582
  9
$EXTMAX
 10
118.26586988
 20
40.00231253
 30
0.00000003
  9
$LIMMIN
 10
0.0
 20
0.0
  9
$LIMMAX
 10
420.0
 20
297.0
  9
$ORTHOMODE
 70
     1
  9
$REGENMODE
 70
     1
  9
$FILLMODE
 70
     1
  9
$QTEXTMODE
 70
     0
  9
$MIRRTEXT
 70
     1
  9
$DRAGMODE
 70
     2
  9
$LTSCALE
 40
10.0
  9
$OSMODE
 70
   549
  9
$ATTMODE
 70
     1
  9
$TEXTSIZE
 40
3.0
  9
$TRACEWID
 40
1.0
  9
$TEXTSTYLE
  7
YOKO
  9
$CLAYER
  8
245
  9
$CELTYPE
  6
BYLAYER
  9
$CECOLOR
 62
   256
  9
$CELTSCALE
 40
1.0
  9
$DELOBJ
 70
     1
  9
$DISPSILH
 70
     0
  9
$DIMSCALE
 40
1.0
  9
$DIMASZ
 40
2.0
  9
$DIMEXO
 40
2.0
  9
$DIMDLI
 40
2.5
  9
$DIMRND
 40
0.0
  9
$DIMDLE
 40
0.0
  9
$DIMEXE
 40
2.0
  9
$DIMTP
 40
0.0
  9
$DIMTM
 40
0.0
  9
$DIMTXT
 40
4.0
  9
$DIMCEN
 40
0.0
  9
$DIMTSZ
 40
0.0
  9
$DIMTOL
 70
     0
  9
$DIMLIM
 70
     0
  9
$DIMTIH
 70
     0
  9
$DIMTOH
 70
     0
  9
$DIMSE1
 70
     0
  9
$DIMSE2
 70
     0
  9
$DIMTAD
 70
     3
  9
$DIMZIN
 70
     8
  9
$DIMBLK
  1

  9
$DIMASO
 70
     1
  9
$DIMSHO
 70
     1
  9
$DIMPOST
  1

  9
$DIMAPOST
  1

  9
$DIMALT
 70
     0
  9
$DIMALTD
 70
     2
  9
$DIMALTF
 40
25.4
  9
$DIMLFAC
 40
1.0
  9
$DIMTOFL
 70
     1
  9
$DIMTVP
 40
0.0
  9
$DIMTIX
 70
     1
  9
$DIMSOXD
 70
     0
  9
$DIMSAH
 70
     1
  9
$DIMBLK1
  1
OPEN
  9
$DIMBLK2
  1
OPEN
  9
$DIMSTYLE
  2
BIGT
  9
$DIMCLRD
 70
   256
  9
$DIMCLRE
 70
   256
  9
$DIMCLRT
 70
    40
  9
$DIMTFAC
 40
1.0
  9
$DIMGAP
 40
1.0
  9
$DIMJUST
 70
     0
  9
$DIMSD1
 70
     0
  9
$DIMSD2
 70
     0
  9
$DIMTOLJ
 70
     1
  9
$DIMTZIN
 70
     8
  9
$DIMALTZ
 70
     0
  9
$DIMALTTZ
 70
     0
  9
$DIMFIT
 70
     3
  9
$DIMUPT
 70
     0
  9
$DIMUNIT
 70
     2
  9
$DIMDEC
 70
     3
  9
$DIMTDEC
 70
     3
  9
$DIMALTU
 70
     2
  9
$DIMALTTD
 70
     2
  9
$DIMTXSTY
  7
STANDARD
  9
$DIMAUNIT
 70
     0
  9
$LUNITS
 70
     2
  9
$LUPREC
 70
     3
  9
$SKETCHINC
 40
1.0
  9
$FILLETRAD
 40
0.0
  9
$AUNITS
 70
     0
  9
$AUPREC
 70
     3
  9
$MENU
  1
.
  9
$ELEVATION
 40
0.0
  9
$PELEVATION
 40
0.0
  9
$THICKNESS
 40
0.0
  9
$LIMCHECK
 70
     0
  9
$BLIPMODE
 70
     0
  9
$CHAMFERA
 40
10.0
  9
$CHAMFERB
 40
10.0
  9
$CHAMFERC
 40
0.0
  9
$CHAMFERD
 40
0.0
  9
$SKPOLY
 70
     0
  9
$TDCREATE
 40
2455128.445875648
  9
$TDUPDATE
 40
2455316.426133530
  9
$TDINDWG
 40
0.0027114005
  9
$TDUSRTIMER
 40
0.0027114005
  9
$USRTIMER
 70
     1
  9
$ANGBASE
 50
0.0
  9
$ANGDIR
 70
     0
  9
$PDMODE
 70
     1
  9
$PDSIZE
 40
-5.0
  9
$PLINEWID
 40
0.0
  9
$COORDS
 70
     0
  9
$SPLFRAME
 70
     0
  9
$SPLINETYPE
 70
     6
  9
$SPLINESEGS
 70
     8
  9
$ATTDIA
 70
     0
  9
$ATTREQ
 70
     1
  9
$HANDLING
 70
-16383
  9
$HANDSEED
  5
1189
  9
$SURFTAB1
 70
     6
  9
$SURFTAB2
 70
     6
  9
$SURFTYPE
 70
     6
  9
$SURFU
 70
     6
  9
$SURFV
 70
     6
  9
$UCSNAME
  2

  9
$UCSORG
 10
0.0
 20
0.0
 30
0.0
  9
$UCSXDIR
 10
1.0
 20
0.0
 30
0.0
  9
$UCSYDIR
 10
0.0
 20
1.0
 30
0.0
  9
$PUCSNAME
  2

  9
$PUCSORG
 10
0.0
 20
0.0
 30
0.0
  9
$PUCSXDIR
 10
1.0
 20
0.0
 30
0.0
  9
$PUCSYDIR
 10
0.0
 20
1.0
 30
0.0
  9
$USERI1
 70
     1
  9
$USERI2
 70
     0
  9
$USERI3
 70
     0
  9
$USERI4
 70
     0
  9
$USERI5
 70
     0
  9
$USERR1
 40
0.0
  9
$USERR2
 40
0.0
  9
$USERR3
 40
0.0
  9
$USERR4
 40
0.0
  9
$USERR5
 40
0.0
  9
$WORLDVIEW
 70
     1
  9
$SHADEDGE
 70
     3
  9
$SHADEDIF
 70
    70
  9
$TILEMODE
 70
     1
  9
$MAXACTVP
 70
    16
  9
$PINSBASE
 10
0.0
 20
0.0
 30
0.0
  9
$PLIMCHECK
 70
     0
  9
$PEXTMIN
 10
1.00000000E+20
 20
1.00000000E+20
 30
1.00000000E+20
  9
$PEXTMAX
 10
-1.00000000E+20
 20
-1.00000000E+20
 30
-1.00000000E+20
  9
$PLIMMIN
 10
0.0
 20
0.0
  9
$PLIMMAX
 10
420.0
 20
297.0
  9
$UNITMODE
 70
     0
  9
$VISRETAIN
 70
     0
  9
$PLINEGEN
 70
     0
  9
$PSLTSCALE
 70
     1
  9
$TREEDEPTH
 70
  3020
  9
$PICKSTYLE
 70
     0
  9
$CMLSTYLE
  2
STANDARD
  9
$CMLJUST
 70
     0
  9
$CMLSCALE
 40
1.0
  9
$PROXYGRAPHICS
 70
     1
  9
$MEASUREMENT
 70
     1
  0
ENDSEC
  0
SECTION
  2
CLASSES
  0
CLASS
  1
XRECORD
  2
AcDbXrecord
  3
AutoCAD 2000
 90
        0
280
     0
281
     0
  0
CLASS
  1
ACDBDICTIONARYWDFLT
  2
AcDbDictionaryWithDefault
  3
AutoCAD 2000
 90
        0
280
     0
281
     0
  0
CLASS
  1
ACDBPLACEHOLDER
  2
AcDbPlaceHolder
  3
AutoCAD 2000
 90
        0
280
     0
281
     0
  0
CLASS
  1
LAYOUT
  2
AcDbLayout
  3
AutoCAD 2000
 90
        0
280
     0
281
     0
  0
CLASS
  1
PLOTSETTINGS
  2
AcDbPlotSettings
  3
AutoCAD 2000
 90
        0
280
     0
281
     0
  0
CLASS
  1
LONG_TRANSACTION
  2
AcDbLongTransaction
  3
AutoCAD 2000
 90
        0
280
     0
281
     0
  0
CLASS
  1
LWPOLYLINE
  2
AcDbPolyline
  3
AutoCAD 2000
 90
        0
280
     0
281
     1
  0
CLASS
  1
HATCH
  2
AcDbHatch
  3
AutoCAD 2000
 90
        0
280
     0
281
     1
  0
CLASS
  1
XRECORD
  2
AcDbXrecord
  3
AutoCAD 2000
 90
        0
280
     0
281
     0
  0
CLASS
  1
LONG_TRANSACTION
  2
AcDbLongTransaction
  3
AutoCAD 2000
 90
        0
280
     0
281
     0
  0
CLASS
  1
LWPOLYLINE
  2
AcDbPolyline
  3
AutoCAD 2000
 90
        0
280
     0
281
     1
  0
CLASS
  1
HATCH
  2
AcDbHatch
  3
AutoCAD 2000
 90
        0
280
     0
281
     1
  0
CLASS
  1
XRECORD
  2
AcDbXrecord
  3
AutoCAD 2000
 90
        0
280
     0
281
     0
  0
ENDSEC
  0
SECTION
  2
TABLES
  0
TABLE
  2
VPORT
  5
8
330
0
100
AcDbSymbolTable
 70
     2
  0
VPORT
  5
1164
330
8
100
AcDbSymbolTableRecord
100
AcDbViewportTableRecord
  2
*ACTIVE
 70
     0
 10
0.0
 20
0.0
 11
1.0
 21
1.0
 12
34.87578674
 22
14.4661259
 13
0.0
 23
0.0
 14
7.0
 24
7.0
 15
7.0
 25
7.0
 16
0.0
 26
0.0
 36
1.0
 17
0.0
 27
0.0
 37
0.0
 40
117.10001384
 41
1.43184713
 42
50.0
 43
0.0
 44
0.0
 50
0.0
 51
0.0
 71
     0
 72
  2000
 73
     1
 74
     0
 75
     0
 76
     0
 77
     0
 78
     0
  0
ENDTAB
  0
TABLE
  2
LTYPE
  5
5
330
0
100
AcDbSymbolTable
 70
     3
  0
LTYPE
  5
14
330
5
100
AcDbSymbolTableRecord
100
AcDbLinetypeTableRecord
  2
BYBLOCK
 70
     0
  3

 72
    65
 73
     0
 40
0.0
  0
LTYPE
  5
15
330
5
100
AcDbSymbolTableRecord
100
AcDbLinetypeTableRecord
  2
BYLAYER
 70
     0
  3

 72
    65
 73
     0
 40
0.0
  0
LTYPE
  5
16
330
5
100
AcDbSymbolTableRecord
100
AcDbLinetypeTableRecord
  2
CONTINUOUS
 70
     0
  3
Solid line
 72
    65
 73
     0
 40
0.0
  0
LTYPE
  5
258
330
5
100
AcDbSymbolTableRecord
100
AcDbLinetypeTableRecord
  2
CENTER2
 70
     0
  3
___ _ ___ _ ___ _ ___ _ ___ _ ___ _ ___ _ ___ _
 72
    65
 73
     4
 40
1.125
 49
0.75
 74
     0
 49
-0.125
 74
     0
 49
0.125
 74
     0
 49
-0.125
 74
     0
  0
LTYPE
  5
25C
330
5
100
AcDbSymbolTableRecord
100
AcDbLinetypeTableRecord
  2
HIDDEN2
 70
     0
  3
_ _ _ _ _ _ _ _ _ _ _ _ _ _ _ _ _ _ _ _ _ _ _ _
 72
    65
 73
     2
 40
0.1875
 49
0.125
 74
     0
 49
-0.0625
 74
     0
  0
ENDTAB
  0
TABLE
  2
LAYER
  5
2
330
0
100
AcDbSymbolTable
 70
    11
  0
LAYER
  5
F
330
2
100
AcDbSymbolTableRecord
100
AcDbLayerTableRecord
  2
0
 70
     0
 62
     7
  6
CONTINUOUS
  0
LAYER
  5
1AA
330
2
100
AcDbSymbolTableRecord
100
AcDbLayerTableRecord
  2
240
 70
     0
 62
     4
  6
CONTINUOUS
  0
LAYER
  5
1AB
330
2
100
AcDbSymbolTableRecord
100
AcDbLayerTableRecord
  2
241
 70
     0
 62
   211
  6
CONTINUOUS
  0
LAYER
  5
1AD
330
2
100
AcDbSymbolTableRecord
100
AcDbLayerTableRecord
  2
243
 70
     0
 62
   211
  6
HIDDEN2
  0
LAYER
  5
1AE
330
2
100
AcDbSymbolTableRecord
100
AcDbLayerTableRecord
  2
244
 70
     0
 62
     3
  6
HIDDEN2
  0
LAYER
  5
1AF
330
2
100
AcDbSymbolTableRecord
100
AcDbLayerTableRecord
  2
245
 70
     0
 62
     2
  6
CENTER2
  0
LAYER
  5
21E
330
2
100
AcDbSymbolTableRecord
100
AcDbLayerTableRecord
  2
250
 70
     0
 62
     3
  6
CONTINUOUS
  0
LAYER
  5
21F
330
2
100
AcDbSymbolTableRecord
100
AcDbLayerTableRecord
  2
251
 70
     0
 62
    40
  6
CONTINUOUS
  0
LAYER
  5
5C4
330
2
100
AcDbSymbolTableRecord
100
AcDbLayerTableRecord
  2
DEFPOINTS
 70
     0
 62
     7
  6
CONTINUOUS
  0
LAYER
  5
8B9
330
2
100
AcDbSymbolTableRecord
100
AcDbLayerTableRecord
  2
AM_7
 70
     0
 62
     2
  6
CENTER2
  0
ENDTAB
  0
TABLE
  2
STYLE
  5
3
330
0
100
AcDbSymbolTable
 70
     2
  0
STYLE
  5
10
330
3
100
AcDbSymbolTableRecord
100
AcDbTextStyleTableRecord
  2
STANDARD
 70
     0
 40
0.0
 41
1.0
 50
0.0
 71
     0
 42
3.0
  3
romans.shx
  4
BIGFONT.SHX
  0
STYLE
  5
339
330
3
100
AcDbSymbolTableRecord
100
AcDbTextStyleTableRecord
  2
YOKO
 70
     0
 40
0.0
 41
1.0
 50
0.0
 71
     0
 42
3.0
  3
romans.shx
  4
extfont.shx
  0
ENDTAB
  0
TABLE
  2
VIEW
  5
6
330
0
100
AcDbSymbolTable
 70
     1
  0
VIEW
  5
D38
330
6
100
AcDbSymbolTableRecord
100
AcDbViewTableRecord
  2
OLE1
 70
     0
 40
117.11051324
 10
34.87493189
 20
14.47723427
 41
167.68435272
 11
0.0
 21
0.0
 31
1.0
 12
0.0
 22
0.0
 32
0.0
 42
50.0
 43
0.0
 44
0.0
 50
0.0
 71
     0
  0
ENDTAB
  0
TABLE
  2
UCS
  5
7
330
0
100
AcDbSymbolTable
 70
     0
  0
ENDTAB
  0
TABLE
  2
APPID
  5
9
330
0
100
AcDbSymbolTable
 70
    15
  0
APPID
  5
11
330
9
100
AcDbSymbolTableRecord
100
AcDbRegAppTableRecord
  2
ACAD
 70
     0
  0
APPID
  5
1B1
330
9
100
AcDbSymbolTableRecord
100
AcDbRegAppTableRecord
  2
GLOBAL
 70
     0
  0
APPID
  5
2A4
330
9
100
AcDbSymbolTableRecord
100
AcDbRegAppTableRecord
  2
DETAIL
 70
     0
  0
APPID
  5
5FD
330
9
100
AcDbSymbolTableRecord
100
AcDbRegAppTableRecord
  2
GRPNAME
 70
     0
  0
APPID
  5
5FE
330
9
100
AcDbSymbolTableRecord
100
AcDbRegAppTableRecord
  2
GPARA
 70
     0
  0
APPID
  5
6C4
330
9
100
AcDbSymbolTableRecord
100
AcDbRegAppTableRecord
  2
DCO15
 70
     0
  0
APPID
  5
6C5
330
9
100
AcDbSymbolTableRecord
100
AcDbRegAppTableRecord
  2
ITEMNAME
 70
     0
  0
APPID
  5
6C6
330
9
100
AcDbSymbolTableRecord
100
AcDbRegAppTableRecord
  2
GRADE_0
 70
     0
  0
APPID
  5
8BA
330
9
100
AcDbSymbolTableRecord
100
AcDbRegAppTableRecord
  2
GENIUS_GENODEF_13
 70
     0
  0
APPID
  5
8BB
330
9
100
AcDbSymbolTableRecord
100
AcDbRegAppTableRecord
  2
GENIUS_GENOREF_13
 70
     0
  0
APPID
  5
8BC
330
9
100
AcDbSymbolTableRecord
100
AcDbRegAppTableRecord
  2
GENIUS_GENOBJ-N-FIL_13
 70
     0
  0
APPID
  5
8BD
330
9
100
AcDbSymbolTableRecord
100
AcDbRegAppTableRecord
  2
HATCH_TYPE
 70
     0
  0
APPID
  5
8BE
330
9
100
AcDbSymbolTableRecord
100
AcDbRegAppTableRecord
  2
HATCH_DISPLAY
 70
     0
  0
APPID
  5
8BF
330
9
100
AcDbSymbolTableRecord
100
AcDbRegAppTableRecord
  2
HATCH_DISTANCE
 70
     0
  0
APPID
  5
D60
330
9
100
AcDbSymbolTableRecord
100
AcDbRegAppTableRecord
  2
CONTENTBLOCKICON
 70
     0
  0
ENDTAB
  0
TABLE
  2
DIMSTYLE
  5
A
330
0
100
AcDbSymbolTable
 70
     1
  0
DIMSTYLE
105
725
102
{ACAD_REACTORS
330
8D0
330
BA7
102
}
330
A
100
AcDbSymbolTableRecord
100
AcDbDimStyleTableRecord
  2
BIGT
 70
     0
  3

  4

  5

  6
OPEN
  7
OPEN
 40
1.0
 41
2.23
 42
0.5
 43
2.5
 44
1.0
 45
0.0
 46
0.0
 47
0.0
 48
0.0
140
2.8
141
0.0
142
0.0
143
25.4
144
1.0
145
0.0
146
1.0
147
1.0
 71
     0
 72
     0
 73
     0
 74
     0
 75
     0
 76
     0
 77
     3
 78
     8
170
     0
171
     2
172
     1
173
     1
174
     1
175
     0
176
   256
177
   256
178
    40
270
     2
271
     3
272
     3
273
     2
274
     2
340
10
275
     0
280
     0
281
     0
282
     0
283
     1
284
     8
285
     0
286
     0
287
     3
288
     0
  0
ENDTAB
  0
TABLE
  2
BLOCK_RECORD
  5
1
330
0
100
AcDbSymbolTable
 70
     6
  0
BLOCK_RECORD
  5
1A
102
{ACAD_XDICTIONARY
360
D5E
102
}
330
1
100
AcDbSymbolTableRecord
100
AcDbBlockTableRecord
  2
*MODEL_SPACE
  0
BLOCK_RECORD
  5
17
102
{ACAD_XDICTIONARY
360
D5C
102
}
330
1
100
AcDbSymbolTableRecord
100
AcDbBlockTableRecord
  2
*PAPER_SPACE
  0
BLOCK_RECORD
  5
594
330
1
100
AcDbSymbolTableRecord
100
AcDbBlockTableRecord
  2
_OPEN
  0
BLOCK_RECORD
  5
6E3
330
1
100
AcDbSymbolTableRecord
100
AcDbBlockTableRecord
  2
矢印なし
  0
BLOCK_RECORD
  5
762
330
1
100
AcDbSymbolTableRecord
100
AcDbBlockTableRecord
  2
1
1001
CONTENTBLOCKICON
1071
        0
1004
2800000020000000200000000100080000000000000400000000000000000000000000000000000000000000000080000080000000808000800000008000800080800000C0C0C000C0DCC000F0CAA6000020400000206000002080000020A0000020C0000020E00000400000004020000040400000406000004080000040A0
1004
000040C0000040E00000600000006020000060400000606000006080000060A0000060C0000060E00000800000008020000080400000806000008080000080A0000080C0000080E00000A0000000A0200000A0400000A0600000A0800000A0A00000A0C00000A0E00000C0000000C0200000C0400000C0600000C0800000C0
1004
A00000C0C00000C0E00000E0000000E0200000E0400000E0600000E0800000E0A00000E0C00000E0E00040000000400020004000400040006000400080004000A0004000C0004000E00040200000402020004020400040206000402080004020A0004020C0004020E000404000004040200040404000404060004040800040
1004
40A0004040C0004040E00040600000406020004060400040606000406080004060A0004060C0004060E00040800000408020004080400040806000408080004080A0004080C0004080E00040A0000040A0200040A0400040A0600040A0800040A0A00040A0C00040A0E00040C0000040C0200040C0400040C0600040C08000
1004
40C0A00040C0C00040C0E00040E0000040E0200040E0400040E0600040E0800040E0A00040E0C00040E0E00080000000800020008000400080006000800080008000A0008000C0008000E00080200000802020008020400080206000802080008020A0008020C0008020E00080400000804020008040400080406000804080
1004
008040A0008040C0008040E00080600000806020008060400080606000806080008060A0008060C0008060E00080800000808020008080400080806000808080008080A0008080C0008080E00080A0000080A0200080A0400080A0600080A0800080A0A00080A0C00080A0E00080C0000080C0200080C0400080C0600080C0
1004
800080C0A00080C0C00080C0E00080E0000080E0200080E0400080E0600080E0800080E0A00080E0C00080E0E000C0000000C0002000C0004000C0006000C0008000C000A000C000C000C000E000C0200000C0202000C0204000C0206000C0208000C020A000C020C000C020E000C0400000C0402000C0404000C0406000C0
1004
408000C040A000C040C000C040E000C0600000C0602000C0604000C0606000C0608000C060A000C060C000C060E000C0800000C0802000C0804000C0806000C0808000C080A000C080C000C080E000C0A00000C0A02000C0A04000C0A06000C0A08000C0A0A000C0A0C000C0A0E000C0C00000C0C02000C0C04000C0C06000
1004
C0C08000C0C0A000F0FBFF00A4A0A000808080000000FF0000FF000000FFFF00FF000000FF00FF00FFFF0000FFFFFF0000000000000000000000000000000000000000000000000000000000000000000000000000000000000000000000000000000000000000000000000000000000000000000000000000000000000000
1004
00000000000000000000000000000000000000000000000000000000000000000000000000000000000000000000000000000000000000000000000000000000000000000000000000000000000000000000000000000000000000000000000000000000000000000000000000000000000000000000000000000000000000
1004
00000000000000000000000000000000000000000000000000000000000000000000000000000000000000000000000000000000000000000000000000000000000000000000000000000000000000000000000000000000000000000000000000000000000000000000000000000000000000000000000000000000000000
1004
000000000000000000000000000000000000000000000000000000000000000000000000000000000000000000000000000000000000000000000000000000000000000000000000000000000000000000000000000000000000000000FEE700000000000000000000000000000000000000000000FEFEFEFEFEFEFEE7FEFE
1004
FEFEFEFEFEFEFEFEFEFEFEFEFEFEFEFEFEFE00000000FE00FBE7FBFBE7E7E7E70000000000000000000000000000E70000FE000000FBFEFBFBE7E7E7E7E7E7E7FBFBFBFFFFFBFBFBFBFBFBFBFBE7E7E7E7FEFB000000FEFEFEFEFEFEFEE7E7FEFEFEFEFFFFFFFFFFFFFFFFFEFEFEFEFEFEFE000000000000000000000000FE
1004
E7000000000000000000000000000000000000000000000000000000000000000000000000000000000000000000000000000000000000000000000000000000000000000000000000000000000000000000000000000000000000000000000000000000000000000000000000000000000000000000000000000000000000
1004
00000000000000000000000000000000000000000000000000000000000000000000000000000000000000000000000000000000000000000000000000000000000000000000000000000000000000000000000000000000000000000000000000000000000000000000000000000000000000000000000000000000000000
1004
00000000000000000000000000000000000000000000000000000000000000000000000000000000000000000000000000000000000000000000000000000000000000000000000000000000000000000000000000000000000000000000000000000000000000000000000000000000000000000000000000000000000000
1004
0000000000000000000000000000000000000000000000000000000000000000000000000000000000000000000000000000000000000000
  0
BLOCK_RECORD
  5
8DA
330
1
100
AcDbSymbolTableRecord
100
AcDbBlockTableRecord
  2
*D3
  0
BLOCK_RECORD
  5
BAC
330
1
100
AcDbSymbolTableRecord
100
AcDbBlockTableRecord
  2
*D4
  0
ENDTAB
  0
ENDSEC
  0
SECTION
  2
BLOCKS
  0
BLOCK
  5
1B
330
1A
100
AcDbEntity
  8
0
100
AcDbBlockBegin
  2
*MODEL_SPACE
 70
     0
 10
0.0
 20
0.0
 30
0.0
  3
*MODEL_SPACE
  1

  0
ENDBLK
  5
1C
330
1A
100
AcDbEntity
  8
0
100
AcDbBlockEnd
  0
BLOCK
  5
18
330
17
100
AcDbEntity
 67
     1
  8
0
100
AcDbBlockBegin
  2
*PAPER_SPACE
 70
     0
 10
0.0
 20
0.0
 30
0.0
  3
*PAPER_SPACE
  1

  0
ENDBLK
  5
19
330
17
100
AcDbEntity
 67
     1
  8
0
100
AcDbBlockEnd
  0
BLOCK
  5
598
330
594
100
AcDbEntity
  8
0
100
AcDbBlockBegin
  2
_OPEN
 70
     0
 10
0.0
 20
0.0
 30
0.0
  3
_OPEN
  1

  0
LINE
  5
595
330
594
100
AcDbEntity
  8
0
  6
BYBLOCK
 62
     0
100
AcDbLine
 10
-1.0
 20
0.16666667
 30
0.0
 11
0.0
 21
0.0
 31
0.0
  0
LINE
  5
596
330
594
100
AcDbEntity
  8
0
  6
BYBLOCK
 62
     0
100
AcDbLine
 10
-1.0
 20
-0.16666667
 30
0.0
 11
0.0
 21
0.0
 31
0.0
  0
LINE
  5
597
330
594
100
AcDbEntity
  8
0
  6
BYBLOCK
 62
     0
100
AcDbLine
 10
0.0
 20
0.0
 30
0.0
 11
-1.0
 21
0.0
 31
0.0
  0
ENDBLK
  5
599
330
594
100
AcDbEntity
  8
0
100
AcDbBlockEnd
  0
BLOCK
  5
6E4
330
6E3
100
AcDbEntity
  8
0
100
AcDbBlockBegin
  2
矢印なし
 70
     0
 10
0.0
 20
0.0
 30
0.0
  3
矢印なし
  1

  0
ENDBLK
  5
6E5
330
6E3
100
AcDbEntity
  8
0
100
AcDbBlockEnd
  0
BLOCK
  5
89F
330
762
100
AcDbEntity
  8
0
100
AcDbBlockBegin
  2
1
 70
     0
 10
0.0
 20
0.0
 30
0.0
  3
1
  1

  0
LINE
  5
1045
330
762
100
AcDbEntity
  8
240
100
AcDbLine
 10
80.0
 20
8.0
 30
0.0
 11
1.57117457
 21
8.0
 31
0.0
  0
LINE
  5
1046
330
762
100
AcDbEntity
  8
240
100
AcDbLine
 10
80.0
 20
-8.0
 30
0.0
 11
1.57117457
 21
-8.0
 31
0.0
  0
TEXT
  5
1047
330
762
100
AcDbEntity
  8
0
100
AcDbText
 10
31.29068972
 20
3.03077439
 30
0.0
 40
2.5
  1
MGT6-M4-100
  7
YOKO
100
AcDbText
  0
LINE
  5
1048
330
762
100
AcDbEntity
  8
AM_7
100
AcDbLine
 10
-48.5
 20
0.0
 30
0.0
 11
101.0
 21
0.0
 31
0.0
1001
GENIUS_GENOREF_13
1005
0
  0
LINE
  5
1049
330
762
100
AcDbEntity
  8
240
100
AcDbLine
 10
-34.0
 20
6.0
 30
0.0
 11
-29.0
 21
6.0
 31
0.0
  0
LINE
  5
104A
330
762
100
AcDbEntity
  8
240
100
AcDbLine
 10
-34.0
 20
-6.0
 30
0.0
 11
-29.0
 21
-6.0
 31
0.0
  0
LINE
  5
104B
330
762
100
AcDbEntity
  8
240
100
AcDbLine
 10
-47.5
 20
-7.0
 30
0.0
 11
-47.5
 21
0.0
 31
0.0
  0
LINE
  5
104C
330
762
100
AcDbEntity
  8
243
100
AcDbLine
 10
-36.5
 20
6.0
 30
0.0
 11
-36.5
 21
-6.0
 31
0.0
  0
LINE
  5
104D
330
762
100
AcDbEntity
  8
AM_7
100
AcDbLine
 10
-34.0
 20
-8.0
 30
0.0
 11
-34.0
 21
8.0
 31
0.0
  0
LINE
  5
104E
330
762
100
AcDbEntity
  8
240
100
AcDbLine
 10
-46.5
 20
-8.0
 30
0.0
 11
-41.0
 21
-8.0
 31
0.0
  0
ARC
  5
104F
330
762
100
AcDbEntity
  8
240
100
AcDbCircle
 10
-46.5
 20
-7.0
 30
0.0
 40
1.0
100
AcDbArc
 50
180.0
 51
270.0
  0
LINE
  5
1050
330
762
100
AcDbEntity
  8
240
100
AcDbLine
 10
-39.0
 20
-6.0
 30
0.0
 11
-41.0
 21
-8.0
 31
0.0
  0
LINE
  5
1051
330
762
100
AcDbEntity
  8
240
100
AcDbLine
 10
-39.0
 20
-6.0
 30
0.0
 11
-34.0
 21
-6.0
 31
0.0
  0
LINE
  5
1052
330
762
100
AcDbEntity
  8
240
100
AcDbLine
 10
-46.5
 20
8.0
 30
0.0
 11
-41.0
 21
8.0
 31
0.0
  0
LINE
  5
1053
330
762
100
AcDbEntity
  8
240
100
AcDbLine
 10
-47.5
 20
7.0
 30
0.0
 11
-47.5
 21
0.0
 31
0.0
  0
ARC
  5
1054
330
762
100
AcDbEntity
  8
240
100
AcDbCircle
 10
-46.5
 20
7.0
 30
0.0
 40
1.0
100
AcDbArc
 50
90.0
 51
180.0
  0
LINE
  5
1055
330
762
100
AcDbEntity
  8
240
100
AcDbLine
 10
-39.0
 20
6.0
 30
0.0
 11
-34.0
 21
6.0
 31
0.0
  0
LINE
  5
1056
330
762
100
AcDbEntity
  8
240
100
AcDbLine
 10
-39.0
 20
6.0
 30
0.0
 11
-41.0
 21
8.0
 31
0.0
  0
LINE
  5
1057
330
762
100
AcDbEntity
  8
241
100
AcDbLine
 10
0.80384758
 20
-8.35874397
 30
0.0
 11
0.80384758
 21
0.0
 31
0.0
  0
LINE
  5
1058
330
762
100
AcDbEntity
  8
241
100
AcDbLine
 10
-5.12626129
 20
-11.0
 30
0.0
 11
-5.12626129
 21
0.0
 31
0.0
  0
LINE
  5
1059
330
762
100
AcDbEntity
  8
241
  6
CONTINUOUS
100
AcDbLine
 10
-6.5
 20
-10.50000001
 30
0.0
 11
-6.5
 21
0.0
 31
0.0
  0
LINE
  5
105A
330
762
100
AcDbEntity
  8
241
100
AcDbLine
 10
-11.0
 20
-8.0
 30
0.0
 11
-11.0
 21
0.0
 31
0.0
  0
LINE
  5
105B
330
762
100
AcDbEntity
  8
AM_7
100
AcDbLine
 10
-20.0
 20
-0.7698914
 30
0.0
 11
-20.0
 21
-4.52866188
 31
0.0
  0
LINE
  5
105C
330
762
100
AcDbEntity
  8
241
100
AcDbLine
 10
0.0
 20
-10.64125603
 30
0.0
 11
0.0
 21
0.0
 31
0.0
  0
LINE
  5
105D
330
762
100
AcDbEntity
  8
241
100
AcDbLine
 10
-2.0
 20
-10.0
 30
0.0
 11
-2.0
 21
0.0
 31
0.0
  0
LINE
  5
105E
330
762
100
AcDbEntity
  8
241
100
AcDbLine
 10
-4.0
 20
-10.0
 30
0.0
 11
-4.0
 21
0.0
 31
0.0
  0
LINE
  5
105F
330
762
100
AcDbEntity
  8
241
100
AcDbLine
 10
-14.5
 20
-7.0
 30
0.0
 11
-14.5
 21
0.0
 31
0.0
  0
LINE
  5
1060
330
762
100
AcDbEntity
  8
241
100
AcDbLine
 10
-16.5
 20
-7.0
 30
0.0
 11
-16.5
 21
0.0
 31
0.0
  0
LINE
  5
1061
330
762
100
AcDbEntity
  8
241
100
AcDbLine
 10
-23.5
 20
-7.0
 30
0.0
 11
-23.5
 21
0.0
 31
0.0
  0
LINE
  5
1062
330
762
100
AcDbEntity
  8
241
100
AcDbLine
 10
-25.5
 20
-7.0
 30
0.0
 11
-25.5
 21
0.0
 31
0.0
  0
ELLIPSE
  5
1063
330
762
100
AcDbEntity
  8
241
100
AcDbEllipse
 10
-20.0
 20
-2.64927664
 30
0.0
 11
-2.000000000000023
 21
0.0
 31
0.0
210
0.0
220
0.0
230
1.0
 40
0.93969262
 41
0.0
 42
6.283185307179584
  0
LINE
  5
1064
330
762
100
AcDbEntity
  8
243
100
AcDbLine
 10
-31.5
 20
6.0
 30
0.0
 11
-31.5
 21
-6.0
 31
0.0
  0
ARC
  5
1065
330
762
100
AcDbEntity
  8
240
100
AcDbCircle
 10
-15.5
 20
-7.0
 30
0.0
 40
1.000000000003004
100
AcDbArc
 50
180.0
 51
0.0
  0
ARC
  5
1066
330
762
100
AcDbEntity
  8
240
100
AcDbCircle
 10
-24.5
 20
-7.0
 30
0.0
 40
1.000000000003004
100
AcDbArc
 50
180.0
 51
0.0
  0
LINE
  5
1067
330
762
100
AcDbEntity
  8
240
100
AcDbLine
 10
-25.5
 20
-7.0
 30
0.0
 11
-25.5
 21
-8.0
 31
0.0
  0
LINE
  5
1068
330
762
100
AcDbEntity
  8
240
100
AcDbLine
 10
-29.0
 20
-6.0
 30
0.0
 11
-27.0
 21
-8.0
 31
0.0
  0
LINE
  5
1069
330
762
100
AcDbEntity
  8
240
100
AcDbLine
 10
-27.0
 20
-8.0
 30
0.0
 11
-25.5
 21
-8.0
 31
0.0
  0
LINE
  5
106A
330
762
100
AcDbEntity
  8
240
100
AcDbLine
 10
-16.5
 20
-7.0
 30
0.0
 11
-16.5
 21
-8.0
 31
0.0
  0
LINE
  5
106B
330
762
100
AcDbEntity
  8
240
100
AcDbLine
 10
-23.5
 20
-7.0
 30
0.0
 11
-23.5
 21
-8.0
 31
0.0
  0
LINE
  5
106C
330
762
100
AcDbEntity
  8
240
100
AcDbLine
 10
-23.5
 20
-8.0
 30
0.0
 11
-16.5
 21
-8.0
 31
0.0
  0
LINE
  5
106D
330
762
100
AcDbEntity
  8
AM_7
100
AcDbLine
 10
-21.99786162
 20
-2.73616115
 30
0.0
 11
-18.00213838
 21
-2.73616115
 31
0.0
  0
LINE
  5
106E
330
762
100
AcDbEntity
  8
240
100
AcDbLine
 10
-6.5
 20
-10.50000001
 30
0.0
 11
-5.12626128
 21
-11.0
 31
0.0
  0
LINE
  5
106F
330
762
100
AcDbEntity
  8
240
100
AcDbLine
 10
-14.5
 20
-7.0
 30
0.0
 11
-14.5
 21
-8.0
 31
0.0
  0
LINE
  5
1070
330
762
100
AcDbEntity
  8
240
100
AcDbLine
 10
-10.7
 20
-7.7
 30
0.0
 11
-11.0
 21
-8.0
 31
0.0
  0
LINE
  5
1071
330
762
100
AcDbEntity
  8
240
100
AcDbLine
 10
-14.5
 20
-8.0
 30
0.0
 11
-11.0
 21
-8.0
 31
0.0
  0
LINE
  5
1072
330
762
100
AcDbEntity
  8
240
100
AcDbLine
 10
-6.50000001
 20
-10.5
 30
0.0
 11
-10.0
 21
-10.5
 31
0.0
  0
LINE
  5
1073
330
762
100
AcDbEntity
  8
240
100
AcDbLine
 10
-10.0
 20
-10.5
 30
0.0
 11
-10.0
 21
-9.0
 31
0.0
  0
LINE
  5
1074
330
762
100
AcDbEntity
  8
240
100
AcDbLine
 10
-9.5
 20
-8.5
 30
0.0
 11
-9.5
 21
-7.7
 31
0.0
  0
LINE
  5
1075
330
762
100
AcDbEntity
  8
240
100
AcDbLine
 10
-10.7
 20
-7.7
 30
0.0
 11
-9.5
 21
-7.7
 31
0.0
  0
LINE
  5
1076
330
762
100
AcDbEntity
  8
240
100
AcDbLine
 10
-9.5
 20
-8.5
 30
0.0
 11
-10.0
 21
-9.0
 31
0.0
  0
LINE
  5
1077
330
762
100
AcDbEntity
  8
241
100
AcDbLine
 10
-6.5
 20
-8.2
 30
0.0
 11
-9.5
 21
-8.2
 31
0.0
  0
LINE
  5
1078
330
762
100
AcDbEntity
  8
240
100
AcDbLine
 10
-0.63567449
 20
-11.0
 30
0.0
 11
-2.0
 21
-11.0
 31
0.0
  0
LINE
  5
1079
330
762
100
AcDbEntity
  8
240
100
AcDbLine
 10
-4.0
 20
-11.0
 30
0.0
 11
-5.12626129
 21
-11.0
 31
0.0
  0
LINE
  5
107A
330
762
100
AcDbEntity
  8
240
100
AcDbLine
 10
-4.0
 20
-10.0
 30
0.0
 11
-4.0
 21
-11.0
 31
0.0
  0
LINE
  5
107B
330
762
100
AcDbEntity
  8
240
100
AcDbLine
 10
-2.0
 20
-10.0
 30
0.0
 11
-2.0
 21
-11.0
 31
0.0
  0
ARC
  5
107C
330
762
100
AcDbEntity
  8
240
100
AcDbCircle
 10
-3.0
 20
-10.0
 30
0.0
 40
1.000000000000075
100
AcDbArc
 50
180.0
 51
0.0
  0
ARC
  5
107D
330
762
100
AcDbEntity
  8
240
100
AcDbCircle
 10
1.57117457
 20
-9.0
 30
0.0
 40
1.0
100
AcDbArc
 50
90.0
 51
165.00000008
  0
LINE
  5
107E
330
762
100
AcDbEntity
  8
240
100
AcDbLine
 10
0.19859884
 20
-10.25881905
 30
0.0
 11
0.60524874
 21
-8.74118096
 31
0.0
  0
ARC
  5
107F
330
762
100
AcDbEntity
  8
240
100
AcDbCircle
 10
-0.76732699
 20
-10.0
 30
0.0
 40
1.0
100
AcDbArc
 50
285.0
 51
345.0
1001
GENIUS_GENOBJ-N-FIL_13
1002
{
1000
OWNER
1000
GEN
1002
}
1001
GENIUS_GENODEF_13
1002
{
1000
HIER
1070
     0
1002
}
1002
{
1000
MANEDIT
1070
     0
1002
}
1002
{
1000
NOSEL
1070
     0
1002
}
1002
{
1000
BEHIND
1070
     0
1002
}
1002
{
1000
OTHER
1070
     0
1002
}
1002
{
1000
REACTOR
1002
}
  0
LINE
  5
1080
330
762
100
AcDbEntity
  8
240
100
AcDbLine
 10
-0.50850794
 20
-10.96592583
 30
0.0
 11
-0.63567449
 21
-11.0
 31
0.0
  0
ARC
  5
1081
330
762
100
AcDbEntity
  8
240
100
AcDbCircle
 10
-15.5
 20
7.0
 30
0.0
 40
1.000000000003004
100
AcDbArc
 50
0.0
 51
180.0
  0
ARC
  5
1082
330
762
100
AcDbEntity
  8
240
100
AcDbCircle
 10
-24.5
 20
7.0
 30
0.0
 40
1.000000000003004
100
AcDbArc
 50
0.0
 51
180.0
  0
LINE
  5
1083
330
762
100
AcDbEntity
  8
241
100
AcDbLine
 10
-25.5
 20
7.0
 30
0.0
 11
-25.5
 21
0.0
 31
0.0
  0
LINE
  5
1084
330
762
100
AcDbEntity
  8
240
100
AcDbLine
 10
-27.0
 20
8.0
 30
0.0
 11
-25.5
 21
8.0
 31
0.0
  0
LINE
  5
1085
330
762
100
AcDbEntity
  8
240
100
AcDbLine
 10
-25.5
 20
7.0
 30
0.0
 11
-25.5
 21
8.0
 31
0.0
  0
LINE
  5
1086
330
762
100
AcDbEntity
  8
240
100
AcDbLine
 10
-29.0
 20
6.0
 30
0.0
 11
-27.0
 21
8.0
 31
0.0
  0
LINE
  5
1087
330
762
100
AcDbEntity
  8
241
100
AcDbLine
 10
-16.5
 20
7.0
 30
0.0
 11
-16.5
 21
0.0
 31
0.0
  0
LINE
  5
1088
330
762
100
AcDbEntity
  8
241
100
AcDbLine
 10
-23.5
 20
7.0
 30
0.0
 11
-23.5
 21
0.0
 31
0.0
  0
LINE
  5
1089
330
762
100
AcDbEntity
  8
240
100
AcDbLine
 10
-23.5
 20
8.0
 30
0.0
 11
-16.5
 21
8.0
 31
0.0
  0
LINE
  5
108A
330
762
100
AcDbEntity
  8
240
100
AcDbLine
 10
-23.5
 20
7.0
 30
0.0
 11
-23.5
 21
8.0
 31
0.0
  0
LINE
  5
108B
330
762
100
AcDbEntity
  8
240
100
AcDbLine
 10
-16.5
 20
7.0
 30
0.0
 11
-16.5
 21
8.0
 31
0.0
  0
LINE
  5
108C
330
762
100
AcDbEntity
  8
241
100
AcDbLine
 10
0.0
 20
10.64125603
 30
0.0
 11
0.0
 21
0.0
 31
0.0
  0
LINE
  5
108D
330
762
100
AcDbEntity
  8
241
100
AcDbLine
 10
-5.12626129
 20
11.0
 30
0.0
 11
-5.12626129
 21
0.0
 31
0.0
  0
LINE
  5
108E
330
762
100
AcDbEntity
  8
240
100
AcDbLine
 10
-6.50000001
 20
10.5
 30
0.0
 11
-5.12626128
 21
11.0
 31
0.0
  0
ARC
  5
108F
330
762
100
AcDbEntity
  8
240
100
AcDbCircle
 10
-0.76732699
 20
10.0
 30
0.0
 40
1.0
100
AcDbArc
 50
15.0
 51
75.0
1001
GENIUS_GENOBJ-N-FIL_13
1002
{
1000
OWNER
1000
GEN
1002
}
1001
GENIUS_GENODEF_13
1002
{
1000
HIER
1070
     0
1002
}
1002
{
1000
MANEDIT
1070
     0
1002
}
1002
{
1000
NOSEL
1070
     0
1002
}
1002
{
1000
BEHIND
1070
     0
1002
}
1002
{
1000
OTHER
1070
     0
1002
}
1002
{
1000
REACTOR
1002
}
  0
ARC
  5
1090
330
762
100
AcDbEntity
  8
240
100
AcDbCircle
 10
-3.0
 20
10.0
 30
0.0
 40
1.000000000000075
100
AcDbArc
 50
0.0
 51
180.0
  0
LINE
  5
1091
330
762
100
AcDbEntity
  8
240
100
AcDbLine
 10
-2.0
 20
10.0
 30
0.0
 11
-2.0
 21
11.0
 31
0.0
  0
LINE
  5
1092
330
762
100
AcDbEntity
  8
240
100
AcDbLine
 10
-4.0
 20
10.0
 30
0.0
 11
-4.0
 21
11.0
 31
0.0
  0
LINE
  5
1093
330
762
100
AcDbEntity
  8
241
100
AcDbLine
 10
-14.5
 20
7.0
 30
0.0
 11
-14.5
 21
0.0
 31
0.0
  0
LINE
  5
1094
330
762
100
AcDbEntity
  8
241
100
AcDbLine
 10
-11.0
 20
8.0
 30
0.0
 11
-11.0
 21
0.0
 31
0.0
  0
LINE
  5
1095
330
762
100
AcDbEntity
  8
241
  6
CONTINUOUS
100
AcDbLine
 10
-6.5
 20
10.50000001
 30
0.0
 11
-6.5
 21
0.0
 31
0.0
  0
LINE
  5
1096
330
762
100
AcDbEntity
  8
240
100
AcDbLine
 10
-10.7
 20
7.7
 30
0.0
 11
-11.0
 21
8.0
 31
0.0
  0
LINE
  5
1097
330
762
100
AcDbEntity
  8
240
100
AcDbLine
 10
-14.5
 20
8.0
 30
0.0
 11
-11.0
 21
8.0
 31
0.0
  0
LINE
  5
1098
330
762
100
AcDbEntity
  8
240
100
AcDbLine
 10
-14.5
 20
7.0
 30
0.0
 11
-14.5
 21
8.0
 31
0.0
  0
LINE
  5
1099
330
762
100
AcDbEntity
  8
240
100
AcDbLine
 10
-6.50000001
 20
10.5
 30
0.0
 11
-10.0
 21
10.5
 31
0.0
  0
LINE
  5
109A
330
762
100
AcDbEntity
  8
240
100
AcDbLine
 10
-10.0
 20
10.5
 30
0.0
 11
-10.0
 21
9.0
 31
0.0
  0
LINE
  5
109B
330
762
100
AcDbEntity
  8
240
100
AcDbLine
 10
-10.7
 20
7.7
 30
0.0
 11
-9.5
 21
7.7
 31
0.0
  0
LINE
  5
109C
330
762
100
AcDbEntity
  8
240
100
AcDbLine
 10
-9.5
 20
8.5
 30
0.0
 11
-9.5
 21
7.7
 31
0.0
  0
LINE
  5
109D
330
762
100
AcDbEntity
  8
240
100
AcDbLine
 10
-9.5
 20
8.5
 30
0.0
 11
-10.0
 21
9.0
 31
0.0
  0
LINE
  5
109E
330
762
100
AcDbEntity
  8
241
100
AcDbLine
 10
-6.5
 20
8.2
 30
0.0
 11
-9.5
 21
8.2
 31
0.0
  0
LINE
  5
109F
330
762
100
AcDbEntity
  8
241
100
AcDbLine
 10
-4.0
 20
10.0
 30
0.0
 11
-4.0
 21
0.0
 31
0.0
  0
LINE
  5
10A0
330
762
100
AcDbEntity
  8
241
100
AcDbLine
 10
-2.0
 20
10.0
 30
0.0
 11
-2.0
 21
0.0
 31
0.0
  0
LINE
  5
10A1
330
762
100
AcDbEntity
  8
241
100
AcDbLine
 10
0.80384758
 20
8.35874397
 30
0.0
 11
0.80384758
 21
0.0
 31
0.0
  0
LINE
  5
10A2
330
762
100
AcDbEntity
  8
240
100
AcDbLine
 10
0.19859884
 20
10.25881905
 30
0.0
 11
0.60524874
 21
8.74118096
 31
0.0
  0
ARC
  5
10A3
330
762
100
AcDbEntity
  8
240
100
AcDbCircle
 10
1.57117457
 20
9.0
 30
0.0
 40
1.0
100
AcDbArc
 50
194.99999992
 51
270.0
  0
LINE
  5
10A4
330
762
100
AcDbEntity
  8
240
100
AcDbLine
 10
-0.63567449
 20
11.0
 30
0.0
 11
-2.0
 21
11.0
 31
0.0
  0
LINE
  5
10A5
330
762
100
AcDbEntity
  8
240
100
AcDbLine
 10
-4.0
 20
11.0
 30
0.0
 11
-5.12626129
 21
11.0
 31
0.0
  0
LINE
  5
10A6
330
762
100
AcDbEntity
  8
240
100
AcDbLine
 10
-0.50850794
 20
10.96592583
 30
0.0
 11
-0.63567449
 21
11.0
 31
0.0
  0
LINE
  5
10A7
330
762
100
AcDbEntity
  8
0
100
AcDbLine
 10
30.1281057
 20
4.66141537
 30
0.0
 11
30.3492767
 21
4.88258637
 31
0.0
  0
LINE
  5
10A8
330
762
100
AcDbEntity
  8
0
100
AcDbLine
 10
30.01164912
 20
4.87269647
 30
0.0
 11
30.2231797
 21
5.08422706
 31
0.0
  0
LINE
  5
10A9
330
762
100
AcDbEntity
  8
0
100
AcDbLine
 10
30.13566884
 20
3.68576547
 30
0.0
 11
30.52302675
 21
4.0731234
 31
0.0
  0
ARC
  5
10AA
330
762
100
AcDbEntity
  8
0
100
AcDbCircle
 10
28.9769409
 20
4.1646374
 30
0.0
 40
1.548791887499996
100
AcDbArc
 50
270.0
 51
104.77079397
  0
ARC
  5
10AB
330
762
100
AcDbEntity
  8
0
100
AcDbCircle
 10
28.9769409
 20
4.1646374
 30
0.0
 40
1.253781787499995
100
AcDbArc
 50
270.0
 51
104.1274365
  0
LINE
  5
10AC
330
762
100
AcDbEntity
  8
0
100
AcDbLine
 10
29.47614277
 20
2.69850173
 30
0.0
 11
30.44307655
 21
3.66543551
 31
0.0
  0
LINE
  5
10AD
330
762
100
AcDbEntity
  8
0
100
AcDbLine
 10
24.5541463
 20
5.41070836
 30
0.0
 11
24.31238884
 21
4.56758103
 31
0.0
  0
ARC
  5
10AE
330
762
100
AcDbEntity
  8
0
100
AcDbCircle
 10
24.37655196
 20
5.00540727
 30
0.0
 40
0.4425027943359379
100
AcDbArc
 50
261.66260169
 51
66.3381551
  0
ARC
  5
10AF
330
762
100
AcDbEntity
  8
0
100
AcDbCircle
 10
24.70567623
 20
4.97591517
 30
0.0
 40
0.73752037734375
100
AcDbArc
 50
287.66957755
 51
90.23615984
  0
LINE
  5
10B0
330
762
100
AcDbEntity
  8
0
100
AcDbLine
 10
24.47049315
 20
3.91986803
 30
0.0
 11
25.43784371
 21
4.88721859
 31
0.0
  0
LINE
  5
10B1
330
762
100
AcDbEntity
  8
0
100
AcDbLine
 10
24.35608959
 20
4.13320214
 30
0.0
 11
25.41177695
 21
5.18888952
 31
0.0
  0
ARC
  5
10B2
330
762
100
AcDbEntity
  8
0
100
AcDbCircle
 10
22.98827372
 20
4.1646374
 30
0.0
 40
1.548791887499996
100
AcDbArc
 50
90.0
 51
270.0
  0
ARC
  5
10B3
330
762
100
AcDbEntity
  8
0
100
AcDbCircle
 10
22.98827372
 20
4.1646374
 30
0.0
 40
1.253781787499995
100
AcDbArc
 50
90.0
 51
270.0
  0
LINE
  5
10B4
330
762
100
AcDbEntity
  8
0
100
AcDbLine
 10
21.48570478
 20
4.54019414
 30
0.0
 11
22.61271699
 21
5.66720635
 31
0.0
  0
LINE
  5
10B5
330
762
100
AcDbEntity
  8
0
100
AcDbLine
 10
23.35104171
 20
3.78362963
 30
0.0
 11
24.38370392
 21
4.81629183
 31
0.0
  0
LINE
  5
10B6
330
762
100
AcDbEntity
  8
0
100
AcDbLine
 10
23.14307384
 20
3.05836031
 30
0.0
 11
23.81981061
 21
5.41841919
 31
0.0
  0
LINE
  5
10B7
330
762
100
AcDbEntity
  8
0
100
AcDbLine
 10
23.4828003
 20
4.2431259
 30
0.0
 11
24.51545815
 21
5.27578375
 31
0.0
  0
LINE
  5
10B8
330
762
100
AcDbEntity
  8
0
100
AcDbLine
 10
26.54211672
 20
4.35280319
 30
0.0
 11
27.87866997
 21
5.68935644
 31
0.0
  0
ARC
  5
10B9
330
762
100
AcDbEntity
  8
0
100
AcDbCircle
 10
29.02124586
 20
3.96672402
 30
0.0
 40
2.509011449999999
100
AcDbArc
 50
155.20517737
 51
172.79482596
  0
LINE
  5
10BA
330
762
100
AcDbEntity
  8
0
100
AcDbLine
 10
26.49567799
 20
3.97862679
 30
0.0
 11
27.45760796
 21
4.94055676
 31
0.0
  0
LINE
  5
10BB
330
762
100
AcDbEntity
  8
0
100
AcDbLine
 10
27.12425118
 20
3.77801023
 30
0.0
 11
27.52183766
 21
5.16455101
 31
0.0
  0
LINE
  5
10BC
330
762
100
AcDbEntity
  8
0
100
AcDbLine
 10
25.92048791
 20
3.05836031
 30
0.0
 11
26.68181399
 21
5.71342929
 31
0.0
  0
LINE
  5
10BD
330
762
100
AcDbEntity
  8
0
100
AcDbLine
 10
25.92048791
 20
3.05836031
 30
0.0
 11
26.68181399
 21
5.71342929
 31
0.0
1001
HATCH_DISTANCE
1040
1.0
1001
HATCH_DISPLAY
1070
     0
1001
HATCH_TYPE
1070
     7
  0
LINE
  5
10BE
330
762
100
AcDbEntity
  8
0
100
AcDbLine
 10
25.92048791
 20
3.05836031
 30
0.0
 11
26.68181399
 21
5.71342929
 31
0.0
  0
LINE
  5
10BF
330
762
100
AcDbEntity
  8
0
100
AcDbLine
 10
25.92894126
 20
5.38892709
 30
0.0
 11
25.26065785
 21
3.05836031
 31
0.0
1001
HATCH_DISTANCE
1040
1.0
1001
HATCH_DISPLAY
1070
     0
1001
HATCH_TYPE
1070
     7
  0
LINE
  5
10C0
330
762
100
AcDbEntity
  8
0
100
AcDbLine
 10
25.92894126
 20
5.38892709
 30
0.0
 11
25.26065785
 21
3.05836031
 31
0.0
  0
LINE
  5
10C1
330
762
100
AcDbEntity
  8
0
100
AcDbLine
 10
25.26065785
 20
3.05836031
 30
0.0
 11
25.92894126
 21
5.38892709
 31
0.0
  0
LINE
  5
10C2
330
762
100
AcDbEntity
  8
0
100
AcDbLine
 10
25.66115634
 20
4.45505585
 30
0.0
 11
26.58624705
 21
5.38014656
 31
0.0
  0
LINE
  5
10C3
330
762
100
AcDbEntity
  8
0
100
AcDbLine
 10
25.52939683
 20
3.99555866
 30
0.0
 11
26.45448933
 21
4.92065116
 31
0.0
  0
LINE
  5
10C4
330
762
100
AcDbEntity
  8
0
100
AcDbLine
 10
25.39763731
 20
3.53606146
 30
0.0
 11
26.32273161
 21
4.46115577
 31
0.0
  0
LINE
  5
10C5
330
762
100
AcDbEntity
  8
0
100
AcDbLine
 10
22.98827372
 20
2.91085527
 30
0.0
 11
28.9769409
 21
2.91085527
 31
0.0
  0
LINE
  5
10C6
330
762
100
AcDbEntity
  8
0
100
AcDbLine
 10
22.98827372
 20
2.61584517
 30
0.0
 11
28.9769409
 21
2.61584517
 31
0.0
  0
LINE
  5
10C7
330
762
100
AcDbEntity
  8
0
100
AcDbLine
 10
25.57541152
 20
3.05836031
 30
0.0
 11
26.05921616
 21
3.54216496
 31
0.0
  0
LINE
  5
10C8
330
762
100
AcDbEntity
  8
0
100
AcDbLine
 10
25.26587779
 20
3.07656426
 30
0.0
 11
26.19097389
 21
4.00166036
 31
0.0
  0
LINE
  5
10C9
330
762
100
AcDbEntity
  8
0
100
AcDbLine
 10
25.26065785
 20
3.05836031
 30
0.0
 11
25.92048791
 21
3.05836031
 31
0.0
1001
HATCH_DISTANCE
1040
1.0
1001
HATCH_DISPLAY
1070
     0
1001
HATCH_TYPE
1070
     7
  0
LINE
  5
10CA
330
762
100
AcDbEntity
  8
0
100
AcDbLine
 10
25.26065785
 20
3.05836031
 30
0.0
 11
25.92048791
 21
3.05836031
 31
0.0
  0
LINE
  5
10CB
330
762
100
AcDbEntity
  8
0
100
AcDbLine
 10
25.46063405
 20
2.61584517
 30
0.0
 11
25.75564415
 21
2.91085527
 31
0.0
  0
LINE
  5
10CC
330
762
100
AcDbEntity
  8
0
100
AcDbLine
 10
25.26065785
 20
3.05836031
 30
0.0
 11
25.92048791
 21
3.05836031
 31
0.0
  0
LINE
  5
10CD
330
762
100
AcDbEntity
  8
0
100
AcDbLine
 10
24.21578143
 20
4.23069138
 30
0.0
 11
23.97402
 21
3.38753904
 31
0.0
  0
ARC
  5
10CE
330
762
100
AcDbEntity
  8
0
100
AcDbCircle
 10
24.03818358
 20
3.82537801
 30
0.0
 40
0.4425154545410158
100
AcDbArc
 50
261.66285421
 51
66.33819216
  0
LINE
  5
10CF
330
762
100
AcDbEntity
  8
0
100
AcDbLine
 10
21.93815298
 20
3.02621625
 30
0.0
 11
22.14696634
 21
3.23502961
 31
0.0
  0
LINE
  5
10D0
330
762
100
AcDbEntity
  8
0
100
AcDbLine
 10
23.16647029
 20
2.61584517
 30
0.0
 11
23.46148039
 21
2.91085527
 31
0.0
  0
LINE
  5
10D1
330
762
100
AcDbEntity
  8
0
100
AcDbLine
 10
22.84534232
 20
2.62245488
 30
0.0
 11
23.1337427
 21
2.91085527
 31
0.0
  0
LINE
  5
10D2
330
762
100
AcDbEntity
  8
0
100
AcDbLine
 10
22.56886403
 20
2.67371426
 30
0.0
 11
22.81766713
 21
2.92251737
 31
0.0
  0
LINE
  5
10D3
330
762
100
AcDbEntity
  8
0
100
AcDbLine
 10
22.33007541
 20
2.76266333
 30
0.0
 11
22.55537356
 21
2.98796148
 31
0.0
  0
LINE
  5
10D4
330
762
100
AcDbEntity
  8
0
100
AcDbLine
 10
22.12106896
 20
2.88139456
 30
0.0
 11
22.33448509
 21
3.09481069
 31
0.0
  0
LINE
  5
10D5
330
762
100
AcDbEntity
  8
0
100
AcDbLine
 10
21.77995708
 20
3.19575805
 30
0.0
 11
21.99011793
 21
3.40591889
 31
0.0
  0
LINE
  5
10D6
330
762
100
AcDbEntity
  8
0
100
AcDbLine
 10
21.64687894
 20
3.39041758
 30
0.0
 11
21.86470856
 21
3.60824719
 31
0.0
  0
LINE
  5
10D7
330
762
100
AcDbEntity
  8
0
100
AcDbLine
 10
21.54123699
 20
3.61251332
 30
0.0
 11
21.77546309
 21
3.84673941
 31
0.0
  0
LINE
  5
10D8
330
762
100
AcDbEntity
  8
0
100
AcDbLine
 10
21.46829038
 20
3.86730438
 30
0.0
 11
21.73486919
 21
4.13388319
 31
0.0
  0
LINE
  5
10D9
330
762
100
AcDbEntity
  8
0
100
AcDbLine
 10
21.43948266
 20
4.16623434
 30
0.0
 11
21.7828953
 21
4.50964698
 31
0.0
  0
LINE
  5
10DA
330
762
100
AcDbEntity
  8
0
100
AcDbLine
 10
23.21928312
 20
3.32413337
 30
0.0
 11
24.46750178
 21
4.57235202
 31
0.0
  0
LINE
  5
10DB
330
762
100
AcDbEntity
  8
0
100
AcDbLine
 10
23.14307384
 20
3.05836031
 30
0.0
 11
24.36730784
 21
3.05836031
 31
0.0
  0
LINE
  5
10DC
330
762
100
AcDbEntity
  8
0
100
AcDbLine
 10
23.28124776
 20
3.05836031
 30
0.0
 11
24.12018597
 21
3.89729852
 31
0.0
  0
LINE
  5
10DD
330
762
100
AcDbEntity
  8
0
100
AcDbLine
 10
23.49420798
 20
2.61584517
 30
0.0
 11
23.78921806
 21
2.91085527
 31
0.0
  0
LINE
  5
10DE
330
762
100
AcDbEntity
  8
0
100
AcDbLine
 10
23.60898544
 20
3.05836031
 30
0.0
 11
23.98843417
 21
3.43780904
 31
0.0
  0
ARC
  5
10DF
330
762
100
AcDbEntity
  8
0
100
AcDbCircle
 10
24.36730784
 20
3.79587477
 30
0.0
 40
0.7375141125000005
100
AcDbArc
 50
270.0
 51
40.32984065
  0
LINE
  5
10E0
330
762
100
AcDbEntity
  8
0
100
AcDbLine
 10
24.64749387
 20
3.1136557
 30
0.0
 11
25.04952691
 21
3.51568875
 31
0.0
  0
LINE
  5
10E1
330
762
100
AcDbEntity
  8
0
100
AcDbLine
 10
23.93672311
 20
3.05836031
 30
0.0
 11
25.01918224
 21
4.14081945
 31
0.0
  0
LINE
  5
10E2
330
762
100
AcDbEntity
  8
0
100
AcDbLine
 10
24.2644608
 20
3.05836031
 30
0.0
 11
25.09848071
 21
3.89238022
 31
0.0
  0
LINE
  5
10E3
330
762
100
AcDbEntity
  8
0
100
AcDbLine
 10
25.13289637
 20
2.61584517
 30
0.0
 11
25.42790647
 21
2.91085527
 31
0.0
  0
LINE
  5
10E4
330
762
100
AcDbEntity
  8
0
100
AcDbLine
 10
24.80515869
 20
2.61584517
 30
0.0
 11
25.10016878
 21
2.91085527
 31
0.0
  0
LINE
  5
10E5
330
762
100
AcDbEntity
  8
0
100
AcDbLine
 10
24.47742101
 20
2.61584517
 30
0.0
 11
24.77243111
 21
2.91085527
 31
0.0
  0
LINE
  5
10E6
330
762
100
AcDbEntity
  8
0
100
AcDbLine
 10
24.14968334
 20
2.61584517
 30
0.0
 11
24.44469342
 21
2.91085527
 31
0.0
  0
LINE
  5
10E7
330
762
100
AcDbEntity
  8
0
100
AcDbLine
 10
23.82194565
 20
2.61584517
 30
0.0
 11
24.11695575
 21
2.91085527
 31
0.0
  0
ARC
  5
10E8
330
762
100
AcDbEntity
  8
0
100
AcDbCircle
 10
27.45368729
 20
4.01713235
 30
0.0
 40
0.9587828249999999
100
AcDbArc
 50
163.9997507
 51
304.96387329
  0
LINE
  5
10E9
330
762
100
AcDbEntity
  8
0
100
AcDbLine
 10
26.4438471
 20
2.61584517
 30
0.0
 11
26.73885718
 21
2.91085527
 31
0.0
  0
LINE
  5
10EA
330
762
100
AcDbEntity
  8
0
100
AcDbLine
 10
26.65668851
 20
3.48416195
 30
0.0
 11
27.19408908
 21
4.02156252
 31
0.0
  0
LINE
  5
10EB
330
762
100
AcDbEntity
  8
0
100
AcDbLine
 10
26.54781616
 20
3.70302728
 30
0.0
 11
27.32584852
 21
4.48105964
 31
0.0
  0
LINE
  5
10EC
330
762
100
AcDbEntity
  8
0
100
AcDbLine
 10
29.0684549
 20
2.61855153
 30
0.0
 11
29.45581282
 21
3.00590946
 31
0.0
  0
LINE
  5
10ED
330
762
100
AcDbEntity
  8
0
100
AcDbLine
 10
28.00312245
 20
3.23140365
 30
0.0
 11
28.17617691
 21
3.05836031
 31
0.0
  0
LINE
  5
10EE
330
762
100
AcDbEntity
  8
0
100
AcDbLine
 10
27.5463113
 20
3.06283402
 30
0.0
 11
28.43119767
 21
3.94772039
 31
0.0
  0
LINE
  5
10EF
330
762
100
AcDbEntity
  8
0
100
AcDbLine
 10
27.23854002
 20
3.08280042
 30
0.0
 11
27.58488671
 21
3.4291471
 31
0.0
  0
LINE
  5
10F0
330
762
100
AcDbEntity
  8
0
100
AcDbLine
 10
28.17617691
 20
3.05836031
 30
0.0
 11
28.60759911
 21
4.56290326
 31
0.0
  0
LINE
  5
10F1
330
762
100
AcDbEntity
  8
0
100
AcDbLine
 10
28.73801085
 20
2.61584517
 30
0.0
 11
29.03433567
 21
2.91216999
 31
0.0
  0
LINE
  5
10F2
330
762
100
AcDbEntity
  8
0
100
AcDbLine
 10
28.41027317
 20
2.61584517
 30
0.0
 11
28.70528326
 21
2.91085527
 31
0.0
  0
LINE
  5
10F3
330
762
100
AcDbEntity
  8
0
100
AcDbLine
 10
28.08253549
 20
2.61584517
 30
0.0
 11
28.37754559
 21
2.91085527
 31
0.0
  0
LINE
  5
10F4
330
762
100
AcDbEntity
  8
0
100
AcDbLine
 10
27.75479782
 20
2.61584517
 30
0.0
 11
28.0498079
 21
2.91085527
 31
0.0
  0
LINE
  5
10F5
330
762
100
AcDbEntity
  8
0
100
AcDbLine
 10
27.42706013
 20
2.61584517
 30
0.0
 11
27.72207023
 21
2.91085527
 31
0.0
  0
LINE
  5
10F6
330
762
100
AcDbEntity
  8
0
100
AcDbLine
 10
27.09932246
 20
2.61584517
 30
0.0
 11
27.39433254
 21
2.91085527
 31
0.0
  0
LINE
  5
10F7
330
762
100
AcDbEntity
  8
0
100
AcDbLine
 10
26.77158477
 20
2.61584517
 30
0.0
 11
27.06659487
 21
2.91085527
 31
0.0
  0
LINE
  5
10F8
330
762
100
AcDbEntity
  8
0
100
AcDbLine
 10
27.7482853
 20
4.56290326
 30
0.0
 11
28.60759911
 21
4.56290326
 31
0.0
  0
ARC
  5
10F9
330
762
100
AcDbEntity
  8
0
100
AcDbCircle
 10
27.42201224
 20
3.69263015
 30
0.0
 40
0.3097602395507813
100
AcDbArc
 50
164.00027306
 51
344.00027306
  0
LINE
  5
10FA
330
762
100
AcDbEntity
  8
0
100
AcDbLine
 10
27.71977331
 20
3.60725007
 30
0.0
 11
27.90921104
 21
4.26789316
 31
0.0
  0
LINE
  5
10FB
330
762
100
AcDbEntity
  8
0
100
AcDbLine
 10
27.66369599
 20
4.26789316
 30
0.0
 11
27.90921104
 21
4.26789316
 31
0.0
  0
LINE
  5
10FC
330
762
100
AcDbEntity
  8
0
100
AcDbLine
 10
28.02287117
 20
3.2116562
 30
0.0
 11
28.29943868
 21
3.48822372
 31
0.0
  0
LINE
  5
10FD
330
762
100
AcDbEntity
  8
0
100
AcDbLine
 10
27.00031559
 20
3.17231367
 30
0.0
 11
27.2579112
 21
3.42990928
 31
0.0
  0
LINE
  5
10FE
330
762
100
AcDbEntity
  8
0
100
AcDbLine
 10
26.80832887
 20
3.30806463
 30
0.0
 11
27.12076653
 21
3.62050229
 31
0.0
  0
LINE
  5
10FF
330
762
100
AcDbEntity
  8
0
100
AcDbLine
 10
27.66369599
 20
4.26789316
 30
0.0
 11
27.7482853
 21
4.56290326
 31
0.0
  0
LINE
  5
1100
330
762
100
AcDbEntity
  8
0
100
AcDbLine
 10
27.68549529
 20
3.52975568
 30
0.0
 11
28.56295666
 21
4.40721706
 31
0.0
  0
LINE
  5
1101
330
762
100
AcDbEntity
  8
0
100
AcDbLine
 10
27.83415884
 20
4.00615691
 30
0.0
 11
28.39090519
 21
4.56290326
 31
0.0
  0
LINE
  5
1102
330
762
100
AcDbEntity
  8
0
100
AcDbLine
 10
27.76815741
 20
4.26789316
 30
0.0
 11
28.0631675
 21
4.56290326
 31
0.0
  0
LINE
  5
1103
330
762
100
AcDbEntity
  8
0
100
AcDbLine
 10
26.11610941
 20
2.61584517
 30
0.0
 11
26.41111951
 21
2.91085527
 31
0.0
  0
LINE
  5
1104
330
762
100
AcDbEntity
  8
0
100
AcDbLine
 10
25.90314919
 20
3.05836031
 30
0.0
 11
25.92745844
 21
3.08266956
 31
0.0
  0
LINE
  5
1105
330
762
100
AcDbEntity
  8
0
100
AcDbLine
 10
25.78837173
 20
2.61584517
 30
0.0
 11
26.08338182
 21
2.91085527
 31
0.0
  0
LINE
  5
1106
330
762
100
AcDbEntity
  8
0
100
AcDbLine
 10
24.61673062
 20
5.37705622
 30
0.0
 11
24.92098269
 21
5.68130828
 31
0.0
  0
LINE
  5
1107
330
762
100
AcDbEntity
  8
0
100
AcDbLine
 10
24.7717953
 20
5.20438322
 30
0.0
 11
25.1396511
 21
5.57223902
 31
0.0
  0
LINE
  5
1108
330
762
100
AcDbEntity
  8
0
100
AcDbLine
 10
24.80960722
 20
4.91445746
 30
0.0
 11
25.30327814
 21
5.40812838
 31
0.0
  0
LINE
  5
1109
330
762
100
AcDbEntity
  8
0
100
AcDbLine
 10
22.98827372
 20
5.41841919
 30
0.0
 11
23.5129168
 21
5.41841919
 31
0.0
  0
LINE
  5
110A
330
762
100
AcDbEntity
  8
0
100
AcDbLine
 10
23.34714287
 20
5.41841919
 30
0.0
 11
23.57955805
 21
5.65083436
 31
0.0
  0
LINE
  5
110B
330
762
100
AcDbEntity
  8
0
100
AcDbLine
 10
22.98827372
 20
5.71342929
 30
0.0
 11
23.59750612
 21
5.71342929
 31
0.0
  0
LINE
  5
110C
330
762
100
AcDbEntity
  8
0
100
AcDbLine
 10
23.01940519
 20
5.41841919
 30
0.0
 11
23.31441529
 21
5.71342929
 31
0.0
  0
LINE
  5
110D
330
762
100
AcDbEntity
  8
0
100
AcDbLine
 10
22.64326415
 20
5.37001583
 30
0.0
 11
22.98667678
 21
5.71342846
 31
0.0
  0
LINE
  5
110E
330
762
100
AcDbEntity
  8
0
100
AcDbLine
 10
23.59750612
 20
5.71342929
 30
0.0
 11
23.5129168
 21
5.41841919
 31
0.0
  0
LINE
  5
110F
330
762
100
AcDbEntity
  8
0
100
AcDbLine
 10
23.75094745
 20
5.71342929
 30
0.0
 11
23.66635815
 21
5.41841919
 31
0.0
  0
LINE
  5
1110
330
762
100
AcDbEntity
  8
0
100
AcDbLine
 10
23.74631747
 20
5.16211843
 30
0.0
 11
24.29762832
 21
5.71342929
 31
0.0
  0
LINE
  5
1111
330
762
100
AcDbEntity
  8
0
100
AcDbLine
 10
23.67488055
 20
5.41841919
 30
0.0
 11
23.96989065
 21
5.71342929
 31
0.0
  0
LINE
  5
1112
330
762
100
AcDbEntity
  8
0
100
AcDbLine
 10
23.61455889
 20
4.70262217
 30
0.0
 11
24.62536601
 21
5.71342929
 31
0.0
  0
LINE
  5
1113
330
762
100
AcDbEntity
  8
0
100
AcDbLine
 10
23.66635815
 20
5.41841919
 30
0.0
 11
23.81981061
 21
5.41841919
 31
0.0
  0
LINE
  5
1114
330
762
100
AcDbEntity
  8
0
100
AcDbLine
 10
23.75094745
 20
5.71342929
 30
0.0
 11
24.70263635
 21
5.71342929
 31
0.0
  0
LINE
  5
1115
330
762
100
AcDbEntity
  8
0
100
AcDbLine
 10
25.82152008
 20
5.38892709
 30
0.0
 11
25.92894126
 21
5.38892709
 31
0.0
  0
LINE
  5
1116
330
762
100
AcDbEntity
  8
0
100
AcDbLine
 10
25.82152008
 20
5.38892709
 30
0.0
 11
25.92894126
 21
5.38892709
 31
0.0
1001
HATCH_DISTANCE
1040
1.0
1001
HATCH_DISPLAY
1070
     0
1001
HATCH_TYPE
1070
     7
  0
LINE
  5
1117
330
762
100
AcDbEntity
  8
0
100
AcDbLine
 10
25.82152008
 20
5.38892709
 30
0.0
 11
25.92894126
 21
5.38892709
 31
0.0
  0
ARC
  5
1118
330
762
100
AcDbEntity
  8
0
100
AcDbCircle
 10
27.66516614
 20
4.7546576
 30
0.0
 40
0.9587730796874998
100
AcDbArc
 50
53.4440122
 51
164.00018439
  0
LINE
  5
1119
330
762
100
AcDbEntity
  8
0
100
AcDbLine
 10
26.65092328
 20
4.78934743
 30
0.0
 11
27.57030188
 21
5.70872604
 31
0.0
  0
LINE
  5
111A
330
762
100
AcDbEntity
  8
0
100
AcDbLine
 10
29.86295406
 20
5.0517391
 30
0.0
 11
30.07155774
 21
5.26034277
 31
0.0
  0
LINE
  5
111B
330
762
100
AcDbEntity
  8
0
100
AcDbLine
 10
29.68370671
 20
5.20022942
 30
0.0
 11
29.89527729
 21
5.4118
 31
0.0
  0
LINE
  5
111C
330
762
100
AcDbEntity
  8
0
100
AcDbLine
 10
29.22219908
 20
5.39419715
 30
0.0
 11
29.46313859
 21
5.63513667
 31
0.0
  0
LINE
  5
111D
330
762
100
AcDbEntity
  8
0
100
AcDbLine
 10
28.64265513
 20
5.47012857
 30
0.0
 11
28.883111
 21
5.71058444
 31
0.0
  0
LINE
  5
111E
330
762
100
AcDbEntity
  8
0
100
AcDbLine
 10
28.67091581
 20
5.38050714
 30
0.0
 11
28.58207197
 21
5.66225248
 31
0.0
  0
ARC
  5
111F
330
762
100
AcDbEntity
  8
0
100
AcDbCircle
 10
28.9769409
 20
4.1646374
 30
0.0
 40
1.548792583593745
100
AcDbArc
 50
110.22964506
 51
118.57168892
  0
ARC
  5
1120
330
762
100
AcDbEntity
  8
0
100
AcDbCircle
 10
27.81959872
 20
5.07915979
 30
0.0
 40
0.3097604570800781
100
AcDbArc
 50
1.71012138
 51
163.99839835
  0
ARC
  5
1121
330
762
100
AcDbEntity
  8
0
100
AcDbCircle
 10
28.9769409
 20
4.1646374
 30
0.0
 40
1.253785267968747
100
AcDbArc
 50
110.8721834
 51
132.54194894
  0
LINE
  5
1122
330
762
100
AcDbEntity
  8
0
100
AcDbLine
 10
28.53023804
 20
5.33614647
 30
0.0
 11
28.4413942
 21
5.61789181
 31
0.0
  0
LINE
  5
1123
330
762
100
AcDbEntity
  8
0
100
AcDbLine
 10
28.49435297
 20
5.32182641
 30
0.0
 11
28.52506812
 21
5.35254155
 31
0.0
  0
LINE
  5
1124
330
762
100
AcDbEntity
  8
0
100
AcDbLine
 10
28.0845025
 20
5.23971362
 30
0.0
 11
28.44649735
 21
5.60170847
 31
0.0
  0
LINE
  5
1125
330
762
100
AcDbEntity
  8
0
100
AcDbLine
 10
27.89631996
 20
5.37926876
 30
0.0
 11
28.11722152
 21
5.60017032
 31
0.0
  0
LINE
  5
1126
330
762
100
AcDbEntity
  8
0
100
AcDbLine
 10
28.67091581
 20
5.38050714
 30
0.0
 11
28.58207197
 21
5.66225248
 31
0.0
1001
HATCH_DISTANCE
1040
1.0
1001
HATCH_DISPLAY
1070
     0
1001
HATCH_TYPE
1070
     7
  0
LINE
  5
1127
330
762
100
AcDbEntity
  8
0
100
AcDbLine
 10
28.58207197
 20
5.66225248
 30
0.0
 11
28.58207197
 21
5.66225248
 31
0.0
1001
HATCH_DISTANCE
1040
1.0
1001
HATCH_DISPLAY
1070
     0
1001
HATCH_TYPE
1070
     7
  0
LINE
  5
1128
330
762
100
AcDbEntity
  8
0
100
AcDbLine
 10
28.58207197
 20
5.66225248
 30
0.0
 11
28.67091581
 21
5.38050714
 31
0.0
1001
HATCH_DISTANCE
1040
1.0
1001
HATCH_DISPLAY
1070
     0
1001
HATCH_TYPE
1070
     7
  0
LINE
  5
1129
330
762
100
AcDbEntity
  8
0
100
AcDbLine
 10
28.67091581
 20
5.38050714
 30
0.0
 11
28.67091581
 21
5.38050714
 31
0.0
1001
HATCH_DISTANCE
1040
1.0
1001
HATCH_DISPLAY
1070
     0
1001
HATCH_TYPE
1070
     7
  0
LINE
  5
112A
330
762
100
AcDbEntity
  8
0
100
AcDbLine
 10
28.67091581
 20
5.38050714
 30
0.0
 11
28.58207197
 21
5.66225248
 31
0.0
  0
LINE
  5
112B
330
762
100
AcDbEntity
  8
0
100
AcDbLine
 10
28.58207197
 20
5.66225248
 30
0.0
 11
28.58207197
 21
5.66225248
 31
0.0
  0
LINE
  5
112C
330
762
100
AcDbEntity
  8
0
100
AcDbLine
 10
28.58207197
 20
5.66225248
 30
0.0
 11
28.67091581
 21
5.38050714
 31
0.0
  0
LINE
  5
112D
330
762
100
AcDbEntity
  8
0
100
AcDbLine
 10
28.67091581
 20
5.38050714
 30
0.0
 11
28.67091581
 21
5.38050714
 31
0.0
  0
LINE
  5
112E
330
762
100
AcDbEntity
  8
0
100
AcDbLine
 10
28.67091581
 20
5.38050714
 30
0.0
 11
28.58207197
 21
5.66225248
 31
0.0
1001
HATCH_DISTANCE
1040
1.0
1001
HATCH_DISPLAY
1070
     0
1001
HATCH_TYPE
1070
     7
  0
LINE
  5
112F
330
762
100
AcDbEntity
  8
0
100
AcDbLine
 10
28.58207197
 20
5.66225248
 30
0.0
 11
28.58207197
 21
5.66225248
 31
0.0
1001
HATCH_DISTANCE
1040
1.0
1001
HATCH_DISPLAY
1070
     0
1001
HATCH_TYPE
1070
     7
  0
LINE
  5
1130
330
762
100
AcDbEntity
  8
0
100
AcDbLine
 10
28.58207197
 20
5.66225248
 30
0.0
 11
28.67091581
 21
5.38050714
 31
0.0
1001
HATCH_DISTANCE
1040
1.0
1001
HATCH_DISPLAY
1070
     0
1001
HATCH_TYPE
1070
     7
  0
LINE
  5
1131
330
762
100
AcDbEntity
  8
0
100
AcDbLine
 10
28.67091581
 20
5.38050714
 30
0.0
 11
28.67091581
 21
5.38050714
 31
0.0
1001
HATCH_DISTANCE
1040
1.0
1001
HATCH_DISPLAY
1070
     0
1001
HATCH_TYPE
1070
     7
  0
LINE
  5
1132
330
762
100
AcDbEntity
  8
0
100
AcDbLine
 10
28.67091581
 20
5.38050714
 30
0.0
 11
28.58207197
 21
5.66225248
 31
0.0
  0
LINE
  5
1133
330
762
100
AcDbEntity
  8
0
100
AcDbLine
 10
28.58207197
 20
5.66225248
 30
0.0
 11
28.58207197
 21
5.66225248
 31
0.0
  0
LINE
  5
1134
330
762
100
AcDbEntity
  8
0
100
AcDbLine
 10
28.58207197
 20
5.66225248
 30
0.0
 11
28.67091581
 21
5.38050714
 31
0.0
  0
LINE
  5
1135
330
762
100
AcDbEntity
  8
0
100
AcDbLine
 10
28.67091581
 20
5.38050714
 30
0.0
 11
28.67091581
 21
5.38050714
 31
0.0
  0
LINE
  5
1136
330
762
100
AcDbEntity
  8
0
100
AcDbLine
 10
28.91726231
 20
5.41699806
 30
0.0
 11
29.19785707
 21
5.69759283
 31
0.0
  0
LINE
  5
1137
330
762
100
AcDbEntity
  8
0
100
AcDbLine
 10
29.47219726
 20
5.31645766
 30
0.0
 11
29.69345994
 21
5.53772034
 31
0.0
  0
LINE
  5
1138
330
762
100
AcDbEntity
  8
0
100
AcDbLine
 10
25.79291585
 20
4.91455306
 30
0.0
 11
26.59179209
 21
5.71342929
 31
0.0
  0
LINE
  5
1139
330
762
100
AcDbEntity
  8
0
100
AcDbLine
 10
25.9145739
 20
5.71342929
 30
0.0
 11
26.68181399
 21
5.71342929
 31
0.0
  0
LINE
  5
113A
330
762
100
AcDbEntity
  8
0
100
AcDbLine
 10
26.68181399
 20
5.71342929
 30
0.0
 11
25.9145739
 21
5.71342929
 31
0.0
1001
HATCH_DISTANCE
1040
1.0
1001
HATCH_DISPLAY
1070
     0
1001
HATCH_TYPE
1070
     7
  0
LINE
  5
113B
330
762
100
AcDbEntity
  8
0
100
AcDbLine
 10
26.68181399
 20
5.71342929
 30
0.0
 11
25.9145739
 21
5.71342929
 31
0.0
  0
LINE
  5
113C
330
762
100
AcDbEntity
  8
0
100
AcDbLine
 10
25.82152008
 20
5.38892709
 30
0.0
 11
25.9145739
 21
5.71342929
 31
0.0
  0
LINE
  5
113D
330
762
100
AcDbEntity
  8
0
100
AcDbLine
 10
25.9145739
 20
5.71342929
 30
0.0
 11
25.82152008
 21
5.38892709
 31
0.0
1001
HATCH_DISTANCE
1040
1.0
1001
HATCH_DISPLAY
1070
     0
1001
HATCH_TYPE
1070
     7
  0
LINE
  5
113E
330
762
100
AcDbEntity
  8
0
100
AcDbLine
 10
25.9145739
 20
5.71342929
 30
0.0
 11
25.82152008
 21
5.38892709
 31
0.0
  0
LINE
  5
113F
330
762
100
AcDbEntity
  8
0
100
AcDbLine
 10
25.92467537
 20
5.37405025
 30
0.0
 11
26.26405441
 21
5.71342929
 31
0.0
  0
LINE
  5
1140
330
762
100
AcDbEntity
  8
0
100
AcDbLine
 10
25.90583219
 20
5.68294474
 30
0.0
 11
25.93631673
 21
5.71342929
 31
0.0
  0
LINE
  5
1141
330
762
100
AcDbEntity
  8
0
100
AcDbLine
 10
30.20613745
 20
4.41170945
 30
0.0
 11
30.44689845
 21
4.65247045
 31
0.0
  0
LINE
  5
1142
330
762
100
AcDbEntity
  8
0
100
AcDbLine
 10
30.2294083
 20
4.10724262
 30
0.0
 11
30.50962105
 21
4.38745536
 31
0.0
  0
LINE
  5
1143
330
762
100
AcDbEntity
  8
241
100
AcDbLine
 10
80.0
 20
-6.2
 30
0.0
 11
80.0
 21
0.0
 31
0.0
  0
LINE
  5
1144
330
762
100
AcDbEntity
  8
241
100
AcDbLine
 10
81.0
 20
-6.2
 30
0.0
 11
81.0
 21
0.0
 31
0.0
  0
LINE
  5
1145
330
762
100
AcDbEntity
  8
241
100
AcDbLine
 10
83.0
 20
-8.15
 30
0.0
 11
83.0
 21
0.0
 31
0.0
  0
LINE
  5
1146
330
762
100
AcDbEntity
  8
241
100
AcDbLine
 10
84.2
 20
-8.0
 30
0.0
 11
84.2
 21
0.0
 31
0.0
  0
LINE
  5
1147
330
762
100
AcDbEntity
  8
240
100
AcDbLine
 10
100.0
 20
-7.0
 30
0.0
 11
100.0
 21
0.0
 31
0.0
  0
LINE
  5
1148
330
762
100
AcDbEntity
  8
240
100
AcDbLine
 10
83.15
 20
-8.0
 30
0.0
 11
99.0
 21
-8.0
 31
0.0
  0
LINE
  5
1149
330
762
100
AcDbEntity
  8
240
100
AcDbLine
 10
80.0
 20
-6.2
 30
0.0
 11
80.0
 21
-8.0
 31
0.0
  0
LINE
  5
114A
330
762
100
AcDbEntity
  8
240
100
AcDbLine
 10
81.0
 20
-6.2
 30
0.0
 11
81.0
 21
-8.15
 31
0.0
  0
LINE
  5
114B
330
762
100
AcDbEntity
  8
240
100
AcDbLine
 10
81.0
 20
-8.15
 30
0.0
 11
83.0
 21
-8.15
 31
0.0
  0
LINE
  5
114C
330
762
100
AcDbEntity
  8
240
100
AcDbLine
 10
83.15
 20
-8.0
 30
0.0
 11
83.0
 21
-8.15
 31
0.0
  0
LINE
  5
114D
330
762
100
AcDbEntity
  8
240
100
AcDbLine
 10
81.0
 20
-6.2
 30
0.0
 11
80.0
 21
-6.2
 31
0.0
  0
ARC
  5
114E
330
762
100
AcDbEntity
  8
240
100
AcDbCircle
 10
99.0
 20
-7.0
 30
0.0
 40
1.0
100
AcDbArc
 50
270.0
 51
0.0
1001
GENIUS_GENODEF_13
1002
{
1000
HIER
1070
     0
1002
}
1002
{
1000
MANEDIT
1070
     0
1002
}
1002
{
1000
NOSEL
1070
     0
1002
}
1002
{
1000
BEHIND
1070
     0
1002
}
1002
{
1000
OTHER
1070
     0
1002
}
1002
{
1000
REACTOR
1002
}
1001
GENIUS_GENOBJ-N-FIL_13
1002
{
1000
OWNER
1000
GEN
1002
}
  0
LINE
  5
114F
330
762
100
AcDbEntity
  8
240
100
AcDbLine
 10
83.15
 20
8.0
 30
0.0
 11
99.0
 21
8.0
 31
0.0
  0
LINE
  5
1150
330
762
100
AcDbEntity
  8
241
  6
HIDDEN2
100
AcDbLine
 10
87.0
 20
2.5
 30
0.0
 11
100.0
 21
2.5
 31
0.0
  0
LINE
  5
1151
330
762
100
AcDbEntity
  8
241
  6
HIDDEN2
100
AcDbLine
 10
82.0
 20
2.8
 30
0.0
 11
87.0
 21
2.8
 31
0.0
1001
GRPNAME
1000
0000002S
  0
LINE
  5
1152
330
762
100
AcDbEntity
  8
241
100
AcDbLine
 10
84.2
 20
8.0
 30
0.0
 11
84.2
 21
0.0
 31
0.0
  0
LINE
  5
1153
330
762
100
AcDbEntity
  8
241
100
AcDbLine
 10
83.0
 20
8.15
 30
0.0
 11
83.0
 21
0.0
 31
0.0
  0
LINE
  5
1154
330
762
100
AcDbEntity
  8
241
100
AcDbLine
 10
81.0
 20
6.2
 30
0.0
 11
81.0
 21
0.0
 31
0.0
  0
LINE
  5
1155
330
762
100
AcDbEntity
  8
241
100
AcDbLine
 10
80.0
 20
6.2
 30
0.0
 11
80.0
 21
0.0
 31
0.0
  0
LINE
  5
1156
330
762
100
AcDbEntity
  8
244
  6
HIDDEN2
100
AcDbLine
 10
78.0
 20
0.0
 30
0.0
 11
82.0
 21
2.8991378
 31
0.0
  0
LINE
  5
1157
330
762
100
AcDbEntity
  8
241
  6
HIDDEN2
100
AcDbLine
 10
78.0
 20
2.8991378
 30
0.0
 11
82.0
 21
2.8991378
 31
0.0
  0
LINE
  5
1158
330
762
100
AcDbEntity
  8
244
  6
HIDDEN2
100
AcDbLine
 10
78.0
 20
2.8991378
 30
0.0
 11
82.0
 21
0.0
 31
0.0
  0
LINE
  5
1159
330
762
100
AcDbEntity
  8
241
  6
HIDDEN2
100
AcDbLine
 10
78.0
 20
2.8991378
 30
0.0
 11
78.0
 21
0.0
 31
0.0
  0
LINE
  5
115A
330
762
100
AcDbEntity
  8
241
  6
HIDDEN2
100
AcDbLine
 10
82.0
 20
2.8991378
 30
0.0
 11
82.0
 21
0.0
 31
0.0
  0
LINE
  5
115B
330
762
100
AcDbEntity
  8
240
100
AcDbLine
 10
81.0
 20
6.2
 30
0.0
 11
80.0
 21
6.2
 31
0.0
  0
LINE
  5
115C
330
762
100
AcDbEntity
  8
240
100
AcDbLine
 10
80.0
 20
6.2
 30
0.0
 11
80.0
 21
8.0
 31
0.0
  0
LINE
  5
115D
330
762
100
AcDbEntity
  8
240
100
AcDbLine
 10
83.15
 20
8.0
 30
0.0
 11
83.0
 21
8.15
 31
0.0
  0
LINE
  5
115E
330
762
100
AcDbEntity
  8
240
100
AcDbLine
 10
81.0
 20
8.15
 30
0.0
 11
83.0
 21
8.15
 31
0.0
  0
LINE
  5
115F
330
762
100
AcDbEntity
  8
240
100
AcDbLine
 10
81.0
 20
6.2
 30
0.0
 11
81.0
 21
8.15
 31
0.0
  0
LINE
  5
1160
330
762
100
AcDbEntity
  8
241
  6
HIDDEN2
100
AcDbLine
 10
87.0
 20
2.8
 30
0.0
 11
87.0
 21
0.0
 31
0.0
  0
LINE
  5
1161
330
762
100
AcDbEntity
  8
240
100
AcDbLine
 10
100.0
 20
7.0
 30
0.0
 11
100.0
 21
0.0
 31
0.0
  0
ARC
  5
1162
330
762
100
AcDbEntity
  8
240
100
AcDbCircle
 10
99.0
 20
7.0
 30
0.0
 40
1.0
100
AcDbArc
 50
359.9999824
 51
90.0
1001
GENIUS_GENODEF_13
1002
{
1000
HIER
1070
     0
1002
}
1002
{
1000
MANEDIT
1070
     0
1002
}
1002
{
1000
NOSEL
1070
     0
1002
}
1002
{
1000
BEHIND
1070
     0
1002
}
1002
{
1000
OTHER
1070
     0
1002
}
1002
{
1000
REACTOR
1002
}
1001
GENIUS_GENOBJ-N-FIL_13
1002
{
1000
OWNER
1000
GEN
1002
}
  0
ENDBLK
  5
8A0
330
762
100
AcDbEntity
  8
0
100
AcDbBlockEnd
  0
BLOCK
  5
8E4
330
8DA
100
AcDbEntity
  8
0
100
AcDbBlockBegin
  2
*D3
 70
     1
 10
0.0
 20
0.0
 30
0.0
  3
*D3
  1

  0
LINE
  5
BC1
330
8DA
100
AcDbEntity
  8
250
  6
CONTINUOUS
100
AcDbLine
 10
0.0
 20
11.14125603
 30
0.0
 11
0.0
 21
22.0
 31
0.0
  0
LINE
  5
BC2
330
8DA
100
AcDbEntity
  8
250
  6
CONTINUOUS
100
AcDbLine
 10
100.0
 20
7.5
 30
0.0
 11
100.0
 21
22.0
 31
0.0
  0
LINE
  5
BC3
330
8DA
100
AcDbEntity
  8
250
  6
CONTINUOUS
100
AcDbLine
 10
2.23
 20
21.0
 30
0.0
 11
97.77
 21
21.0
 31
0.0
  0
INSERT
  5
BC4
330
8DA
100
AcDbEntity
  8
250
  6
CONTINUOUS
100
AcDbBlockReference
  2
_OPEN
 10
0.0
 20
21.0
 30
0.0
 41
2.23
 42
2.23
 43
2.23
 50
180.0
  0
INSERT
  5
BC5
330
8DA
100
AcDbEntity
  8
250
  6
CONTINUOUS
100
AcDbBlockReference
  2
_OPEN
 10
100.0
 20
21.0
 30
0.0
 41
2.23
 42
2.23
 43
2.23
  0
MTEXT
  5
BC6
330
8DA
100
AcDbEntity
  8
250
  6
CONTINUOUS
 62
    40
100
AcDbMText
 10
49.8160488
 20
23.4
 30
0.0
 40
2.8
 41
0.0
 71
     5
 72
     1
  1
\A1;100
1001
ACAD
1000
MTEXTBEGIN
1070
    73
1070
     1
1070
    44
1040
1.0
1070
    74
1070
     0
1000
MTEXTEND
1000
MTEXTBEGIN
1070
    73
1070
     1
1070
    44
1040
1.0
1070
    74
1070
     0
1000
MTEXTEND
  0
POINT
  5
BC7
330
8DA
100
AcDbEntity
  8
DEFPOINTS
  6
CONTINUOUS
 62
     0
100
AcDbPoint
 10
0.0
 20
10.64125603
 30
0.0
  0
POINT
  5
BC8
330
8DA
100
AcDbEntity
  8
DEFPOINTS
  6
CONTINUOUS
 62
     0
100
AcDbPoint
 10
100.0
 20
7.0
 30
0.0
  0
POINT
  5
BC9
330
8DA
100
AcDbEntity
  8
DEFPOINTS
  6
CONTINUOUS
 62
     0
100
AcDbPoint
 10
100.0
 20
21.0
 30
0.0
  0
ENDBLK
  5
8E5
330
8DA
100
AcDbEntity
  8
0
100
AcDbBlockEnd
  0
BLOCK
  5
BB6
330
BAC
100
AcDbEntity
  8
0
100
AcDbBlockBegin
  2
*D4
 70
     1
 10
0.0
 20
0.0
 30
0.0
  3
*D4
  1

  0
LINE
  5
BCA
330
BAC
100
AcDbEntity
  8
250
  6
CONTINUOUS
100
AcDbLine
 10
99.5
 20
-8.0
 30
0.0
 11
118.25
 21
-8.0
 31
0.0
  0
LINE
  5
BCB
330
BAC
100
AcDbEntity
  8
250
  6
CONTINUOUS
100
AcDbLine
 10
99.5
 20
8.0
 30
0.0
 11
118.25
 21
8.0
 31
0.0
  0
LINE
  5
BCC
330
BAC
100
AcDbEntity
  8
250
  6
CONTINUOUS
100
AcDbLine
 10
117.25
 20
-5.77
 30
0.0
 11
117.25
 21
5.77
 31
0.0
  0
INSERT
  5
BCD
330
BAC
100
AcDbEntity
  8
250
  6
CONTINUOUS
100
AcDbBlockReference
  2
_OPEN
 10
117.25
 20
-8.0
 30
0.0
 41
2.23
 42
2.23
 43
2.23
 50
270.0
  0
INSERT
  5
BCE
330
BAC
100
AcDbEntity
  8
250
  6
CONTINUOUS
100
AcDbBlockReference
  2
_OPEN
 10
117.25
 20
8.0
 30
0.0
 41
2.23
 42
2.23
 43
2.23
 50
90.0
  0
MTEXT
  5
BCF
330
BAC
100
AcDbEntity
  8
250
  6
CONTINUOUS
 62
    40
100
AcDbMText
 10
114.85
 20
0.0
 30
0.0
 40
2.8
 41
0.0
 71
     5
 72
     1
  1
\A1;{\H2.8;\U+2205}16
 11
0.0
 21
1.0
 31
0.0
1001
ACAD
1000
MTEXTBEGIN
1070
    73
1070
     1
1070
    44
1040
1.0
1070
    74
1070
     0
1000
MTEXTEND
1000
MTEXTBEGIN
1070
    73
1070
     1
1070
    44
1040
1.0
1070
    74
1070
     0
1000
MTEXTEND
  0
POINT
  5
BD0
330
BAC
100
AcDbEntity
  8
DEFPOINTS
  6
CONTINUOUS
 62
     0
100
AcDbPoint
 10
99.0
 20
-8.0
 30
0.0
  0
POINT
  5
BD1
330
BAC
100
AcDbEntity
  8
DEFPOINTS
  6
CONTINUOUS
 62
     0
100
AcDbPoint
 10
99.0
 20
8.0
 30
0.0
  0
POINT
  5
BD2
330
BAC
100
AcDbEntity
  8
DEFPOINTS
  6
CONTINUOUS
 62
     0
100
AcDbPoint
 10
117.25
 20
8.0
 30
0.0
  0
ENDBLK
  5
BB7
330
BAC
100
AcDbEntity
  8
0
100
AcDbBlockEnd
  0
ENDSEC
  0
SECTION
  2
ENTITIES
  0
INSERT
  5
6E6
330
1A
100
AcDbEntity
  8
245
100
AcDbBlockReference
  2
矢印なし
 10
175.62382697
 20
90.55123572
 30
0.0
  0
DIMENSION
  5
8D0
330
1A
100
AcDbEntity
  8
250
  6
CONTINUOUS
100
AcDbDimension
  2
*D3
 10
100.0
 20
21.0
 30
0.0
 11
49.8160488
 21
21.0
 31
0.0
 70
   160
  3
BIGT
100
AcDbAlignedDimension
 13
0.0
 23
10.64125603
 33
0.0
 14
100.0
 24
7.0
 34
0.0
100
AcDbRotatedDimension
  0
TEXT
  5
B9B
330
1A
100
AcDbEntity
  8
241
100
AcDbText
 10
-47.5
 20
35.0
 30
0.0
 40
5.0
  1
MGT6-M4-100
  7
YOKO
 11
-47.5
 21
35.0
 31
0.0
100
AcDbText
 73
     1
  0
LINE
  5
B9C
330
1A
100
AcDbEntity
  8
250
  6
CONTINUOUS
100
AcDbLine
 10
86.8414831
 20
14.06872346
 30
0.0
 11
97.82814976
 21
14.06872346
 31
0.0
1001
ITEMNAME
1000
LNSP2
  0
MTEXT
  5
B9D
330
1A
100
AcDbEntity
  8
251
  6
CONTINUOUS
100
AcDbMText
 10
89.6414831
 20
15.06872346
 30
0.0
 40
2.8
 41
0.0
 71
     7
 72
     1
  1
□4
  7
YOKO
1001
ITEMNAME
1000
LNSP3
1001
ACAD
1000
MTEXTBEGIN
1070
    73
1070
     1
1070
    44
1040
1.0
1070
    74
1070
     0
1000
MTEXTEND
1000
MTEXTBEGIN
1070
    73
1070
     1
1070
    44
1040
1.0
1070
    74
1070
     0
1000
MTEXTEND
1000
MTEXTBEGIN
1070
    73
1070
     1
1070
    44
1040
1.0
1070
    74
1070
     0
1000
MTEXTEND
1000
MTEXTBEGIN
1070
    73
1070
     1
1070
    44
1040
1.0
1070
    74
1070
     0
1000
MTEXTEND
  0
LEADER
  5
B9E
330
1A
100
AcDbEntity
  8
250
  6
CONTINUOUS
100
AcDbLeader
  3
BIGT
 76
     2
 10
81.63704303
 20
2.8991378
 30
0.0
 10
86.8414831
 20
14.06872346
 30
0.0
1001
ACAD
1000
DSTYLE
1002
{
1070
     6
1000
OPEN
1070
    41
1040
2.0
1070
    42
1040
2.0
1070
    44
1040
2.0
1070
   140
1040
4.0
1070
   343
1005
594
1002
}
  0
DIMENSION
  5
BA7
330
1A
100
AcDbEntity
  8
250
  6
CONTINUOUS
100
AcDbDimension
  2
*D4
 10
117.25
 20
8.0
 30
0.0
 11
114.85
 21
0.0
 31
0.0
 70
    32
  1
{\H2.8;\U+2205}<>
  3
BIGT
100
AcDbAlignedDimension
 13
99.0
 23
-8.0
 33
0.0
 14
99.0
 24
8.0
 34
0.0
 50
90.0
100
AcDbRotatedDimension
  0
LINE
  5
BA8
330
1A
100
AcDbEntity
  8
250
  6
CONTINUOUS
100
AcDbLine
 10
110.25
 20
-2.5
 30
0.0
 11
110.25
 21
2.5
 31
0.0
  0
MTEXT
  5
BA9
330
1A
100
AcDbEntity
  8
250
  6
CONTINUOUS
 62
    40
100
AcDbMText
 10
107.85
 20
-0.57085465
 30
0.0
 40
2.8
 41
0.0
 71
     5
 72
     1
  1
\A1;{\H2.8;\U+2205}5
 11
0.0
 21
1.0
 31
0.0
1001
ACAD
1000
MTEXTBEGIN
1070
    73
1070
     1
1070
    44
1040
1.0
1070
    74
1070
     0
1000
MTEXTEND
1000
MTEXTBEGIN
1070
    73
1070
     1
1070
    44
1040
1.0
1070
    74
1070
     0
1000
MTEXTEND
1000
MTEXTBEGIN
1070
    73
1070
     1
1070
    44
1040
1.0
1070
    74
1070
     0
1000
MTEXTEND
1000
MTEXTBEGIN
1070
    73
1070
     1
1070
    44
1040
1.0
1070
    74
1070
     0
1000
MTEXTEND
1000
MTEXTBEGIN
1070
    73
1070
     1
1070
    44
1040
1.0
1070
    74
1070
     0
1000
MTEXTEND
1000
MTEXTBEGIN
1070
    73
1070
     1
1070
    44
1040
1.0
1070
    74
1070
     0
1000
MTEXTEND
  0
LINE
  5
BAA
330
1A
100
AcDbEntity
  8
250
  6
CONTINUOUS
100
AcDbLine
 10
100.5
 20
2.5
 30
0.0
 11
111.25
 21
2.5
 31
0.0
  0
INSERT
  5
BAB
330
1A
100
AcDbEntity
  8
250
  6
CONTINUOUS
100
AcDbBlockReference
  2
_OPEN
 10
110.25
 20
2.5
 30
0.0
 41
2.23
 42
2.23
 43
2.23
 50
90.0
  0
INSERT
  5
1163
330
1A
100
AcDbEntity
  8
245
100
AcDbBlockReference
  2
1
 10
0.0
 20
0.0
 30
0.0
  0
VIEWPORT
  5
22
330
17
100
AcDbEntity
 67
     1
  8
0
100
AcDbViewport
 10
261.51769912
 20
148.5
 30
0.0
 40
523.03539823
 41
297.0
 68
     1
 69
     1
1001
ACAD
1000
MVIEW
1002
{
1070
    16
1010
0.0
1020
0.0
1030
0.0
1010
0.0
1020
0.0
1030
1.0
1040
0.0
1040
297.0
1040
261.51769912
1040
148.5
1040
50.0
1040
0.0
1040
0.0
1070
     0
1070
   100
1070
     1
1070
     1
1070
     0
1070
     0
1070
     0
1070
     0
1040
0.0
1040
0.0
1040
0.0
1040
1.0
1040
1.0
1040
10.0
1040
10.0
1070
     0
1002
{
1002
}
1002
}
  0
ENDSEC
  0
SECTION
  2
OBJECTS
  0
DICTIONARY
  5
C
330
0
100
AcDbDictionary
  3
ACAD_GROUP
350
D
  3
ACAD_LAYOUT
350
565
  3
ACAD_MLINESTYLE
350
E
  3
ACAD_PLOTSETTINGS
350
566
  3
ACAD_PLOTSTYLENAME
350
563
  3
ACDBHEADERROUNDTRIPXREC
350
1165
  3
GRADE_DWG
350
540
  0
DICTIONARY
  5
D5E
330
1A
100
AcDbDictionary
280
     1
  3
ACAD_LAYOUTSELFREF
360
1187
  0
DICTIONARY
  5
D5C
330
17
100
AcDbDictionary
280
     1
  3
ACAD_LAYOUTSELFREF
360
1186
  0
DICTIONARY
  5
D
102
{ACAD_REACTORS
330
C
102
}
330
C
100
AcDbDictionary
  3
*A1
350
6C7
  3
*A2
350
6C8
  3
*A3
350
6D4
  3
*A4
350
6D5
  3
DREC-1
350
5FC
  3
DREC-2
350
654
  3
DREC-3
350
673
  0
DICTIONARY
  5
565
102
{ACAD_REACTORS
330
C
102
}
330
C
100
AcDbDictionary
  0
DICTIONARY
  5
E
102
{ACAD_REACTORS
330
C
102
}
330
C
100
AcDbDictionary
  3
STANDARD
350
13
  0
DICTIONARY
  5
566
102
{ACAD_REACTORS
330
C
102
}
330
C
100
AcDbDictionary
  3
A3_0_5倍_
350
758
  3
A3_1倍_
350
757
  3
A3_1倍__2000_
350
707
  3
A3_2倍_
350
759
  3
A4_0_5倍_
350
755
  3
A4_1倍_
350
754
  3
A4_1倍__2000_
350
708
  3
A4_2倍_
350
756
  0
ACDBDICTIONARYWDFLT
  5
563
102
{ACAD_REACTORS
330
C
102
}
330
C
100
AcDbDictionary
281
     1
  3
Normal
350
564
100
AcDbDictionaryWithDefault
340
564
  0
DICTIONARY
  5
1165
102
{ACAD_REACTORS
330
C
102
}
330
C
100
AcDbDictionary
  3
CEPSNTYPE
350
116F
  3
DIMSTYLEDATA
350
1173
  3
FINGERPRINTGUID
350
1170
  3
HYPERLINKBASE
350
1168
  3
INSUNITS
350
116E
  3
LAYOUTDICT
350
116A
  3
LWETCUNION
350
116D
  3
PLOTSETDICT
350
116B
  3
PLOTSTYLNAMDICT
350
116C
  3
PSVPSCALE
350
1172
  3
PUCSBASE
350
1176
  3
PUCSORGBACK
350
117C
  3
PUCSORGBOTTOM
350
1178
  3
PUCSORGFRONT
350
117B
  3
PUCSORGLEFT
350
1179
  3
PUCSORGRIGHT
350
117A
  3
PUCSORGTOP
350
1177
  3
PUCSORTHOREF
350
1174
  3
PUCSORTHOVIEW
350
1175
  3
STYLESHEET
350
1169
  3
TSTACKALIGN
350
1166
  3
TSTACKSIZE
350
1167
  3
UCSBASE
350
117F
  3
UCSORGBACK
350
1185
  3
UCSORGBOTTOM
350
1181
  3
UCSORGFRONT
350
1184
  3
UCSORGLEFT
350
1182
  3
UCSORGRIGHT
350
1183
  3
UCSORGTOP
350
1180
  3
UCSORTHOREF
350
117D
  3
UCSORTHOVIEW
350
117E
  3
VERSIONGUID
350
1171
  0
DICTIONARY
  5
540
102
{ACAD_REACTORS
330
C
102
}
330
C
100
AcDbDictionary
  3
VERSION
350
560
  0
XRECORD
  5
1187
102
{ACAD_REACTORS
330
D5E
102
}
330
D5E
100
AcDbXrecord
340
1A
  0
XRECORD
  5
1186
102
{ACAD_REACTORS
330
D5C
102
}
330
D5C
100
AcDbXrecord
340
17
  0
GROUP
  5
6C7
102
{ACAD_REACTORS
330
D
102
}
330
D
100
AcDbGroup
300

 70
     0
 71
     1
1001
GRPNAME
1000
DMA00
  0
GROUP
  5
6C8
102
{ACAD_REACTORS
330
D
102
}
330
D
100
AcDbGroup
300

 70
     0
 71
     1
1001
GRPNAME
1000
DMA00
  0
GROUP
  5
6D4
102
{ACAD_REACTORS
330
D
102
}
330
D
100
AcDbGroup
300

 70
     0
 71
     1
1001
GRPNAME
1000
DMA00
  0
GROUP
  5
6D5
102
{ACAD_REACTORS
330
D
102
}
330
D
100
AcDbGroup
300

 70
     0
 71
     1
1001
GRPNAME
1000
DMA00
  0
GROUP
  5
5FC
102
{ACAD_REACTORS
330
D
102
}
330
D
100
AcDbGroup
300

 70
     0
 71
     1
1001
GRPNAME
1000
DREC-
1001
GPARA
1000
xsiz
1000
44.182
1000
ysiz
1000
40.677
1000
angl
1000
0
1000
ctyp
1000
0
1000
csiz
1000
5
1000
lfnt
1000
cont
1000
hcnt
1000
hoff
1000
vcnt
1000
voff
1000
opnt
1000
4
1000
dxpt
1000
0
1000
dypt
1000
0
  0
GROUP
  5
654
102
{ACAD_REACTORS
330
D
102
}
330
D
100
AcDbGroup
300

 70
     0
 71
     1
1001
GRPNAME
1000
DREC-
1001
GPARA
1000
xsiz
1000
54.592
1000
ysiz
1000
53.036
1000
angl
1000
0
1000
ctyp
1000
0
1000
csiz
1000
5
1000
lfnt
1000
cont
1000
hcnt
1000
hoff
1000
vcnt
1000
voff
1000
opnt
1000
4
1000
dxpt
1000
0
1000
dypt
1000
0
  0
GROUP
  5
673
102
{ACAD_REACTORS
330
D
102
}
330
D
100
AcDbGroup
300

 70
     0
 71
     1
1001
GRPNAME
1000
DREC-
1001
GPARA
1000
xsiz
1000
30.363
1000
ysiz
1000
36.175
1000
angl
1000
0
1000
ctyp
1000
0
1000
csiz
1000
5
1000
lfnt
1000
cont
1000
hcnt
1000
hoff
1000
vcnt
1000
voff
1000
opnt
1000
4
1000
dxpt
1000
0
1000
dypt
1000
0
  0
MLINESTYLE
  5
13
102
{ACAD_REACTORS
330
E
102
}
330
E
100
AcDbMlineStyle
  2
STANDARD
 70
     0
  3

 62
     0
 51
90.0
 52
90.0
 71
     2
 49
0.5
 62
   256
  6
BYLAYER
 49
-0.5
 62
   256
  6
BYLAYER
  0
PLOTSETTINGS
  5
758
102
{ACAD_REACTORS
330
566
102
}
330
566
100
AcDbPlotSettings
  1
A3(0.5倍)
  2
\\AWTECPC05\HP DeskJet 1120C
  4
A3
  6

 40
5.95841646
 41
13.49375153
 42
6.04309082
 43
3.67242432
 44
296.92599487
 45
419.94665527
 46
89.96
 47
127.14
 48
0.0
 49
0.0
140
0.0
141
0.0
142
1.0
143
2.0
 70
  1716
 72
     1
 73
     1
 74
     2
  7
big.ctb
 75
    17
147
0.5
148
0.0
149
0.0
  0
PLOTSETTINGS
  5
757
102
{ACAD_REACTORS
330
566
102
}
330
566
100
AcDbPlotSettings
  1
A3(1倍)
  2
\\AWTECPC05\HP DeskJet 1120C
  4
A3
  6

 40
5.95841646
 41
13.49375153
 42
6.04309082
 43
3.67242432
 44
296.92599487
 45
419.94665527
 46
37.46
 47
52.89
 48
0.0
 49
0.0
140
0.0
141
0.0
142
1.0
143
1.0
 70
  1716
 72
     1
 73
     1
 74
     2
  7
big.ctb
 75
    16
147
1.0
148
0.0
149
0.0
  0
PLOTSETTINGS
  5
707
102
{ACAD_REACTORS
330
566
102
}
330
566
100
AcDbPlotSettings
  1
A3(1倍)(2000)
  2
SII LS-1300 (D-SCAN)
  4
User258
  6

 40
3.17499995
 41
3.17499995
 42
3.17498779
 43
3.17498779
 44
419.98898315
 45
296.98950195
 46
58.32
 47
40.32
 48
0.0
 49
0.0
140
0.0
141
0.0
142
1.0
143
1.0
 70
  1716
 72
     1
 73
     0
 74
     2
  7
big.ctb
 75
    16
147
1.0
148
0.0
149
0.0
  0
PLOTSETTINGS
  5
759
102
{ACAD_REACTORS
330
566
102
}
330
566
100
AcDbPlotSettings
  1
A3(2倍)
  2
\\AWTECPC05\HP DeskJet 1120C
  4
A3
  6

 40
5.95841646
 41
13.49375153
 42
6.04309082
 43
3.67242432
 44
296.92599487
 45
419.94665527
 46
-67.54
 47
-95.61
 48
0.0
 49
0.0
140
0.0
141
0.0
142
1.0
143
0.5
 70
  1716
 72
     1
 73
     1
 74
     2
  7
big.ctb
 75
    27
147
2.0
148
0.0
149
0.0
  0
PLOTSETTINGS
  5
755
102
{ACAD_REACTORS
330
566
102
}
330
566
100
AcDbPlotSettings
  1
A4(0.5倍)
  2
\\AWTECPC05\HP DeskJet 1120C
  4
A4
  6

 40
4.18041658
 41
13.49374962
 42
4.18040466
 43
3.92642212
 44
209.97332764
 45
296.92599487
 46
48.31
 47
65.5
 48
0.0
 49
0.0
140
0.0
141
0.0
142
1.0
143
2.0
 70
  1716
 72
     1
 73
     1
 74
     2
  7
big.ctb
 75
    17
147
0.5
148
0.0
149
0.0
  0
PLOTSETTINGS
  5
754
102
{ACAD_REACTORS
330
566
102
}
330
566
100
AcDbPlotSettings
  1
A4(1倍)
  2
\\AWTECPC05\HP DeskJet 1120C
  4
A4
  6

 40
4.18041658
 41
13.49374962
 42
4.18040466
 43
3.92642212
 44
209.97332764
 45
296.92599487
 46
-4.19
 47
-8.75
 48
0.0
 49
0.0
140
0.0
141
0.0
142
1.0
143
1.0
 70
  1716
 72
     1
 73
     1
 74
     2
  7
big.ctb
 75
    16
147
1.0
148
0.0
149
0.0
  0
PLOTSETTINGS
  5
708
102
{ACAD_REACTORS
330
566
102
}
330
566
100
AcDbPlotSettings
  1
A4(1倍)(2000)
  2
SII LS-1300 (D-SCAN)
  4
User259
  6

 40
3.17499995
 41
3.17499995
 42
3.17498779
 43
3.17500305
 44
296.98950195
 45
209.99449158
 46
-3.18
 47
-3.18
 48
0.0
 49
0.0
140
0.0
141
0.0
142
1.0
143
1.0
 70
  1716
 72
     1
 73
     0
 74
     2
  7
big.ctb
 75
    16
147
1.0
148
0.0
149
0.0
  0
PLOTSETTINGS
  5
756
102
{ACAD_REACTORS
330
566
102
}
330
566
100
AcDbPlotSettings
  1
A4(2倍)
  2
\\AWTECPC05\HP DeskJet 1120C
  4
A4
  6

 40
4.18041658
 41
13.49374962
 42
4.18040466
 43
3.92642212
 44
209.97332764
 45
296.92599487
 46
-109.19
 47
-157.25
 48
0.0
 49
0.0
140
0.0
141
0.0
142
1.0
143
0.5
 70
  1716
 72
     1
 73
     1
 74
     2
  7
big.ctb
 75
    27
147
2.0
148
0.0
149
0.0
  0
ACDBPLACEHOLDER
  5
564
102
{ACAD_REACTORS
330
563
102
}
330
563
100
AcDbPlaceHolder
280
     0
  0
XRECORD
  5
116F
102
{ACAD_REACTORS
330
1165
102
}
330
1165
100
AcDbXrecord
 90
        0
  0
XRECORD
  5
1173
102
{ACAD_REACTORS
330
1165
102
}
330
1165
100
AcDbXrecord
1000
DSTYLE
1002
{
1070
    79
 70
     2
1070
   179
 70
     3
1070
   341
340
594
1070
   343
340
594
1070
   344
340
594
1070
   371
 70
    -1
1070
   372
 70
    -1
1002
}
  0
XRECORD
  5
1170
102
{ACAD_REACTORS
330
1165
102
}
330
1165
100
AcDbXrecord
  1
{51294030-9CB4-11D3-8E18-00A0C925D94D}
  0
XRECORD
  5
1168
102
{ACAD_REACTORS
330
1165
102
}
330
1165
100
AcDbXrecord
  1

  0
XRECORD
  5
116E
102
{ACAD_REACTORS
330
1165
102
}
330
1165
100
AcDbXrecord
 90
        0
  0
XRECORD
  5
116A
102
{ACAD_REACTORS
330
1165
102
}
330
1165
100
AcDbXrecord
340
565
  0
XRECORD
  5
116D
102
{ACAD_REACTORS
330
1165
102
}
330
1165
100
AcDbXrecord
 90
    10781
  0
XRECORD
  5
116B
102
{ACAD_REACTORS
330
1165
102
}
330
1165
100
AcDbXrecord
340
566
  0
XRECORD
  5
116C
102
{ACAD_REACTORS
330
1165
102
}
330
1165
100
AcDbXrecord
340
563
  0
XRECORD
  5
1172
102
{ACAD_REACTORS
330
1165
102
}
330
1165
100
AcDbXrecord
 40
0.0
  0
XRECORD
  5
1176
102
{ACAD_REACTORS
330
1165
102
}
330
1165
100
AcDbXrecord
340
0
  0
XRECORD
  5
117C
102
{ACAD_REACTORS
330
1165
102
}
330
1165
100
AcDbXrecord
 10
0.0
 20
0.0
 30
0.0
  0
XRECORD
  5
1178
102
{ACAD_REACTORS
330
1165
102
}
330
1165
100
AcDbXrecord
 10
0.0
 20
0.0
 30
0.0
  0
XRECORD
  5
117B
102
{ACAD_REACTORS
330
1165
102
}
330
1165
100
AcDbXrecord
 10
0.0
 20
0.0
 30
0.0
  0
XRECORD
  5
1179
102
{ACAD_REACTORS
330
1165
102
}
330
1165
100
AcDbXrecord
 10
0.0
 20
0.0
 30
0.0
  0
XRECORD
  5
117A
102
{ACAD_REACTORS
330
1165
102
}
330
1165
100
AcDbXrecord
 10
0.0
 20
0.0
 30
0.0
  0
XRECORD
  5
1177
102
{ACAD_REACTORS
330
1165
102
}
330
1165
100
AcDbXrecord
 10
0.0
 20
0.0
 30
0.0
  0
XRECORD
  5
1174
102
{ACAD_REACTORS
330
1165
102
}
330
1165
100
AcDbXrecord
340
0
  0
XRECORD
  5
1175
102
{ACAD_REACTORS
330
1165
102
}
330
1165
100
AcDbXrecord
 70
     0
  0
XRECORD
  5
1169
102
{ACAD_REACTORS
330
1165
102
}
330
1165
100
AcDbXrecord
  1
big.ctb
  0
XRECORD
  5
1166
102
{ACAD_REACTORS
330
1165
102
}
330
1165
100
AcDbXrecord
 90
        1
  0
XRECORD
  5
1167
102
{ACAD_REACTORS
330
1165
102
}
330
1165
100
AcDbXrecord
 90
       70
  0
XRECORD
  5
117F
102
{ACAD_REACTORS
330
1165
102
}
330
1165
100
AcDbXrecord
340
0
  0
XRECORD
  5
1185
102
{ACAD_REACTORS
330
1165
102
}
330
1165
100
AcDbXrecord
 10
0.0
 20
0.0
 30
0.0
  0
XRECORD
  5
1181
102
{ACAD_REACTORS
330
1165
102
}
330
1165
100
AcDbXrecord
 10
0.0
 20
0.0
 30
0.0
  0
XRECORD
  5
1184
102
{ACAD_REACTORS
330
1165
102
}
330
1165
100
AcDbXrecord
 10
0.0
 20
0.0
 30
0.0
  0
XRECORD
  5
1182
102
{ACAD_REACTORS
330
1165
102
}
330
1165
100
AcDbXrecord
 10
0.0
 20
0.0
 30
0.0
  0
XRECORD
  5
1183
102
{ACAD_REACTORS
330
1165
102
}
330
1165
100
AcDbXrecord
 10
0.0
 20
0.0
 30
0.0
  0
XRECORD
  5
1180
102
{ACAD_REACTORS
330
1165
102
}
330
1165
100
AcDbXrecord
 10
0.0
 20
0.0
 30
0.0
  0
XRECORD
  5
117D
102
{ACAD_REACTORS
330
1165
102
}
330
1165
100
AcDbXrecord
340
0
  0
XRECORD
  5
117E
102
{ACAD_REACTORS
330
1165
102
}
330
1165
100
AcDbXrecord
 70
     0
  0
XRECORD
  5
1171
102
{ACAD_REACTORS
330
1165
102
}
330
1165
100
AcDbXrecord
  1
{83AD7923-8B2C-4A0B-9D0D-6216F506C703}
  0
XRECORD
  5
560
102
{ACAD_REACTORS
330
540
102
}
330
540
100
AcDbXrecord
  1
2.0.0
  0
ENDSEC
  0
EOF
