  0
SECTION
  2
HEADER
  9
$ACADVER
  1
AC1014
  9
$ACADMAINTVER
 70
     9
  9
$DWGCODEPAGE
  3
ANSI_932
  9
$INSBASE
 10
0.0
 20
0.0
 30
0.0
  9
$EXTMIN
 10
-48.51429639
 20
-11.07006072
 30
-0.00152582
  9
$EXTMAX
 10
88.27689432
 20
40.00231253
 30
0.00000003
  9
$LIMMIN
 10
0.0
 20
0.0
  9
$LIMMAX
 10
420.0
 20
297.0
  9
$ORTHOMODE
 70
     1
  9
$REGENMODE
 70
     1
  9
$FILLMODE
 70
     1
  9
$QTEXTMODE
 70
     0
  9
$MIRRTEXT
 70
     1
  9
$DRAGMODE
 70
     2
  9
$LTSCALE
 40
10.0
  9
$OSMODE
 70
   549
  9
$ATTMODE
 70
     1
  9
$TEXTSIZE
 40
3.0
  9
$TRACEWID
 40
1.0
  9
$TEXTSTYLE
  7
YOKO
  9
$CLAYER
  8
245
  9
$CELTYPE
  6
BYLAYER
  9
$CECOLOR
 62
   256
  9
$CELTSCALE
 40
1.0
  9
$DELOBJ
 70
     1
  9
$DISPSILH
 70
     0
  9
$DIMSCALE
 40
1.0
  9
$DIMASZ
 40
2.0
  9
$DIMEXO
 40
2.0
  9
$DIMDLI
 40
2.5
  9
$DIMRND
 40
0.0
  9
$DIMDLE
 40
0.0
  9
$DIMEXE
 40
2.0
  9
$DIMTP
 40
0.0
  9
$DIMTM
 40
0.0
  9
$DIMTXT
 40
4.0
  9
$DIMCEN
 40
0.0
  9
$DIMTSZ
 40
0.0
  9
$DIMTOL
 70
     0
  9
$DIMLIM
 70
     0
  9
$DIMTIH
 70
     0
  9
$DIMTOH
 70
     0
  9
$DIMSE1
 70
     0
  9
$DIMSE2
 70
     0
  9
$DIMTAD
 70
     3
  9
$DIMZIN
 70
     8
  9
$DIMBLK
  1

  9
$DIMASO
 70
     1
  9
$DIMSHO
 70
     1
  9
$DIMPOST
  1

  9
$DIMAPOST
  1

  9
$DIMALT
 70
     0
  9
$DIMALTD
 70
     2
  9
$DIMALTF
 40
25.4
  9
$DIMLFAC
 40
1.0
  9
$DIMTOFL
 70
     1
  9
$DIMTVP
 40
0.0
  9
$DIMTIX
 70
     1
  9
$DIMSOXD
 70
     0
  9
$DIMSAH
 70
     1
  9
$DIMBLK1
  1
OPEN
  9
$DIMBLK2
  1
OPEN
  9
$DIMSTYLE
  2
BIGT
  9
$DIMCLRD
 70
   256
  9
$DIMCLRE
 70
   256
  9
$DIMCLRT
 70
    40
  9
$DIMTFAC
 40
1.0
  9
$DIMGAP
 40
1.0
  9
$DIMJUST
 70
     0
  9
$DIMSD1
 70
     0
  9
$DIMSD2
 70
     0
  9
$DIMTOLJ
 70
     1
  9
$DIMTZIN
 70
     8
  9
$DIMALTZ
 70
     0
  9
$DIMALTTZ
 70
     0
  9
$DIMFIT
 70
     3
  9
$DIMUPT
 70
     0
  9
$DIMUNIT
 70
     2
  9
$DIMDEC
 70
     3
  9
$DIMTDEC
 70
     3
  9
$DIMALTU
 70
     2
  9
$DIMALTTD
 70
     2
  9
$DIMTXSTY
  7
STANDARD
  9
$DIMAUNIT
 70
     0
  9
$LUNITS
 70
     2
  9
$LUPREC
 70
     3
  9
$SKETCHINC
 40
1.0
  9
$FILLETRAD
 40
0.0
  9
$AUNITS
 70
     0
  9
$AUPREC
 70
     3
  9
$MENU
  1
.
  9
$ELEVATION
 40
0.0
  9
$PELEVATION
 40
0.0
  9
$THICKNESS
 40
0.0
  9
$LIMCHECK
 70
     0
  9
$BLIPMODE
 70
     0
  9
$CHAMFERA
 40
10.0
  9
$CHAMFERB
 40
10.0
  9
$CHAMFERC
 40
0.0
  9
$CHAMFERD
 40
0.0
  9
$SKPOLY
 70
     0
  9
$TDCREATE
 40
2455128.437092372
  9
$TDUPDATE
 40
2455316.422207569
  9
$TDINDWG
 40
0.0033295255
  9
$TDUSRTIMER
 40
0.0033295255
  9
$USRTIMER
 70
     1
  9
$ANGBASE
 50
0.0
  9
$ANGDIR
 70
     0
  9
$PDMODE
 70
     1
  9
$PDSIZE
 40
-5.0
  9
$PLINEWID
 40
0.0
  9
$COORDS
 70
     0
  9
$SPLFRAME
 70
     0
  9
$SPLINETYPE
 70
     6
  9
$SPLINESEGS
 70
     8
  9
$ATTDIA
 70
     0
  9
$ATTREQ
 70
     1
  9
$HANDLING
 70
-16383
  9
$HANDSEED
  5
115B
  9
$SURFTAB1
 70
     6
  9
$SURFTAB2
 70
     6
  9
$SURFTYPE
 70
     6
  9
$SURFU
 70
     6
  9
$SURFV
 70
     6
  9
$UCSNAME
  2

  9
$UCSORG
 10
0.0
 20
0.0
 30
0.0
  9
$UCSXDIR
 10
1.0
 20
0.0
 30
0.0
  9
$UCSYDIR
 10
0.0
 20
1.0
 30
0.0
  9
$PUCSNAME
  2

  9
$PUCSORG
 10
0.0
 20
0.0
 30
0.0
  9
$PUCSXDIR
 10
1.0
 20
0.0
 30
0.0
  9
$PUCSYDIR
 10
0.0
 20
1.0
 30
0.0
  9
$USERI1
 70
     1
  9
$USERI2
 70
     0
  9
$USERI3
 70
     0
  9
$USERI4
 70
     0
  9
$USERI5
 70
     0
  9
$USERR1
 40
0.0
  9
$USERR2
 40
0.0
  9
$USERR3
 40
0.0
  9
$USERR4
 40
0.0
  9
$USERR5
 40
0.0
  9
$WORLDVIEW
 70
     1
  9
$SHADEDGE
 70
     3
  9
$SHADEDIF
 70
    70
  9
$TILEMODE
 70
     1
  9
$MAXACTVP
 70
    16
  9
$PINSBASE
 10
0.0
 20
0.0
 30
0.0
  9
$PLIMCHECK
 70
     0
  9
$PEXTMIN
 10
1.00000000E+20
 20
1.00000000E+20
 30
1.00000000E+20
  9
$PEXTMAX
 10
-1.00000000E+20
 20
-1.00000000E+20
 30
-1.00000000E+20
  9
$PLIMMIN
 10
0.0
 20
0.0
  9
$PLIMMAX
 10
420.0
 20
297.0
  9
$UNITMODE
 70
     0
  9
$VISRETAIN
 70
     0
  9
$PLINEGEN
 70
     0
  9
$PSLTSCALE
 70
     1
  9
$TREEDEPTH
 70
  3020
  9
$PICKSTYLE
 70
     0
  9
$CMLSTYLE
  2
STANDARD
  9
$CMLJUST
 70
     0
  9
$CMLSCALE
 40
1.0
  9
$PROXYGRAPHICS
 70
     1
  9
$MEASUREMENT
 70
     1
  0
ENDSEC
  0
SECTION
  2
CLASSES
  0
CLASS
  1
XRECORD
  2
AcDbXrecord
  3
AutoCAD 2000
 90
        0
280
     0
281
     0
  0
CLASS
  1
ACDBDICTIONARYWDFLT
  2
AcDbDictionaryWithDefault
  3
AutoCAD 2000
 90
        0
280
     0
281
     0
  0
CLASS
  1
ACDBPLACEHOLDER
  2
AcDbPlaceHolder
  3
AutoCAD 2000
 90
        0
280
     0
281
     0
  0
CLASS
  1
LAYOUT
  2
AcDbLayout
  3
AutoCAD 2000
 90
        0
280
     0
281
     0
  0
CLASS
  1
PLOTSETTINGS
  2
AcDbPlotSettings
  3
AutoCAD 2000
 90
        0
280
     0
281
     0
  0
CLASS
  1
LONG_TRANSACTION
  2
AcDbLongTransaction
  3
AutoCAD 2000
 90
        0
280
     0
281
     0
  0
CLASS
  1
LWPOLYLINE
  2
AcDbPolyline
  3
AutoCAD 2000
 90
        0
280
     0
281
     1
  0
CLASS
  1
HATCH
  2
AcDbHatch
  3
AutoCAD 2000
 90
        0
280
     0
281
     1
  0
CLASS
  1
XRECORD
  2
AcDbXrecord
  3
AutoCAD 2000
 90
        0
280
     0
281
     0
  0
CLASS
  1
LONG_TRANSACTION
  2
AcDbLongTransaction
  3
AutoCAD 2000
 90
        0
280
     0
281
     0
  0
CLASS
  1
LWPOLYLINE
  2
AcDbPolyline
  3
AutoCAD 2000
 90
        0
280
     0
281
     1
  0
CLASS
  1
HATCH
  2
AcDbHatch
  3
AutoCAD 2000
 90
        0
280
     0
281
     1
  0
CLASS
  1
XRECORD
  2
AcDbXrecord
  3
AutoCAD 2000
 90
        0
280
     0
281
     0
  0
ENDSEC
  0
SECTION
  2
TABLES
  0
TABLE
  2
VPORT
  5
8
330
0
100
AcDbSymbolTable
 70
     2
  0
VPORT
  5
1136
330
8
100
AcDbSymbolTableRecord
100
AcDbViewportTableRecord
  2
*ACTIVE
 70
     0
 10
0.0
 20
0.0
 11
1.0
 21
1.0
 12
19.88129896
 22
14.4661259
 13
0.0
 23
0.0
 14
7.0
 24
7.0
 15
7.0
 25
7.0
 16
0.0
 26
0.0
 36
1.0
 17
0.0
 27
0.0
 37
0.0
 40
96.04409615
 41
1.43184713
 42
50.0
 43
0.0
 44
0.0
 50
0.0
 51
0.0
 71
     0
 72
  2000
 73
     1
 74
     0
 75
     0
 76
     0
 77
     0
 78
     0
  0
ENDTAB
  0
TABLE
  2
LTYPE
  5
5
330
0
100
AcDbSymbolTable
 70
     3
  0
LTYPE
  5
14
330
5
100
AcDbSymbolTableRecord
100
AcDbLinetypeTableRecord
  2
BYBLOCK
 70
     0
  3

 72
    65
 73
     0
 40
0.0
  0
LTYPE
  5
15
330
5
100
AcDbSymbolTableRecord
100
AcDbLinetypeTableRecord
  2
BYLAYER
 70
     0
  3

 72
    65
 73
     0
 40
0.0
  0
LTYPE
  5
16
330
5
100
AcDbSymbolTableRecord
100
AcDbLinetypeTableRecord
  2
CONTINUOUS
 70
     0
  3
Solid line
 72
    65
 73
     0
 40
0.0
  0
LTYPE
  5
258
330
5
100
AcDbSymbolTableRecord
100
AcDbLinetypeTableRecord
  2
CENTER2
 70
     0
  3
___ _ ___ _ ___ _ ___ _ ___ _ ___ _ ___ _ ___ _
 72
    65
 73
     4
 40
1.125
 49
0.75
 74
     0
 49
-0.125
 74
     0
 49
0.125
 74
     0
 49
-0.125
 74
     0
  0
LTYPE
  5
25C
330
5
100
AcDbSymbolTableRecord
100
AcDbLinetypeTableRecord
  2
HIDDEN2
 70
     0
  3
_ _ _ _ _ _ _ _ _ _ _ _ _ _ _ _ _ _ _ _ _ _ _ _
 72
    65
 73
     2
 40
0.1875
 49
0.125
 74
     0
 49
-0.0625
 74
     0
  0
ENDTAB
  0
TABLE
  2
LAYER
  5
2
330
0
100
AcDbSymbolTable
 70
    12
  0
LAYER
  5
F
330
2
100
AcDbSymbolTableRecord
100
AcDbLayerTableRecord
  2
0
 70
     0
 62
     7
  6
CONTINUOUS
  0
LAYER
  5
1AA
330
2
100
AcDbSymbolTableRecord
100
AcDbLayerTableRecord
  2
240
 70
     0
 62
     4
  6
CONTINUOUS
  0
LAYER
  5
1AB
330
2
100
AcDbSymbolTableRecord
100
AcDbLayerTableRecord
  2
241
 70
     0
 62
   211
  6
CONTINUOUS
  0
LAYER
  5
1AD
330
2
100
AcDbSymbolTableRecord
100
AcDbLayerTableRecord
  2
243
 70
     0
 62
   211
  6
HIDDEN2
  0
LAYER
  5
1AE
330
2
100
AcDbSymbolTableRecord
100
AcDbLayerTableRecord
  2
244
 70
     0
 62
     3
  6
HIDDEN2
  0
LAYER
  5
1AF
330
2
100
AcDbSymbolTableRecord
100
AcDbLayerTableRecord
  2
245
 70
     0
 62
     2
  6
CENTER2
  0
LAYER
  5
21E
330
2
100
AcDbSymbolTableRecord
100
AcDbLayerTableRecord
  2
250
 70
     0
 62
     3
  6
CONTINUOUS
  0
LAYER
  5
21F
330
2
100
AcDbSymbolTableRecord
100
AcDbLayerTableRecord
  2
251
 70
     0
 62
    40
  6
CONTINUOUS
  0
LAYER
  5
5C4
330
2
100
AcDbSymbolTableRecord
100
AcDbLayerTableRecord
  2
DEFPOINTS
 70
     0
 62
     7
  6
CONTINUOUS
  0
LAYER
  5
8B9
330
2
100
AcDbSymbolTableRecord
100
AcDbLayerTableRecord
  2
AM_7
 70
     0
 62
     2
  6
CENTER2
  0
ENDTAB
  0
TABLE
  2
STYLE
  5
3
330
0
100
AcDbSymbolTable
 70
     2
  0
STYLE
  5
10
330
3
100
AcDbSymbolTableRecord
100
AcDbTextStyleTableRecord
  2
STANDARD
 70
     0
 40
0.0
 41
1.0
 50
0.0
 71
     0
 42
3.0
  3
romans.shx
  4
BIGFONT.SHX
  0
STYLE
  5
339
330
3
100
AcDbSymbolTableRecord
100
AcDbTextStyleTableRecord
  2
YOKO
 70
     0
 40
0.0
 41
1.0
 50
0.0
 71
     0
 42
3.0
  3
romans.shx
  4
extfont.shx
  0
ENDTAB
  0
TABLE
  2
VIEW
  5
6
330
0
100
AcDbSymbolTable
 70
     0
  0
ENDTAB
  0
TABLE
  2
UCS
  5
7
330
0
100
AcDbSymbolTable
 70
     0
  0
ENDTAB
  0
TABLE
  2
APPID
  5
9
330
0
100
AcDbSymbolTable
 70
    15
  0
APPID
  5
11
330
9
100
AcDbSymbolTableRecord
100
AcDbRegAppTableRecord
  2
ACAD
 70
     0
  0
APPID
  5
1B1
330
9
100
AcDbSymbolTableRecord
100
AcDbRegAppTableRecord
  2
GLOBAL
 70
     0
  0
APPID
  5
2A4
330
9
100
AcDbSymbolTableRecord
100
AcDbRegAppTableRecord
  2
DETAIL
 70
     0
  0
APPID
  5
5FD
330
9
100
AcDbSymbolTableRecord
100
AcDbRegAppTableRecord
  2
GRPNAME
 70
     0
  0
APPID
  5
5FE
330
9
100
AcDbSymbolTableRecord
100
AcDbRegAppTableRecord
  2
GPARA
 70
     0
  0
APPID
  5
6C4
330
9
100
AcDbSymbolTableRecord
100
AcDbRegAppTableRecord
  2
DCO15
 70
     0
  0
APPID
  5
6C5
330
9
100
AcDbSymbolTableRecord
100
AcDbRegAppTableRecord
  2
ITEMNAME
 70
     0
  0
APPID
  5
6C6
330
9
100
AcDbSymbolTableRecord
100
AcDbRegAppTableRecord
  2
GRADE_0
 70
     0
  0
APPID
  5
8BA
330
9
100
AcDbSymbolTableRecord
100
AcDbRegAppTableRecord
  2
GENIUS_GENODEF_13
 70
     0
  0
APPID
  5
8BB
330
9
100
AcDbSymbolTableRecord
100
AcDbRegAppTableRecord
  2
GENIUS_GENOREF_13
 70
     0
  0
APPID
  5
8BC
330
9
100
AcDbSymbolTableRecord
100
AcDbRegAppTableRecord
  2
GENIUS_GENOBJ-N-FIL_13
 70
     0
  0
APPID
  5
8BD
330
9
100
AcDbSymbolTableRecord
100
AcDbRegAppTableRecord
  2
HATCH_TYPE
 70
     0
  0
APPID
  5
8BE
330
9
100
AcDbSymbolTableRecord
100
AcDbRegAppTableRecord
  2
HATCH_DISPLAY
 70
     0
  0
APPID
  5
8BF
330
9
100
AcDbSymbolTableRecord
100
AcDbRegAppTableRecord
  2
HATCH_DISTANCE
 70
     0
  0
APPID
  5
C02
330
9
100
AcDbSymbolTableRecord
100
AcDbRegAppTableRecord
  2
CONTENTBLOCKICON
 70
     0
  0
ENDTAB
  0
TABLE
  2
DIMSTYLE
  5
A
330
0
100
AcDbSymbolTable
 70
     1
  0
DIMSTYLE
105
725
102
{ACAD_REACTORS
330
F91
330
E96
102
}
330
A
100
AcDbSymbolTableRecord
100
AcDbDimStyleTableRecord
  2
BIGT
 70
     0
  3

  4

  5

  6
OPEN
  7
OPEN
 40
1.0
 41
2.23
 42
0.5
 43
2.5
 44
1.0
 45
0.0
 46
0.0
 47
0.0
 48
0.0
140
2.8
141
0.0
142
0.0
143
25.4
144
1.0
145
0.0
146
1.0
147
1.0
 71
     0
 72
     0
 73
     0
 74
     0
 75
     0
 76
     0
 77
     3
 78
     8
170
     0
171
     2
172
     1
173
     1
174
     1
175
     0
176
   256
177
   256
178
    40
270
     2
271
     3
272
     3
273
     2
274
     2
340
10
275
     0
280
     0
281
     0
282
     0
283
     1
284
     8
285
     0
286
     0
287
     3
288
     0
  0
ENDTAB
  0
TABLE
  2
BLOCK_RECORD
  5
1
330
0
100
AcDbSymbolTable
 70
    10
  0
BLOCK_RECORD
  5
1A
102
{ACAD_XDICTIONARY
360
C00
102
}
330
1
100
AcDbSymbolTableRecord
100
AcDbBlockTableRecord
  2
*MODEL_SPACE
  0
BLOCK_RECORD
  5
17
102
{ACAD_XDICTIONARY
360
BFE
102
}
330
1
100
AcDbSymbolTableRecord
100
AcDbBlockTableRecord
  2
*PAPER_SPACE
  0
BLOCK_RECORD
  5
594
330
1
100
AcDbSymbolTableRecord
100
AcDbBlockTableRecord
  2
_OPEN
  0
BLOCK_RECORD
  5
6E3
330
1
100
AcDbSymbolTableRecord
100
AcDbBlockTableRecord
  2
矢印なし
  0
BLOCK_RECORD
  5
762
330
1
100
AcDbSymbolTableRecord
100
AcDbBlockTableRecord
  2
1
1001
CONTENTBLOCKICON
1071
        0
1004
2800000020000000200000000100080000000000000400000000000000000000000000000000000000000000000080000080000000808000800000008000800080800000C0C0C000C0DCC000F0CAA6000020400000206000002080000020A0000020C0000020E00000400000004020000040400000406000004080000040A0
1004
000040C0000040E00000600000006020000060400000606000006080000060A0000060C0000060E00000800000008020000080400000806000008080000080A0000080C0000080E00000A0000000A0200000A0400000A0600000A0800000A0A00000A0C00000A0E00000C0000000C0200000C0400000C0600000C0800000C0
1004
A00000C0C00000C0E00000E0000000E0200000E0400000E0600000E0800000E0A00000E0C00000E0E00040000000400020004000400040006000400080004000A0004000C0004000E00040200000402020004020400040206000402080004020A0004020C0004020E000404000004040200040404000404060004040800040
1004
40A0004040C0004040E00040600000406020004060400040606000406080004060A0004060C0004060E00040800000408020004080400040806000408080004080A0004080C0004080E00040A0000040A0200040A0400040A0600040A0800040A0A00040A0C00040A0E00040C0000040C0200040C0400040C0600040C08000
1004
40C0A00040C0C00040C0E00040E0000040E0200040E0400040E0600040E0800040E0A00040E0C00040E0E00080000000800020008000400080006000800080008000A0008000C0008000E00080200000802020008020400080206000802080008020A0008020C0008020E00080400000804020008040400080406000804080
1004
008040A0008040C0008040E00080600000806020008060400080606000806080008060A0008060C0008060E00080800000808020008080400080806000808080008080A0008080C0008080E00080A0000080A0200080A0400080A0600080A0800080A0A00080A0C00080A0E00080C0000080C0200080C0400080C0600080C0
1004
800080C0A00080C0C00080C0E00080E0000080E0200080E0400080E0600080E0800080E0A00080E0C00080E0E000C0000000C0002000C0004000C0006000C0008000C000A000C000C000C000E000C0200000C0202000C0204000C0206000C0208000C020A000C020C000C020E000C0400000C0402000C0404000C0406000C0
1004
408000C040A000C040C000C040E000C0600000C0602000C0604000C0606000C0608000C060A000C060C000C060E000C0800000C0802000C0804000C0806000C0808000C080A000C080C000C080E000C0A00000C0A02000C0A04000C0A06000C0A08000C0A0A000C0A0C000C0A0E000C0C00000C0C02000C0C04000C0C06000
1004
C0C08000C0C0A000F0FBFF00A4A0A000808080000000FF0000FF000000FFFF00FF000000FF00FF00FFFF0000FFFFFF0000000000000000000000000000000000000000000000000000000000000000000000000000000000000000000000000000000000000000000000000000000000000000000000000000000000000000
1004
00000000000000000000000000000000000000000000000000000000000000000000000000000000000000000000000000000000000000000000000000000000000000000000000000000000000000000000000000000000000000000000000000000000000000000000000000000000000000000000000000000000000000
1004
00000000000000000000000000000000000000000000000000000000000000000000000000000000000000000000000000000000000000000000000000000000000000000000000000000000000000000000000000000000000000000000000000000000000000000000000000000000000000000000000000000000000000
1004
000000000000000000000000000000000000000000000000000000000000000000000000000000000000000000000000000000000000000000000000000000000000000000000000000000000000000000000000000000000000000000FEFEFEFE0000000000000000000000000000000000000000FEFEFEE7FEFEFEFEFEFE
1004
E7FEFEFEFEFEFEFEFEFEFEFEFEFEFEFEFEFE00000000FE00E7E700E7FBFBE7E7E7E70000000000000000000000E7E70000FE000000FBFEFBE7E7FBE7FBE7E7E7E7E7FFFFFFFFFFFFFFFFFFFFE7E7E7E7E7FEFB000000FEFEFEE7FEFEFEFEFEFEE7FEFFFFFFFFFFFFFFFFFEFFFFFEE7FEFEFE000000000000000000000000FE
1004
FEFEFE00000000000000000000000000000000000000000000000000000000000000000000000000000000000000000000000000000000000000000000000000000000000000000000000000000000000000000000000000000000000000000000000000000000000000000000000000000000000000000000000000000000
1004
00000000000000000000000000000000000000000000000000000000000000000000000000000000000000000000000000000000000000000000000000000000000000000000000000000000000000000000000000000000000000000000000000000000000000000000000000000000000000000000000000000000000000
1004
00000000000000000000000000000000000000000000000000000000000000000000000000000000000000000000000000000000000000000000000000000000000000000000000000000000000000000000000000000000000000000000000000000000000000000000000000000000000000000000000000000000000000
1004
0000000000000000000000000000000000000000000000000000000000000000000000000000000000000000000000000000000000000000
  0
BLOCK_RECORD
  5
FB6
330
1
100
AcDbSymbolTableRecord
100
AcDbBlockTableRecord
  2
*D8
  0
BLOCK_RECORD
  5
FC2
330
1
100
AcDbSymbolTableRecord
100
AcDbBlockTableRecord
  2
*D9
  0
ENDTAB
  0
ENDSEC
  0
SECTION
  2
BLOCKS
  0
BLOCK
  5
1B
330
1A
100
AcDbEntity
  8
0
100
AcDbBlockBegin
  2
*MODEL_SPACE
 70
     0
 10
0.0
 20
0.0
 30
0.0
  3
*MODEL_SPACE
  1

  0
ENDBLK
  5
1C
330
1A
100
AcDbEntity
  8
0
100
AcDbBlockEnd
  0
BLOCK
  5
18
330
17
100
AcDbEntity
 67
     1
  8
0
100
AcDbBlockBegin
  2
*PAPER_SPACE
 70
     0
 10
0.0
 20
0.0
 30
0.0
  3
*PAPER_SPACE
  1

  0
ENDBLK
  5
19
330
17
100
AcDbEntity
 67
     1
  8
0
100
AcDbBlockEnd
  0
BLOCK
  5
598
330
594
100
AcDbEntity
  8
0
100
AcDbBlockBegin
  2
_OPEN
 70
     0
 10
0.0
 20
0.0
 30
0.0
  3
_OPEN
  1

  0
LINE
  5
595
330
594
100
AcDbEntity
  8
0
  6
BYBLOCK
 62
     0
100
AcDbLine
 10
-1.0
 20
0.16666667
 30
0.0
 11
0.0
 21
0.0
 31
0.0
  0
LINE
  5
596
330
594
100
AcDbEntity
  8
0
  6
BYBLOCK
 62
     0
100
AcDbLine
 10
-1.0
 20
-0.16666667
 30
0.0
 11
0.0
 21
0.0
 31
0.0
  0
LINE
  5
597
330
594
100
AcDbEntity
  8
0
  6
BYBLOCK
 62
     0
100
AcDbLine
 10
0.0
 20
0.0
 30
0.0
 11
-1.0
 21
0.0
 31
0.0
  0
ENDBLK
  5
599
330
594
100
AcDbEntity
  8
0
100
AcDbBlockEnd
  0
BLOCK
  5
6E4
330
6E3
100
AcDbEntity
  8
0
100
AcDbBlockBegin
  2
矢印なし
 70
     0
 10
0.0
 20
0.0
 30
0.0
  3
矢印なし
  1

  0
ENDBLK
  5
6E5
330
6E3
100
AcDbEntity
  8
0
100
AcDbBlockEnd
  0
BLOCK
  5
89F
330
762
100
AcDbEntity
  8
0
100
AcDbBlockBegin
  2
1
 70
     0
 10
0.0
 20
0.0
 30
0.0
  3
1
  1

  0
LINE
  5
1017
330
762
100
AcDbEntity
  8
240
100
AcDbLine
 10
50.0
 20
8.0
 30
0.0
 11
1.57117457
 21
8.0
 31
0.0
  0
LINE
  5
1018
330
762
100
AcDbEntity
  8
240
100
AcDbLine
 10
50.0
 20
-8.0
 30
0.0
 11
1.57117457
 21
-8.0
 31
0.0
  0
LINE
  5
1019
330
762
100
AcDbEntity
  8
AM_7
100
AcDbLine
 10
-48.5
 20
0.0
 30
0.0
 11
71.0
 21
0.0
 31
0.0
1001
GENIUS_GENOREF_13
1005
0
  0
TEXT
  5
101A
330
762
100
AcDbEntity
  8
0
100
AcDbText
 10
16.35859538
 20
2.45479957
 30
0.0
 40
2.88
  1
MGT6-M3-70
  7
YOKO
100
AcDbText
  0
LINE
  5
101B
330
762
100
AcDbEntity
  8
240
100
AcDbLine
 10
-34.0
 20
-6.0
 30
0.0
 11
-29.0
 21
-6.0
 31
0.0
  0
LINE
  5
101C
330
762
100
AcDbEntity
  8
240
100
AcDbLine
 10
-34.0
 20
6.0
 30
0.0
 11
-29.0
 21
6.0
 31
0.0
  0
LINE
  5
101D
330
762
100
AcDbEntity
  8
AM_7
100
AcDbLine
 10
-34.0
 20
-8.0
 30
0.0
 11
-34.0
 21
8.0
 31
0.0
  0
LINE
  5
101E
330
762
100
AcDbEntity
  8
243
100
AcDbLine
 10
-36.5
 20
6.0
 30
0.0
 11
-36.5
 21
-6.0
 31
0.0
  0
LINE
  5
101F
330
762
100
AcDbEntity
  8
240
100
AcDbLine
 10
-47.5
 20
-7.0
 30
0.0
 11
-47.5
 21
0.0
 31
0.0
  0
LINE
  5
1020
330
762
100
AcDbEntity
  8
240
100
AcDbLine
 10
-46.5
 20
-8.0
 30
0.0
 11
-41.0
 21
-8.0
 31
0.0
  0
ARC
  5
1021
330
762
100
AcDbEntity
  8
240
100
AcDbCircle
 10
-46.5
 20
-7.0
 30
0.0
 40
1.0
100
AcDbArc
 50
180.0
 51
270.0
  0
LINE
  5
1022
330
762
100
AcDbEntity
  8
240
100
AcDbLine
 10
-39.0
 20
-6.0
 30
0.0
 11
-41.0
 21
-8.0
 31
0.0
  0
LINE
  5
1023
330
762
100
AcDbEntity
  8
240
100
AcDbLine
 10
-39.0
 20
-6.0
 30
0.0
 11
-34.0
 21
-6.0
 31
0.0
  0
LINE
  5
1024
330
762
100
AcDbEntity
  8
240
100
AcDbLine
 10
-46.5
 20
8.0
 30
0.0
 11
-41.0
 21
8.0
 31
0.0
  0
LINE
  5
1025
330
762
100
AcDbEntity
  8
240
100
AcDbLine
 10
-47.5
 20
7.0
 30
0.0
 11
-47.5
 21
0.0
 31
0.0
  0
ARC
  5
1026
330
762
100
AcDbEntity
  8
240
100
AcDbCircle
 10
-46.5
 20
7.0
 30
0.0
 40
1.0
100
AcDbArc
 50
90.0
 51
180.0
  0
LINE
  5
1027
330
762
100
AcDbEntity
  8
240
100
AcDbLine
 10
-39.0
 20
6.0
 30
0.0
 11
-34.0
 21
6.0
 31
0.0
  0
LINE
  5
1028
330
762
100
AcDbEntity
  8
240
100
AcDbLine
 10
-39.0
 20
6.0
 30
0.0
 11
-41.0
 21
8.0
 31
0.0
  0
LINE
  5
1029
330
762
100
AcDbEntity
  8
243
100
AcDbLine
 10
-31.5
 20
6.0
 30
0.0
 11
-31.5
 21
-6.0
 31
0.0
  0
ELLIPSE
  5
102A
330
762
100
AcDbEntity
  8
241
100
AcDbEllipse
 10
-20.0
 20
-2.64927664
 30
0.0
 11
-2.000000000000023
 21
0.0
 31
0.0
210
0.0
220
0.0
230
1.0
 40
0.93969262
 41
0.0
 42
6.283185307179584
  0
LINE
  5
102B
330
762
100
AcDbEntity
  8
241
100
AcDbLine
 10
-25.5
 20
-7.0
 30
0.0
 11
-25.5
 21
0.0
 31
0.0
  0
LINE
  5
102C
330
762
100
AcDbEntity
  8
241
100
AcDbLine
 10
-23.5
 20
-7.0
 30
0.0
 11
-23.5
 21
0.0
 31
0.0
  0
LINE
  5
102D
330
762
100
AcDbEntity
  8
241
100
AcDbLine
 10
-16.5
 20
-7.0
 30
0.0
 11
-16.5
 21
0.0
 31
0.0
  0
LINE
  5
102E
330
762
100
AcDbEntity
  8
241
100
AcDbLine
 10
-14.5
 20
-7.0
 30
0.0
 11
-14.5
 21
0.0
 31
0.0
  0
LINE
  5
102F
330
762
100
AcDbEntity
  8
241
100
AcDbLine
 10
-4.0
 20
-10.0
 30
0.0
 11
-4.0
 21
0.0
 31
0.0
  0
LINE
  5
1030
330
762
100
AcDbEntity
  8
241
100
AcDbLine
 10
-2.0
 20
-10.0
 30
0.0
 11
-2.0
 21
0.0
 31
0.0
  0
LINE
  5
1031
330
762
100
AcDbEntity
  8
241
100
AcDbLine
 10
0.0
 20
-10.64125603
 30
0.0
 11
0.0
 21
0.0
 31
0.0
  0
LINE
  5
1032
330
762
100
AcDbEntity
  8
AM_7
100
AcDbLine
 10
-20.0
 20
-0.7698914
 30
0.0
 11
-20.0
 21
-4.52866188
 31
0.0
  0
LINE
  5
1033
330
762
100
AcDbEntity
  8
241
100
AcDbLine
 10
-11.0
 20
-8.0
 30
0.0
 11
-11.0
 21
0.0
 31
0.0
  0
LINE
  5
1034
330
762
100
AcDbEntity
  8
241
  6
CONTINUOUS
100
AcDbLine
 10
-6.5
 20
-10.50000001
 30
0.0
 11
-6.5
 21
0.0
 31
0.0
  0
LINE
  5
1035
330
762
100
AcDbEntity
  8
241
100
AcDbLine
 10
-5.12626129
 20
-11.0
 30
0.0
 11
-5.12626129
 21
0.0
 31
0.0
  0
LINE
  5
1036
330
762
100
AcDbEntity
  8
241
100
AcDbLine
 10
0.80384758
 20
-8.35874397
 30
0.0
 11
0.80384758
 21
0.0
 31
0.0
  0
ARC
  5
1037
330
762
100
AcDbEntity
  8
240
100
AcDbCircle
 10
-15.5
 20
-7.0
 30
0.0
 40
1.000000000003004
100
AcDbArc
 50
180.0
 51
0.0
  0
ARC
  5
1038
330
762
100
AcDbEntity
  8
240
100
AcDbCircle
 10
-24.5
 20
-7.0
 30
0.0
 40
1.000000000003004
100
AcDbArc
 50
180.0
 51
0.0
  0
LINE
  5
1039
330
762
100
AcDbEntity
  8
240
100
AcDbLine
 10
-29.0
 20
-6.0
 30
0.0
 11
-27.0
 21
-8.0
 31
0.0
  0
LINE
  5
103A
330
762
100
AcDbEntity
  8
240
100
AcDbLine
 10
-25.5
 20
-7.0
 30
0.0
 11
-25.5
 21
-8.0
 31
0.0
  0
LINE
  5
103B
330
762
100
AcDbEntity
  8
240
100
AcDbLine
 10
-27.0
 20
-8.0
 30
0.0
 11
-25.5
 21
-8.0
 31
0.0
  0
LINE
  5
103C
330
762
100
AcDbEntity
  8
240
100
AcDbLine
 10
-23.5
 20
-7.0
 30
0.0
 11
-23.5
 21
-8.0
 31
0.0
  0
LINE
  5
103D
330
762
100
AcDbEntity
  8
240
100
AcDbLine
 10
-16.5
 20
-7.0
 30
0.0
 11
-16.5
 21
-8.0
 31
0.0
  0
LINE
  5
103E
330
762
100
AcDbEntity
  8
240
100
AcDbLine
 10
-23.5
 20
-8.0
 30
0.0
 11
-16.5
 21
-8.0
 31
0.0
  0
LINE
  5
103F
330
762
100
AcDbEntity
  8
AM_7
100
AcDbLine
 10
-21.99786162
 20
-2.73616115
 30
0.0
 11
-18.00213838
 21
-2.73616115
 31
0.0
  0
LINE
  5
1040
330
762
100
AcDbEntity
  8
240
100
AcDbLine
 10
-6.5
 20
-10.50000001
 30
0.0
 11
-5.12626128
 21
-11.0
 31
0.0
  0
LINE
  5
1041
330
762
100
AcDbEntity
  8
240
100
AcDbLine
 10
-14.5
 20
-7.0
 30
0.0
 11
-14.5
 21
-8.0
 31
0.0
  0
LINE
  5
1042
330
762
100
AcDbEntity
  8
240
100
AcDbLine
 10
-10.7
 20
-7.7
 30
0.0
 11
-11.0
 21
-8.0
 31
0.0
  0
LINE
  5
1043
330
762
100
AcDbEntity
  8
240
100
AcDbLine
 10
-14.5
 20
-8.0
 30
0.0
 11
-11.0
 21
-8.0
 31
0.0
  0
LINE
  5
1044
330
762
100
AcDbEntity
  8
241
100
AcDbLine
 10
-6.5
 20
-8.2
 30
0.0
 11
-9.5
 21
-8.2
 31
0.0
  0
LINE
  5
1045
330
762
100
AcDbEntity
  8
240
100
AcDbLine
 10
-9.5
 20
-8.5
 30
0.0
 11
-10.0
 21
-9.0
 31
0.0
  0
LINE
  5
1046
330
762
100
AcDbEntity
  8
240
100
AcDbLine
 10
-10.7
 20
-7.7
 30
0.0
 11
-9.5
 21
-7.7
 31
0.0
  0
LINE
  5
1047
330
762
100
AcDbEntity
  8
240
100
AcDbLine
 10
-9.5
 20
-8.5
 30
0.0
 11
-9.5
 21
-7.7
 31
0.0
  0
LINE
  5
1048
330
762
100
AcDbEntity
  8
240
100
AcDbLine
 10
-10.0
 20
-10.5
 30
0.0
 11
-10.0
 21
-9.0
 31
0.0
  0
LINE
  5
1049
330
762
100
AcDbEntity
  8
240
100
AcDbLine
 10
-6.50000001
 20
-10.5
 30
0.0
 11
-10.0
 21
-10.5
 31
0.0
  0
LINE
  5
104A
330
762
100
AcDbEntity
  8
240
100
AcDbLine
 10
-0.63567449
 20
-11.0
 30
0.0
 11
-2.0
 21
-11.0
 31
0.0
  0
ARC
  5
104B
330
762
100
AcDbEntity
  8
240
100
AcDbCircle
 10
-3.0
 20
-10.0
 30
0.0
 40
1.000000000000075
100
AcDbArc
 50
180.0
 51
0.0
  0
LINE
  5
104C
330
762
100
AcDbEntity
  8
240
100
AcDbLine
 10
-2.0
 20
-10.0
 30
0.0
 11
-2.0
 21
-11.0
 31
0.0
  0
LINE
  5
104D
330
762
100
AcDbEntity
  8
240
100
AcDbLine
 10
-4.0
 20
-10.0
 30
0.0
 11
-4.0
 21
-11.0
 31
0.0
  0
LINE
  5
104E
330
762
100
AcDbEntity
  8
240
100
AcDbLine
 10
-4.0
 20
-11.0
 30
0.0
 11
-5.12626129
 21
-11.0
 31
0.0
  0
LINE
  5
104F
330
762
100
AcDbEntity
  8
240
100
AcDbLine
 10
-0.50850794
 20
-10.96592583
 30
0.0
 11
-0.63567449
 21
-11.0
 31
0.0
  0
ARC
  5
1050
330
762
100
AcDbEntity
  8
240
100
AcDbCircle
 10
-0.76732699
 20
-10.0
 30
0.0
 40
1.0
100
AcDbArc
 50
285.0
 51
345.0
1001
GENIUS_GENOBJ-N-FIL_13
1002
{
1000
OWNER
1000
GEN
1002
}
1001
GENIUS_GENODEF_13
1002
{
1000
HIER
1070
     0
1002
}
1002
{
1000
MANEDIT
1070
     0
1002
}
1002
{
1000
NOSEL
1070
     0
1002
}
1002
{
1000
BEHIND
1070
     0
1002
}
1002
{
1000
OTHER
1070
     0
1002
}
1002
{
1000
REACTOR
1002
}
  0
LINE
  5
1051
330
762
100
AcDbEntity
  8
240
100
AcDbLine
 10
0.19859884
 20
-10.25881905
 30
0.0
 11
0.60524874
 21
-8.74118096
 31
0.0
  0
ARC
  5
1052
330
762
100
AcDbEntity
  8
240
100
AcDbCircle
 10
1.57117457
 20
-9.0
 30
0.0
 40
1.0
100
AcDbArc
 50
90.0
 51
165.00000008
  0
ARC
  5
1053
330
762
100
AcDbEntity
  8
240
100
AcDbCircle
 10
-15.5
 20
7.0
 30
0.0
 40
1.000000000003004
100
AcDbArc
 50
0.0
 51
180.0
  0
ARC
  5
1054
330
762
100
AcDbEntity
  8
240
100
AcDbCircle
 10
-24.5
 20
7.0
 30
0.0
 40
1.000000000003004
100
AcDbArc
 50
0.0
 51
180.0
  0
LINE
  5
1055
330
762
100
AcDbEntity
  8
241
100
AcDbLine
 10
-25.5
 20
7.0
 30
0.0
 11
-25.5
 21
0.0
 31
0.0
  0
LINE
  5
1056
330
762
100
AcDbEntity
  8
240
100
AcDbLine
 10
-29.0
 20
6.0
 30
0.0
 11
-27.0
 21
8.0
 31
0.0
  0
LINE
  5
1057
330
762
100
AcDbEntity
  8
240
100
AcDbLine
 10
-25.5
 20
7.0
 30
0.0
 11
-25.5
 21
8.0
 31
0.0
  0
LINE
  5
1058
330
762
100
AcDbEntity
  8
240
100
AcDbLine
 10
-27.0
 20
8.0
 30
0.0
 11
-25.5
 21
8.0
 31
0.0
  0
LINE
  5
1059
330
762
100
AcDbEntity
  8
241
100
AcDbLine
 10
-23.5
 20
7.0
 30
0.0
 11
-23.5
 21
0.0
 31
0.0
  0
LINE
  5
105A
330
762
100
AcDbEntity
  8
241
100
AcDbLine
 10
-16.5
 20
7.0
 30
0.0
 11
-16.5
 21
0.0
 31
0.0
  0
LINE
  5
105B
330
762
100
AcDbEntity
  8
240
100
AcDbLine
 10
-23.5
 20
8.0
 30
0.0
 11
-16.5
 21
8.0
 31
0.0
  0
LINE
  5
105C
330
762
100
AcDbEntity
  8
240
100
AcDbLine
 10
-23.5
 20
7.0
 30
0.0
 11
-23.5
 21
8.0
 31
0.0
  0
LINE
  5
105D
330
762
100
AcDbEntity
  8
240
100
AcDbLine
 10
-16.5
 20
7.0
 30
0.0
 11
-16.5
 21
8.0
 31
0.0
  0
LINE
  5
105E
330
762
100
AcDbEntity
  8
240
100
AcDbLine
 10
-4.0
 20
10.0
 30
0.0
 11
-4.0
 21
11.0
 31
0.0
  0
LINE
  5
105F
330
762
100
AcDbEntity
  8
240
100
AcDbLine
 10
-2.0
 20
10.0
 30
0.0
 11
-2.0
 21
11.0
 31
0.0
  0
ARC
  5
1060
330
762
100
AcDbEntity
  8
240
100
AcDbCircle
 10
-3.0
 20
10.0
 30
0.0
 40
1.000000000000075
100
AcDbArc
 50
0.0
 51
180.0
  0
ARC
  5
1061
330
762
100
AcDbEntity
  8
240
100
AcDbCircle
 10
-0.76732699
 20
10.0
 30
0.0
 40
1.0
100
AcDbArc
 50
15.0
 51
75.0
1001
GENIUS_GENOBJ-N-FIL_13
1002
{
1000
OWNER
1000
GEN
1002
}
1001
GENIUS_GENODEF_13
1002
{
1000
HIER
1070
     0
1002
}
1002
{
1000
MANEDIT
1070
     0
1002
}
1002
{
1000
NOSEL
1070
     0
1002
}
1002
{
1000
BEHIND
1070
     0
1002
}
1002
{
1000
OTHER
1070
     0
1002
}
1002
{
1000
REACTOR
1002
}
  0
LINE
  5
1062
330
762
100
AcDbEntity
  8
240
100
AcDbLine
 10
-6.50000001
 20
10.5
 30
0.0
 11
-5.12626128
 21
11.0
 31
0.0
  0
LINE
  5
1063
330
762
100
AcDbEntity
  8
241
100
AcDbLine
 10
-5.12626129
 20
11.0
 30
0.0
 11
-5.12626129
 21
0.0
 31
0.0
  0
LINE
  5
1064
330
762
100
AcDbEntity
  8
241
100
AcDbLine
 10
0.0
 20
10.64125603
 30
0.0
 11
0.0
 21
0.0
 31
0.0
  0
LINE
  5
1065
330
762
100
AcDbEntity
  8
241
  6
CONTINUOUS
100
AcDbLine
 10
-6.5
 20
10.50000001
 30
0.0
 11
-6.5
 21
0.0
 31
0.0
  0
LINE
  5
1066
330
762
100
AcDbEntity
  8
241
100
AcDbLine
 10
-11.0
 20
8.0
 30
0.0
 11
-11.0
 21
0.0
 31
0.0
  0
LINE
  5
1067
330
762
100
AcDbEntity
  8
241
100
AcDbLine
 10
-14.5
 20
7.0
 30
0.0
 11
-14.5
 21
0.0
 31
0.0
  0
LINE
  5
1068
330
762
100
AcDbEntity
  8
240
100
AcDbLine
 10
-10.7
 20
7.7
 30
0.0
 11
-11.0
 21
8.0
 31
0.0
  0
LINE
  5
1069
330
762
100
AcDbEntity
  8
240
100
AcDbLine
 10
-14.5
 20
7.0
 30
0.0
 11
-14.5
 21
8.0
 31
0.0
  0
LINE
  5
106A
330
762
100
AcDbEntity
  8
240
100
AcDbLine
 10
-14.5
 20
8.0
 30
0.0
 11
-11.0
 21
8.0
 31
0.0
  0
LINE
  5
106B
330
762
100
AcDbEntity
  8
241
100
AcDbLine
 10
-6.5
 20
8.2
 30
0.0
 11
-9.5
 21
8.2
 31
0.0
  0
LINE
  5
106C
330
762
100
AcDbEntity
  8
240
100
AcDbLine
 10
-9.5
 20
8.5
 30
0.0
 11
-10.0
 21
9.0
 31
0.0
  0
LINE
  5
106D
330
762
100
AcDbEntity
  8
240
100
AcDbLine
 10
-9.5
 20
8.5
 30
0.0
 11
-9.5
 21
7.7
 31
0.0
  0
LINE
  5
106E
330
762
100
AcDbEntity
  8
240
100
AcDbLine
 10
-10.7
 20
7.7
 30
0.0
 11
-9.5
 21
7.7
 31
0.0
  0
LINE
  5
106F
330
762
100
AcDbEntity
  8
240
100
AcDbLine
 10
-10.0
 20
10.5
 30
0.0
 11
-10.0
 21
9.0
 31
0.0
  0
LINE
  5
1070
330
762
100
AcDbEntity
  8
240
100
AcDbLine
 10
-6.50000001
 20
10.5
 30
0.0
 11
-10.0
 21
10.5
 31
0.0
  0
LINE
  5
1071
330
762
100
AcDbEntity
  8
241
100
AcDbLine
 10
0.80384758
 20
8.35874397
 30
0.0
 11
0.80384758
 21
0.0
 31
0.0
  0
LINE
  5
1072
330
762
100
AcDbEntity
  8
241
100
AcDbLine
 10
-2.0
 20
10.0
 30
0.0
 11
-2.0
 21
0.0
 31
0.0
  0
LINE
  5
1073
330
762
100
AcDbEntity
  8
241
100
AcDbLine
 10
-4.0
 20
10.0
 30
0.0
 11
-4.0
 21
0.0
 31
0.0
  0
ARC
  5
1074
330
762
100
AcDbEntity
  8
240
100
AcDbCircle
 10
1.57117457
 20
9.0
 30
0.0
 40
1.0
100
AcDbArc
 50
194.99999992
 51
270.0
  0
LINE
  5
1075
330
762
100
AcDbEntity
  8
240
100
AcDbLine
 10
0.19859884
 20
10.25881905
 30
0.0
 11
0.60524874
 21
8.74118096
 31
0.0
  0
LINE
  5
1076
330
762
100
AcDbEntity
  8
240
100
AcDbLine
 10
-0.63567449
 20
11.0
 30
0.0
 11
-2.0
 21
11.0
 31
0.0
  0
LINE
  5
1077
330
762
100
AcDbEntity
  8
240
100
AcDbLine
 10
-4.0
 20
11.0
 30
0.0
 11
-5.12626129
 21
11.0
 31
0.0
  0
LINE
  5
1078
330
762
100
AcDbEntity
  8
240
100
AcDbLine
 10
-0.50850794
 20
10.96592583
 30
0.0
 11
-0.63567449
 21
11.0
 31
0.0
  0
ARC
  5
1079
330
762
100
AcDbEntity
  8
0
100
AcDbCircle
 10
13.46640935
 20
3.87212833
 30
0.0
 40
1.935989859374998
100
AcDbArc
 50
270.0
 51
104.77079397
  0
LINE
  5
107A
330
762
100
AcDbEntity
  8
0
100
AcDbLine
 10
5.98057539
 20
1.93613804
 30
0.0
 11
13.46640935
 21
1.93613804
 31
0.0
  0
LINE
  5
107B
330
762
100
AcDbEntity
  8
0
100
AcDbLine
 10
5.98057539
 20
2.30490066
 30
0.0
 11
13.46640935
 21
2.30490066
 31
0.0
  0
LINE
  5
107C
330
762
100
AcDbEntity
  8
0
100
AcDbLine
 10
10.42287913
 20
4.10733557
 30
0.0
 11
12.09357069
 21
5.77802713
 31
0.0
  0
LINE
  5
107D
330
762
100
AcDbEntity
  8
0
100
AcDbLine
 10
11.5290584
 20
1.93613804
 30
0.0
 11
11.89782102
 21
2.30490066
 31
0.0
  0
ARC
  5
107E
330
762
100
AcDbEntity
  8
0
100
AcDbCircle
 10
11.52274853
 20
3.28211926
 30
0.0
 40
0.3872002994384767
100
AcDbArc
 50
164.00027306
 51
344.00027306
  0
LINE
  5
107F
330
762
100
AcDbEntity
  8
0
100
AcDbLine
 10
11.67812236
 20
2.49487411
 30
0.0
 11
12.78423032
 21
3.60098207
 31
0.0
  0
LINE
  5
1080
330
762
100
AcDbEntity
  8
0
100
AcDbLine
 10
11.82485322
 20
4.00119802
 30
0.0
 11
12.13174703
 21
4.00119802
 31
0.0
  0
LINE
  5
1081
330
762
100
AcDbEntity
  8
0
100
AcDbLine
 10
11.82485322
 20
4.00119802
 30
0.0
 11
11.93058986
 21
4.36996066
 31
0.0
  0
LINE
  5
1082
330
762
100
AcDbEntity
  8
0
100
AcDbLine
 10
11.85210234
 20
3.07852618
 30
0.0
 11
12.94892906
 21
4.17535291
 31
0.0
  0
ARC
  5
1083
330
762
100
AcDbEntity
  8
0
100
AcDbCircle
 10
11.56234235
 20
3.68774702
 30
0.0
 40
1.198478531249999
100
AcDbArc
 50
163.9997507
 51
304.96387329
  0
ARC
  5
1084
330
762
100
AcDbEntity
  8
0
100
AcDbCircle
 10
12.01973163
 20
5.01528132
 30
0.0
 40
0.3872005713500977
100
AcDbArc
 50
1.71012138
 51
163.99839835
  0
ARC
  5
1085
330
762
100
AcDbEntity
  8
0
100
AcDbCircle
 10
11.8266909
 20
4.60965358
 30
0.0
 40
1.198466349609373
100
AcDbArc
 50
53.4440122
 51
164.00018439
  0
LINE
  5
1086
330
762
100
AcDbEntity
  8
0
100
AcDbLine
 10
7.69034522
 20
3.83283426
 30
0.0
 11
9.00995442
 21
5.15244347
 31
0.0
  0
LINE
  5
1087
330
762
100
AcDbEntity
  8
0
100
AcDbLine
 10
7.83334967
 20
3.56616662
 30
0.0
 11
9.04253787
 21
4.77535481
 31
0.0
  0
ARC
  5
1088
330
762
100
AcDbEntity
  8
0
100
AcDbCircle
 10
8.12732852
 20
4.88622554
 30
0.0
 40
0.9219004716796876
100
AcDbArc
 50
287.66957755
 51
90.23615984
  0
LINE
  5
1089
330
762
100
AcDbEntity
  8
0
100
AcDbLine
 10
9.65640981
 20
5.40249043
 30
0.0
 11
8.82105555
 21
2.48928197
 31
0.0
  0
LINE
  5
108A
330
762
100
AcDbEntity
  8
0
100
AcDbLine
 10
9.65640981
 20
5.40249043
 30
0.0
 11
8.82105555
 21
2.48928197
 31
0.0
1001
HATCH_DISTANCE
1040
1.0
1001
HATCH_DISPLAY
1070
     0
1001
HATCH_TYPE
1070
     7
  0
LINE
  5
108B
330
762
100
AcDbEntity
  8
0
100
AcDbLine
 10
8.82105555
 20
2.48928197
 30
0.0
 11
9.65640981
 21
5.40249043
 31
0.0
  0
LINE
  5
108C
330
762
100
AcDbEntity
  8
0
100
AcDbLine
 10
7.9379161
 20
5.42971703
 30
0.0
 11
7.63571928
 21
4.37580787
 31
0.0
  0
ARC
  5
108D
330
762
100
AcDbEntity
  8
0
100
AcDbCircle
 10
7.71592319
 20
4.92309067
 30
0.0
 40
0.5531284929199223
100
AcDbArc
 50
261.66260169
 51
66.3381551
  0
LINE
  5
108E
330
762
100
AcDbEntity
  8
0
100
AcDbLine
 10
6.76343184
 20
4.54460929
 30
0.0
 11
8.02694074
 21
5.80811819
 31
0.0
  0
LINE
  5
108F
330
762
100
AcDbEntity
  8
0
100
AcDbLine
 10
6.5987336
 20
3.97023895
 30
0.0
 11
7.88955592
 21
5.26106127
 31
0.0
  0
LINE
  5
1090
330
762
100
AcDbEntity
  8
0
100
AcDbLine
 10
6.43403537
 20
3.39586861
 30
0.0
 11
7.72486313
 21
4.68669637
 31
0.0
  0
LINE
  5
1091
330
762
100
AcDbEntity
  8
0
100
AcDbLine
 10
9.32167866
 20
4.23515139
 30
0.0
 11
10.47804204
 21
5.39151478
 31
0.0
  0
LINE
  5
1092
330
762
100
AcDbEntity
  8
0
100
AcDbLine
 10
9.64584311
 20
2.48928197
 30
0.0
 11
10.59750072
 21
5.80811819
 31
0.0
  0
LINE
  5
1093
330
762
100
AcDbEntity
  8
0
100
AcDbLine
 10
9.64584311
 20
2.48928197
 30
0.0
 11
10.59750072
 21
5.80811819
 31
0.0
1001
HATCH_DISTANCE
1040
1.0
1001
HATCH_DISPLAY
1070
     0
1001
HATCH_TYPE
1070
     7
  0
LINE
  5
1094
330
762
100
AcDbEntity
  8
0
100
AcDbLine
 10
10.36483072
 20
3.63961506
 30
0.0
 11
11.56724319
 21
4.84202753
 31
0.0
  0
ARC
  5
1095
330
762
100
AcDbEntity
  8
0
100
AcDbCircle
 10
13.52179056
 20
3.62473661
 30
0.0
 40
3.136264312499998
100
AcDbArc
 50
155.20517737
 51
172.79482596
  0
LINE
  5
1096
330
762
100
AcDbEntity
  8
0
100
AcDbLine
 10
9.64584311
 20
2.48928197
 30
0.0
 11
10.59750072
 21
5.80811819
 31
0.0
  0
LINE
  5
1097
330
762
100
AcDbEntity
  8
0
100
AcDbLine
 10
11.15054721
 20
3.38884436
 30
0.0
 11
11.6475303
 21
5.12202034
 31
0.0
  0
LINE
  5
1098
330
762
100
AcDbEntity
  8
0
100
AcDbLine
 10
9.15697926
 20
3.6607799
 30
0.0
 11
10.31334489
 21
4.81714553
 31
0.0
  0
ARC
  5
1099
330
762
100
AcDbEntity
  8
0
100
AcDbCircle
 10
5.98057539
 20
3.87212833
 30
0.0
 40
1.567227234374995
100
AcDbArc
 50
90.0
 51
270.0
  0
ARC
  5
109A
330
762
100
AcDbEntity
  8
0
100
AcDbCircle
 10
5.98057539
 20
3.87212833
 30
0.0
 40
1.935989859374998
100
AcDbArc
 50
90.0
 51
270.0
  0
LINE
  5
109B
330
762
100
AcDbEntity
  8
0
100
AcDbLine
 10
4.1023642
 20
4.34157425
 30
0.0
 11
5.51112947
 21
5.75033951
 31
0.0
  0
LINE
  5
109C
330
762
100
AcDbEntity
  8
0
100
AcDbLine
 10
6.17407554
 20
2.48928197
 30
0.0
 11
7.0199965
 21
5.43935557
 31
0.0
  0
LINE
  5
109D
330
762
100
AcDbEntity
  8
0
100
AcDbLine
 10
7.0226653
 20
1.93613804
 30
0.0
 11
7.39142792
 21
2.30490066
 31
0.0
  0
LINE
  5
109E
330
762
100
AcDbEntity
  8
0
100
AcDbLine
 10
7.16613712
 20
2.48928197
 30
0.0
 11
8.51921104
 21
3.84235589
 31
0.0
  0
ARC
  5
109F
330
762
100
AcDbEntity
  8
0
100
AcDbCircle
 10
7.29296271
 20
3.44805409
 30
0.0
 40
0.5531443181762698
100
AcDbArc
 50
261.66285421
 51
66.33819216
  0
LINE
  5
10A0
330
762
100
AcDbEntity
  8
0
100
AcDbLine
 10
6.34679293
 20
2.48928197
 30
0.0
 11
7.39546569
 21
3.53795473
 31
0.0
  0
LINE
  5
10A1
330
762
100
AcDbEntity
  8
0
100
AcDbLine
 10
7.51496002
 20
3.95469581
 30
0.0
 11
7.21275823
 21
2.90075538
 31
0.0
  0
LINE
  5
10A2
330
762
100
AcDbEntity
  8
0
100
AcDbLine
 10
6.26933714
 20
2.82149828
 30
0.0
 11
7.82961045
 21
4.3817716
 31
0.0
  0
LINE
  5
10A3
330
762
100
AcDbEntity
  8
0
100
AcDbLine
 10
6.17407554
 20
2.48928197
 30
0.0
 11
7.70436804
 21
2.48928197
 31
0.0
  0
LINE
  5
10A4
330
762
100
AcDbEntity
  8
0
100
AcDbLine
 10
6.6129932
 20
1.93613804
 30
0.0
 11
6.98175581
 21
2.30490066
 31
0.0
  0
LINE
  5
10A5
330
762
100
AcDbEntity
  8
0
100
AcDbLine
 10
6.75646503
 20
2.48928197
 30
0.0
 11
7.23077595
 21
2.96359288
 31
0.0
  0
LINE
  5
10A6
330
762
100
AcDbEntity
  8
0
100
AcDbLine
 10
5.80191114
 20
1.94440018
 30
0.0
 11
6.16241161
 21
2.30490066
 31
0.0
  0
LINE
  5
10A7
330
762
100
AcDbEntity
  8
0
100
AcDbLine
 10
4.66792445
 20
2.44910189
 30
0.0
 11
4.92894115
 21
2.71011859
 31
0.0
  0
LINE
  5
10A8
330
762
100
AcDbEntity
  8
0
100
AcDbLine
 10
4.89656943
 20
2.26807477
 30
0.0
 11
5.1633396
 21
2.53484494
 31
0.0
  0
LINE
  5
10A9
330
762
100
AcDbEntity
  8
0
100
AcDbLine
 10
5.1578275
 20
2.11966074
 30
0.0
 11
5.43945018
 21
2.40128342
 31
0.0
  0
LINE
  5
10AA
330
762
100
AcDbEntity
  8
0
100
AcDbLine
 10
5.45631326
 20
2.0084744
 30
0.0
 11
5.76731715
 21
2.31947829
 31
0.0
  0
LINE
  5
10AB
330
762
100
AcDbEntity
  8
0
100
AcDbLine
 10
4.47017959
 20
2.66102914
 30
0.0
 11
4.73288065
 21
2.92373019
 31
0.0
  0
LINE
  5
10AC
330
762
100
AcDbEntity
  8
0
100
AcDbLine
 10
4.17177947
 20
3.18197322
 30
0.0
 11
4.4645621
 21
3.47475584
 31
0.0
  0
LINE
  5
10AD
330
762
100
AcDbEntity
  8
0
100
AcDbLine
 10
4.30383191
 20
2.90435355
 30
0.0
 11
4.57611893
 21
3.17664057
 31
0.0
  0
LINE
  5
10AE
330
762
100
AcDbEntity
  8
0
100
AcDbLine
 10
4.04458656
 20
3.8741245
 30
0.0
 11
4.47385236
 21
4.3033903
 31
0.0
  0
LINE
  5
10AF
330
762
100
AcDbEntity
  8
0
100
AcDbLine
 10
4.08059621
 20
3.50046205
 30
0.0
 11
4.41381972
 21
3.83368556
 31
0.0
  0
LINE
  5
10B0
330
762
100
AcDbEntity
  8
0
100
AcDbLine
 10
6.2033211
 20
1.93613804
 30
0.0
 11
6.57208372
 21
2.30490066
 31
0.0
  0
ARC
  5
10B1
330
762
100
AcDbEntity
  8
0
100
AcDbCircle
 10
7.70436804
 20
3.41117504
 30
0.0
 40
0.9218926406250002
100
AcDbArc
 50
270.0
 51
40.32984065
  0
LINE
  5
10B2
330
762
100
AcDbEntity
  8
0
100
AcDbLine
 10
8.25168159
 20
1.93613804
 30
0.0
 11
8.62044421
 21
2.30490066
 31
0.0
  0
LINE
  5
10B3
330
762
100
AcDbEntity
  8
0
100
AcDbLine
 10
7.57580923
 20
2.48928197
 30
0.0
 11
8.61833412
 21
3.53180686
 31
0.0
  0
LINE
  5
10B4
330
762
100
AcDbEntity
  8
0
100
AcDbLine
 10
8.05460057
 20
2.5584012
 30
0.0
 11
8.55714187
 21
3.06094252
 31
0.0
  0
LINE
  5
10B5
330
762
100
AcDbEntity
  8
0
100
AcDbLine
 10
7.4323374
 20
1.93613804
 30
0.0
 11
7.80110001
 21
2.30490066
 31
0.0
  0
LINE
  5
10B6
330
762
100
AcDbEntity
  8
0
100
AcDbLine
 10
7.8420095
 20
1.93613804
 30
0.0
 11
8.21077212
 21
2.30490066
 31
0.0
  0
LINE
  5
10B7
330
762
100
AcDbEntity
  8
0
100
AcDbLine
 10
11.1193863
 20
1.93613804
 30
0.0
 11
11.48814891
 21
2.30490066
 31
0.0
  0
LINE
  5
10B8
330
762
100
AcDbEntity
  8
0
100
AcDbLine
 10
11.29340826
 20
2.5198321
 30
0.0
 11
11.72634162
 21
2.95276545
 31
0.0
  0
LINE
  5
10B9
330
762
100
AcDbEntity
  8
0
100
AcDbLine
 10
10.99562771
 20
2.63172367
 30
0.0
 11
11.31762224
 21
2.95371818
 31
0.0
  0
LINE
  5
10BA
330
762
100
AcDbEntity
  8
0
100
AcDbLine
 10
8.6613537
 20
1.93613804
 30
0.0
 11
9.03011632
 21
2.30490066
 31
0.0
  0
LINE
  5
10BB
330
762
100
AcDbEntity
  8
0
100
AcDbLine
 10
10.3000421
 20
1.93613804
 30
0.0
 11
10.66880471
 21
2.30490066
 31
0.0
  0
LINE
  5
10BC
330
762
100
AcDbEntity
  8
0
100
AcDbLine
 10
9.4806979
 20
1.93613804
 30
0.0
 11
9.84946051
 21
2.30490066
 31
0.0
  0
LINE
  5
10BD
330
762
100
AcDbEntity
  8
0
100
AcDbLine
 10
9.07102579
 20
1.93613804
 30
0.0
 11
9.43978841
 21
2.30490066
 31
0.0
  0
LINE
  5
10BE
330
762
100
AcDbEntity
  8
0
100
AcDbLine
 10
9.89036999
 20
1.93613804
 30
0.0
 11
10.25913262
 21
2.30490066
 31
0.0
  0
LINE
  5
10BF
330
762
100
AcDbEntity
  8
0
100
AcDbLine
 10
8.82105555
 20
2.48928197
 30
0.0
 11
9.64584311
 21
2.48928197
 31
0.0
  0
LINE
  5
10C0
330
762
100
AcDbEntity
  8
0
100
AcDbLine
 10
8.82758047
 20
2.5120369
 30
0.0
 11
9.98395059
 21
3.66840703
 31
0.0
  0
LINE
  5
10C1
330
762
100
AcDbEntity
  8
0
100
AcDbLine
 10
8.82105555
 20
2.48928197
 30
0.0
 11
9.64584311
 21
2.48928197
 31
0.0
  0
LINE
  5
10C2
330
762
100
AcDbEntity
  8
0
100
AcDbLine
 10
8.82105555
 20
2.48928197
 30
0.0
 11
9.64584311
 21
2.48928197
 31
0.0
1001
HATCH_DISTANCE
1040
1.0
1001
HATCH_DISPLAY
1070
     0
1001
HATCH_TYPE
1070
     7
  0
LINE
  5
10C3
330
762
100
AcDbEntity
  8
0
100
AcDbLine
 10
9.21449763
 20
2.48928197
 30
0.0
 11
9.81925343
 21
3.09403777
 31
0.0
  0
LINE
  5
10C4
330
762
100
AcDbEntity
  8
0
100
AcDbLine
 10
9.62416972
 20
2.48928197
 30
0.0
 11
9.65455628
 21
2.51966853
 31
0.0
  0
LINE
  5
10C5
330
762
100
AcDbEntity
  8
0
100
AcDbLine
 10
8.99227986
 20
3.08640841
 30
0.0
 11
10.14864774
 21
4.24277628
 31
0.0
  0
LINE
  5
10C6
330
762
100
AcDbEntity
  8
0
100
AcDbLine
 10
10.7097142
 20
1.93613804
 30
0.0
 11
11.07847682
 21
2.30490066
 31
0.0
  0
LINE
  5
10C7
330
762
100
AcDbEntity
  8
0
100
AcDbLine
 10
10.43000343
 20
3.29511568
 30
0.0
 11
11.40254389
 21
4.26765613
 31
0.0
  0
LINE
  5
10C8
330
762
100
AcDbEntity
  8
0
100
AcDbLine
 10
10.56609387
 20
3.02153401
 30
0.0
 11
11.23784458
 21
3.69328472
 31
0.0
  0
LINE
  5
10C9
330
762
100
AcDbEntity
  8
0
100
AcDbLine
 10
10.75564432
 20
2.80141237
 30
0.0
 11
11.14619139
 21
3.19195944
 31
0.0
  0
LINE
  5
10CA
330
762
100
AcDbEntity
  8
0
100
AcDbLine
 10
6.93391755
 20
5.80811819
 30
0.0
 11
8.12352867
 21
5.80811819
 31
0.0
  0
LINE
  5
10CB
330
762
100
AcDbEntity
  8
0
100
AcDbLine
 10
6.92813008
 20
5.11897961
 30
0.0
 11
7.61726864
 21
5.80811819
 31
0.0
  0
LINE
  5
10CC
330
762
100
AcDbEntity
  8
0
100
AcDbLine
 10
6.83883392
 20
5.43935557
 30
0.0
 11
7.20759654
 21
5.80811819
 31
0.0
  0
LINE
  5
10CD
330
762
100
AcDbEntity
  8
0
100
AcDbLine
 10
6.93391755
 20
5.80811819
 30
0.0
 11
6.82818091
 21
5.43935557
 31
0.0
  0
LINE
  5
10CE
330
762
100
AcDbEntity
  8
0
100
AcDbLine
 10
6.82818091
 20
5.43935557
 30
0.0
 11
7.0199965
 21
5.43935557
 31
0.0
  0
LINE
  5
10CF
330
762
100
AcDbEntity
  8
0
100
AcDbLine
 10
6.74211588
 20
5.80811819
 30
0.0
 11
6.63637923
 21
5.43935557
 31
0.0
  0
LINE
  5
10D0
330
762
100
AcDbEntity
  8
0
100
AcDbLine
 10
6.42916182
 20
5.43935557
 30
0.0
 11
6.71968079
 21
5.72987453
 31
0.0
  0
LINE
  5
10D1
330
762
100
AcDbEntity
  8
0
100
AcDbLine
 10
5.54931342
 20
5.37885137
 30
0.0
 11
5.97857921
 21
5.80811715
 31
0.0
  0
LINE
  5
10D2
330
762
100
AcDbEntity
  8
0
100
AcDbLine
 10
5.98057539
 20
5.80811819
 30
0.0
 11
6.74211588
 21
5.80811819
 31
0.0
  0
LINE
  5
10D3
330
762
100
AcDbEntity
  8
0
100
AcDbLine
 10
5.98057539
 20
5.43935557
 30
0.0
 11
6.63637923
 21
5.43935557
 31
0.0
  0
LINE
  5
10D4
330
762
100
AcDbEntity
  8
0
100
AcDbLine
 10
6.01948972
 20
5.43935557
 30
0.0
 11
6.38825234
 21
5.80811819
 31
0.0
  0
LINE
  5
10D5
330
762
100
AcDbEntity
  8
0
100
AcDbLine
 10
8.25724226
 20
4.8094034
 30
0.0
 11
8.87433091
 21
5.42649206
 31
0.0
  0
LINE
  5
10D6
330
762
100
AcDbEntity
  8
0
100
AcDbLine
 10
8.20997736
 20
5.1718106
 30
0.0
 11
8.66979711
 21
5.63163035
 31
0.0
  0
LINE
  5
10D7
330
762
100
AcDbEntity
  8
0
100
AcDbLine
 10
8.01614651
 20
5.38765185
 30
0.0
 11
8.39646159
 21
5.76796693
 31
0.0
  0
LINE
  5
10D8
330
762
100
AcDbEntity
  8
0
100
AcDbLine
 10
9.62752347
 20
5.7700125
 30
0.0
 11
9.66562915
 21
5.80811819
 31
0.0
  0
LINE
  5
10D9
330
762
100
AcDbEntity
  8
0
100
AcDbLine
 10
9.65107745
 20
5.38389439
 30
0.0
 11
10.07530124
 21
5.80811819
 31
0.0
  0
LINE
  5
10DA
330
762
100
AcDbEntity
  8
0
100
AcDbLine
 10
9.52213333
 20
5.40249043
 30
0.0
 11
9.65640981
 21
5.40249043
 31
0.0
  0
LINE
  5
10DB
330
762
100
AcDbEntity
  8
0
100
AcDbLine
 10
9.6384506
 20
5.80811819
 30
0.0
 11
9.52213333
 21
5.40249043
 31
0.0
  0
LINE
  5
10DC
330
762
100
AcDbEntity
  8
0
100
AcDbLine
 10
9.52213333
 20
5.40249043
 30
0.0
 11
9.65640981
 21
5.40249043
 31
0.0
1001
HATCH_DISTANCE
1040
1.0
1001
HATCH_DISPLAY
1070
     0
1001
HATCH_TYPE
1070
     7
  0
LINE
  5
10DD
330
762
100
AcDbEntity
  8
0
100
AcDbLine
 10
9.6384506
 20
5.80811819
 30
0.0
 11
9.52213333
 21
5.40249043
 31
0.0
1001
HATCH_DISTANCE
1040
1.0
1001
HATCH_DISPLAY
1070
     0
1001
HATCH_TYPE
1070
     7
  0
LINE
  5
10DE
330
762
100
AcDbEntity
  8
0
100
AcDbLine
 10
9.52213333
 20
5.40249043
 30
0.0
 11
9.6384506
 21
5.80811819
 31
0.0
  0
LINE
  5
10DF
330
762
100
AcDbEntity
  8
0
100
AcDbLine
 10
9.52213333
 20
5.40249043
 30
0.0
 11
9.65640981
 21
5.40249043
 31
0.0
  0
LINE
  5
10E0
330
762
100
AcDbEntity
  8
0
100
AcDbLine
 10
9.48637805
 20
4.8095229
 30
0.0
 11
10.48497335
 21
5.80811819
 31
0.0
  0
LINE
  5
10E1
330
762
100
AcDbEntity
  8
0
100
AcDbLine
 10
10.59750072
 20
5.80811819
 30
0.0
 11
9.6384506
 21
5.80811819
 31
0.0
  0
LINE
  5
10E2
330
762
100
AcDbEntity
  8
0
100
AcDbLine
 10
10.59750072
 20
5.80811819
 30
0.0
 11
9.6384506
 21
5.80811819
 31
0.0
1001
HATCH_DISTANCE
1040
1.0
1001
HATCH_DISPLAY
1070
     0
1001
HATCH_TYPE
1070
     7
  0
LINE
  5
10E3
330
762
100
AcDbEntity
  8
0
100
AcDbLine
 10
9.6384506
 20
5.80811819
 30
0.0
 11
10.59750072
 21
5.80811819
 31
0.0
  0
LINE
  5
10E4
330
762
100
AcDbEntity
  8
0
100
AcDbLine
 10
10.55888733
 20
4.65301587
 30
0.0
 11
11.70811058
 21
5.80223912
 31
0.0
  0
ARC
  5
10E5
330
762
100
AcDbEntity
  8
0
100
AcDbCircle
 10
13.46640935
 20
3.87212833
 30
0.0
 40
1.567227234374995
100
AcDbArc
 50
270.0
 51
104.1274365
  0
LINE
  5
10E6
330
762
100
AcDbEntity
  8
0
100
AcDbLine
 10
14.90536535
 20
4.49310079
 30
0.0
 11
15.1818291
 21
4.76956454
 31
0.0
  0
LINE
  5
10E7
330
762
100
AcDbEntity
  8
0
100
AcDbLine
 10
12.3484026
 20
1.93613804
 30
0.0
 11
12.71716522
 21
2.30490066
 31
0.0
  0
LINE
  5
10E8
330
762
100
AcDbEntity
  8
0
100
AcDbLine
 10
11.9387305
 20
1.93613804
 30
0.0
 11
12.30749311
 21
2.30490066
 31
0.0
  0
LINE
  5
10E9
330
762
100
AcDbEntity
  8
0
100
AcDbLine
 10
12.75807469
 20
1.93613804
 30
0.0
 11
13.12683731
 21
2.30490066
 31
0.0
  0
LINE
  5
10EA
330
762
100
AcDbEntity
  8
0
100
AcDbLine
 10
11.93058986
 20
4.36996066
 30
0.0
 11
13.00473212
 21
4.36996066
 31
0.0
  0
LINE
  5
10EB
330
762
100
AcDbEntity
  8
0
100
AcDbLine
 10
12.27382219
 20
2.68090183
 30
0.0
 11
12.61953158
 21
3.02661122
 31
0.0
  0
LINE
  5
10EC
330
762
100
AcDbEntity
  8
0
100
AcDbLine
 10
12.24913629
 20
2.70558614
 30
0.0
 11
12.46545437
 21
2.48928197
 31
0.0
  0
LINE
  5
10ED
330
762
100
AcDbEntity
  8
0
100
AcDbLine
 10
11.89494987
 20
3.17539417
 30
0.0
 11
12.13174703
 21
4.00119802
 31
0.0
  0
LINE
  5
10EE
330
762
100
AcDbEntity
  8
0
100
AcDbLine
 10
12.46545437
 20
2.48928197
 30
0.0
 11
13.00473212
 21
4.36996066
 31
0.0
  0
LINE
  5
10EF
330
762
100
AcDbEntity
  8
0
100
AcDbLine
 10
11.95542999
 20
4.00119802
 30
0.0
 11
12.32419261
 21
4.36996066
 31
0.0
  0
LINE
  5
10F0
330
762
100
AcDbEntity
  8
0
100
AcDbLine
 10
12.03793178
 20
3.67402772
 30
0.0
 11
12.73386472
 21
4.36996066
 31
0.0
  0
LINE
  5
10F1
330
762
100
AcDbEntity
  8
0
100
AcDbLine
 10
14.0904117
 20
2.03945874
 30
0.0
 11
15.29907893
 21
3.24812596
 31
0.0
  0
LINE
  5
10F2
330
762
100
AcDbEntity
  8
0
100
AcDbLine
 10
13.58080186
 20
1.93952099
 30
0.0
 11
14.06499925
 21
2.4237184
 31
0.0
  0
LINE
  5
10F3
330
762
100
AcDbEntity
  8
0
100
AcDbLine
 10
13.1677468
 20
1.93613804
 30
0.0
 11
13.53815282
 21
2.30654406
 31
0.0
  0
LINE
  5
10F4
330
762
100
AcDbEntity
  8
0
100
AcDbLine
 10
15.00290504
 20
4.18096839
 30
0.0
 11
15.30385629
 21
4.48191964
 31
0.0
  0
LINE
  5
10F5
330
762
100
AcDbEntity
  8
0
100
AcDbLine
 10
14.91481928
 20
3.27353841
 30
0.0
 11
15.39901668
 21
3.75773582
 31
0.0
  0
LINE
  5
10F6
330
762
100
AcDbEntity
  8
0
100
AcDbLine
 10
15.03199361
 20
3.80038485
 30
0.0
 11
15.38225954
 21
4.15065078
 31
0.0
  0
LINE
  5
10F7
330
762
100
AcDbEntity
  8
0
100
AcDbLine
 10
13.04855215
 20
5.50399229
 30
0.0
 11
13.34912199
 21
5.80456213
 31
0.0
  0
LINE
  5
10F8
330
762
100
AcDbEntity
  8
0
100
AcDbLine
 10
13.08387799
 20
5.3919655
 30
0.0
 11
13.08387799
 21
5.3919655
 31
0.0
  0
LINE
  5
10F9
330
762
100
AcDbEntity
  8
0
100
AcDbLine
 10
13.08387799
 20
5.3919655
 30
0.0
 11
13.08387799
 21
5.3919655
 31
0.0
1001
HATCH_DISTANCE
1040
1.0
1001
HATCH_DISPLAY
1070
     0
1001
HATCH_TYPE
1070
     7
  0
LINE
  5
10FA
330
762
100
AcDbEntity
  8
0
100
AcDbLine
 10
13.08387799
 20
5.3919655
 30
0.0
 11
13.08387799
 21
5.3919655
 31
0.0
  0
LINE
  5
10FB
330
762
100
AcDbEntity
  8
0
100
AcDbLine
 10
13.08387799
 20
5.3919655
 30
0.0
 11
13.08387799
 21
5.3919655
 31
0.0
1001
HATCH_DISTANCE
1040
1.0
1001
HATCH_DISPLAY
1070
     0
1001
HATCH_TYPE
1070
     7
  0
LINE
  5
10FC
330
762
100
AcDbEntity
  8
0
100
AcDbLine
 10
12.9728232
 20
5.74414717
 30
0.0
 11
12.9728232
 21
5.74414717
 31
0.0
  0
LINE
  5
10FD
330
762
100
AcDbEntity
  8
0
100
AcDbLine
 10
12.9728232
 20
5.74414717
 30
0.0
 11
12.9728232
 21
5.74414717
 31
0.0
1001
HATCH_DISTANCE
1040
1.0
1001
HATCH_DISPLAY
1070
     0
1001
HATCH_TYPE
1070
     7
  0
LINE
  5
10FE
330
762
100
AcDbEntity
  8
0
100
AcDbLine
 10
12.9728232
 20
5.74414717
 30
0.0
 11
12.9728232
 21
5.74414717
 31
0.0
  0
LINE
  5
10FF
330
762
100
AcDbEntity
  8
0
100
AcDbLine
 10
12.9728232
 20
5.74414717
 30
0.0
 11
12.9728232
 21
5.74414717
 31
0.0
1001
HATCH_DISTANCE
1040
1.0
1001
HATCH_DISPLAY
1070
     0
1001
HATCH_TYPE
1070
     7
  0
LINE
  5
1100
330
762
100
AcDbEntity
  8
0
100
AcDbLine
 10
12.11563319
 20
5.39041753
 30
0.0
 11
12.39176013
 21
5.66654447
 31
0.0
  0
LINE
  5
1101
330
762
100
AcDbEntity
  8
0
100
AcDbLine
 10
12.35086135
 20
5.2159736
 30
0.0
 11
12.80335492
 21
5.66846717
 31
0.0
  0
LINE
  5
1102
330
762
100
AcDbEntity
  8
0
100
AcDbLine
 10
12.86317444
 20
5.31861458
 30
0.0
 11
12.90156838
 21
5.35700852
 31
0.0
  0
LINE
  5
1103
330
762
100
AcDbEntity
  8
0
100
AcDbLine
 10
12.90803078
 20
5.33651467
 30
0.0
 11
12.79697599
 21
5.68869634
 31
0.0
  0
ARC
  5
1104
330
762
100
AcDbEntity
  8
0
100
AcDbCircle
 10
13.46640935
 20
3.87212833
 30
0.0
 40
1.567231584960933
100
AcDbArc
 50
110.8721834
 51
132.54194894
  0
ARC
  5
1105
330
762
100
AcDbEntity
  8
0
100
AcDbCircle
 10
13.46640935
 20
3.87212833
 30
0.0
 40
1.935990729492184
100
AcDbArc
 50
110.22964506
 51
118.57168892
  0
LINE
  5
1106
330
762
100
AcDbEntity
  8
0
100
AcDbLine
 10
12.9728232
 20
5.74414717
 30
0.0
 11
13.08387799
 21
5.3919655
 31
0.0
  0
LINE
  5
1107
330
762
100
AcDbEntity
  8
0
100
AcDbLine
 10
13.08387799
 20
5.3919655
 30
0.0
 11
12.9728232
 21
5.74414717
 31
0.0
  0
LINE
  5
1108
330
762
100
AcDbEntity
  8
0
100
AcDbLine
 10
12.9728232
 20
5.74414717
 30
0.0
 11
13.08387799
 21
5.3919655
 31
0.0
1001
HATCH_DISTANCE
1040
1.0
1001
HATCH_DISPLAY
1070
     0
1001
HATCH_TYPE
1070
     7
  0
LINE
  5
1109
330
762
100
AcDbEntity
  8
0
100
AcDbLine
 10
13.08387799
 20
5.3919655
 30
0.0
 11
12.9728232
 21
5.74414717
 31
0.0
1001
HATCH_DISTANCE
1040
1.0
1001
HATCH_DISPLAY
1070
     0
1001
HATCH_TYPE
1070
     7
  0
LINE
  5
110A
330
762
100
AcDbEntity
  8
0
100
AcDbLine
 10
12.9728232
 20
5.74414717
 30
0.0
 11
13.08387799
 21
5.3919655
 31
0.0
  0
LINE
  5
110B
330
762
100
AcDbEntity
  8
0
100
AcDbLine
 10
13.08387799
 20
5.3919655
 30
0.0
 11
12.9728232
 21
5.74414717
 31
0.0
  0
LINE
  5
110C
330
762
100
AcDbEntity
  8
0
100
AcDbLine
 10
12.9728232
 20
5.74414717
 30
0.0
 11
13.08387799
 21
5.3919655
 31
0.0
1001
HATCH_DISTANCE
1040
1.0
1001
HATCH_DISPLAY
1070
     0
1001
HATCH_TYPE
1070
     7
  0
LINE
  5
110D
330
762
100
AcDbEntity
  8
0
100
AcDbLine
 10
13.08387799
 20
5.3919655
 30
0.0
 11
12.9728232
 21
5.74414717
 31
0.0
1001
HATCH_DISTANCE
1040
1.0
1001
HATCH_DISPLAY
1070
     0
1001
HATCH_TYPE
1070
     7
  0
LINE
  5
110E
330
762
100
AcDbEntity
  8
0
100
AcDbLine
 10
13.08387799
 20
5.3919655
 30
0.0
 11
12.9728232
 21
5.74414717
 31
0.0
  0
LINE
  5
110F
330
762
100
AcDbEntity
  8
0
100
AcDbLine
 10
14.57392581
 20
4.98100545
 30
0.0
 11
14.83468041
 21
5.24176004
 31
0.0
  0
LINE
  5
1110
330
762
100
AcDbEntity
  8
0
100
AcDbLine
 10
14.34986662
 20
5.16661836
 30
0.0
 11
14.61432984
 21
5.43108158
 31
0.0
  0
LINE
  5
1111
330
762
100
AcDbEntity
  8
0
100
AcDbLine
 10
13.39181112
 20
5.43757915
 30
0.0
 11
13.74255457
 21
5.78832262
 31
0.0
  0
LINE
  5
1112
330
762
100
AcDbEntity
  8
0
100
AcDbLine
 10
13.77298208
 20
5.40907802
 30
0.0
 11
14.07415647
 21
5.71025241
 31
0.0
  0
LINE
  5
1113
330
762
100
AcDbEntity
  8
0
100
AcDbLine
 10
14.0854798
 20
5.31190365
 30
0.0
 11
14.36205816
 21
5.58848201
 31
0.0
  0
LINE
  5
1114
330
762
100
AcDbEntity
  8
0
100
AcDbLine
 10
14.75979463
 20
4.75720217
 30
0.0
 11
15.02420786
 21
5.02161541
 31
0.0
  0
LINE
  5
1115
330
762
100
AcDbEntity
  8
240
100
AcDbLine
 10
70.0
 20
-7.0
 30
0.0
 11
70.0
 21
0.0
 31
0.0
  0
LINE
  5
1116
330
762
100
AcDbEntity
  8
241
100
AcDbLine
 10
54.2
 20
-8.0
 30
0.0
 11
54.2
 21
0.0
 31
0.0
  0
LINE
  5
1117
330
762
100
AcDbEntity
  8
241
100
AcDbLine
 10
53.0
 20
-8.15
 30
0.0
 11
53.0
 21
0.0
 31
0.0
  0
LINE
  5
1118
330
762
100
AcDbEntity
  8
241
100
AcDbLine
 10
51.0
 20
-6.2
 30
0.0
 11
51.0
 21
0.0
 31
0.0
  0
LINE
  5
1119
330
762
100
AcDbEntity
  8
241
100
AcDbLine
 10
50.0
 20
-6.2
 30
0.0
 11
50.0
 21
0.0
 31
0.0
  0
LINE
  5
111A
330
762
100
AcDbEntity
  8
240
100
AcDbLine
 10
53.15
 20
-8.0
 30
0.0
 11
69.0
 21
-8.0
 31
0.0
  0
LINE
  5
111B
330
762
100
AcDbEntity
  8
240
100
AcDbLine
 10
51.0
 20
-6.2
 30
0.0
 11
51.0
 21
-8.15
 31
0.0
  0
LINE
  5
111C
330
762
100
AcDbEntity
  8
240
100
AcDbLine
 10
50.0
 20
-6.2
 30
0.0
 11
50.0
 21
-8.0
 31
0.0
  0
LINE
  5
111D
330
762
100
AcDbEntity
  8
240
100
AcDbLine
 10
53.15
 20
-8.0
 30
0.0
 11
53.0
 21
-8.15
 31
0.0
  0
LINE
  5
111E
330
762
100
AcDbEntity
  8
240
100
AcDbLine
 10
51.0
 20
-8.15
 30
0.0
 11
53.0
 21
-8.15
 31
0.0
  0
LINE
  5
111F
330
762
100
AcDbEntity
  8
240
100
AcDbLine
 10
51.0
 20
-6.2
 30
0.0
 11
50.0
 21
-6.2
 31
0.0
  0
ARC
  5
1120
330
762
100
AcDbEntity
  8
240
100
AcDbCircle
 10
69.0
 20
-7.0
 30
0.0
 40
1.0
100
AcDbArc
 50
270.0
 51
0.0
1001
GENIUS_GENODEF_13
1002
{
1000
HIER
1070
     0
1002
}
1002
{
1000
MANEDIT
1070
     0
1002
}
1002
{
1000
NOSEL
1070
     0
1002
}
1002
{
1000
BEHIND
1070
     0
1002
}
1002
{
1000
OTHER
1070
     0
1002
}
1002
{
1000
REACTOR
1002
}
1001
GENIUS_GENOBJ-N-FIL_13
1002
{
1000
OWNER
1000
GEN
1002
}
  0
LINE
  5
1121
330
762
100
AcDbEntity
  8
240
100
AcDbLine
 10
53.15
 20
8.0
 30
0.0
 11
69.0
 21
8.0
 31
0.0
  0
LINE
  5
1122
330
762
100
AcDbEntity
  8
241
  6
HIDDEN2
100
AcDbLine
 10
55.0
 20
2.3
 30
0.0
 11
59.0
 21
2.3
 31
0.0
1001
GRPNAME
1000
0000002S
  0
LINE
  5
1123
330
762
100
AcDbEntity
  8
244
  6
HIDDEN2
100
AcDbLine
 10
48.0
 20
0.0
 30
0.0
 11
55.0
 21
2.33345238
 31
0.0
  0
LINE
  5
1124
330
762
100
AcDbEntity
  8
244
  6
HIDDEN2
100
AcDbLine
 10
48.0
 20
2.33345238
 30
0.0
 11
55.0
 21
0.0
 31
0.0
  0
LINE
  5
1125
330
762
100
AcDbEntity
  8
241
  6
HIDDEN2
100
AcDbLine
 10
48.0
 20
2.33345238
 30
0.0
 11
55.0
 21
2.33345238
 31
0.0
  0
LINE
  5
1126
330
762
100
AcDbEntity
  8
241
  6
HIDDEN2
100
AcDbLine
 10
48.0
 20
2.33345238
 30
0.0
 11
48.0
 21
0.0
 31
0.0
  0
LINE
  5
1127
330
762
100
AcDbEntity
  8
241
100
AcDbLine
 10
50.0
 20
6.2
 30
0.0
 11
50.0
 21
0.0
 31
0.0
  0
LINE
  5
1128
330
762
100
AcDbEntity
  8
241
100
AcDbLine
 10
51.0
 20
6.2
 30
0.0
 11
51.0
 21
0.0
 31
0.0
  0
LINE
  5
1129
330
762
100
AcDbEntity
  8
241
100
AcDbLine
 10
53.0
 20
8.15
 30
0.0
 11
53.0
 21
0.0
 31
0.0
  0
LINE
  5
112A
330
762
100
AcDbEntity
  8
241
100
AcDbLine
 10
54.2
 20
8.0
 30
0.0
 11
54.2
 21
0.0
 31
0.0
  0
LINE
  5
112B
330
762
100
AcDbEntity
  8
241
  6
HIDDEN2
100
AcDbLine
 10
55.0
 20
2.33345238
 30
0.0
 11
55.0
 21
0.0
 31
0.0
  0
LINE
  5
112C
330
762
100
AcDbEntity
  8
240
100
AcDbLine
 10
53.15
 20
8.0
 30
0.0
 11
53.0
 21
8.15
 31
0.0
  0
LINE
  5
112D
330
762
100
AcDbEntity
  8
240
100
AcDbLine
 10
51.0
 20
6.2
 30
0.0
 11
50.0
 21
6.2
 31
0.0
  0
LINE
  5
112E
330
762
100
AcDbEntity
  8
240
100
AcDbLine
 10
50.0
 20
6.2
 30
0.0
 11
50.0
 21
8.0
 31
0.0
  0
LINE
  5
112F
330
762
100
AcDbEntity
  8
240
100
AcDbLine
 10
51.0
 20
8.15
 30
0.0
 11
53.0
 21
8.15
 31
0.0
  0
LINE
  5
1130
330
762
100
AcDbEntity
  8
240
100
AcDbLine
 10
51.0
 20
6.2
 30
0.0
 11
51.0
 21
8.15
 31
0.0
  0
LINE
  5
1131
330
762
100
AcDbEntity
  8
241
  6
HIDDEN2
100
AcDbLine
 10
59.0
 20
2.0
 30
0.0
 11
70.0
 21
2.0
 31
0.0
  0
LINE
  5
1132
330
762
100
AcDbEntity
  8
241
  6
HIDDEN2
100
AcDbLine
 10
59.0
 20
2.3
 30
0.0
 11
59.0
 21
0.0
 31
0.0
  0
LINE
  5
1133
330
762
100
AcDbEntity
  8
240
100
AcDbLine
 10
70.0
 20
7.0
 30
0.0
 11
70.0
 21
0.0
 31
0.0
  0
ARC
  5
1134
330
762
100
AcDbEntity
  8
240
100
AcDbCircle
 10
69.0
 20
7.0
 30
0.0
 40
1.0
100
AcDbArc
 50
359.9999824
 51
90.0
1001
GENIUS_GENODEF_13
1002
{
1000
HIER
1070
     0
1002
}
1002
{
1000
MANEDIT
1070
     0
1002
}
1002
{
1000
NOSEL
1070
     0
1002
}
1002
{
1000
BEHIND
1070
     0
1002
}
1002
{
1000
OTHER
1070
     0
1002
}
1002
{
1000
REACTOR
1002
}
1001
GENIUS_GENOBJ-N-FIL_13
1002
{
1000
OWNER
1000
GEN
1002
}
  0
ENDBLK
  5
8A0
330
762
100
AcDbEntity
  8
0
100
AcDbBlockEnd
  0
BLOCK
  5
FC0
330
FB6
100
AcDbEntity
  8
0
100
AcDbBlockBegin
  2
*D8
 70
     1
 10
0.0
 20
0.0
 30
0.0
  3
*D8
  1

  0
LINE
  5
100E
330
FB6
100
AcDbEntity
  8
250
  6
CONTINUOUS
100
AcDbLine
 10
69.5
 20
-8.0
 30
0.0
 11
88.25
 21
-8.0
 31
0.0
  0
LINE
  5
100F
330
FB6
100
AcDbEntity
  8
250
  6
CONTINUOUS
100
AcDbLine
 10
69.5
 20
8.0
 30
0.0
 11
88.25
 21
8.0
 31
0.0
  0
LINE
  5
1010
330
FB6
100
AcDbEntity
  8
250
  6
CONTINUOUS
100
AcDbLine
 10
87.25
 20
-5.77
 30
0.0
 11
87.25
 21
5.77
 31
0.0
  0
INSERT
  5
1011
330
FB6
100
AcDbEntity
  8
250
  6
CONTINUOUS
100
AcDbBlockReference
  2
_OPEN
 10
87.25
 20
-8.0
 30
0.0
 41
2.23
 42
2.23
 43
2.23
 50
270.0
  0
INSERT
  5
1012
330
FB6
100
AcDbEntity
  8
250
  6
CONTINUOUS
100
AcDbBlockReference
  2
_OPEN
 10
87.25
 20
8.0
 30
0.0
 41
2.23
 42
2.23
 43
2.23
 50
90.0
  0
MTEXT
  5
1013
330
FB6
100
AcDbEntity
  8
250
  6
CONTINUOUS
 62
    40
100
AcDbMText
 10
84.85
 20
0.0
 30
0.0
 40
2.8
 41
0.0
 71
     5
 72
     1
  1
\A1;{\H2.8;\U+2205}16
 11
0.0
 21
1.0
 31
0.0
1001
ACAD
1000
MTEXTBEGIN
1070
    73
1070
     1
1070
    44
1040
1.0
1070
    74
1070
     0
1000
MTEXTEND
  0
POINT
  5
1014
330
FB6
100
AcDbEntity
  8
DEFPOINTS
  6
CONTINUOUS
 62
     0
100
AcDbPoint
 10
69.0
 20
-8.0
 30
0.0
  0
POINT
  5
1015
330
FB6
100
AcDbEntity
  8
DEFPOINTS
  6
CONTINUOUS
 62
     0
100
AcDbPoint
 10
69.0
 20
8.0
 30
0.0
  0
POINT
  5
1016
330
FB6
100
AcDbEntity
  8
DEFPOINTS
  6
CONTINUOUS
 62
     0
100
AcDbPoint
 10
87.25
 20
8.0
 30
0.0
  0
ENDBLK
  5
FC1
330
FB6
100
AcDbEntity
  8
0
100
AcDbBlockEnd
  0
BLOCK
  5
FCC
330
FC2
100
AcDbEntity
  8
0
100
AcDbBlockBegin
  2
*D9
 70
     1
 10
0.0
 20
0.0
 30
0.0
  3
*D9
  1

  0
LINE
  5
1005
330
FC2
100
AcDbEntity
  8
250
  6
CONTINUOUS
100
AcDbLine
 10
0.0
 20
11.14125603
 30
0.0
 11
0.0
 21
22.0
 31
0.0
  0
LINE
  5
1006
330
FC2
100
AcDbEntity
  8
250
  6
CONTINUOUS
100
AcDbLine
 10
70.0
 20
7.5
 30
0.0
 11
70.0
 21
22.0
 31
0.0
  0
LINE
  5
1007
330
FC2
100
AcDbEntity
  8
250
  6
CONTINUOUS
100
AcDbLine
 10
2.23
 20
21.0
 30
0.0
 11
67.77
 21
21.0
 31
0.0
  0
INSERT
  5
1008
330
FC2
100
AcDbEntity
  8
250
  6
CONTINUOUS
100
AcDbBlockReference
  2
_OPEN
 10
0.0
 20
21.0
 30
0.0
 41
2.23
 42
2.23
 43
2.23
 50
180.0
  0
INSERT
  5
1009
330
FC2
100
AcDbEntity
  8
250
  6
CONTINUOUS
100
AcDbBlockReference
  2
_OPEN
 10
70.0
 20
21.0
 30
0.0
 41
2.23
 42
2.23
 43
2.23
  0
MTEXT
  5
100A
330
FC2
100
AcDbEntity
  8
250
  6
CONTINUOUS
 62
    40
100
AcDbMText
 10
35.38751516
 20
23.4
 30
0.0
 40
2.8
 41
0.0
 71
     5
 72
     1
  1
\A1;70
1001
ACAD
1000
MTEXTBEGIN
1070
    73
1070
     1
1070
    44
1040
1.0
1070
    74
1070
     0
1000
MTEXTEND
  0
POINT
  5
100B
330
FC2
100
AcDbEntity
  8
DEFPOINTS
  6
CONTINUOUS
 62
     0
100
AcDbPoint
 10
0.0
 20
10.64125603
 30
0.0
  0
POINT
  5
100C
330
FC2
100
AcDbEntity
  8
DEFPOINTS
  6
CONTINUOUS
 62
     0
100
AcDbPoint
 10
70.0
 20
7.0
 30
0.0
  0
POINT
  5
100D
330
FC2
100
AcDbEntity
  8
DEFPOINTS
  6
CONTINUOUS
 62
     0
100
AcDbPoint
 10
70.0
 20
21.0
 30
0.0
  0
ENDBLK
  5
FCD
330
FC2
100
AcDbEntity
  8
0
100
AcDbBlockEnd
  0
ENDSEC
  0
SECTION
  2
ENTITIES
  0
INSERT
  5
6E6
330
1A
100
AcDbEntity
  8
245
100
AcDbBlockReference
  2
矢印なし
 10
175.62382697
 20
90.55123572
 30
0.0
  0
INSERT
  5
8D0
330
1A
100
AcDbEntity
  8
245
100
AcDbBlockReference
  2
矢印なし
 10
350.62382697
 20
258.55123572
 30
0.0
  0
TEXT
  5
8D2
330
1A
100
AcDbEntity
  8
241
100
AcDbText
 10
-47.5
 20
35.0
 30
0.0
 40
5.0
  1
MGT6-M3-70
  7
YOKO
 11
-47.5
 21
35.0
 31
0.0
100
AcDbText
 73
     1
  0
MTEXT
  5
E8F
330
1A
100
AcDbEntity
  8
251
  6
CONTINUOUS
100
AcDbMText
 10
57.27492403
 20
15.0
 30
0.0
 40
2.8
 41
0.0
 71
     7
 72
     1
  1
□3.2
  7
YOKO
1001
ITEMNAME
1000
LNSP3
1001
ACAD
1000
MTEXTBEGIN
1070
    73
1070
     1
1070
    44
1040
1.0
1070
    74
1070
     0
1000
MTEXTEND
1000
MTEXTBEGIN
1070
    73
1070
     1
1070
    44
1040
1.0
1070
    74
1070
     0
1000
MTEXTEND
1000
MTEXTBEGIN
1070
    73
1070
     1
1070
    44
1040
1.0
1070
    74
1070
     0
1000
MTEXTEND
1000
MTEXTBEGIN
1070
    73
1070
     1
1070
    44
1040
1.0
1070
    74
1070
     0
1000
MTEXTEND
  0
LEADER
  5
E90
330
1A
100
AcDbEntity
  8
250
  6
CONTINUOUS
100
AcDbLeader
  3
BIGT
 76
     2
 10
51.29580662
 20
2.33345238
 30
0.0
 10
55.5
 20
14.0
 30
0.0
1001
ACAD
1000
DSTYLE
1002
{
1070
     6
1000
OPEN
1070
   343
1005
594
1002
}
  0
MTEXT
  5
E91
330
1A
100
AcDbEntity
  8
250
  6
CONTINUOUS
 62
    40
100
AcDbMText
 10
77.85
 20
-1.36807536
 30
0.0
 40
2.8
 41
0.0
 71
     5
 72
     1
  1
\A1;{\H2.8;\U+2205}4
 11
0.0
 21
1.0
 31
0.0
1001
ACAD
1000
MTEXTBEGIN
1070
    73
1070
     1
1070
    44
1040
1.0
1070
    74
1070
     0
1000
MTEXTEND
1000
MTEXTBEGIN
1070
    73
1070
     1
1070
    44
1040
1.0
1070
    74
1070
     0
1000
MTEXTEND
1000
MTEXTBEGIN
1070
    73
1070
     1
1070
    44
1040
1.0
1070
    74
1070
     0
1000
MTEXTEND
1000
MTEXTBEGIN
1070
    73
1070
     1
1070
    44
1040
1.0
1070
    74
1070
     0
1000
MTEXTEND
1000
MTEXTBEGIN
1070
    73
1070
     1
1070
    44
1040
1.0
1070
    74
1070
     0
1000
MTEXTEND
1000
MTEXTBEGIN
1070
    73
1070
     1
1070
    44
1040
1.0
1070
    74
1070
     0
1000
MTEXTEND
  0
DIMENSION
  5
E96
330
1A
100
AcDbEntity
  8
250
  6
CONTINUOUS
100
AcDbDimension
  2
*D9
 10
70.0
 20
21.0
 30
0.0
 11
35.38751516
 21
21.0
 31
0.0
 70
   160
  3
BIGT
100
AcDbAlignedDimension
 13
0.0
 23
10.64125603
 33
0.0
 14
70.0
 24
7.0
 34
0.0
100
AcDbRotatedDimension
  0
DIMENSION
  5
F91
330
1A
100
AcDbEntity
  8
250
  6
CONTINUOUS
100
AcDbDimension
  2
*D8
 10
87.25
 20
8.0
 30
0.0
 11
84.85
 21
0.0
 31
0.0
 70
    32
  1
{\H2.8;\U+2205}<>
  3
BIGT
100
AcDbAlignedDimension
 13
69.0
 23
-8.0
 33
0.0
 14
69.0
 24
8.0
 34
0.0
 50
90.0
100
AcDbRotatedDimension
  0
LINE
  5
F97
330
1A
100
AcDbEntity
  8
250
  6
CONTINUOUS
100
AcDbLine
 10
80.25
 20
2.0
 30
0.0
 11
80.25
 21
-3.37393748
 31
0.0
  0
LINE
  5
FA1
330
1A
100
AcDbEntity
  8
250
  6
CONTINUOUS
100
AcDbLine
 10
55.5
 20
14.0
 30
0.0
 11
69.42483822
 21
14.0
 31
0.0
1001
ITEMNAME
1000
LNSP2
  0
LINE
  5
FB2
330
1A
100
AcDbEntity
  8
250
  6
CONTINUOUS
100
AcDbLine
 10
70.5
 20
2.0
 30
0.0
 11
81.25
 21
2.0
 31
0.0
  0
INSERT
  5
FB5
330
1A
100
AcDbEntity
  8
250
  6
CONTINUOUS
100
AcDbBlockReference
  2
_OPEN
 10
80.25
 20
2.0
 30
0.0
 41
2.23
 42
2.23
 43
2.23
 50
90.0
  0
INSERT
  5
1135
330
1A
100
AcDbEntity
  8
245
100
AcDbBlockReference
  2
1
 10
0.0
 20
0.0
 30
0.0
  0
VIEWPORT
  5
22
330
17
100
AcDbEntity
 67
     1
  8
0
100
AcDbViewport
 10
261.51769912
 20
148.5
 30
0.0
 40
523.03539823
 41
297.0
 68
     1
 69
     1
1001
ACAD
1000
MVIEW
1002
{
1070
    16
1010
0.0
1020
0.0
1030
0.0
1010
0.0
1020
0.0
1030
1.0
1040
0.0
1040
297.0
1040
261.51769912
1040
148.5
1040
50.0
1040
0.0
1040
0.0
1070
     0
1070
   100
1070
     1
1070
     1
1070
     0
1070
     0
1070
     0
1070
     0
1040
0.0
1040
0.0
1040
0.0
1040
1.0
1040
1.0
1040
10.0
1040
10.0
1070
     0
1002
{
1002
}
1002
}
  0
ENDSEC
  0
SECTION
  2
OBJECTS
  0
DICTIONARY
  5
C
330
0
100
AcDbDictionary
  3
ACAD_GROUP
350
D
  3
ACAD_LAYOUT
350
565
  3
ACAD_MLINESTYLE
350
E
  3
ACAD_PLOTSETTINGS
350
566
  3
ACAD_PLOTSTYLENAME
350
563
  3
ACDBHEADERROUNDTRIPXREC
350
1137
  3
GRADE_DWG
350
540
  0
DICTIONARY
  5
C00
330
1A
100
AcDbDictionary
280
     1
  3
ACAD_LAYOUTSELFREF
360
1159
  0
DICTIONARY
  5
BFE
330
17
100
AcDbDictionary
280
     1
  3
ACAD_LAYOUTSELFREF
360
1158
  0
DICTIONARY
  5
D
102
{ACAD_REACTORS
330
C
102
}
330
C
100
AcDbDictionary
  3
*A1
350
6C7
  3
*A2
350
6C8
  3
*A3
350
6D4
  3
*A4
350
6D5
  3
DREC-1
350
5FC
  3
DREC-2
350
654
  3
DREC-3
350
673
  0
DICTIONARY
  5
565
102
{ACAD_REACTORS
330
C
102
}
330
C
100
AcDbDictionary
  0
DICTIONARY
  5
E
102
{ACAD_REACTORS
330
C
102
}
330
C
100
AcDbDictionary
  3
STANDARD
350
13
  0
DICTIONARY
  5
566
102
{ACAD_REACTORS
330
C
102
}
330
C
100
AcDbDictionary
  3
A3_0_5倍_
350
758
  3
A3_1倍_
350
757
  3
A3_1倍__2000_
350
707
  3
A3_2倍_
350
759
  3
A4_0_5倍_
350
755
  3
A4_1倍_
350
754
  3
A4_1倍__2000_
350
708
  3
A4_2倍_
350
756
  0
ACDBDICTIONARYWDFLT
  5
563
102
{ACAD_REACTORS
330
C
102
}
330
C
100
AcDbDictionary
281
     1
  3
Normal
350
564
100
AcDbDictionaryWithDefault
340
564
  0
DICTIONARY
  5
1137
102
{ACAD_REACTORS
330
C
102
}
330
C
100
AcDbDictionary
  3
CEPSNTYPE
350
1141
  3
DIMSTYLEDATA
350
1145
  3
FINGERPRINTGUID
350
1142
  3
HYPERLINKBASE
350
113A
  3
INSUNITS
350
1140
  3
LAYOUTDICT
350
113C
  3
LWETCUNION
350
113F
  3
PLOTSETDICT
350
113D
  3
PLOTSTYLNAMDICT
350
113E
  3
PSVPSCALE
350
1144
  3
PUCSBASE
350
1148
  3
PUCSORGBACK
350
114E
  3
PUCSORGBOTTOM
350
114A
  3
PUCSORGFRONT
350
114D
  3
PUCSORGLEFT
350
114B
  3
PUCSORGRIGHT
350
114C
  3
PUCSORGTOP
350
1149
  3
PUCSORTHOREF
350
1146
  3
PUCSORTHOVIEW
350
1147
  3
STYLESHEET
350
113B
  3
TSTACKALIGN
350
1138
  3
TSTACKSIZE
350
1139
  3
UCSBASE
350
1151
  3
UCSORGBACK
350
1157
  3
UCSORGBOTTOM
350
1153
  3
UCSORGFRONT
350
1156
  3
UCSORGLEFT
350
1154
  3
UCSORGRIGHT
350
1155
  3
UCSORGTOP
350
1152
  3
UCSORTHOREF
350
114F
  3
UCSORTHOVIEW
350
1150
  3
VERSIONGUID
350
1143
  0
DICTIONARY
  5
540
102
{ACAD_REACTORS
330
C
102
}
330
C
100
AcDbDictionary
  3
VERSION
350
560
  0
XRECORD
  5
1159
102
{ACAD_REACTORS
330
C00
102
}
330
C00
100
AcDbXrecord
340
1A
  0
XRECORD
  5
1158
102
{ACAD_REACTORS
330
BFE
102
}
330
BFE
100
AcDbXrecord
340
17
  0
GROUP
  5
6C7
102
{ACAD_REACTORS
330
D
102
}
330
D
100
AcDbGroup
300

 70
     0
 71
     1
1001
GRPNAME
1000
DMA00
  0
GROUP
  5
6C8
102
{ACAD_REACTORS
330
D
102
}
330
D
100
AcDbGroup
300

 70
     0
 71
     1
1001
GRPNAME
1000
DMA00
  0
GROUP
  5
6D4
102
{ACAD_REACTORS
330
D
102
}
330
D
100
AcDbGroup
300

 70
     0
 71
     1
1001
GRPNAME
1000
DMA00
  0
GROUP
  5
6D5
102
{ACAD_REACTORS
330
D
102
}
330
D
100
AcDbGroup
300

 70
     0
 71
     1
1001
GRPNAME
1000
DMA00
  0
GROUP
  5
5FC
102
{ACAD_REACTORS
330
D
102
}
330
D
100
AcDbGroup
300

 70
     0
 71
     1
1001
GRPNAME
1000
DREC-
1001
GPARA
1000
xsiz
1000
44.182
1000
ysiz
1000
40.677
1000
angl
1000
0
1000
ctyp
1000
0
1000
csiz
1000
5
1000
lfnt
1000
cont
1000
hcnt
1000
hoff
1000
vcnt
1000
voff
1000
opnt
1000
4
1000
dxpt
1000
0
1000
dypt
1000
0
  0
GROUP
  5
654
102
{ACAD_REACTORS
330
D
102
}
330
D
100
AcDbGroup
300

 70
     0
 71
     1
1001
GRPNAME
1000
DREC-
1001
GPARA
1000
xsiz
1000
54.592
1000
ysiz
1000
53.036
1000
angl
1000
0
1000
ctyp
1000
0
1000
csiz
1000
5
1000
lfnt
1000
cont
1000
hcnt
1000
hoff
1000
vcnt
1000
voff
1000
opnt
1000
4
1000
dxpt
1000
0
1000
dypt
1000
0
  0
GROUP
  5
673
102
{ACAD_REACTORS
330
D
102
}
330
D
100
AcDbGroup
300

 70
     0
 71
     1
1001
GRPNAME
1000
DREC-
1001
GPARA
1000
xsiz
1000
30.363
1000
ysiz
1000
36.175
1000
angl
1000
0
1000
ctyp
1000
0
1000
csiz
1000
5
1000
lfnt
1000
cont
1000
hcnt
1000
hoff
1000
vcnt
1000
voff
1000
opnt
1000
4
1000
dxpt
1000
0
1000
dypt
1000
0
  0
MLINESTYLE
  5
13
102
{ACAD_REACTORS
330
E
102
}
330
E
100
AcDbMlineStyle
  2
STANDARD
 70
     0
  3

 62
     0
 51
90.0
 52
90.0
 71
     2
 49
0.5
 62
   256
  6
BYLAYER
 49
-0.5
 62
   256
  6
BYLAYER
  0
PLOTSETTINGS
  5
758
102
{ACAD_REACTORS
330
566
102
}
330
566
100
AcDbPlotSettings
  1
A3(0.5倍)
  2
\\AWTECPC05\HP DeskJet 1120C
  4
A3
  6

 40
5.95841646
 41
13.49375153
 42
6.04309082
 43
3.67242432
 44
296.92599487
 45
419.94665527
 46
89.96
 47
127.14
 48
0.0
 49
0.0
140
0.0
141
0.0
142
1.0
143
2.0
 70
  1716
 72
     1
 73
     1
 74
     2
  7
big.ctb
 75
    17
147
0.5
148
0.0
149
0.0
  0
PLOTSETTINGS
  5
757
102
{ACAD_REACTORS
330
566
102
}
330
566
100
AcDbPlotSettings
  1
A3(1倍)
  2
\\AWTECPC05\HP DeskJet 1120C
  4
A3
  6

 40
5.95841646
 41
13.49375153
 42
6.04309082
 43
3.67242432
 44
296.92599487
 45
419.94665527
 46
37.46
 47
52.89
 48
0.0
 49
0.0
140
0.0
141
0.0
142
1.0
143
1.0
 70
  1716
 72
     1
 73
     1
 74
     2
  7
big.ctb
 75
    16
147
1.0
148
0.0
149
0.0
  0
PLOTSETTINGS
  5
707
102
{ACAD_REACTORS
330
566
102
}
330
566
100
AcDbPlotSettings
  1
A3(1倍)(2000)
  2
SII LS-1300 (D-SCAN)
  4
User258
  6

 40
3.17499995
 41
3.17499995
 42
3.17498779
 43
3.17498779
 44
419.98898315
 45
296.98950195
 46
58.32
 47
40.32
 48
0.0
 49
0.0
140
0.0
141
0.0
142
1.0
143
1.0
 70
  1716
 72
     1
 73
     0
 74
     2
  7
big.ctb
 75
    16
147
1.0
148
0.0
149
0.0
  0
PLOTSETTINGS
  5
759
102
{ACAD_REACTORS
330
566
102
}
330
566
100
AcDbPlotSettings
  1
A3(2倍)
  2
\\AWTECPC05\HP DeskJet 1120C
  4
A3
  6

 40
5.95841646
 41
13.49375153
 42
6.04309082
 43
3.67242432
 44
296.92599487
 45
419.94665527
 46
-67.54
 47
-95.61
 48
0.0
 49
0.0
140
0.0
141
0.0
142
1.0
143
0.5
 70
  1716
 72
     1
 73
     1
 74
     2
  7
big.ctb
 75
    27
147
2.0
148
0.0
149
0.0
  0
PLOTSETTINGS
  5
755
102
{ACAD_REACTORS
330
566
102
}
330
566
100
AcDbPlotSettings
  1
A4(0.5倍)
  2
\\AWTECPC05\HP DeskJet 1120C
  4
A4
  6

 40
4.18041658
 41
13.49374962
 42
4.18040466
 43
3.92642212
 44
209.97332764
 45
296.92599487
 46
48.31
 47
65.5
 48
0.0
 49
0.0
140
0.0
141
0.0
142
1.0
143
2.0
 70
  1716
 72
     1
 73
     1
 74
     2
  7
big.ctb
 75
    17
147
0.5
148
0.0
149
0.0
  0
PLOTSETTINGS
  5
754
102
{ACAD_REACTORS
330
566
102
}
330
566
100
AcDbPlotSettings
  1
A4(1倍)
  2
\\AWTECPC05\HP DeskJet 1120C
  4
A4
  6

 40
4.18041658
 41
13.49374962
 42
4.18040466
 43
3.92642212
 44
209.97332764
 45
296.92599487
 46
-4.19
 47
-8.75
 48
0.0
 49
0.0
140
0.0
141
0.0
142
1.0
143
1.0
 70
  1716
 72
     1
 73
     1
 74
     2
  7
big.ctb
 75
    16
147
1.0
148
0.0
149
0.0
  0
PLOTSETTINGS
  5
708
102
{ACAD_REACTORS
330
566
102
}
330
566
100
AcDbPlotSettings
  1
A4(1倍)(2000)
  2
SII LS-1300 (D-SCAN)
  4
User259
  6

 40
3.17499995
 41
3.17499995
 42
3.17498779
 43
3.17500305
 44
296.98950195
 45
209.99449158
 46
-3.18
 47
-3.18
 48
0.0
 49
0.0
140
0.0
141
0.0
142
1.0
143
1.0
 70
  1716
 72
     1
 73
     0
 74
     2
  7
big.ctb
 75
    16
147
1.0
148
0.0
149
0.0
  0
PLOTSETTINGS
  5
756
102
{ACAD_REACTORS
330
566
102
}
330
566
100
AcDbPlotSettings
  1
A4(2倍)
  2
\\AWTECPC05\HP DeskJet 1120C
  4
A4
  6

 40
4.18041658
 41
13.49374962
 42
4.18040466
 43
3.92642212
 44
209.97332764
 45
296.92599487
 46
-109.19
 47
-157.25
 48
0.0
 49
0.0
140
0.0
141
0.0
142
1.0
143
0.5
 70
  1716
 72
     1
 73
     1
 74
     2
  7
big.ctb
 75
    27
147
2.0
148
0.0
149
0.0
  0
ACDBPLACEHOLDER
  5
564
102
{ACAD_REACTORS
330
563
102
}
330
563
100
AcDbPlaceHolder
280
     0
  0
XRECORD
  5
1141
102
{ACAD_REACTORS
330
1137
102
}
330
1137
100
AcDbXrecord
 90
        0
  0
XRECORD
  5
1145
102
{ACAD_REACTORS
330
1137
102
}
330
1137
100
AcDbXrecord
1000
DSTYLE
1002
{
1070
    79
 70
     2
1070
   179
 70
     3
1070
   341
340
594
1070
   343
340
594
1070
   344
340
594
1070
   371
 70
    -1
1070
   372
 70
    -1
1002
}
  0
XRECORD
  5
1142
102
{ACAD_REACTORS
330
1137
102
}
330
1137
100
AcDbXrecord
  1
{51294030-9CB4-11D3-8E18-00A0C925D94D}
  0
XRECORD
  5
113A
102
{ACAD_REACTORS
330
1137
102
}
330
1137
100
AcDbXrecord
  1

  0
XRECORD
  5
1140
102
{ACAD_REACTORS
330
1137
102
}
330
1137
100
AcDbXrecord
 90
        0
  0
XRECORD
  5
113C
102
{ACAD_REACTORS
330
1137
102
}
330
1137
100
AcDbXrecord
340
565
  0
XRECORD
  5
113F
102
{ACAD_REACTORS
330
1137
102
}
330
1137
100
AcDbXrecord
 90
    10781
  0
XRECORD
  5
113D
102
{ACAD_REACTORS
330
1137
102
}
330
1137
100
AcDbXrecord
340
566
  0
XRECORD
  5
113E
102
{ACAD_REACTORS
330
1137
102
}
330
1137
100
AcDbXrecord
340
563
  0
XRECORD
  5
1144
102
{ACAD_REACTORS
330
1137
102
}
330
1137
100
AcDbXrecord
 40
0.0
  0
XRECORD
  5
1148
102
{ACAD_REACTORS
330
1137
102
}
330
1137
100
AcDbXrecord
340
0
  0
XRECORD
  5
114E
102
{ACAD_REACTORS
330
1137
102
}
330
1137
100
AcDbXrecord
 10
0.0
 20
0.0
 30
0.0
  0
XRECORD
  5
114A
102
{ACAD_REACTORS
330
1137
102
}
330
1137
100
AcDbXrecord
 10
0.0
 20
0.0
 30
0.0
  0
XRECORD
  5
114D
102
{ACAD_REACTORS
330
1137
102
}
330
1137
100
AcDbXrecord
 10
0.0
 20
0.0
 30
0.0
  0
XRECORD
  5
114B
102
{ACAD_REACTORS
330
1137
102
}
330
1137
100
AcDbXrecord
 10
0.0
 20
0.0
 30
0.0
  0
XRECORD
  5
114C
102
{ACAD_REACTORS
330
1137
102
}
330
1137
100
AcDbXrecord
 10
0.0
 20
0.0
 30
0.0
  0
XRECORD
  5
1149
102
{ACAD_REACTORS
330
1137
102
}
330
1137
100
AcDbXrecord
 10
0.0
 20
0.0
 30
0.0
  0
XRECORD
  5
1146
102
{ACAD_REACTORS
330
1137
102
}
330
1137
100
AcDbXrecord
340
0
  0
XRECORD
  5
1147
102
{ACAD_REACTORS
330
1137
102
}
330
1137
100
AcDbXrecord
 70
     0
  0
XRECORD
  5
113B
102
{ACAD_REACTORS
330
1137
102
}
330
1137
100
AcDbXrecord
  1
big.ctb
  0
XRECORD
  5
1138
102
{ACAD_REACTORS
330
1137
102
}
330
1137
100
AcDbXrecord
 90
        1
  0
XRECORD
  5
1139
102
{ACAD_REACTORS
330
1137
102
}
330
1137
100
AcDbXrecord
 90
       70
  0
XRECORD
  5
1151
102
{ACAD_REACTORS
330
1137
102
}
330
1137
100
AcDbXrecord
340
0
  0
XRECORD
  5
1157
102
{ACAD_REACTORS
330
1137
102
}
330
1137
100
AcDbXrecord
 10
0.0
 20
0.0
 30
0.0
  0
XRECORD
  5
1153
102
{ACAD_REACTORS
330
1137
102
}
330
1137
100
AcDbXrecord
 10
0.0
 20
0.0
 30
0.0
  0
XRECORD
  5
1156
102
{ACAD_REACTORS
330
1137
102
}
330
1137
100
AcDbXrecord
 10
0.0
 20
0.0
 30
0.0
  0
XRECORD
  5
1154
102
{ACAD_REACTORS
330
1137
102
}
330
1137
100
AcDbXrecord
 10
0.0
 20
0.0
 30
0.0
  0
XRECORD
  5
1155
102
{ACAD_REACTORS
330
1137
102
}
330
1137
100
AcDbXrecord
 10
0.0
 20
0.0
 30
0.0
  0
XRECORD
  5
1152
102
{ACAD_REACTORS
330
1137
102
}
330
1137
100
AcDbXrecord
 10
0.0
 20
0.0
 30
0.0
  0
XRECORD
  5
114F
102
{ACAD_REACTORS
330
1137
102
}
330
1137
100
AcDbXrecord
340
0
  0
XRECORD
  5
1150
102
{ACAD_REACTORS
330
1137
102
}
330
1137
100
AcDbXrecord
 70
     0
  0
XRECORD
  5
1143
102
{ACAD_REACTORS
330
1137
102
}
330
1137
100
AcDbXrecord
  1
{A1E5723E-9BA2-4A09-BFAD-AE2F6923A53F}
  0
XRECORD
  5
560
102
{ACAD_REACTORS
330
540
102
}
330
540
100
AcDbXrecord
  1
2.0.0
  0
ENDSEC
  0
EOF
