  0
SECTION
  2
HEADER
  9
$ACADVER
  1
AC1014
  9
$ACADMAINTVER
 70
     9
  9
$DWGCODEPAGE
  3
ANSI_932
  9
$INSBASE
 10
0.0
 20
0.0
 30
0.0
  9
$EXTMIN
 10
-48.51429639
 20
-11.07006072
 30
-0.00152582
  9
$EXTMAX
 10
48.279679
 20
40.00231253
 30
0.00000003
  9
$LIMMIN
 10
0.0
 20
0.0
  9
$LIMMAX
 10
420.0
 20
297.0
  9
$ORTHOMODE
 70
     1
  9
$REGENMODE
 70
     1
  9
$FILLMODE
 70
     1
  9
$QTEXTMODE
 70
     0
  9
$MIRRTEXT
 70
     1
  9
$DRAGMODE
 70
     2
  9
$LTSCALE
 40
10.0
  9
$OSMODE
 70
   549
  9
$ATTMODE
 70
     1
  9
$TEXTSIZE
 40
3.0
  9
$TRACEWID
 40
1.0
  9
$TEXTSTYLE
  7
YOKO
  9
$CLAYER
  8
245
  9
$CELTYPE
  6
BYLAYER
  9
$CECOLOR
 62
   256
  9
$CELTSCALE
 40
1.0
  9
$DELOBJ
 70
     1
  9
$DISPSILH
 70
     0
  9
$DIMSCALE
 40
1.0
  9
$DIMASZ
 40
2.0
  9
$DIMEXO
 40
2.0
  9
$DIMDLI
 40
2.5
  9
$DIMRND
 40
0.0
  9
$DIMDLE
 40
0.0
  9
$DIMEXE
 40
2.0
  9
$DIMTP
 40
0.0
  9
$DIMTM
 40
0.0
  9
$DIMTXT
 40
4.0
  9
$DIMCEN
 40
0.0
  9
$DIMTSZ
 40
0.0
  9
$DIMTOL
 70
     0
  9
$DIMLIM
 70
     0
  9
$DIMTIH
 70
     0
  9
$DIMTOH
 70
     0
  9
$DIMSE1
 70
     0
  9
$DIMSE2
 70
     0
  9
$DIMTAD
 70
     3
  9
$DIMZIN
 70
     8
  9
$DIMBLK
  1

  9
$DIMASO
 70
     1
  9
$DIMSHO
 70
     1
  9
$DIMPOST
  1

  9
$DIMAPOST
  1

  9
$DIMALT
 70
     0
  9
$DIMALTD
 70
     2
  9
$DIMALTF
 40
25.4
  9
$DIMLFAC
 40
1.0
  9
$DIMTOFL
 70
     1
  9
$DIMTVP
 40
0.0
  9
$DIMTIX
 70
     1
  9
$DIMSOXD
 70
     0
  9
$DIMSAH
 70
     1
  9
$DIMBLK1
  1
OPEN
  9
$DIMBLK2
  1
OPEN
  9
$DIMSTYLE
  2
BIGT
  9
$DIMCLRD
 70
   256
  9
$DIMCLRE
 70
   256
  9
$DIMCLRT
 70
    40
  9
$DIMTFAC
 40
1.0
  9
$DIMGAP
 40
1.0
  9
$DIMJUST
 70
     0
  9
$DIMSD1
 70
     0
  9
$DIMSD2
 70
     0
  9
$DIMTOLJ
 70
     1
  9
$DIMTZIN
 70
     8
  9
$DIMALTZ
 70
     0
  9
$DIMALTTZ
 70
     0
  9
$DIMFIT
 70
     3
  9
$DIMUPT
 70
     0
  9
$DIMUNIT
 70
     2
  9
$DIMDEC
 70
     3
  9
$DIMTDEC
 70
     3
  9
$DIMALTU
 70
     2
  9
$DIMALTTD
 70
     2
  9
$DIMTXSTY
  7
STANDARD
  9
$DIMAUNIT
 70
     0
  9
$LUNITS
 70
     2
  9
$LUPREC
 70
     3
  9
$SKETCHINC
 40
1.0
  9
$FILLETRAD
 40
0.0
  9
$AUNITS
 70
     0
  9
$AUPREC
 70
     3
  9
$MENU
  1
.
  9
$ELEVATION
 40
0.0
  9
$PELEVATION
 40
0.0
  9
$THICKNESS
 40
0.0
  9
$LIMCHECK
 70
     0
  9
$BLIPMODE
 70
     0
  9
$CHAMFERA
 40
10.0
  9
$CHAMFERB
 40
10.0
  9
$CHAMFERC
 40
0.0
  9
$CHAMFERD
 40
0.0
  9
$SKPOLY
 70
     0
  9
$TDCREATE
 40
2455128.438461007
  9
$TDUPDATE
 40
2455316.423116134
  9
$TDINDWG
 40
0.0048276620
  9
$TDUSRTIMER
 40
0.0048276620
  9
$USRTIMER
 70
     1
  9
$ANGBASE
 50
0.0
  9
$ANGDIR
 70
     0
  9
$PDMODE
 70
     1
  9
$PDSIZE
 40
-5.0
  9
$PLINEWID
 40
0.0
  9
$COORDS
 70
     0
  9
$SPLFRAME
 70
     0
  9
$SPLINETYPE
 70
     6
  9
$SPLINESEGS
 70
     8
  9
$ATTDIA
 70
     0
  9
$ATTREQ
 70
     1
  9
$HANDLING
 70
-16383
  9
$HANDSEED
  5
13D2
  9
$SURFTAB1
 70
     6
  9
$SURFTAB2
 70
     6
  9
$SURFTYPE
 70
     6
  9
$SURFU
 70
     6
  9
$SURFV
 70
     6
  9
$UCSNAME
  2

  9
$UCSORG
 10
0.0
 20
0.0
 30
0.0
  9
$UCSXDIR
 10
1.0
 20
0.0
 30
0.0
  9
$UCSYDIR
 10
0.0
 20
1.0
 30
0.0
  9
$PUCSNAME
  2

  9
$PUCSORG
 10
0.0
 20
0.0
 30
0.0
  9
$PUCSXDIR
 10
1.0
 20
0.0
 30
0.0
  9
$PUCSYDIR
 10
0.0
 20
1.0
 30
0.0
  9
$USERI1
 70
     1
  9
$USERI2
 70
     0
  9
$USERI3
 70
     0
  9
$USERI4
 70
     0
  9
$USERI5
 70
     0
  9
$USERR1
 40
0.0
  9
$USERR2
 40
0.0
  9
$USERR3
 40
0.0
  9
$USERR4
 40
0.0
  9
$USERR5
 40
0.0
  9
$WORLDVIEW
 70
     1
  9
$SHADEDGE
 70
     3
  9
$SHADEDIF
 70
    70
  9
$TILEMODE
 70
     1
  9
$MAXACTVP
 70
    16
  9
$PINSBASE
 10
0.0
 20
0.0
 30
0.0
  9
$PLIMCHECK
 70
     0
  9
$PEXTMIN
 10
1.00000000E+20
 20
1.00000000E+20
 30
1.00000000E+20
  9
$PEXTMAX
 10
-1.00000000E+20
 20
-1.00000000E+20
 30
-1.00000000E+20
  9
$PLIMMIN
 10
0.0
 20
0.0
  9
$PLIMMAX
 10
420.0
 20
297.0
  9
$UNITMODE
 70
     0
  9
$VISRETAIN
 70
     0
  9
$PLINEGEN
 70
     0
  9
$PSLTSCALE
 70
     1
  9
$TREEDEPTH
 70
  3020
  9
$PICKSTYLE
 70
     0
  9
$CMLSTYLE
  2
STANDARD
  9
$CMLJUST
 70
     0
  9
$CMLSCALE
 40
1.0
  9
$PROXYGRAPHICS
 70
     1
  9
$MEASUREMENT
 70
     1
  0
ENDSEC
  0
SECTION
  2
CLASSES
  0
CLASS
  1
XRECORD
  2
AcDbXrecord
  3
AutoCAD 2000
 90
        0
280
     0
281
     0
  0
CLASS
  1
ACDBDICTIONARYWDFLT
  2
AcDbDictionaryWithDefault
  3
AutoCAD 2000
 90
        0
280
     0
281
     0
  0
CLASS
  1
ACDBPLACEHOLDER
  2
AcDbPlaceHolder
  3
AutoCAD 2000
 90
        0
280
     0
281
     0
  0
CLASS
  1
LAYOUT
  2
AcDbLayout
  3
AutoCAD 2000
 90
        0
280
     0
281
     0
  0
CLASS
  1
PLOTSETTINGS
  2
AcDbPlotSettings
  3
AutoCAD 2000
 90
        0
280
     0
281
     0
  0
CLASS
  1
LONG_TRANSACTION
  2
AcDbLongTransaction
  3
AutoCAD 2000
 90
        0
280
     0
281
     0
  0
CLASS
  1
LWPOLYLINE
  2
AcDbPolyline
  3
AutoCAD 2000
 90
        0
280
     0
281
     1
  0
CLASS
  1
HATCH
  2
AcDbHatch
  3
AutoCAD 2000
 90
        0
280
     0
281
     1
  0
CLASS
  1
XRECORD
  2
AcDbXrecord
  3
AutoCAD 2000
 90
        0
280
     0
281
     0
  0
CLASS
  1
LONG_TRANSACTION
  2
AcDbLongTransaction
  3
AutoCAD 2000
 90
        0
280
     0
281
     0
  0
CLASS
  1
LWPOLYLINE
  2
AcDbPolyline
  3
AutoCAD 2000
 90
        0
280
     0
281
     1
  0
CLASS
  1
HATCH
  2
AcDbHatch
  3
AutoCAD 2000
 90
        0
280
     0
281
     1
  0
CLASS
  1
XRECORD
  2
AcDbXrecord
  3
AutoCAD 2000
 90
        0
280
     0
281
     0
  0
ENDSEC
  0
SECTION
  2
TABLES
  0
TABLE
  2
VPORT
  5
8
330
0
100
AcDbSymbolTable
 70
     2
  0
VPORT
  5
13AD
330
8
100
AcDbSymbolTableRecord
100
AcDbViewportTableRecord
  2
*ACTIVE
 70
     0
 10
0.0
 20
0.0
 11
1.0
 21
1.0
 12
-0.1173087
 22
14.4661259
 13
0.0
 23
0.0
 14
7.0
 24
7.0
 15
7.0
 25
7.0
 16
0.0
 26
0.0
 36
1.0
 17
0.0
 27
0.0
 37
0.0
 40
67.96117375
 41
1.43184713
 42
50.0
 43
0.0
 44
0.0
 50
0.0
 51
0.0
 71
     0
 72
  2000
 73
     1
 74
     0
 75
     0
 76
     0
 77
     0
 78
     0
  0
ENDTAB
  0
TABLE
  2
LTYPE
  5
5
330
0
100
AcDbSymbolTable
 70
     3
  0
LTYPE
  5
14
330
5
100
AcDbSymbolTableRecord
100
AcDbLinetypeTableRecord
  2
BYBLOCK
 70
     0
  3

 72
    65
 73
     0
 40
0.0
  0
LTYPE
  5
15
330
5
100
AcDbSymbolTableRecord
100
AcDbLinetypeTableRecord
  2
BYLAYER
 70
     0
  3

 72
    65
 73
     0
 40
0.0
  0
LTYPE
  5
16
330
5
100
AcDbSymbolTableRecord
100
AcDbLinetypeTableRecord
  2
CONTINUOUS
 70
     0
  3
Solid line
 72
    65
 73
     0
 40
0.0
  0
LTYPE
  5
258
330
5
100
AcDbSymbolTableRecord
100
AcDbLinetypeTableRecord
  2
CENTER2
 70
     0
  3
___ _ ___ _ ___ _ ___ _ ___ _ ___ _ ___ _ ___ _
 72
    65
 73
     4
 40
1.125
 49
0.75
 74
     0
 49
-0.125
 74
     0
 49
0.125
 74
     0
 49
-0.125
 74
     0
  0
LTYPE
  5
25C
330
5
100
AcDbSymbolTableRecord
100
AcDbLinetypeTableRecord
  2
HIDDEN2
 70
     0
  3
_ _ _ _ _ _ _ _ _ _ _ _ _ _ _ _ _ _ _ _ _ _ _ _
 72
    65
 73
     2
 40
0.1875
 49
0.125
 74
     0
 49
-0.0625
 74
     0
  0
ENDTAB
  0
TABLE
  2
LAYER
  5
2
330
0
100
AcDbSymbolTable
 70
    12
  0
LAYER
  5
F
330
2
100
AcDbSymbolTableRecord
100
AcDbLayerTableRecord
  2
0
 70
     0
 62
     7
  6
CONTINUOUS
  0
LAYER
  5
1AA
330
2
100
AcDbSymbolTableRecord
100
AcDbLayerTableRecord
  2
240
 70
     0
 62
     4
  6
CONTINUOUS
  0
LAYER
  5
1AB
330
2
100
AcDbSymbolTableRecord
100
AcDbLayerTableRecord
  2
241
 70
     0
 62
   211
  6
CONTINUOUS
  0
LAYER
  5
1AD
330
2
100
AcDbSymbolTableRecord
100
AcDbLayerTableRecord
  2
243
 70
     0
 62
   211
  6
HIDDEN2
  0
LAYER
  5
1AE
330
2
100
AcDbSymbolTableRecord
100
AcDbLayerTableRecord
  2
244
 70
     0
 62
     3
  6
HIDDEN2
  0
LAYER
  5
1AF
330
2
100
AcDbSymbolTableRecord
100
AcDbLayerTableRecord
  2
245
 70
     0
 62
     2
  6
CENTER2
  0
LAYER
  5
21E
330
2
100
AcDbSymbolTableRecord
100
AcDbLayerTableRecord
  2
250
 70
     0
 62
     3
  6
CONTINUOUS
  0
LAYER
  5
21F
330
2
100
AcDbSymbolTableRecord
100
AcDbLayerTableRecord
  2
251
 70
     0
 62
    40
  6
CONTINUOUS
  0
LAYER
  5
5C4
330
2
100
AcDbSymbolTableRecord
100
AcDbLayerTableRecord
  2
DEFPOINTS
 70
     0
 62
     7
  6
CONTINUOUS
  0
LAYER
  5
8B9
330
2
100
AcDbSymbolTableRecord
100
AcDbLayerTableRecord
  2
AM_7
 70
     0
 62
     2
  6
CENTER2
  0
ENDTAB
  0
TABLE
  2
STYLE
  5
3
330
0
100
AcDbSymbolTable
 70
     2
  0
STYLE
  5
10
330
3
100
AcDbSymbolTableRecord
100
AcDbTextStyleTableRecord
  2
STANDARD
 70
     0
 40
0.0
 41
1.0
 50
0.0
 71
     0
 42
3.0
  3
romans.shx
  4
BIGFONT.SHX
  0
STYLE
  5
339
330
3
100
AcDbSymbolTableRecord
100
AcDbTextStyleTableRecord
  2
YOKO
 70
     0
 40
0.0
 41
1.0
 50
0.0
 71
     0
 42
3.0
  3
romans.shx
  4
extfont.shx
  0
ENDTAB
  0
TABLE
  2
VIEW
  5
6
330
0
100
AcDbSymbolTable
 70
     0
  0
ENDTAB
  0
TABLE
  2
UCS
  5
7
330
0
100
AcDbSymbolTable
 70
     0
  0
ENDTAB
  0
TABLE
  2
APPID
  5
9
330
0
100
AcDbSymbolTable
 70
    15
  0
APPID
  5
11
330
9
100
AcDbSymbolTableRecord
100
AcDbRegAppTableRecord
  2
ACAD
 70
     0
  0
APPID
  5
1B1
330
9
100
AcDbSymbolTableRecord
100
AcDbRegAppTableRecord
  2
GLOBAL
 70
     0
  0
APPID
  5
2A4
330
9
100
AcDbSymbolTableRecord
100
AcDbRegAppTableRecord
  2
DETAIL
 70
     0
  0
APPID
  5
5FD
330
9
100
AcDbSymbolTableRecord
100
AcDbRegAppTableRecord
  2
GRPNAME
 70
     0
  0
APPID
  5
5FE
330
9
100
AcDbSymbolTableRecord
100
AcDbRegAppTableRecord
  2
GPARA
 70
     0
  0
APPID
  5
6C4
330
9
100
AcDbSymbolTableRecord
100
AcDbRegAppTableRecord
  2
DCO15
 70
     0
  0
APPID
  5
6C5
330
9
100
AcDbSymbolTableRecord
100
AcDbRegAppTableRecord
  2
ITEMNAME
 70
     0
  0
APPID
  5
6C6
330
9
100
AcDbSymbolTableRecord
100
AcDbRegAppTableRecord
  2
GRADE_0
 70
     0
  0
APPID
  5
8BA
330
9
100
AcDbSymbolTableRecord
100
AcDbRegAppTableRecord
  2
GENIUS_GENODEF_13
 70
     0
  0
APPID
  5
8BB
330
9
100
AcDbSymbolTableRecord
100
AcDbRegAppTableRecord
  2
GENIUS_GENOREF_13
 70
     0
  0
APPID
  5
8BC
330
9
100
AcDbSymbolTableRecord
100
AcDbRegAppTableRecord
  2
GENIUS_GENOBJ-N-FIL_13
 70
     0
  0
APPID
  5
8BD
330
9
100
AcDbSymbolTableRecord
100
AcDbRegAppTableRecord
  2
HATCH_TYPE
 70
     0
  0
APPID
  5
8BE
330
9
100
AcDbSymbolTableRecord
100
AcDbRegAppTableRecord
  2
HATCH_DISPLAY
 70
     0
  0
APPID
  5
8BF
330
9
100
AcDbSymbolTableRecord
100
AcDbRegAppTableRecord
  2
HATCH_DISTANCE
 70
     0
  0
APPID
  5
E81
330
9
100
AcDbSymbolTableRecord
100
AcDbRegAppTableRecord
  2
CONTENTBLOCKICON
 70
     0
  0
ENDTAB
  0
TABLE
  2
DIMSTYLE
  5
A
330
0
100
AcDbSymbolTable
 70
     1
  0
DIMSTYLE
105
725
102
{ACAD_REACTORS
330
1115
330
1210
102
}
330
A
100
AcDbSymbolTableRecord
100
AcDbDimStyleTableRecord
  2
BIGT
 70
     0
  3

  4

  5

  6
OPEN
  7
OPEN
 40
1.0
 41
2.23
 42
0.5
 43
2.5
 44
1.0
 45
0.0
 46
0.0
 47
0.0
 48
0.0
140
2.8
141
0.0
142
0.0
143
25.4
144
1.0
145
0.0
146
1.0
147
1.0
 71
     0
 72
     0
 73
     0
 74
     0
 75
     0
 76
     0
 77
     3
 78
     8
170
     0
171
     2
172
     1
173
     1
174
     1
175
     0
176
   256
177
   256
178
    40
270
     2
271
     3
272
     3
273
     2
274
     2
340
10
275
     0
280
     0
281
     0
282
     0
283
     1
284
     8
285
     0
286
     0
287
     3
288
     0
  0
ENDTAB
  0
TABLE
  2
BLOCK_RECORD
  5
1
330
0
100
AcDbSymbolTable
 70
    10
  0
BLOCK_RECORD
  5
1A
102
{ACAD_XDICTIONARY
360
E7F
102
}
330
1
100
AcDbSymbolTableRecord
100
AcDbBlockTableRecord
  2
*MODEL_SPACE
  0
BLOCK_RECORD
  5
17
102
{ACAD_XDICTIONARY
360
E7D
102
}
330
1
100
AcDbSymbolTableRecord
100
AcDbBlockTableRecord
  2
*PAPER_SPACE
  0
BLOCK_RECORD
  5
594
330
1
100
AcDbSymbolTableRecord
100
AcDbBlockTableRecord
  2
_OPEN
  0
BLOCK_RECORD
  5
6E3
330
1
100
AcDbSymbolTableRecord
100
AcDbBlockTableRecord
  2
矢印なし
  0
BLOCK_RECORD
  5
762
330
1
100
AcDbSymbolTableRecord
100
AcDbBlockTableRecord
  2
1
1001
CONTENTBLOCKICON
1071
        0
1004
2800000020000000200000000100080000000000000400000000000000000000000000000000000000000000000080000080000000808000800000008000800080800000C0C0C000C0DCC000F0CAA6000020400000206000002080000020A0000020C0000020E00000400000004020000040400000406000004080000040A0
1004
000040C0000040E00000600000006020000060400000606000006080000060A0000060C0000060E00000800000008020000080400000806000008080000080A0000080C0000080E00000A0000000A0200000A0400000A0600000A0800000A0A00000A0C00000A0E00000C0000000C0200000C0400000C0600000C0800000C0
1004
A00000C0C00000C0E00000E0000000E0200000E0400000E0600000E0800000E0A00000E0C00000E0E00040000000400020004000400040006000400080004000A0004000C0004000E00040200000402020004020400040206000402080004020A0004020C0004020E000404000004040200040404000404060004040800040
1004
40A0004040C0004040E00040600000406020004060400040606000406080004060A0004060C0004060E00040800000408020004080400040806000408080004080A0004080C0004080E00040A0000040A0200040A0400040A0600040A0800040A0A00040A0C00040A0E00040C0000040C0200040C0400040C0600040C08000
1004
40C0A00040C0C00040C0E00040E0000040E0200040E0400040E0600040E0800040E0A00040E0C00040E0E00080000000800020008000400080006000800080008000A0008000C0008000E00080200000802020008020400080206000802080008020A0008020C0008020E00080400000804020008040400080406000804080
1004
008040A0008040C0008040E00080600000806020008060400080606000806080008060A0008060C0008060E00080800000808020008080400080806000808080008080A0008080C0008080E00080A0000080A0200080A0400080A0600080A0800080A0A00080A0C00080A0E00080C0000080C0200080C0400080C0600080C0
1004
800080C0A00080C0C00080C0E00080E0000080E0200080E0400080E0600080E0800080E0A00080E0C00080E0E000C0000000C0002000C0004000C0006000C0008000C000A000C000C000C000E000C0200000C0202000C0204000C0206000C0208000C020A000C020C000C020E000C0400000C0402000C0404000C0406000C0
1004
408000C040A000C040C000C040E000C0600000C0602000C0604000C0606000C0608000C060A000C060C000C060E000C0800000C0802000C0804000C0806000C0808000C080A000C080C000C080E000C0A00000C0A02000C0A04000C0A06000C0A08000C0A0A000C0A0C000C0A0E000C0C00000C0C02000C0C04000C0C06000
1004
C0C08000C0C0A000F0FBFF00A4A0A000808080000000FF0000FF000000FFFF00FF000000FF00FF00FFFF0000FFFFFF0000000000000000000000000000000000000000000000000000000000000000000000000000000000000000000000000000000000000000000000000000000000000000000000000000000000000000
1004
00000000000000000000000000000000000000000000000000000000000000000000000000000000000000000000000000000000000000000000000000000000000000000000000000000000000000000000000000000000000000000000000000000000000000000000000000000000000000000000000000000000000000
1004
00000000000000000000000000000000000000000000000000000000000000000000000000000000000000000000000000000000000000000000000000000000000000000000000000000000000000000000000000000000000000000000000000000000000000000000000000000000000000000000000000000000000000
1004
000000000000000000000000000000000000000000000000000000000000000000000000000000000000000000000000000000000000000000000000000000000000FEFEFEFEFE0000000000000000000000000000FEFEFEFEFEE7FEFEFEFEFEFEFEE7E7E7E7FEFEFEFEFEFEFEFEFEFEFE00000000FE000000E7E70000E7E7
1004
E7E700E7E7E7E7E700FFE7E7E700000000FE00000000FE000000E7E70000E7FBFBE700E7E7E7E7E7FFFFE7E7E700000000FE000000FBFEFBFBFBE7E7FBFBE7FBFBE7FBE7E7E7E7E7FFE7E7E7E7E7E7E7E7FEFB000000FE000000E7E70000E70000E700E7E7E7E7E700FFE7E7E700000000FE00000000FEFEFEFEFEE7FEFEFE
1004
FEFEFEFEE7E7E7E7FEFEFEFEFEE7FEFEFEFEFE0000000000000000000000000000000000FEFEFEFEFE0000000000000000000000000000000000000000000000000000000000000000000000000000000000000000000000000000000000000000000000000000000000000000000000000000000000000000000000000000
1004
00000000000000000000000000000000000000000000000000000000000000000000000000000000000000000000000000000000000000000000000000000000000000000000000000000000000000000000000000000000000000000000000000000000000000000000000000000000000000000000000000000000000000
1004
00000000000000000000000000000000000000000000000000000000000000000000000000000000000000000000000000000000000000000000000000000000000000000000000000000000000000000000000000000000000000000000000000000000000000000000000000000000000000000000000000000000000000
1004
0000000000000000000000000000000000000000000000000000000000000000000000000000000000000000000000000000000000000000
  0
BLOCK_RECORD
  5
1235
330
1
100
AcDbSymbolTableRecord
100
AcDbBlockTableRecord
  2
*D8
  0
BLOCK_RECORD
  5
1241
330
1
100
AcDbSymbolTableRecord
100
AcDbBlockTableRecord
  2
*D9
  0
ENDTAB
  0
ENDSEC
  0
SECTION
  2
BLOCKS
  0
BLOCK
  5
1B
330
1A
100
AcDbEntity
  8
0
100
AcDbBlockBegin
  2
*MODEL_SPACE
 70
     0
 10
0.0
 20
0.0
 30
0.0
  3
*MODEL_SPACE
  1

  0
ENDBLK
  5
1C
330
1A
100
AcDbEntity
  8
0
100
AcDbBlockEnd
  0
BLOCK
  5
18
330
17
100
AcDbEntity
 67
     1
  8
0
100
AcDbBlockBegin
  2
*PAPER_SPACE
 70
     0
 10
0.0
 20
0.0
 30
0.0
  3
*PAPER_SPACE
  1

  0
ENDBLK
  5
19
330
17
100
AcDbEntity
 67
     1
  8
0
100
AcDbBlockEnd
  0
BLOCK
  5
598
330
594
100
AcDbEntity
  8
0
100
AcDbBlockBegin
  2
_OPEN
 70
     0
 10
0.0
 20
0.0
 30
0.0
  3
_OPEN
  1

  0
LINE
  5
595
330
594
100
AcDbEntity
  8
0
  6
BYBLOCK
 62
     0
100
AcDbLine
 10
-1.0
 20
0.16666667
 30
0.0
 11
0.0
 21
0.0
 31
0.0
  0
LINE
  5
596
330
594
100
AcDbEntity
  8
0
  6
BYBLOCK
 62
     0
100
AcDbLine
 10
-1.0
 20
-0.16666667
 30
0.0
 11
0.0
 21
0.0
 31
0.0
  0
LINE
  5
597
330
594
100
AcDbEntity
  8
0
  6
BYBLOCK
 62
     0
100
AcDbLine
 10
0.0
 20
0.0
 30
0.0
 11
-1.0
 21
0.0
 31
0.0
  0
ENDBLK
  5
599
330
594
100
AcDbEntity
  8
0
100
AcDbBlockEnd
  0
BLOCK
  5
6E4
330
6E3
100
AcDbEntity
  8
0
100
AcDbBlockBegin
  2
矢印なし
 70
     0
 10
0.0
 20
0.0
 30
0.0
  3
矢印なし
  1

  0
ENDBLK
  5
6E5
330
6E3
100
AcDbEntity
  8
0
100
AcDbBlockEnd
  0
BLOCK
  5
89F
330
762
100
AcDbEntity
  8
0
100
AcDbBlockBegin
  2
1
 70
     0
 10
0.0
 20
0.0
 30
0.0
  3
1
  1

  0
LINE
  5
128E
330
762
100
AcDbEntity
  8
AM_7
100
AcDbLine
 10
-48.5
 20
0.0
 30
0.0
 11
31.0
 21
0.0
 31
0.0
1001
GENIUS_GENOREF_13
1005
0
  0
LINE
  5
128F
330
762
100
AcDbEntity
  8
240
100
AcDbLine
 10
-34.0
 20
6.0
 30
0.0
 11
-29.0
 21
6.0
 31
0.0
  0
LINE
  5
1290
330
762
100
AcDbEntity
  8
240
100
AcDbLine
 10
-34.0
 20
-6.0
 30
0.0
 11
-29.0
 21
-6.0
 31
0.0
  0
LINE
  5
1291
330
762
100
AcDbEntity
  8
240
100
AcDbLine
 10
-47.5
 20
-7.0
 30
0.0
 11
-47.5
 21
0.0
 31
0.0
  0
LINE
  5
1292
330
762
100
AcDbEntity
  8
243
100
AcDbLine
 10
-36.5
 20
6.0
 30
0.0
 11
-36.5
 21
-6.0
 31
0.0
  0
LINE
  5
1293
330
762
100
AcDbEntity
  8
AM_7
100
AcDbLine
 10
-34.0
 20
-8.0
 30
0.0
 11
-34.0
 21
8.0
 31
0.0
  0
LINE
  5
1294
330
762
100
AcDbEntity
  8
240
100
AcDbLine
 10
-46.5
 20
-8.0
 30
0.0
 11
-41.0
 21
-8.0
 31
0.0
  0
ARC
  5
1295
330
762
100
AcDbEntity
  8
240
100
AcDbCircle
 10
-46.5
 20
-7.0
 30
0.0
 40
1.0
100
AcDbArc
 50
180.0
 51
270.0
  0
LINE
  5
1296
330
762
100
AcDbEntity
  8
240
100
AcDbLine
 10
-39.0
 20
-6.0
 30
0.0
 11
-41.0
 21
-8.0
 31
0.0
  0
LINE
  5
1297
330
762
100
AcDbEntity
  8
240
100
AcDbLine
 10
-39.0
 20
-6.0
 30
0.0
 11
-34.0
 21
-6.0
 31
0.0
  0
LINE
  5
1298
330
762
100
AcDbEntity
  8
240
100
AcDbLine
 10
-46.5
 20
8.0
 30
0.0
 11
-41.0
 21
8.0
 31
0.0
  0
LINE
  5
1299
330
762
100
AcDbEntity
  8
240
100
AcDbLine
 10
-47.5
 20
7.0
 30
0.0
 11
-47.5
 21
0.0
 31
0.0
  0
ARC
  5
129A
330
762
100
AcDbEntity
  8
240
100
AcDbCircle
 10
-46.5
 20
7.0
 30
0.0
 40
1.0
100
AcDbArc
 50
90.0
 51
180.0
  0
LINE
  5
129B
330
762
100
AcDbEntity
  8
240
100
AcDbLine
 10
-39.0
 20
6.0
 30
0.0
 11
-34.0
 21
6.0
 31
0.0
  0
LINE
  5
129C
330
762
100
AcDbEntity
  8
240
100
AcDbLine
 10
-39.0
 20
6.0
 30
0.0
 11
-41.0
 21
8.0
 31
0.0
  0
LINE
  5
129D
330
762
100
AcDbEntity
  8
0
100
AcDbLine
 10
4.1588446
 20
-1.45884991
 30
0.0
 11
2.94633145
 21
-1.11116695
 31
0.0
  0
LINE
  5
129E
330
762
100
AcDbEntity
  8
0
100
AcDbLine
 10
2.94633145
 20
-1.53838062
 30
0.0
 11
2.94633145
 21
-1.26883793
 31
0.0
  0
LINE
  5
129F
330
762
100
AcDbEntity
  8
0
100
AcDbLine
 10
4.38619293
 20
-1.44682965
 30
0.0
 11
4.23462738
 21
-1.29526411
 31
0.0
  0
LINE
  5
12A0
330
762
100
AcDbEntity
  8
0
100
AcDbLine
 10
4.1588446
 20
-1.45884991
 30
0.0
 11
4.1588446
 21
-0.82988262
 31
0.0
  0
LINE
  5
12A1
330
762
100
AcDbEntity
  8
0
100
AcDbLine
 10
4.38619293
 20
-1.53838062
 30
0.0
 11
4.38619293
 21
1.53838062
 31
0.0
  0
LINE
  5
12A2
330
762
100
AcDbEntity
  8
0
100
AcDbLine
 10
4.23462738
 20
-1.53838062
 30
0.0
 11
4.23462738
 21
1.53838062
 31
0.0
  0
LINE
  5
12A3
330
762
100
AcDbEntity
  8
0
100
AcDbLine
 10
2.94633145
 20
-1.5223864
 30
0.0
 11
2.7947659
 21
-1.37082085
 31
0.0
  0
LINE
  5
12A4
330
762
100
AcDbEntity
  8
0
100
AcDbLine
 10
2.7947659
 20
-1.53838062
 30
0.0
 11
2.7947659
 21
-1.22537899
 31
0.0
  0
LINE
  5
12A5
330
762
100
AcDbEntity
  8
241
100
AcDbLine
 10
10.0
 20
-6.2
 30
0.0
 11
10.0
 21
0.0
 31
0.0
  0
LINE
  5
12A6
330
762
100
AcDbEntity
  8
241
100
AcDbLine
 10
11.0
 20
-6.2
 30
0.0
 11
11.0
 21
0.0
 31
0.0
  0
LINE
  5
12A7
330
762
100
AcDbEntity
  8
241
100
AcDbLine
 10
13.0
 20
-8.15
 30
0.0
 11
13.0
 21
0.0
 31
0.0
  0
LINE
  5
12A8
330
762
100
AcDbEntity
  8
241
100
AcDbLine
 10
14.2
 20
-8.0
 30
0.0
 11
14.2
 21
0.0
 31
0.0
  0
LINE
  5
12A9
330
762
100
AcDbEntity
  8
240
100
AcDbLine
 10
30.0
 20
-7.0
 30
0.0
 11
30.0
 21
0.0
 31
0.0
  0
LINE
  5
12AA
330
762
100
AcDbEntity
  8
241
100
AcDbLine
 10
0.80384758
 20
-8.35874397
 30
0.0
 11
0.80384758
 21
0.0
 31
0.0
  0
LINE
  5
12AB
330
762
100
AcDbEntity
  8
241
100
AcDbLine
 10
-5.12626129
 20
-11.0
 30
0.0
 11
-5.12626129
 21
0.0
 31
0.0
  0
LINE
  5
12AC
330
762
100
AcDbEntity
  8
241
  6
CONTINUOUS
100
AcDbLine
 10
-6.5
 20
-10.50000001
 30
0.0
 11
-6.5
 21
0.0
 31
0.0
  0
LINE
  5
12AD
330
762
100
AcDbEntity
  8
241
100
AcDbLine
 10
-11.0
 20
-8.0
 30
0.0
 11
-11.0
 21
0.0
 31
0.0
  0
LINE
  5
12AE
330
762
100
AcDbEntity
  8
AM_7
100
AcDbLine
 10
-20.0
 20
-0.7698914
 30
0.0
 11
-20.0
 21
-4.52866188
 31
0.0
  0
LINE
  5
12AF
330
762
100
AcDbEntity
  8
241
100
AcDbLine
 10
0.0
 20
-10.64125603
 30
0.0
 11
0.0
 21
0.0
 31
0.0
  0
LINE
  5
12B0
330
762
100
AcDbEntity
  8
241
100
AcDbLine
 10
-2.0
 20
-10.0
 30
0.0
 11
-2.0
 21
0.0
 31
0.0
  0
LINE
  5
12B1
330
762
100
AcDbEntity
  8
241
100
AcDbLine
 10
-4.0
 20
-10.0
 30
0.0
 11
-4.0
 21
0.0
 31
0.0
  0
LINE
  5
12B2
330
762
100
AcDbEntity
  8
241
100
AcDbLine
 10
-14.5
 20
-7.0
 30
0.0
 11
-14.5
 21
0.0
 31
0.0
  0
LINE
  5
12B3
330
762
100
AcDbEntity
  8
241
100
AcDbLine
 10
-16.5
 20
-7.0
 30
0.0
 11
-16.5
 21
0.0
 31
0.0
  0
LINE
  5
12B4
330
762
100
AcDbEntity
  8
241
100
AcDbLine
 10
-23.5
 20
-7.0
 30
0.0
 11
-23.5
 21
0.0
 31
0.0
  0
LINE
  5
12B5
330
762
100
AcDbEntity
  8
241
100
AcDbLine
 10
-25.5
 20
-7.0
 30
0.0
 11
-25.5
 21
0.0
 31
0.0
  0
ELLIPSE
  5
12B6
330
762
100
AcDbEntity
  8
241
100
AcDbEllipse
 10
-20.0
 20
-2.64927664
 30
0.0
 11
-2.000000000000023
 21
0.0
 31
0.0
210
0.0
220
0.0
230
1.0
 40
0.93969262
 41
0.0
 42
6.283185307179584
  0
LINE
  5
12B7
330
762
100
AcDbEntity
  8
243
100
AcDbLine
 10
-31.5
 20
6.0
 30
0.0
 11
-31.5
 21
-6.0
 31
0.0
  0
TEXT
  5
12B8
330
762
100
AcDbEntity
  8
0
100
AcDbText
 10
6.82653821
 20
-6.1632241
 30
0.0
 40
1.25
  1
MGT6-M3-30
 50
90.0
  7
YOKO
100
AcDbText
  0
LINE
  5
12B9
330
762
100
AcDbEntity
  8
240
100
AcDbLine
 10
10.0
 20
-8.0
 30
0.0
 11
1.57117457
 21
-8.0
 31
0.0
  0
ARC
  5
12BA
330
762
100
AcDbEntity
  8
240
100
AcDbCircle
 10
-15.5
 20
-7.0
 30
0.0
 40
1.000000000003004
100
AcDbArc
 50
180.0
 51
0.0
  0
ARC
  5
12BB
330
762
100
AcDbEntity
  8
240
100
AcDbCircle
 10
-24.5
 20
-7.0
 30
0.0
 40
1.000000000003004
100
AcDbArc
 50
180.0
 51
0.0
  0
LINE
  5
12BC
330
762
100
AcDbEntity
  8
240
100
AcDbLine
 10
-25.5
 20
-7.0
 30
0.0
 11
-25.5
 21
-8.0
 31
0.0
  0
LINE
  5
12BD
330
762
100
AcDbEntity
  8
240
100
AcDbLine
 10
-29.0
 20
-6.0
 30
0.0
 11
-27.0
 21
-8.0
 31
0.0
  0
LINE
  5
12BE
330
762
100
AcDbEntity
  8
240
100
AcDbLine
 10
-27.0
 20
-8.0
 30
0.0
 11
-25.5
 21
-8.0
 31
0.0
  0
LINE
  5
12BF
330
762
100
AcDbEntity
  8
240
100
AcDbLine
 10
-16.5
 20
-7.0
 30
0.0
 11
-16.5
 21
-8.0
 31
0.0
  0
LINE
  5
12C0
330
762
100
AcDbEntity
  8
240
100
AcDbLine
 10
-23.5
 20
-7.0
 30
0.0
 11
-23.5
 21
-8.0
 31
0.0
  0
LINE
  5
12C1
330
762
100
AcDbEntity
  8
240
100
AcDbLine
 10
-23.5
 20
-8.0
 30
0.0
 11
-16.5
 21
-8.0
 31
0.0
  0
LINE
  5
12C2
330
762
100
AcDbEntity
  8
AM_7
100
AcDbLine
 10
-21.99786162
 20
-2.73616115
 30
0.0
 11
-18.00213838
 21
-2.73616115
 31
0.0
  0
LINE
  5
12C3
330
762
100
AcDbEntity
  8
240
100
AcDbLine
 10
-6.5
 20
-10.50000001
 30
0.0
 11
-5.12626128
 21
-11.0
 31
0.0
  0
LINE
  5
12C4
330
762
100
AcDbEntity
  8
240
100
AcDbLine
 10
-14.5
 20
-7.0
 30
0.0
 11
-14.5
 21
-8.0
 31
0.0
  0
LINE
  5
12C5
330
762
100
AcDbEntity
  8
240
100
AcDbLine
 10
-10.7
 20
-7.7
 30
0.0
 11
-11.0
 21
-8.0
 31
0.0
  0
LINE
  5
12C6
330
762
100
AcDbEntity
  8
240
100
AcDbLine
 10
-14.5
 20
-8.0
 30
0.0
 11
-11.0
 21
-8.0
 31
0.0
  0
LINE
  5
12C7
330
762
100
AcDbEntity
  8
240
100
AcDbLine
 10
-6.50000001
 20
-10.5
 30
0.0
 11
-10.0
 21
-10.5
 31
0.0
  0
LINE
  5
12C8
330
762
100
AcDbEntity
  8
240
100
AcDbLine
 10
-10.0
 20
-10.5
 30
0.0
 11
-10.0
 21
-9.0
 31
0.0
  0
LINE
  5
12C9
330
762
100
AcDbEntity
  8
240
100
AcDbLine
 10
-9.5
 20
-8.5
 30
0.0
 11
-9.5
 21
-7.7
 31
0.0
  0
LINE
  5
12CA
330
762
100
AcDbEntity
  8
240
100
AcDbLine
 10
-10.7
 20
-7.7
 30
0.0
 11
-9.5
 21
-7.7
 31
0.0
  0
LINE
  5
12CB
330
762
100
AcDbEntity
  8
240
100
AcDbLine
 10
-9.5
 20
-8.5
 30
0.0
 11
-10.0
 21
-9.0
 31
0.0
  0
LINE
  5
12CC
330
762
100
AcDbEntity
  8
241
100
AcDbLine
 10
-6.5
 20
-8.2
 30
0.0
 11
-9.5
 21
-8.2
 31
0.0
  0
LINE
  5
12CD
330
762
100
AcDbEntity
  8
240
100
AcDbLine
 10
-0.63567449
 20
-11.0
 30
0.0
 11
-2.0
 21
-11.0
 31
0.0
  0
LINE
  5
12CE
330
762
100
AcDbEntity
  8
240
100
AcDbLine
 10
-4.0
 20
-11.0
 30
0.0
 11
-5.12626129
 21
-11.0
 31
0.0
  0
LINE
  5
12CF
330
762
100
AcDbEntity
  8
240
100
AcDbLine
 10
-4.0
 20
-10.0
 30
0.0
 11
-4.0
 21
-11.0
 31
0.0
  0
LINE
  5
12D0
330
762
100
AcDbEntity
  8
240
100
AcDbLine
 10
-2.0
 20
-10.0
 30
0.0
 11
-2.0
 21
-11.0
 31
0.0
  0
ARC
  5
12D1
330
762
100
AcDbEntity
  8
240
100
AcDbCircle
 10
-3.0
 20
-10.0
 30
0.0
 40
1.000000000000075
100
AcDbArc
 50
180.0
 51
0.0
  0
ARC
  5
12D2
330
762
100
AcDbEntity
  8
240
100
AcDbCircle
 10
1.57117457
 20
-9.0
 30
0.0
 40
1.0
100
AcDbArc
 50
90.0
 51
165.00000008
  0
LINE
  5
12D3
330
762
100
AcDbEntity
  8
240
100
AcDbLine
 10
0.19859884
 20
-10.25881905
 30
0.0
 11
0.60524874
 21
-8.74118096
 31
0.0
  0
ARC
  5
12D4
330
762
100
AcDbEntity
  8
240
100
AcDbCircle
 10
-0.76732699
 20
-10.0
 30
0.0
 40
1.0
100
AcDbArc
 50
285.0
 51
345.0
1001
GENIUS_GENOBJ-N-FIL_13
1002
{
1000
OWNER
1000
GEN
1002
}
1001
GENIUS_GENODEF_13
1002
{
1000
HIER
1070
     0
1002
}
1002
{
1000
MANEDIT
1070
     0
1002
}
1002
{
1000
NOSEL
1070
     0
1002
}
1002
{
1000
BEHIND
1070
     0
1002
}
1002
{
1000
OTHER
1070
     0
1002
}
1002
{
1000
REACTOR
1002
}
  0
LINE
  5
12D5
330
762
100
AcDbEntity
  8
240
100
AcDbLine
 10
-0.50850794
 20
-10.96592583
 30
0.0
 11
-0.63567449
 21
-11.0
 31
0.0
  0
LINE
  5
12D6
330
762
100
AcDbEntity
  8
240
100
AcDbLine
 10
13.15
 20
-8.0
 30
0.0
 11
29.0
 21
-8.0
 31
0.0
  0
LINE
  5
12D7
330
762
100
AcDbEntity
  8
240
100
AcDbLine
 10
11.0
 20
-8.15
 30
0.0
 11
13.0
 21
-8.15
 31
0.0
  0
LINE
  5
12D8
330
762
100
AcDbEntity
  8
240
100
AcDbLine
 10
10.0
 20
-6.2
 30
0.0
 11
10.0
 21
-8.0
 31
0.0
  0
LINE
  5
12D9
330
762
100
AcDbEntity
  8
240
100
AcDbLine
 10
11.0
 20
-6.2
 30
0.0
 11
11.0
 21
-8.15
 31
0.0
  0
LINE
  5
12DA
330
762
100
AcDbEntity
  8
0
100
AcDbLine
 10
4.3827971
 20
-1.61181363
 30
0.0
 11
4.23462738
 21
-1.46364391
 31
0.0
  0
LINE
  5
12DB
330
762
100
AcDbEntity
  8
0
100
AcDbLine
 10
3.98824555
 20
-2.2275409
 30
0.0
 11
3.87633255
 21
-2.1156279
 31
0.0
  0
LINE
  5
12DC
330
762
100
AcDbEntity
  8
0
100
AcDbLine
 10
3.58965887
 20
-2.33409362
 30
0.0
 11
3.41322585
 21
-2.1576606
 31
0.0
  0
LINE
  5
12DD
330
762
100
AcDbEntity
  8
0
100
AcDbLine
 10
3.74323831
 20
-2.31929326
 30
0.0
 11
3.60627973
 21
-2.18233468
 31
0.0
  0
LINE
  5
12DE
330
762
100
AcDbEntity
  8
0
100
AcDbLine
 10
3.87414077
 20
-2.28181592
 30
0.0
 11
3.75380385
 21
-2.161479
 31
0.0
  0
LINE
  5
12DF
330
762
100
AcDbEntity
  8
0
100
AcDbLine
 10
4.0882546
 20
-2.15917014
 30
0.0
 11
3.98028154
 21
-2.05119708
 31
0.0
  0
LINE
  5
12E0
330
762
100
AcDbEntity
  8
0
100
AcDbLine
 10
4.17535906
 20
-2.0778948
 30
0.0
 11
4.06807829
 21
-1.97061403
 31
0.0
  0
LINE
  5
12E1
330
762
100
AcDbEntity
  8
0
100
AcDbLine
 10
4.24976323
 20
-1.98391916
 30
0.0
 11
4.14011771
 21
-1.87427365
 31
0.0
  0
LINE
  5
12E2
330
762
100
AcDbEntity
  8
0
100
AcDbLine
 10
4.31076305
 20
-1.87653918
 30
0.0
 11
4.19501298
 21
-1.76078912
 31
0.0
  0
ARC
  5
12E3
330
762
100
AcDbEntity
  8
0
100
AcDbCircle
 10
3.59047933
 20
-1.53838062
 30
0.0
 40
0.644147872924803
100
AcDbArc
 50
180.0
 51
0.0
  0
ARC
  5
12E4
330
762
100
AcDbEntity
  8
0
100
AcDbCircle
 10
3.59047933
 20
-1.53838062
 30
0.0
 40
0.7957134246826169
100
AcDbArc
 50
180.0
 51
0.0
  0
LINE
  5
12E5
330
762
100
AcDbEntity
  8
0
100
AcDbLine
 10
2.97119935
 20
-1.7156341
 30
0.0
 11
2.79476632
 21
-1.53920108
 31
0.0
  0
LINE
  5
12E6
330
762
100
AcDbEntity
  8
0
100
AcDbLine
 10
4.35646188
 20
-1.75385821
 30
0.0
 11
4.22863581
 21
-1.62603214
 31
0.0
  0
LINE
  5
12E7
330
762
100
AcDbEntity
  8
0
100
AcDbLine
 10
3.39753182
 20
-2.31034637
 30
0.0
 11
2.81851358
 21
-1.73132813
 31
0.0
  0
LINE
  5
12E8
330
762
100
AcDbEntity
  8
240
100
AcDbLine
 10
11.0
 20
-6.2
 30
0.0
 11
10.0
 21
-6.2
 31
0.0
  0
LINE
  5
12E9
330
762
100
AcDbEntity
  8
240
100
AcDbLine
 10
13.15
 20
-8.0
 30
0.0
 11
13.0
 21
-8.15
 31
0.0
  0
ARC
  5
12EA
330
762
100
AcDbEntity
  8
240
100
AcDbCircle
 10
29.0
 20
-7.0
 30
0.0
 40
1.0
100
AcDbArc
 50
270.0
 51
0.0
1001
GENIUS_GENODEF_13
1002
{
1000
HIER
1070
     0
1002
}
1002
{
1000
MANEDIT
1070
     0
1002
}
1002
{
1000
NOSEL
1070
     0
1002
}
1002
{
1000
BEHIND
1070
     0
1002
}
1002
{
1000
OTHER
1070
     0
1002
}
1002
{
1000
REACTOR
1002
}
1001
GENIUS_GENOBJ-N-FIL_13
1002
{
1000
OWNER
1000
GEN
1002
}
  0
ARC
  5
12EB
330
762
100
AcDbEntity
  8
0
100
AcDbCircle
 10
3.28734822
 20
0.86443806
 30
0.0
 40
0.4925830364227294
100
AcDbArc
 50
143.4440122
 51
254.00018439
  0
LINE
  5
12EC
330
762
100
AcDbEntity
  8
240
100
AcDbLine
 10
10.0
 20
8.0
 30
0.0
 11
1.57117457
 21
8.0
 31
0.0
  0
ARC
  5
12ED
330
762
100
AcDbEntity
  8
240
100
AcDbCircle
 10
-15.5
 20
7.0
 30
0.0
 40
1.000000000003004
100
AcDbArc
 50
0.0
 51
180.0
  0
ARC
  5
12EE
330
762
100
AcDbEntity
  8
240
100
AcDbCircle
 10
-24.5
 20
7.0
 30
0.0
 40
1.000000000003004
100
AcDbArc
 50
0.0
 51
180.0
  0
LINE
  5
12EF
330
762
100
AcDbEntity
  8
241
100
AcDbLine
 10
-25.5
 20
7.0
 30
0.0
 11
-25.5
 21
0.0
 31
0.0
  0
LINE
  5
12F0
330
762
100
AcDbEntity
  8
240
100
AcDbLine
 10
-27.0
 20
8.0
 30
0.0
 11
-25.5
 21
8.0
 31
0.0
  0
LINE
  5
12F1
330
762
100
AcDbEntity
  8
240
100
AcDbLine
 10
-25.5
 20
7.0
 30
0.0
 11
-25.5
 21
8.0
 31
0.0
  0
LINE
  5
12F2
330
762
100
AcDbEntity
  8
240
100
AcDbLine
 10
-29.0
 20
6.0
 30
0.0
 11
-27.0
 21
8.0
 31
0.0
  0
LINE
  5
12F3
330
762
100
AcDbEntity
  8
241
100
AcDbLine
 10
-16.5
 20
7.0
 30
0.0
 11
-16.5
 21
0.0
 31
0.0
  0
LINE
  5
12F4
330
762
100
AcDbEntity
  8
241
100
AcDbLine
 10
-23.5
 20
7.0
 30
0.0
 11
-23.5
 21
0.0
 31
0.0
  0
LINE
  5
12F5
330
762
100
AcDbEntity
  8
240
100
AcDbLine
 10
-23.5
 20
8.0
 30
0.0
 11
-16.5
 21
8.0
 31
0.0
  0
LINE
  5
12F6
330
762
100
AcDbEntity
  8
240
100
AcDbLine
 10
-23.5
 20
7.0
 30
0.0
 11
-23.5
 21
8.0
 31
0.0
  0
LINE
  5
12F7
330
762
100
AcDbEntity
  8
240
100
AcDbLine
 10
-16.5
 20
7.0
 30
0.0
 11
-16.5
 21
8.0
 31
0.0
  0
LINE
  5
12F8
330
762
100
AcDbEntity
  8
241
100
AcDbLine
 10
0.0
 20
10.64125603
 30
0.0
 11
0.0
 21
0.0
 31
0.0
  0
LINE
  5
12F9
330
762
100
AcDbEntity
  8
241
100
AcDbLine
 10
-5.12626129
 20
11.0
 30
0.0
 11
-5.12626129
 21
0.0
 31
0.0
  0
LINE
  5
12FA
330
762
100
AcDbEntity
  8
240
100
AcDbLine
 10
-6.50000001
 20
10.5
 30
0.0
 11
-5.12626128
 21
11.0
 31
0.0
  0
ARC
  5
12FB
330
762
100
AcDbEntity
  8
240
100
AcDbCircle
 10
-0.76732699
 20
10.0
 30
0.0
 40
1.0
100
AcDbArc
 50
15.0
 51
75.0
1001
GENIUS_GENOBJ-N-FIL_13
1002
{
1000
OWNER
1000
GEN
1002
}
1001
GENIUS_GENODEF_13
1002
{
1000
HIER
1070
     0
1002
}
1002
{
1000
MANEDIT
1070
     0
1002
}
1002
{
1000
NOSEL
1070
     0
1002
}
1002
{
1000
BEHIND
1070
     0
1002
}
1002
{
1000
OTHER
1070
     0
1002
}
1002
{
1000
REACTOR
1002
}
  0
ARC
  5
12FC
330
762
100
AcDbEntity
  8
240
100
AcDbCircle
 10
-3.0
 20
10.0
 30
0.0
 40
1.000000000000075
100
AcDbArc
 50
0.0
 51
180.0
  0
LINE
  5
12FD
330
762
100
AcDbEntity
  8
240
100
AcDbLine
 10
-2.0
 20
10.0
 30
0.0
 11
-2.0
 21
11.0
 31
0.0
  0
LINE
  5
12FE
330
762
100
AcDbEntity
  8
240
100
AcDbLine
 10
-4.0
 20
10.0
 30
0.0
 11
-4.0
 21
11.0
 31
0.0
  0
LINE
  5
12FF
330
762
100
AcDbEntity
  8
241
100
AcDbLine
 10
-14.5
 20
7.0
 30
0.0
 11
-14.5
 21
0.0
 31
0.0
  0
LINE
  5
1300
330
762
100
AcDbEntity
  8
241
100
AcDbLine
 10
-11.0
 20
8.0
 30
0.0
 11
-11.0
 21
0.0
 31
0.0
  0
LINE
  5
1301
330
762
100
AcDbEntity
  8
241
  6
CONTINUOUS
100
AcDbLine
 10
-6.5
 20
10.50000001
 30
0.0
 11
-6.5
 21
0.0
 31
0.0
  0
LINE
  5
1302
330
762
100
AcDbEntity
  8
240
100
AcDbLine
 10
-10.7
 20
7.7
 30
0.0
 11
-11.0
 21
8.0
 31
0.0
  0
LINE
  5
1303
330
762
100
AcDbEntity
  8
240
100
AcDbLine
 10
-14.5
 20
8.0
 30
0.0
 11
-11.0
 21
8.0
 31
0.0
  0
LINE
  5
1304
330
762
100
AcDbEntity
  8
240
100
AcDbLine
 10
-14.5
 20
7.0
 30
0.0
 11
-14.5
 21
8.0
 31
0.0
  0
LINE
  5
1305
330
762
100
AcDbEntity
  8
240
100
AcDbLine
 10
-6.50000001
 20
10.5
 30
0.0
 11
-10.0
 21
10.5
 31
0.0
  0
LINE
  5
1306
330
762
100
AcDbEntity
  8
240
100
AcDbLine
 10
-10.0
 20
10.5
 30
0.0
 11
-10.0
 21
9.0
 31
0.0
  0
LINE
  5
1307
330
762
100
AcDbEntity
  8
240
100
AcDbLine
 10
-10.7
 20
7.7
 30
0.0
 11
-9.5
 21
7.7
 31
0.0
  0
LINE
  5
1308
330
762
100
AcDbEntity
  8
240
100
AcDbLine
 10
-9.5
 20
8.5
 30
0.0
 11
-9.5
 21
7.7
 31
0.0
  0
LINE
  5
1309
330
762
100
AcDbEntity
  8
240
100
AcDbLine
 10
-9.5
 20
8.5
 30
0.0
 11
-10.0
 21
9.0
 31
0.0
  0
LINE
  5
130A
330
762
100
AcDbEntity
  8
241
100
AcDbLine
 10
-6.5
 20
8.2
 30
0.0
 11
-9.5
 21
8.2
 31
0.0
  0
LINE
  5
130B
330
762
100
AcDbEntity
  8
241
100
AcDbLine
 10
-4.0
 20
10.0
 30
0.0
 11
-4.0
 21
0.0
 31
0.0
  0
LINE
  5
130C
330
762
100
AcDbEntity
  8
241
100
AcDbLine
 10
-2.0
 20
10.0
 30
0.0
 11
-2.0
 21
0.0
 31
0.0
  0
LINE
  5
130D
330
762
100
AcDbEntity
  8
241
100
AcDbLine
 10
0.80384758
 20
8.35874397
 30
0.0
 11
0.80384758
 21
0.0
 31
0.0
  0
LINE
  5
130E
330
762
100
AcDbEntity
  8
240
100
AcDbLine
 10
0.19859884
 20
10.25881905
 30
0.0
 11
0.60524874
 21
8.74118096
 31
0.0
  0
ARC
  5
130F
330
762
100
AcDbEntity
  8
240
100
AcDbCircle
 10
1.57117457
 20
9.0
 30
0.0
 40
1.0
100
AcDbArc
 50
194.99999992
 51
270.0
  0
LINE
  5
1310
330
762
100
AcDbEntity
  8
240
100
AcDbLine
 10
-0.63567449
 20
11.0
 30
0.0
 11
-2.0
 21
11.0
 31
0.0
  0
LINE
  5
1311
330
762
100
AcDbEntity
  8
240
100
AcDbLine
 10
-4.0
 20
11.0
 30
0.0
 11
-5.12626129
 21
11.0
 31
0.0
  0
LINE
  5
1312
330
762
100
AcDbEntity
  8
240
100
AcDbLine
 10
-0.50850794
 20
10.96592583
 30
0.0
 11
-0.63567449
 21
11.0
 31
0.0
  0
LINE
  5
1313
330
762
100
AcDbEntity
  8
241
  6
HIDDEN2
100
AcDbLine
 10
19.0
 20
2.0
 30
0.0
 11
30.0
 21
2.0
 31
0.0
  0
LINE
  5
1314
330
762
100
AcDbEntity
  8
240
100
AcDbLine
 10
13.15
 20
8.0
 30
0.0
 11
29.0
 21
8.0
 31
0.0
  0
LINE
  5
1315
330
762
100
AcDbEntity
  8
240
100
AcDbLine
 10
11.0
 20
8.15
 30
0.0
 11
13.0
 21
8.15
 31
0.0
  0
LINE
  5
1316
330
762
100
AcDbEntity
  8
241
  6
HIDDEN2
100
AcDbLine
 10
8.0
 20
2.33345238
 30
0.0
 11
15.0
 21
2.33345238
 31
0.0
  0
LINE
  5
1317
330
762
100
AcDbEntity
  8
244
  6
HIDDEN2
100
AcDbLine
 10
8.0
 20
2.33345238
 30
0.0
 11
15.0
 21
0.0
 31
0.0
  0
LINE
  5
1318
330
762
100
AcDbEntity
  8
244
  6
HIDDEN2
100
AcDbLine
 10
8.0
 20
0.0
 30
0.0
 11
15.0
 21
2.33345238
 31
0.0
  0
LINE
  5
1319
330
762
100
AcDbEntity
  8
241
100
AcDbLine
 10
11.0
 20
6.2
 30
0.0
 11
11.0
 21
0.0
 31
0.0
  0
LINE
  5
131A
330
762
100
AcDbEntity
  8
241
100
AcDbLine
 10
10.0
 20
6.2
 30
0.0
 11
10.0
 21
0.0
 31
0.0
  0
LINE
  5
131B
330
762
100
AcDbEntity
  8
0
100
AcDbLine
 10
3.55654317
 20
-0.90773143
 30
0.0
 11
3.98972444
 21
-1.03193974
 31
0.0
  0
ARC
  5
131C
330
762
100
AcDbEntity
  8
0
100
AcDbCircle
 10
3.77993627
 20
-0.82988262
 30
0.0
 40
0.3789081573486329
100
AcDbArc
 50
0.0
 51
130.32984065
  0
LINE
  5
131D
330
762
100
AcDbEntity
  8
0
100
AcDbLine
 10
4.1588446
 20
-0.3709116
 30
0.0
 11
2.96148343
 21
-0.02757168
 31
0.0
  0
LINE
  5
131E
330
762
100
AcDbEntity
  8
0
100
AcDbLine
 10
4.14949207
 20
-0.36822979
 30
0.0
 11
3.67421105
 21
0.10705123
 31
0.0
  0
LINE
  5
131F
330
762
100
AcDbEntity
  8
0
100
AcDbLine
 10
4.1588446
 20
-0.20920252
 30
0.0
 11
3.91028322
 21
0.03935887
 31
0.0
  0
LINE
  5
1320
330
762
100
AcDbEntity
  8
0
100
AcDbLine
 10
2.96148343
 20
-0.02757168
 30
0.0
 11
4.1588446
 21
-0.3709116
 31
0.0
  0
LINE
  5
1321
330
762
100
AcDbEntity
  8
0
100
AcDbLine
 10
2.96148343
 20
-0.02757168
 30
0.0
 11
4.1588446
 21
-0.3709116
 31
0.0
1001
HATCH_DISTANCE
1040
1.0
1001
HATCH_DISPLAY
1070
     0
1001
HATCH_TYPE
1070
     7
  0
LINE
  5
1322
330
762
100
AcDbEntity
  8
0
100
AcDbLine
 10
3.94008308
 20
0.34631861
 30
0.0
 11
3.66398604
 21
0.62241565
 31
0.0
  0
LINE
  5
1323
330
762
100
AcDbEntity
  8
0
100
AcDbLine
 10
4.03055553
 20
0.42422597
 30
0.0
 11
3.87003633
 21
0.58474517
 31
0.0
  0
LINE
  5
1324
330
762
100
AcDbEntity
  8
0
100
AcDbLine
 10
4.15654617
 20
0.80337473
 30
0.0
 11
3.70192346
 21
1.25799744
 31
0.0
  0
LINE
  5
1325
330
762
100
AcDbEntity
  8
0
100
AcDbLine
 10
4.1588446
 20
1.12697697
 30
0.0
 11
3.38586469
 21
1.34862614
 31
0.0
  0
ARC
  5
1326
330
762
100
AcDbEntity
  8
0
100
AcDbCircle
 10
3.83297963
 20
0.73951435
 30
0.0
 40
0.1591436415910721
100
AcDbArc
 50
254.00027306
 51
74.00027306
  0
LINE
  5
1327
330
762
100
AcDbEntity
  8
0
100
AcDbLine
 10
3.60662963
 20
-0.83564616
 30
0.0
 11
3.06425552
 21
-0.29327205
 31
0.0
  0
LINE
  5
1328
330
762
100
AcDbEntity
  8
0
100
AcDbLine
 10
3.20524882
 20
-0.60264515
 30
0.0
 11
2.9516185
 21
-0.34901483
 31
0.0
  0
ARC
  5
1329
330
762
100
AcDbEntity
  8
0
100
AcDbCircle
 10
3.15852208
 20
-0.82513332
 30
0.0
 40
0.2273419797420503
100
AcDbArc
 50
351.66260169
 51
156.3381551
  0
LINE
  5
132A
330
762
100
AcDbEntity
  8
0
100
AcDbLine
 10
3.55015477
 20
-1.2843107
 30
0.0
 11
3.0196124
 21
-0.75376834
 31
0.0
  0
LINE
  5
132B
330
762
100
AcDbEntity
  8
0
100
AcDbLine
 10
2.95029299
 20
-0.73389176
 30
0.0
 11
3.38346142
 21
-0.85809803
 31
0.0
  0
LINE
  5
132C
330
762
100
AcDbEntity
  8
0
100
AcDbLine
 10
2.94633145
 20
-1.1900053
 30
0.0
 11
2.94633145
 21
-1.11116695
 31
0.0
  0
LINE
  5
132D
330
762
100
AcDbEntity
  8
0
100
AcDbLine
 10
3.716233
 20
-0.77686973
 30
0.0
 11
3.21924317
 21
-0.27987989
 31
0.0
  0
LINE
  5
132E
330
762
100
AcDbEntity
  8
0
100
AcDbLine
 10
3.78622738
 20
-1.35200351
 30
0.0
 11
3.25568278
 21
-0.82145891
 31
0.0
  0
LINE
  5
132F
330
762
100
AcDbEntity
  8
0
100
AcDbLine
 10
3.44127279
 20
-0.16514992
 30
0.0
 11
2.96599455
 21
0.31012833
 31
0.0
  0
LINE
  5
1330
330
762
100
AcDbEntity
  8
0
100
AcDbLine
 10
3.67734589
 20
-0.23284321
 30
0.0
 11
3.20206671
 21
0.24243596
 31
0.0
  0
LINE
  5
1331
330
762
100
AcDbEntity
  8
0
100
AcDbLine
 10
3.91341898
 20
-0.3005365
 30
0.0
 11
3.43813888
 21
0.1747436
 31
0.0
  0
LINE
  5
1332
330
762
100
AcDbEntity
  8
0
100
AcDbLine
 10
2.96148343
 20
-0.08276081
 30
0.0
 11
2.96148343
 21
-0.02757168
 31
0.0
  0
LINE
  5
1333
330
762
100
AcDbEntity
  8
0
100
AcDbLine
 10
2.96148343
 20
-0.08276081
 30
0.0
 11
2.96148343
 21
-0.02757168
 31
0.0
1001
HATCH_DISTANCE
1040
1.0
1001
HATCH_DISPLAY
1070
     0
1001
HATCH_TYPE
1070
     7
  0
LINE
  5
1334
330
762
100
AcDbEntity
  8
0
100
AcDbLine
 10
2.9658093
 20
1.38115597
 30
0.0
 11
2.9658093
 21
1.38115597
 31
0.0
  0
LINE
  5
1335
330
762
100
AcDbEntity
  8
0
100
AcDbLine
 10
2.9658093
 20
1.38115597
 30
0.0
 11
2.9658093
 21
1.38115597
 31
0.0
1001
HATCH_DISTANCE
1040
1.0
1001
HATCH_DISPLAY
1070
     0
1001
HATCH_TYPE
1070
     7
  0
LINE
  5
1336
330
762
100
AcDbEntity
  8
0
100
AcDbLine
 10
2.9658093
 20
1.38115597
 30
0.0
 11
2.9658093
 21
1.38115597
 31
0.0
  0
LINE
  5
1337
330
762
100
AcDbEntity
  8
0
100
AcDbLine
 10
2.9658093
 20
1.38115597
 30
0.0
 11
2.9658093
 21
1.38115597
 31
0.0
1001
HATCH_DISTANCE
1040
1.0
1001
HATCH_DISPLAY
1070
     0
1001
HATCH_TYPE
1070
     7
  0
LINE
  5
1338
330
762
100
AcDbEntity
  8
0
100
AcDbLine
 10
3.68604487
 20
0.26359721
 30
0.0
 11
3.19183994
 21
0.75780215
 31
0.0
  0
LINE
  5
1339
330
762
100
AcDbEntity
  8
0
100
AcDbLine
 10
3.82763796
 20
0.29038393
 30
0.0
 11
3.42791299
 21
0.6901089
 31
0.0
  0
LINE
  5
133A
330
762
100
AcDbEntity
  8
0
100
AcDbLine
 10
2.99595734
 20
1.29044435
 30
0.0
 11
2.980177
 21
1.30622469
 31
0.0
  0
LINE
  5
133B
330
762
100
AcDbEntity
  8
0
100
AcDbLine
 10
3.53743024
 20
0.91735125
 30
0.0
 11
3.38586469
 21
1.06891681
 31
0.0
  0
LINE
  5
133C
330
762
100
AcDbEntity
  8
0
100
AcDbLine
 10
3.67190089
 20
0.95126041
 30
0.0
 11
3.38586469
 21
1.23729661
 31
0.0
  0
LINE
  5
133D
330
762
100
AcDbEntity
  8
0
100
AcDbLine
 10
3.91665866
 20
0.87488244
 30
0.0
 11
3.46585064
 21
1.32569046
 31
0.0
  0
ARC
  5
133E
330
762
100
AcDbEntity
  8
0
100
AcDbCircle
 10
3.69216008
 20
1.56114292
 30
0.0
 40
1.289039611816406
100
AcDbArc
 50
245.20517737
 51
262.79482596
  0
LINE
  5
133F
330
762
100
AcDbEntity
  8
0
100
AcDbLine
 10
2.96148343
 20
-0.08276081
 30
0.0
 11
2.96148343
 21
-0.02757168
 31
0.0
  0
LINE
  5
1340
330
762
100
AcDbEntity
  8
0
100
AcDbLine
 10
3.78911443
 20
0.58653545
 30
0.0
 11
3.07675977
 21
0.79080105
 31
0.0
  0
ARC
  5
1341
330
762
100
AcDbEntity
  8
0
100
AcDbCircle
 10
3.59047933
 20
1.53838062
 30
0.0
 40
0.6441496610641467
100
AcDbArc
 50
200.8721834
 51
222.54194894
  0
ARC
  5
1342
330
762
100
AcDbEntity
  8
0
100
AcDbCircle
 10
3.12063069
 20
0.94377995
 30
0.0
 40
0.159143753349781
100
AcDbArc
 50
91.71012138
 51
253.99839835
  0
LINE
  5
1343
330
762
100
AcDbEntity
  8
0
100
AcDbLine
 10
3.38586469
 20
0.90714169
 30
0.0
 11
3.38586469
 21
1.34862614
 31
0.0
  0
LINE
  5
1344
330
762
100
AcDbEntity
  8
0
100
AcDbLine
 10
3.53743024
 20
0.86368275
 30
0.0
 11
3.38586469
 21
0.90714169
 31
0.0
  0
LINE
  5
1345
330
762
100
AcDbEntity
  8
0
100
AcDbLine
 10
3.53743024
 20
0.86368275
 30
0.0
 11
3.53743024
 21
0.98981953
 31
0.0
  0
LINE
  5
1346
330
762
100
AcDbEntity
  8
0
100
AcDbLine
 10
3.87684484
 20
0.89249325
 30
0.0
 11
3.53743024
 21
0.98981953
 31
0.0
  0
LINE
  5
1347
330
762
100
AcDbEntity
  8
0
100
AcDbLine
 10
4.1588446
 20
-1.21948133
 30
0.0
 11
3.96389752
 21
-1.02453425
 31
0.0
  0
LINE
  5
1348
330
762
100
AcDbEntity
  8
0
100
AcDbLine
 10
4.13043582
 20
-0.68593314
 30
0.0
 11
3.92388574
 21
-0.47938306
 31
0.0
  0
LINE
  5
1349
330
762
100
AcDbEntity
  8
0
100
AcDbLine
 10
4.1588446
 20
-0.3709116
 30
0.0
 11
4.1588446
 21
-0.03191471
 31
0.0
  0
LINE
  5
134A
330
762
100
AcDbEntity
  8
0
100
AcDbLine
 10
4.38619293
 20
-1.27844985
 30
0.0
 11
4.23462738
 21
-1.1268843
 31
0.0
  0
LINE
  5
134B
330
762
100
AcDbEntity
  8
0
100
AcDbLine
 10
4.38619293
 20
-1.11007005
 30
0.0
 11
4.23462738
 21
-0.9585045
 31
0.0
  0
LINE
  5
134C
330
762
100
AcDbEntity
  8
0
100
AcDbLine
 10
4.38619293
 20
-0.94169025
 30
0.0
 11
4.23462738
 21
-0.7901247
 31
0.0
  0
LINE
  5
134D
330
762
100
AcDbEntity
  8
0
100
AcDbLine
 10
4.38619293
 20
-0.77331044
 30
0.0
 11
4.23462738
 21
-0.6217449
 31
0.0
  0
LINE
  5
134E
330
762
100
AcDbEntity
  8
0
100
AcDbLine
 10
4.38619293
 20
-0.60493064
 30
0.0
 11
4.23462738
 21
-0.45336509
 31
0.0
  0
LINE
  5
134F
330
762
100
AcDbEntity
  8
0
100
AcDbLine
 10
4.38619293
 20
-0.43655084
 30
0.0
 11
4.23462738
 21
-0.28498529
 31
0.0
  0
LINE
  5
1350
330
762
100
AcDbEntity
  8
0
100
AcDbLine
 10
4.38619293
 20
-0.26817104
 30
0.0
 11
4.23462738
 21
-0.11660549
 31
0.0
  0
LINE
  5
1351
330
762
100
AcDbEntity
  8
0
100
AcDbLine
 10
4.38619293
 20
-0.09979124
 30
0.0
 11
4.23462738
 21
0.05177431
 31
0.0
  0
LINE
  5
1352
330
762
100
AcDbEntity
  8
0
100
AcDbLine
 10
4.38619293
 20
0.06858857
 30
0.0
 11
4.23462738
 21
0.22015411
 31
0.0
  0
LINE
  5
1353
330
762
100
AcDbEntity
  8
0
100
AcDbLine
 10
4.38619293
 20
0.23696837
 30
0.0
 11
4.23462738
 21
0.38853392
 31
0.0
  0
LINE
  5
1354
330
762
100
AcDbEntity
  8
0
100
AcDbLine
 10
4.38619293
 20
0.40534817
 30
0.0
 11
4.23462738
 21
0.55691372
 31
0.0
  0
LINE
  5
1355
330
762
100
AcDbEntity
  8
0
100
AcDbLine
 10
4.38619293
 20
0.57372797
 30
0.0
 11
4.23462738
 21
0.72529352
 31
0.0
  0
LINE
  5
1356
330
762
100
AcDbEntity
  8
0
100
AcDbLine
 10
4.38619293
 20
0.74210778
 30
0.0
 11
4.23462738
 21
0.89367332
 31
0.0
  0
LINE
  5
1357
330
762
100
AcDbEntity
  8
0
100
AcDbLine
 10
4.38619293
 20
0.91048758
 30
0.0
 11
4.23462738
 21
1.06205313
 31
0.0
  0
LINE
  5
1358
330
762
100
AcDbEntity
  8
0
100
AcDbLine
 10
4.38619293
 20
1.07886738
 30
0.0
 11
4.23462738
 21
1.23043293
 31
0.0
  0
LINE
  5
1359
330
762
100
AcDbEntity
  8
0
100
AcDbLine
 10
4.38619293
 20
1.24724718
 30
0.0
 11
4.23462738
 21
1.39881273
 31
0.0
  0
LINE
  5
135A
330
762
100
AcDbEntity
  8
0
100
AcDbLine
 10
4.1588446
 20
-0.04082271
 30
0.0
 11
4.14635539
 21
-0.0283335
 31
0.0
  0
LINE
  5
135B
330
762
100
AcDbEntity
  8
0
100
AcDbLine
 10
4.1588446
 20
-0.3709116
 30
0.0
 11
4.1588446
 21
-0.03191471
 31
0.0
  0
LINE
  5
135C
330
762
100
AcDbEntity
  8
0
100
AcDbLine
 10
4.1588446
 20
-0.3709116
 30
0.0
 11
4.1588446
 21
-0.03191471
 31
0.0
1001
HATCH_DISTANCE
1040
1.0
1001
HATCH_DISPLAY
1070
     0
1001
HATCH_TYPE
1070
     7
  0
LINE
  5
135D
330
762
100
AcDbEntity
  8
0
100
AcDbLine
 10
4.10029948
 20
0.52286182
 30
0.0
 11
3.96795614
 21
0.65520515
 31
0.0
  0
LINE
  5
135E
330
762
100
AcDbEntity
  8
0
100
AcDbLine
 10
4.14628816
 20
0.64525294
 30
0.0
 11
3.96834772
 21
0.82319338
 31
0.0
  0
LINE
  5
135F
330
762
100
AcDbEntity
  8
0
100
AcDbLine
 10
4.0800867
 20
1.048214
 30
0.0
 11
3.93799629
 21
1.19030442
 31
0.0
  0
LINE
  5
1360
330
762
100
AcDbEntity
  8
0
100
AcDbLine
 10
4.06994118
 20
1.03806782
 30
0.0
 11
4.1588446
 21
1.12697697
 31
0.0
  0
ARC
  5
1361
330
762
100
AcDbEntity
  8
0
100
AcDbCircle
 10
3.59047933
 20
1.53838062
 30
0.0
 40
0.644147872924803
100
AcDbArc
 50
0.0
 51
194.1274365
  0
LINE
  5
1362
330
762
100
AcDbEntity
  8
0
100
AcDbLine
 10
4.38619293
 20
1.41562698
 30
0.0
 11
4.23395192
 21
1.56786799
 31
0.0
  0
LINE
  5
1363
330
762
100
AcDbEntity
  8
0
100
AcDbLine
 10
2.94706157
 20
1.50771992
 30
0.0
 11
2.8029021
 21
1.65187939
 31
0.0
  0
LINE
  5
1364
330
762
100
AcDbEntity
  8
0
100
AcDbLine
 10
2.95877586
 20
1.66438543
 30
0.0
 11
2.83498982
 21
1.78817147
 31
0.0
  0
LINE
  5
1365
330
762
100
AcDbEntity
  8
0
100
AcDbLine
 10
4.1588446
 20
-0.03191471
 30
0.0
 11
2.7947659
 21
0.35922718
 31
0.0
  0
LINE
  5
1366
330
762
100
AcDbEntity
  8
0
100
AcDbLine
 10
4.1588446
 20
-0.03191471
 30
0.0
 11
2.7947659
 21
0.35922718
 31
0.0
1001
HATCH_DISTANCE
1040
1.0
1001
HATCH_DISPLAY
1070
     0
1001
HATCH_TYPE
1070
     7
  0
LINE
  5
1367
330
762
100
AcDbEntity
  8
0
100
AcDbLine
 10
4.1588446
 20
-0.03191471
 30
0.0
 11
2.7947659
 21
0.35922718
 31
0.0
  0
LINE
  5
1368
330
762
100
AcDbEntity
  8
0
100
AcDbLine
 10
3.31408215
 20
-1.21661789
 30
0.0
 11
2.7947659
 21
-0.69730164
 31
0.0
  0
LINE
  5
1369
330
762
100
AcDbEntity
  8
0
100
AcDbLine
 10
3.05629541
 20
-0.62207155
 30
0.0
 11
2.86730437
 21
-0.43308051
 31
0.0
  0
LINE
  5
136A
330
762
100
AcDbEntity
  8
0
100
AcDbLine
 10
2.94633145
 20
-1.1856268
 30
0.0
 11
2.7947659
 21
-1.03406125
 31
0.0
  0
LINE
  5
136B
330
762
100
AcDbEntity
  8
0
100
AcDbLine
 10
3.07800954
 20
-1.14892508
 30
0.0
 11
2.7947659
 21
-0.86568144
 31
0.0
  0
LINE
  5
136C
330
762
100
AcDbEntity
  8
0
100
AcDbLine
 10
2.7947659
 20
-1.14654636
 30
0.0
 11
2.94633145
 21
-1.1900053
 31
0.0
  0
LINE
  5
136D
330
762
100
AcDbEntity
  8
0
100
AcDbLine
 10
2.7947659
 20
-1.22537899
 30
0.0
 11
2.94633145
 21
-1.26883793
 31
0.0
  0
LINE
  5
136E
330
762
100
AcDbEntity
  8
0
100
AcDbLine
 10
2.96758226
 20
-0.70173819
 30
0.0
 11
2.81126852
 21
-0.54542445
 31
0.0
  0
ARC
  5
136F
330
762
100
AcDbEntity
  8
0
100
AcDbCircle
 10
3.17367406
 20
-0.65604115
 30
0.0
 40
0.3789113759994507
100
AcDbArc
 50
17.66957755
 51
180.23615984
  0
LINE
  5
1370
330
762
100
AcDbEntity
  8
0
100
AcDbLine
 10
2.94633145
 20
-1.3540066
 30
0.0
 11
2.82692491
 21
-1.23460006
 31
0.0
  0
LINE
  5
1371
330
762
100
AcDbEntity
  8
0
100
AcDbLine
 10
2.96912661
 20
-0.02976334
 30
0.0
 11
2.7947659
 21
0.14459737
 31
0.0
  0
LINE
  5
1372
330
762
100
AcDbEntity
  8
0
100
AcDbLine
 10
3.2051997
 20
-0.09745663
 30
0.0
 11
2.7947659
 21
0.31297717
 31
0.0
  0
LINE
  5
1373
330
762
100
AcDbEntity
  8
0
100
AcDbLine
 10
2.7947659
 20
-0.03495312
 30
0.0
 11
2.96148343
 21
-0.08276081
 31
0.0
  0
LINE
  5
1374
330
762
100
AcDbEntity
  8
0
100
AcDbLine
 10
2.7947659
 20
-0.03495312
 30
0.0
 11
2.96148343
 21
-0.08276081
 31
0.0
1001
HATCH_DISTANCE
1040
1.0
1001
HATCH_DISPLAY
1070
     0
1001
HATCH_TYPE
1070
     7
  0
LINE
  5
1375
330
762
100
AcDbEntity
  8
0
100
AcDbLine
 10
2.8210587
 20
1.33551121
 30
0.0
 11
2.9658093
 21
1.38115597
 31
0.0
  0
LINE
  5
1376
330
762
100
AcDbEntity
  8
0
100
AcDbLine
 10
2.9658093
 20
1.38115597
 30
0.0
 11
2.8210587
 21
1.33551121
 31
0.0
  0
LINE
  5
1377
330
762
100
AcDbEntity
  8
0
100
AcDbLine
 10
2.8210587
 20
1.33551121
 30
0.0
 11
2.9658093
 21
1.38115597
 31
0.0
1001
HATCH_DISTANCE
1040
1.0
1001
HATCH_DISPLAY
1070
     0
1001
HATCH_TYPE
1070
     7
  0
LINE
  5
1378
330
762
100
AcDbEntity
  8
0
100
AcDbLine
 10
2.9658093
 20
1.38115597
 30
0.0
 11
2.8210587
 21
1.33551121
 31
0.0
1001
HATCH_DISTANCE
1040
1.0
1001
HATCH_DISPLAY
1070
     0
1001
HATCH_TYPE
1070
     7
  0
LINE
  5
1379
330
762
100
AcDbEntity
  8
0
100
AcDbLine
 10
2.8210587
 20
1.33551121
 30
0.0
 11
2.9658093
 21
1.38115597
 31
0.0
  0
LINE
  5
137A
330
762
100
AcDbEntity
  8
0
100
AcDbLine
 10
2.9658093
 20
1.38115597
 30
0.0
 11
2.8210587
 21
1.33551121
 31
0.0
  0
LINE
  5
137B
330
762
100
AcDbEntity
  8
0
100
AcDbLine
 10
2.8210587
 20
1.33551121
 30
0.0
 11
2.9658093
 21
1.38115597
 31
0.0
1001
HATCH_DISTANCE
1040
1.0
1001
HATCH_DISPLAY
1070
     0
1001
HATCH_TYPE
1070
     7
  0
LINE
  5
137C
330
762
100
AcDbEntity
  8
0
100
AcDbLine
 10
2.9658093
 20
1.38115597
 30
0.0
 11
2.8210587
 21
1.33551121
 31
0.0
1001
HATCH_DISTANCE
1040
1.0
1001
HATCH_DISPLAY
1070
     0
1001
HATCH_TYPE
1070
     7
  0
LINE
  5
137D
330
762
100
AcDbEntity
  8
0
100
AcDbLine
 10
3.26952584
 20
0.34335665
 30
0.0
 11
2.79718226
 21
0.81570022
 31
0.0
  0
LINE
  5
137E
330
762
100
AcDbEntity
  8
0
100
AcDbLine
 10
3.49380652
 20
0.28745576
 30
0.0
 11
2.80713366
 21
0.97412862
 31
0.0
  0
LINE
  5
137F
330
762
100
AcDbEntity
  8
0
100
AcDbLine
 10
2.96644553
 20
0.98319656
 30
0.0
 11
2.85295428
 21
1.09668781
 31
0.0
  0
LINE
  5
1380
330
762
100
AcDbEntity
  8
0
100
AcDbLine
 10
3.03814393
 20
1.07987796
 30
0.0
 11
2.85216403
 21
1.26585786
 31
0.0
  0
LINE
  5
1381
330
762
100
AcDbEntity
  8
0
100
AcDbLine
 10
2.96148343
 20
-0.08276081
 30
0.0
 11
2.7947659
 21
-0.03495312
 31
0.0
  0
LINE
  5
1382
330
762
100
AcDbEntity
  8
0
100
AcDbLine
 10
2.98860021
 20
1.30888081
 30
0.0
 11
2.84384961
 21
1.26323605
 31
0.0
  0
ARC
  5
1383
330
762
100
AcDbEntity
  8
0
100
AcDbCircle
 10
3.59047933
 20
1.53838062
 30
0.0
 40
0.7957137823104845
100
AcDbArc
 50
200.22964506
 51
208.57168892
  0
LINE
  5
1384
330
762
100
AcDbEntity
  8
0
100
AcDbLine
 10
2.9658093
 20
1.38115597
 30
0.0
 11
2.8210587
 21
1.33551121
 31
0.0
  0
ARC
  5
1385
330
762
100
AcDbEntity
  8
0
100
AcDbCircle
 10
3.59047933
 20
1.53838062
 30
0.0
 40
0.7957134246826169
100
AcDbArc
 50
0.0
 51
194.77079397
  0
LINE
  5
1386
330
762
100
AcDbEntity
  8
0
100
AcDbLine
 10
2.91976504
 20
1.36663665
 30
0.0
 11
2.79622748
 21
1.49017421
 31
0.0
  0
LINE
  5
1387
330
762
100
AcDbEntity
  8
0
100
AcDbLine
 10
2.7947659
 20
-1.14654636
 30
0.0
 11
2.7947659
 21
-0.65760293
 31
0.0
  0
LINE
  5
1388
330
762
100
AcDbEntity
  8
0
100
AcDbLine
 10
2.81042776
 20
-0.03944429
 30
0.0
 11
2.7947659
 21
-0.02378243
 31
0.0
  0
LINE
  5
1389
330
762
100
AcDbEntity
  8
0
100
AcDbLine
 10
2.7947659
 20
0.35922718
 30
0.0
 11
2.7947659
 21
-0.03495312
 31
0.0
  0
LINE
  5
138A
330
762
100
AcDbEntity
  8
0
100
AcDbLine
 10
2.7947659
 20
0.35922718
 30
0.0
 11
2.7947659
 21
-0.03495312
 31
0.0
1001
HATCH_DISTANCE
1040
1.0
1001
HATCH_DISPLAY
1070
     0
1001
HATCH_TYPE
1070
     7
  0
LINE
  5
138B
330
762
100
AcDbEntity
  8
0
100
AcDbLine
 10
2.8210587
 20
1.33551121
 30
0.0
 11
2.8210587
 21
1.33551121
 31
0.0
  0
LINE
  5
138C
330
762
100
AcDbEntity
  8
0
100
AcDbLine
 10
2.8210587
 20
1.33551121
 30
0.0
 11
2.8210587
 21
1.33551121
 31
0.0
1001
HATCH_DISTANCE
1040
1.0
1001
HATCH_DISPLAY
1070
     0
1001
HATCH_TYPE
1070
     7
  0
LINE
  5
138D
330
762
100
AcDbEntity
  8
0
100
AcDbLine
 10
2.8210587
 20
1.33551121
 30
0.0
 11
2.8210587
 21
1.33551121
 31
0.0
  0
LINE
  5
138E
330
762
100
AcDbEntity
  8
0
100
AcDbLine
 10
2.8210587
 20
1.33551121
 30
0.0
 11
2.8210587
 21
1.33551121
 31
0.0
1001
HATCH_DISTANCE
1040
1.0
1001
HATCH_DISPLAY
1070
     0
1001
HATCH_TYPE
1070
     7
  0
LINE
  5
138F
330
762
100
AcDbEntity
  8
0
100
AcDbLine
 10
2.7947659
 20
-0.03495312
 30
0.0
 11
2.7947659
 21
0.35922718
 31
0.0
  0
LINE
  5
1390
330
762
100
AcDbEntity
  8
0
100
AcDbLine
 10
4.38480249
 20
1.58539722
 30
0.0
 11
4.18579196
 21
1.78440775
 31
0.0
  0
LINE
  5
1391
330
762
100
AcDbEntity
  8
0
100
AcDbLine
 10
4.34372696
 20
1.79485255
 30
0.0
 11
3.84695125
 21
2.29162826
 31
0.0
  0
LINE
  5
1392
330
762
100
AcDbEntity
  8
0
100
AcDbLine
 10
2.99871561
 20
1.79282549
 30
0.0
 11
2.88503882
 21
1.90650227
 31
0.0
  0
LINE
  5
1393
330
762
100
AcDbEntity
  8
0
100
AcDbLine
 10
3.05842948
 20
1.90149142
 30
0.0
 11
2.94973215
 21
2.01018875
 31
0.0
  0
LINE
  5
1394
330
762
100
AcDbEntity
  8
0
100
AcDbLine
 10
3.13471846
 20
1.99358224
 30
0.0
 11
3.02754541
 21
2.10075529
 31
0.0
  0
LINE
  5
1395
330
762
100
AcDbEntity
  8
0
100
AcDbLine
 10
3.2267041
 20
2.0699764
 30
0.0
 11
3.11802732
 21
2.17865319
 31
0.0
  0
LINE
  5
1396
330
762
100
AcDbEntity
  8
0
100
AcDbLine
 10
3.33525271
 20
2.12980759
 30
0.0
 11
3.22162303
 21
2.24343728
 31
0.0
  0
LINE
  5
1397
330
762
100
AcDbEntity
  8
0
100
AcDbLine
 10
3.46354262
 20
2.16989749
 30
0.0
 11
3.3398483
 21
2.29359181
 31
0.0
  0
LINE
  5
1398
330
762
100
AcDbEntity
  8
0
100
AcDbLine
 10
3.6199667
 20
2.18185322
 30
0.0
 11
3.47600349
 21
2.32581642
 31
0.0
  0
LINE
  5
1399
330
762
100
AcDbEntity
  8
0
100
AcDbLine
 10
3.83650645
 20
2.13369326
 30
0.0
 11
3.63749592
 21
2.33270379
 31
0.0
  0
ARC
  5
139A
330
762
100
AcDbEntity
  8
0
100
AcDbCircle
 10
3.6662621
 20
0.75578785
 30
0.0
 40
0.4925880432128908
100
AcDbArc
 50
253.9997507
 51
34.96387329
  0
LINE
  5
139B
330
762
100
AcDbEntity
  8
0
100
AcDbLine
 10
4.1588446
 20
-0.88272173
 30
0.0
 11
3.73035524
 21
-0.45423237
 31
0.0
  0
LINE
  5
139C
330
762
100
AcDbEntity
  8
0
100
AcDbLine
 10
4.1588446
 20
-1.05110153
 30
0.0
 11
3.60271613
 21
-0.49497306
 31
0.0
  0
ARC
  5
139D
330
762
100
AcDbEntity
  8
0
100
AcDbCircle
 10
3.76477857
 20
-0.9989748
 30
0.0
 40
0.2273484840989113
100
AcDbArc
 50
351.66285421
 51
156.33819216
  0
LINE
  5
139E
330
762
100
AcDbEntity
  8
0
100
AcDbLine
 10
4.1588446
 20
-1.38786113
 30
0.0
 11
3.7278284
 21
-0.95684493
 31
0.0
  0
LINE
  5
139F
330
762
100
AcDbEntity
  8
0
100
AcDbLine
 10
4.02229999
 20
-1.41969632
 30
0.0
 11
3.38101026
 21
-0.77840659
 31
0.0
  0
LINE
  5
13A0
330
762
100
AcDbEntity
  8
241
  6
HIDDEN2
100
AcDbLine
 10
8.0
 20
2.33345238
 30
0.0
 11
8.0
 21
0.0
 31
0.0
  0
LINE
  5
13A1
330
762
100
AcDbEntity
  8
240
100
AcDbLine
 10
11.0
 20
6.2
 30
0.0
 11
11.0
 21
8.15
 31
0.0
  0
LINE
  5
13A2
330
762
100
AcDbEntity
  8
240
100
AcDbLine
 10
10.0
 20
6.2
 30
0.0
 11
10.0
 21
8.0
 31
0.0
  0
LINE
  5
13A3
330
762
100
AcDbEntity
  8
240
100
AcDbLine
 10
11.0
 20
6.2
 30
0.0
 11
10.0
 21
6.2
 31
0.0
  0
LINE
  5
13A4
330
762
100
AcDbEntity
  8
241
100
AcDbLine
 10
14.2
 20
8.0
 30
0.0
 11
14.2
 21
0.0
 31
0.0
  0
LINE
  5
13A5
330
762
100
AcDbEntity
  8
241
100
AcDbLine
 10
13.0
 20
8.15
 30
0.0
 11
13.0
 21
0.0
 31
0.0
  0
LINE
  5
13A6
330
762
100
AcDbEntity
  8
241
  6
HIDDEN2
100
AcDbLine
 10
15.0
 20
2.3
 30
0.0
 11
19.0
 21
2.3
 31
0.0
1001
GRPNAME
1000
0000002S
  0
LINE
  5
13A7
330
762
100
AcDbEntity
  8
241
  6
HIDDEN2
100
AcDbLine
 10
15.0
 20
2.33345238
 30
0.0
 11
15.0
 21
0.0
 31
0.0
  0
LINE
  5
13A8
330
762
100
AcDbEntity
  8
241
  6
HIDDEN2
100
AcDbLine
 10
19.0
 20
2.3
 30
0.0
 11
19.0
 21
0.0
 31
0.0
  0
LINE
  5
13A9
330
762
100
AcDbEntity
  8
240
100
AcDbLine
 10
13.15
 20
8.0
 30
0.0
 11
13.0
 21
8.15
 31
0.0
  0
ARC
  5
13AA
330
762
100
AcDbEntity
  8
240
100
AcDbCircle
 10
29.0
 20
7.0
 30
0.0
 40
1.0
100
AcDbArc
 50
359.9999824
 51
90.0
1001
GENIUS_GENODEF_13
1002
{
1000
HIER
1070
     0
1002
}
1002
{
1000
MANEDIT
1070
     0
1002
}
1002
{
1000
NOSEL
1070
     0
1002
}
1002
{
1000
BEHIND
1070
     0
1002
}
1002
{
1000
OTHER
1070
     0
1002
}
1002
{
1000
REACTOR
1002
}
1001
GENIUS_GENOBJ-N-FIL_13
1002
{
1000
OWNER
1000
GEN
1002
}
  0
LINE
  5
13AB
330
762
100
AcDbEntity
  8
240
100
AcDbLine
 10
30.0
 20
7.0
 30
0.0
 11
30.0
 21
0.0
 31
0.0
  0
ENDBLK
  5
8A0
330
762
100
AcDbEntity
  8
0
100
AcDbBlockEnd
  0
BLOCK
  5
123F
330
1235
100
AcDbEntity
  8
0
100
AcDbBlockBegin
  2
*D8
 70
     1
 10
0.0
 20
0.0
 30
0.0
  3
*D8
  1

  0
LINE
  5
1285
330
1235
100
AcDbEntity
  8
250
  6
CONTINUOUS
100
AcDbLine
 10
0.0
 20
11.14125603
 30
0.0
 11
0.0
 21
22.0
 31
0.0
  0
LINE
  5
1286
330
1235
100
AcDbEntity
  8
250
  6
CONTINUOUS
100
AcDbLine
 10
30.0
 20
7.5
 30
0.0
 11
30.0
 21
22.0
 31
0.0
  0
LINE
  5
1287
330
1235
100
AcDbEntity
  8
250
  6
CONTINUOUS
100
AcDbLine
 10
2.23
 20
21.0
 30
0.0
 11
27.77
 21
21.0
 31
0.0
  0
INSERT
  5
1288
330
1235
100
AcDbEntity
  8
250
  6
CONTINUOUS
100
AcDbBlockReference
  2
_OPEN
 10
0.0
 20
21.0
 30
0.0
 41
2.23
 42
2.23
 43
2.23
 50
180.0
  0
INSERT
  5
1289
330
1235
100
AcDbEntity
  8
250
  6
CONTINUOUS
100
AcDbBlockReference
  2
_OPEN
 10
30.0
 20
21.0
 30
0.0
 41
2.23
 42
2.23
 43
2.23
  0
MTEXT
  5
128A
330
1235
100
AcDbEntity
  8
250
  6
CONTINUOUS
 62
    40
100
AcDbMText
 10
15.41599348
 20
23.4
 30
0.0
 40
2.8
 41
0.0
 71
     5
 72
     1
  1
\A1;30
1001
ACAD
1000
MTEXTBEGIN
1070
    73
1070
     1
1070
    44
1040
1.0
1070
    74
1070
     0
1000
MTEXTEND
  0
POINT
  5
128B
330
1235
100
AcDbEntity
  8
DEFPOINTS
  6
CONTINUOUS
 62
     0
100
AcDbPoint
 10
0.0
 20
10.64125603
 30
0.0
  0
POINT
  5
128C
330
1235
100
AcDbEntity
  8
DEFPOINTS
  6
CONTINUOUS
 62
     0
100
AcDbPoint
 10
30.0
 20
7.0
 30
0.0
  0
POINT
  5
128D
330
1235
100
AcDbEntity
  8
DEFPOINTS
  6
CONTINUOUS
 62
     0
100
AcDbPoint
 10
30.0
 20
21.0
 30
0.0
  0
ENDBLK
  5
1240
330
1235
100
AcDbEntity
  8
0
100
AcDbBlockEnd
  0
BLOCK
  5
124B
330
1241
100
AcDbEntity
  8
0
100
AcDbBlockBegin
  2
*D9
 70
     1
 10
0.0
 20
0.0
 30
0.0
  3
*D9
  1

  0
LINE
  5
1273
330
1241
100
AcDbEntity
  8
250
  6
CONTINUOUS
100
AcDbLine
 10
29.5
 20
-8.0
 30
0.0
 11
48.25
 21
-8.0
 31
0.0
  0
LINE
  5
1274
330
1241
100
AcDbEntity
  8
250
  6
CONTINUOUS
100
AcDbLine
 10
29.5
 20
8.0
 30
0.0
 11
48.25
 21
8.0
 31
0.0
  0
LINE
  5
1275
330
1241
100
AcDbEntity
  8
250
  6
CONTINUOUS
100
AcDbLine
 10
47.25
 20
-5.77
 30
0.0
 11
47.25
 21
5.77
 31
0.0
  0
INSERT
  5
1276
330
1241
100
AcDbEntity
  8
250
  6
CONTINUOUS
100
AcDbBlockReference
  2
_OPEN
 10
47.25
 20
-8.0
 30
0.0
 41
2.23
 42
2.23
 43
2.23
 50
270.0
  0
INSERT
  5
1277
330
1241
100
AcDbEntity
  8
250
  6
CONTINUOUS
100
AcDbBlockReference
  2
_OPEN
 10
47.25
 20
8.0
 30
0.0
 41
2.23
 42
2.23
 43
2.23
 50
90.0
  0
MTEXT
  5
1278
330
1241
100
AcDbEntity
  8
250
  6
CONTINUOUS
 62
    40
100
AcDbMText
 10
44.85
 20
0.0
 30
0.0
 40
2.8
 41
0.0
 71
     5
 72
     1
  1
\A1;{\H2.8;\U+2205}16
 11
0.0
 21
1.0
 31
0.0
1001
ACAD
1000
MTEXTBEGIN
1070
    73
1070
     1
1070
    44
1040
1.0
1070
    74
1070
     0
1000
MTEXTEND
  0
POINT
  5
1279
330
1241
100
AcDbEntity
  8
DEFPOINTS
  6
CONTINUOUS
 62
     0
100
AcDbPoint
 10
29.0
 20
-8.0
 30
0.0
  0
POINT
  5
127A
330
1241
100
AcDbEntity
  8
DEFPOINTS
  6
CONTINUOUS
 62
     0
100
AcDbPoint
 10
29.0
 20
8.0
 30
0.0
  0
POINT
  5
127B
330
1241
100
AcDbEntity
  8
DEFPOINTS
  6
CONTINUOUS
 62
     0
100
AcDbPoint
 10
47.25
 20
8.0
 30
0.0
  0
ENDBLK
  5
124C
330
1241
100
AcDbEntity
  8
0
100
AcDbBlockEnd
  0
ENDSEC
  0
SECTION
  2
ENTITIES
  0
INSERT
  5
6E6
330
1A
100
AcDbEntity
  8
245
100
AcDbBlockReference
  2
矢印なし
 10
175.62382697
 20
90.55123572
 30
0.0
  0
INSERT
  5
8D1
330
1A
100
AcDbEntity
  8
245
100
AcDbBlockReference
  2
矢印なし
 10
350.62382697
 20
251.55123572
 30
0.0
  0
INSERT
  5
8D2
330
1A
100
AcDbEntity
  8
245
100
AcDbBlockReference
  2
矢印なし
 10
525.62382697
 20
419.55123572
 30
0.0
  0
TEXT
  5
8D4
330
1A
100
AcDbEntity
  8
241
100
AcDbText
 10
-47.5
 20
35.0
 30
0.0
 40
5.0
  1
MGT6-M3-30
  7
YOKO
 11
-47.5
 21
35.0
 31
0.0
100
AcDbText
 73
     1
  0
MTEXT
  5
110E
330
1A
100
AcDbEntity
  8
251
  6
CONTINUOUS
100
AcDbMText
 10
17.27492403
 20
15.0
 30
0.0
 40
2.8
 41
0.0
 71
     7
 72
     1
  1
□3.2
  7
YOKO
1001
ITEMNAME
1000
LNSP3
1001
ACAD
1000
MTEXTBEGIN
1070
    73
1070
     1
1070
    44
1040
1.0
1070
    74
1070
     0
1000
MTEXTEND
1000
MTEXTBEGIN
1070
    73
1070
     1
1070
    44
1040
1.0
1070
    74
1070
     0
1000
MTEXTEND
1000
MTEXTBEGIN
1070
    73
1070
     1
1070
    44
1040
1.0
1070
    74
1070
     0
1000
MTEXTEND
1000
MTEXTBEGIN
1070
    73
1070
     1
1070
    44
1040
1.0
1070
    74
1070
     0
1000
MTEXTEND
  0
LEADER
  5
110F
330
1A
100
AcDbEntity
  8
250
  6
CONTINUOUS
100
AcDbLeader
  3
BIGT
 76
     2
 10
11.29580662
 20
2.33345238
 30
0.0
 10
15.5
 20
14.0
 30
0.0
1001
ACAD
1000
DSTYLE
1002
{
1070
     6
1000
OPEN
1070
   343
1005
594
1002
}
  0
MTEXT
  5
1110
330
1A
100
AcDbEntity
  8
250
  6
CONTINUOUS
 62
    40
100
AcDbMText
 10
37.85
 20
-1.36807536
 30
0.0
 40
2.8
 41
0.0
 71
     5
 72
     1
  1
\A1;{\H2.8;\U+2205}4
 11
0.0
 21
1.0
 31
0.0
1001
ACAD
1000
MTEXTBEGIN
1070
    73
1070
     1
1070
    44
1040
1.0
1070
    74
1070
     0
1000
MTEXTEND
1000
MTEXTBEGIN
1070
    73
1070
     1
1070
    44
1040
1.0
1070
    74
1070
     0
1000
MTEXTEND
1000
MTEXTBEGIN
1070
    73
1070
     1
1070
    44
1040
1.0
1070
    74
1070
     0
1000
MTEXTEND
1000
MTEXTBEGIN
1070
    73
1070
     1
1070
    44
1040
1.0
1070
    74
1070
     0
1000
MTEXTEND
1000
MTEXTBEGIN
1070
    73
1070
     1
1070
    44
1040
1.0
1070
    74
1070
     0
1000
MTEXTEND
1000
MTEXTBEGIN
1070
    73
1070
     1
1070
    44
1040
1.0
1070
    74
1070
     0
1000
MTEXTEND
  0
DIMENSION
  5
1115
330
1A
100
AcDbEntity
  8
250
  6
CONTINUOUS
100
AcDbDimension
  2
*D8
 10
30.0
 20
21.0
 30
0.0
 11
15.41599348
 21
21.0
 31
0.0
 70
   160
  3
BIGT
100
AcDbAlignedDimension
 13
0.0
 23
10.64125603
 33
0.0
 14
30.0
 24
7.0
 34
0.0
100
AcDbRotatedDimension
  0
DIMENSION
  5
1210
330
1A
100
AcDbEntity
  8
250
  6
CONTINUOUS
100
AcDbDimension
  2
*D9
 10
47.25
 20
8.0
 30
0.0
 11
44.85
 21
0.0
 31
0.0
 70
    32
  1
{\H2.8;\U+2205}<>
  3
BIGT
100
AcDbAlignedDimension
 13
29.0
 23
-8.0
 33
0.0
 14
29.0
 24
8.0
 34
0.0
 50
90.0
100
AcDbRotatedDimension
  0
LINE
  5
1216
330
1A
100
AcDbEntity
  8
250
  6
CONTINUOUS
100
AcDbLine
 10
40.25
 20
2.0
 30
0.0
 11
40.25
 21
-3.37393748
 31
0.0
  0
LINE
  5
1220
330
1A
100
AcDbEntity
  8
250
  6
CONTINUOUS
100
AcDbLine
 10
15.5
 20
14.0
 30
0.0
 11
29.42483822
 21
14.0
 31
0.0
1001
ITEMNAME
1000
LNSP2
  0
LINE
  5
1231
330
1A
100
AcDbEntity
  8
250
  6
CONTINUOUS
100
AcDbLine
 10
30.5
 20
2.0
 30
0.0
 11
41.25
 21
2.0
 31
0.0
  0
INSERT
  5
1234
330
1A
100
AcDbEntity
  8
250
  6
CONTINUOUS
100
AcDbBlockReference
  2
_OPEN
 10
40.25
 20
2.0
 30
0.0
 41
2.23
 42
2.23
 43
2.23
 50
90.0
  0
INSERT
  5
13AC
330
1A
100
AcDbEntity
  8
245
100
AcDbBlockReference
  2
1
 10
0.0
 20
0.0
 30
0.0
  0
VIEWPORT
  5
22
330
17
100
AcDbEntity
 67
     1
  8
0
100
AcDbViewport
 10
261.51769912
 20
148.5
 30
0.0
 40
523.03539823
 41
297.0
 68
     1
 69
     1
1001
ACAD
1000
MVIEW
1002
{
1070
    16
1010
0.0
1020
0.0
1030
0.0
1010
0.0
1020
0.0
1030
1.0
1040
0.0
1040
297.0
1040
261.51769912
1040
148.5
1040
50.0
1040
0.0
1040
0.0
1070
     0
1070
   100
1070
     1
1070
     1
1070
     0
1070
     0
1070
     0
1070
     0
1040
0.0
1040
0.0
1040
0.0
1040
1.0
1040
1.0
1040
10.0
1040
10.0
1070
     0
1002
{
1002
}
1002
}
  0
ENDSEC
  0
SECTION
  2
OBJECTS
  0
DICTIONARY
  5
C
330
0
100
AcDbDictionary
  3
ACAD_GROUP
350
D
  3
ACAD_LAYOUT
350
565
  3
ACAD_MLINESTYLE
350
E
  3
ACAD_PLOTSETTINGS
350
566
  3
ACAD_PLOTSTYLENAME
350
563
  3
ACDBHEADERROUNDTRIPXREC
350
13AE
  3
GRADE_DWG
350
540
  0
DICTIONARY
  5
E7F
330
1A
100
AcDbDictionary
280
     1
  3
ACAD_LAYOUTSELFREF
360
13D0
  0
DICTIONARY
  5
E7D
330
17
100
AcDbDictionary
280
     1
  3
ACAD_LAYOUTSELFREF
360
13CF
  0
DICTIONARY
  5
D
102
{ACAD_REACTORS
330
C
102
}
330
C
100
AcDbDictionary
  3
*A1
350
6C7
  3
*A2
350
6C8
  3
*A3
350
6D4
  3
*A4
350
6D5
  3
DREC-1
350
5FC
  3
DREC-2
350
654
  3
DREC-3
350
673
  0
DICTIONARY
  5
565
102
{ACAD_REACTORS
330
C
102
}
330
C
100
AcDbDictionary
  0
DICTIONARY
  5
E
102
{ACAD_REACTORS
330
C
102
}
330
C
100
AcDbDictionary
  3
STANDARD
350
13
  0
DICTIONARY
  5
566
102
{ACAD_REACTORS
330
C
102
}
330
C
100
AcDbDictionary
  3
A3_0_5倍_
350
758
  3
A3_1倍_
350
757
  3
A3_1倍__2000_
350
707
  3
A3_2倍_
350
759
  3
A4_0_5倍_
350
755
  3
A4_1倍_
350
754
  3
A4_1倍__2000_
350
708
  3
A4_2倍_
350
756
  0
ACDBDICTIONARYWDFLT
  5
563
102
{ACAD_REACTORS
330
C
102
}
330
C
100
AcDbDictionary
281
     1
  3
Normal
350
564
100
AcDbDictionaryWithDefault
340
564
  0
DICTIONARY
  5
13AE
102
{ACAD_REACTORS
330
C
102
}
330
C
100
AcDbDictionary
  3
CEPSNTYPE
350
13B8
  3
DIMSTYLEDATA
350
13BC
  3
FINGERPRINTGUID
350
13B9
  3
HYPERLINKBASE
350
13B1
  3
INSUNITS
350
13B7
  3
LAYOUTDICT
350
13B3
  3
LWETCUNION
350
13B6
  3
PLOTSETDICT
350
13B4
  3
PLOTSTYLNAMDICT
350
13B5
  3
PSVPSCALE
350
13BB
  3
PUCSBASE
350
13BF
  3
PUCSORGBACK
350
13C5
  3
PUCSORGBOTTOM
350
13C1
  3
PUCSORGFRONT
350
13C4
  3
PUCSORGLEFT
350
13C2
  3
PUCSORGRIGHT
350
13C3
  3
PUCSORGTOP
350
13C0
  3
PUCSORTHOREF
350
13BD
  3
PUCSORTHOVIEW
350
13BE
  3
STYLESHEET
350
13B2
  3
TSTACKALIGN
350
13AF
  3
TSTACKSIZE
350
13B0
  3
UCSBASE
350
13C8
  3
UCSORGBACK
350
13CE
  3
UCSORGBOTTOM
350
13CA
  3
UCSORGFRONT
350
13CD
  3
UCSORGLEFT
350
13CB
  3
UCSORGRIGHT
350
13CC
  3
UCSORGTOP
350
13C9
  3
UCSORTHOREF
350
13C6
  3
UCSORTHOVIEW
350
13C7
  3
VERSIONGUID
350
13BA
  0
DICTIONARY
  5
540
102
{ACAD_REACTORS
330
C
102
}
330
C
100
AcDbDictionary
  3
VERSION
350
560
  0
XRECORD
  5
13D0
102
{ACAD_REACTORS
330
E7F
102
}
330
E7F
100
AcDbXrecord
340
1A
  0
XRECORD
  5
13CF
102
{ACAD_REACTORS
330
E7D
102
}
330
E7D
100
AcDbXrecord
340
17
  0
GROUP
  5
6C7
102
{ACAD_REACTORS
330
D
102
}
330
D
100
AcDbGroup
300

 70
     0
 71
     1
1001
GRPNAME
1000
DMA00
  0
GROUP
  5
6C8
102
{ACAD_REACTORS
330
D
102
}
330
D
100
AcDbGroup
300

 70
     0
 71
     1
1001
GRPNAME
1000
DMA00
  0
GROUP
  5
6D4
102
{ACAD_REACTORS
330
D
102
}
330
D
100
AcDbGroup
300

 70
     0
 71
     1
1001
GRPNAME
1000
DMA00
  0
GROUP
  5
6D5
102
{ACAD_REACTORS
330
D
102
}
330
D
100
AcDbGroup
300

 70
     0
 71
     1
1001
GRPNAME
1000
DMA00
  0
GROUP
  5
5FC
102
{ACAD_REACTORS
330
D
102
}
330
D
100
AcDbGroup
300

 70
     0
 71
     1
1001
GRPNAME
1000
DREC-
1001
GPARA
1000
xsiz
1000
44.182
1000
ysiz
1000
40.677
1000
angl
1000
0
1000
ctyp
1000
0
1000
csiz
1000
5
1000
lfnt
1000
cont
1000
hcnt
1000
hoff
1000
vcnt
1000
voff
1000
opnt
1000
4
1000
dxpt
1000
0
1000
dypt
1000
0
  0
GROUP
  5
654
102
{ACAD_REACTORS
330
D
102
}
330
D
100
AcDbGroup
300

 70
     0
 71
     1
1001
GRPNAME
1000
DREC-
1001
GPARA
1000
xsiz
1000
54.592
1000
ysiz
1000
53.036
1000
angl
1000
0
1000
ctyp
1000
0
1000
csiz
1000
5
1000
lfnt
1000
cont
1000
hcnt
1000
hoff
1000
vcnt
1000
voff
1000
opnt
1000
4
1000
dxpt
1000
0
1000
dypt
1000
0
  0
GROUP
  5
673
102
{ACAD_REACTORS
330
D
102
}
330
D
100
AcDbGroup
300

 70
     0
 71
     1
1001
GRPNAME
1000
DREC-
1001
GPARA
1000
xsiz
1000
30.363
1000
ysiz
1000
36.175
1000
angl
1000
0
1000
ctyp
1000
0
1000
csiz
1000
5
1000
lfnt
1000
cont
1000
hcnt
1000
hoff
1000
vcnt
1000
voff
1000
opnt
1000
4
1000
dxpt
1000
0
1000
dypt
1000
0
  0
MLINESTYLE
  5
13
102
{ACAD_REACTORS
330
E
102
}
330
E
100
AcDbMlineStyle
  2
STANDARD
 70
     0
  3

 62
     0
 51
90.0
 52
90.0
 71
     2
 49
0.5
 62
   256
  6
BYLAYER
 49
-0.5
 62
   256
  6
BYLAYER
  0
PLOTSETTINGS
  5
758
102
{ACAD_REACTORS
330
566
102
}
330
566
100
AcDbPlotSettings
  1
A3(0.5倍)
  2
\\AWTECPC05\HP DeskJet 1120C
  4
A3
  6

 40
5.95841646
 41
13.49375153
 42
6.04309082
 43
3.67242432
 44
296.92599487
 45
419.94665527
 46
89.96
 47
127.14
 48
0.0
 49
0.0
140
0.0
141
0.0
142
1.0
143
2.0
 70
  1716
 72
     1
 73
     1
 74
     2
  7
big.ctb
 75
    17
147
0.5
148
0.0
149
0.0
  0
PLOTSETTINGS
  5
757
102
{ACAD_REACTORS
330
566
102
}
330
566
100
AcDbPlotSettings
  1
A3(1倍)
  2
\\AWTECPC05\HP DeskJet 1120C
  4
A3
  6

 40
5.95841646
 41
13.49375153
 42
6.04309082
 43
3.67242432
 44
296.92599487
 45
419.94665527
 46
37.46
 47
52.89
 48
0.0
 49
0.0
140
0.0
141
0.0
142
1.0
143
1.0
 70
  1716
 72
     1
 73
     1
 74
     2
  7
big.ctb
 75
    16
147
1.0
148
0.0
149
0.0
  0
PLOTSETTINGS
  5
707
102
{ACAD_REACTORS
330
566
102
}
330
566
100
AcDbPlotSettings
  1
A3(1倍)(2000)
  2
SII LS-1300 (D-SCAN)
  4
User258
  6

 40
3.17499995
 41
3.17499995
 42
3.17498779
 43
3.17498779
 44
419.98898315
 45
296.98950195
 46
58.32
 47
40.32
 48
0.0
 49
0.0
140
0.0
141
0.0
142
1.0
143
1.0
 70
  1716
 72
     1
 73
     0
 74
     2
  7
big.ctb
 75
    16
147
1.0
148
0.0
149
0.0
  0
PLOTSETTINGS
  5
759
102
{ACAD_REACTORS
330
566
102
}
330
566
100
AcDbPlotSettings
  1
A3(2倍)
  2
\\AWTECPC05\HP DeskJet 1120C
  4
A3
  6

 40
5.95841646
 41
13.49375153
 42
6.04309082
 43
3.67242432
 44
296.92599487
 45
419.94665527
 46
-67.54
 47
-95.61
 48
0.0
 49
0.0
140
0.0
141
0.0
142
1.0
143
0.5
 70
  1716
 72
     1
 73
     1
 74
     2
  7
big.ctb
 75
    27
147
2.0
148
0.0
149
0.0
  0
PLOTSETTINGS
  5
755
102
{ACAD_REACTORS
330
566
102
}
330
566
100
AcDbPlotSettings
  1
A4(0.5倍)
  2
\\AWTECPC05\HP DeskJet 1120C
  4
A4
  6

 40
4.18041658
 41
13.49374962
 42
4.18040466
 43
3.92642212
 44
209.97332764
 45
296.92599487
 46
48.31
 47
65.5
 48
0.0
 49
0.0
140
0.0
141
0.0
142
1.0
143
2.0
 70
  1716
 72
     1
 73
     1
 74
     2
  7
big.ctb
 75
    17
147
0.5
148
0.0
149
0.0
  0
PLOTSETTINGS
  5
754
102
{ACAD_REACTORS
330
566
102
}
330
566
100
AcDbPlotSettings
  1
A4(1倍)
  2
\\AWTECPC05\HP DeskJet 1120C
  4
A4
  6

 40
4.18041658
 41
13.49374962
 42
4.18040466
 43
3.92642212
 44
209.97332764
 45
296.92599487
 46
-4.19
 47
-8.75
 48
0.0
 49
0.0
140
0.0
141
0.0
142
1.0
143
1.0
 70
  1716
 72
     1
 73
     1
 74
     2
  7
big.ctb
 75
    16
147
1.0
148
0.0
149
0.0
  0
PLOTSETTINGS
  5
708
102
{ACAD_REACTORS
330
566
102
}
330
566
100
AcDbPlotSettings
  1
A4(1倍)(2000)
  2
SII LS-1300 (D-SCAN)
  4
User259
  6

 40
3.17499995
 41
3.17499995
 42
3.17498779
 43
3.17500305
 44
296.98950195
 45
209.99449158
 46
-3.18
 47
-3.18
 48
0.0
 49
0.0
140
0.0
141
0.0
142
1.0
143
1.0
 70
  1716
 72
     1
 73
     0
 74
     2
  7
big.ctb
 75
    16
147
1.0
148
0.0
149
0.0
  0
PLOTSETTINGS
  5
756
102
{ACAD_REACTORS
330
566
102
}
330
566
100
AcDbPlotSettings
  1
A4(2倍)
  2
\\AWTECPC05\HP DeskJet 1120C
  4
A4
  6

 40
4.18041658
 41
13.49374962
 42
4.18040466
 43
3.92642212
 44
209.97332764
 45
296.92599487
 46
-109.19
 47
-157.25
 48
0.0
 49
0.0
140
0.0
141
0.0
142
1.0
143
0.5
 70
  1716
 72
     1
 73
     1
 74
     2
  7
big.ctb
 75
    27
147
2.0
148
0.0
149
0.0
  0
ACDBPLACEHOLDER
  5
564
102
{ACAD_REACTORS
330
563
102
}
330
563
100
AcDbPlaceHolder
280
     0
  0
XRECORD
  5
13B8
102
{ACAD_REACTORS
330
13AE
102
}
330
13AE
100
AcDbXrecord
 90
        0
  0
XRECORD
  5
13BC
102
{ACAD_REACTORS
330
13AE
102
}
330
13AE
100
AcDbXrecord
1000
DSTYLE
1002
{
1070
    79
 70
     2
1070
   179
 70
     3
1070
   341
340
594
1070
   343
340
594
1070
   344
340
594
1070
   371
 70
    -1
1070
   372
 70
    -1
1002
}
  0
XRECORD
  5
13B9
102
{ACAD_REACTORS
330
13AE
102
}
330
13AE
100
AcDbXrecord
  1
{51294030-9CB4-11D3-8E18-00A0C925D94D}
  0
XRECORD
  5
13B1
102
{ACAD_REACTORS
330
13AE
102
}
330
13AE
100
AcDbXrecord
  1

  0
XRECORD
  5
13B7
102
{ACAD_REACTORS
330
13AE
102
}
330
13AE
100
AcDbXrecord
 90
        0
  0
XRECORD
  5
13B3
102
{ACAD_REACTORS
330
13AE
102
}
330
13AE
100
AcDbXrecord
340
565
  0
XRECORD
  5
13B6
102
{ACAD_REACTORS
330
13AE
102
}
330
13AE
100
AcDbXrecord
 90
    10781
  0
XRECORD
  5
13B4
102
{ACAD_REACTORS
330
13AE
102
}
330
13AE
100
AcDbXrecord
340
566
  0
XRECORD
  5
13B5
102
{ACAD_REACTORS
330
13AE
102
}
330
13AE
100
AcDbXrecord
340
563
  0
XRECORD
  5
13BB
102
{ACAD_REACTORS
330
13AE
102
}
330
13AE
100
AcDbXrecord
 40
0.0
  0
XRECORD
  5
13BF
102
{ACAD_REACTORS
330
13AE
102
}
330
13AE
100
AcDbXrecord
340
0
  0
XRECORD
  5
13C5
102
{ACAD_REACTORS
330
13AE
102
}
330
13AE
100
AcDbXrecord
 10
0.0
 20
0.0
 30
0.0
  0
XRECORD
  5
13C1
102
{ACAD_REACTORS
330
13AE
102
}
330
13AE
100
AcDbXrecord
 10
0.0
 20
0.0
 30
0.0
  0
XRECORD
  5
13C4
102
{ACAD_REACTORS
330
13AE
102
}
330
13AE
100
AcDbXrecord
 10
0.0
 20
0.0
 30
0.0
  0
XRECORD
  5
13C2
102
{ACAD_REACTORS
330
13AE
102
}
330
13AE
100
AcDbXrecord
 10
0.0
 20
0.0
 30
0.0
  0
XRECORD
  5
13C3
102
{ACAD_REACTORS
330
13AE
102
}
330
13AE
100
AcDbXrecord
 10
0.0
 20
0.0
 30
0.0
  0
XRECORD
  5
13C0
102
{ACAD_REACTORS
330
13AE
102
}
330
13AE
100
AcDbXrecord
 10
0.0
 20
0.0
 30
0.0
  0
XRECORD
  5
13BD
102
{ACAD_REACTORS
330
13AE
102
}
330
13AE
100
AcDbXrecord
340
0
  0
XRECORD
  5
13BE
102
{ACAD_REACTORS
330
13AE
102
}
330
13AE
100
AcDbXrecord
 70
     0
  0
XRECORD
  5
13B2
102
{ACAD_REACTORS
330
13AE
102
}
330
13AE
100
AcDbXrecord
  1
big.ctb
  0
XRECORD
  5
13AF
102
{ACAD_REACTORS
330
13AE
102
}
330
13AE
100
AcDbXrecord
 90
        1
  0
XRECORD
  5
13B0
102
{ACAD_REACTORS
330
13AE
102
}
330
13AE
100
AcDbXrecord
 90
       70
  0
XRECORD
  5
13C8
102
{ACAD_REACTORS
330
13AE
102
}
330
13AE
100
AcDbXrecord
340
0
  0
XRECORD
  5
13CE
102
{ACAD_REACTORS
330
13AE
102
}
330
13AE
100
AcDbXrecord
 10
0.0
 20
0.0
 30
0.0
  0
XRECORD
  5
13CA
102
{ACAD_REACTORS
330
13AE
102
}
330
13AE
100
AcDbXrecord
 10
0.0
 20
0.0
 30
0.0
  0
XRECORD
  5
13CD
102
{ACAD_REACTORS
330
13AE
102
}
330
13AE
100
AcDbXrecord
 10
0.0
 20
0.0
 30
0.0
  0
XRECORD
  5
13CB
102
{ACAD_REACTORS
330
13AE
102
}
330
13AE
100
AcDbXrecord
 10
0.0
 20
0.0
 30
0.0
  0
XRECORD
  5
13CC
102
{ACAD_REACTORS
330
13AE
102
}
330
13AE
100
AcDbXrecord
 10
0.0
 20
0.0
 30
0.0
  0
XRECORD
  5
13C9
102
{ACAD_REACTORS
330
13AE
102
}
330
13AE
100
AcDbXrecord
 10
0.0
 20
0.0
 30
0.0
  0
XRECORD
  5
13C6
102
{ACAD_REACTORS
330
13AE
102
}
330
13AE
100
AcDbXrecord
340
0
  0
XRECORD
  5
13C7
102
{ACAD_REACTORS
330
13AE
102
}
330
13AE
100
AcDbXrecord
 70
     0
  0
XRECORD
  5
13BA
102
{ACAD_REACTORS
330
13AE
102
}
330
13AE
100
AcDbXrecord
  1
{83F35085-32AB-4040-A8A7-320242CE938E}
  0
XRECORD
  5
560
102
{ACAD_REACTORS
330
540
102
}
330
540
100
AcDbXrecord
  1
2.0.0
  0
ENDSEC
  0
EOF
