  0
SECTION
  2
HEADER
  9
$ACADVER
  1
AC1014
  9
$ACADMAINTVER
 70
     9
  9
$DWGCODEPAGE
  3
ANSI_932
  9
$INSBASE
 10
0.0
 20
0.0
 30
0.0
  9
$EXTMIN
 10
-48.52262815
 20
-11.06140089
 30
-0.00152582
  9
$EXTMAX
 10
168.25891167
 20
40.01586943
 30
0.00000003
  9
$LIMMIN
 10
0.0
 20
0.0
  9
$LIMMAX
 10
420.0
 20
297.0
  9
$ORTHOMODE
 70
     1
  9
$REGENMODE
 70
     1
  9
$FILLMODE
 70
     1
  9
$QTEXTMODE
 70
     0
  9
$MIRRTEXT
 70
     1
  9
$DRAGMODE
 70
     2
  9
$LTSCALE
 40
10.0
  9
$OSMODE
 70
   549
  9
$ATTMODE
 70
     1
  9
$TEXTSIZE
 40
3.0
  9
$TRACEWID
 40
1.0
  9
$TEXTSTYLE
  7
YOKO
  9
$CLAYER
  8
245
  9
$CELTYPE
  6
BYLAYER
  9
$CECOLOR
 62
   256
  9
$CELTSCALE
 40
1.0
  9
$DELOBJ
 70
     1
  9
$DISPSILH
 70
     0
  9
$DIMSCALE
 40
1.0
  9
$DIMASZ
 40
2.23
  9
$DIMEXO
 40
0.5
  9
$DIMDLI
 40
2.5
  9
$DIMRND
 40
0.0
  9
$DIMDLE
 40
0.0
  9
$DIMEXE
 40
1.0
  9
$DIMTP
 40
0.0
  9
$DIMTM
 40
0.0
  9
$DIMTXT
 40
2.8
  9
$DIMCEN
 40
0.0
  9
$DIMTSZ
 40
0.0
  9
$DIMTOL
 70
     0
  9
$DIMLIM
 70
     0
  9
$DIMTIH
 70
     0
  9
$DIMTOH
 70
     0
  9
$DIMSE1
 70
     0
  9
$DIMSE2
 70
     0
  9
$DIMTAD
 70
     3
  9
$DIMZIN
 70
     8
  9
$DIMBLK
  1

  9
$DIMASO
 70
     1
  9
$DIMSHO
 70
     1
  9
$DIMPOST
  1

  9
$DIMAPOST
  1

  9
$DIMALT
 70
     0
  9
$DIMALTD
 70
     2
  9
$DIMALTF
 40
25.4
  9
$DIMLFAC
 40
1.0
  9
$DIMTOFL
 70
     1
  9
$DIMTVP
 40
0.0
  9
$DIMTIX
 70
     1
  9
$DIMSOXD
 70
     0
  9
$DIMSAH
 70
     1
  9
$DIMBLK1
  1
OPEN
  9
$DIMBLK2
  1
OPEN
  9
$DIMSTYLE
  2
BIGT
  9
$DIMCLRD
 70
   256
  9
$DIMCLRE
 70
   256
  9
$DIMCLRT
 70
    40
  9
$DIMTFAC
 40
1.0
  9
$DIMGAP
 40
1.0
  9
$DIMJUST
 70
     0
  9
$DIMSD1
 70
     0
  9
$DIMSD2
 70
     0
  9
$DIMTOLJ
 70
     1
  9
$DIMTZIN
 70
     8
  9
$DIMALTZ
 70
     0
  9
$DIMALTTZ
 70
     0
  9
$DIMFIT
 70
     2
  9
$DIMUPT
 70
     0
  9
$DIMUNIT
 70
     2
  9
$DIMDEC
 70
     3
  9
$DIMTDEC
 70
     3
  9
$DIMALTU
 70
     2
  9
$DIMALTTD
 70
     2
  9
$DIMTXSTY
  7
STANDARD
  9
$DIMAUNIT
 70
     0
  9
$LUNITS
 70
     2
  9
$LUPREC
 70
     3
  9
$SKETCHINC
 40
1.0
  9
$FILLETRAD
 40
0.0
  9
$AUNITS
 70
     0
  9
$AUPREC
 70
     3
  9
$MENU
  1
.
  9
$ELEVATION
 40
0.0
  9
$PELEVATION
 40
0.0
  9
$THICKNESS
 40
0.0
  9
$LIMCHECK
 70
     0
  9
$BLIPMODE
 70
     0
  9
$CHAMFERA
 40
10.0
  9
$CHAMFERB
 40
10.0
  9
$CHAMFERC
 40
0.0
  9
$CHAMFERD
 40
0.0
  9
$SKPOLY
 70
     0
  9
$TDCREATE
 40
2455316.629750786
  9
$TDUPDATE
 40
2455316.630574896
  9
$TDINDWG
 40
0.0008244792
  9
$TDUSRTIMER
 40
0.0008244792
  9
$USRTIMER
 70
     1
  9
$ANGBASE
 50
0.0
  9
$ANGDIR
 70
     0
  9
$PDMODE
 70
     1
  9
$PDSIZE
 40
-5.0
  9
$PLINEWID
 40
0.0
  9
$COORDS
 70
     2
  9
$SPLFRAME
 70
     0
  9
$SPLINETYPE
 70
     6
  9
$SPLINESEGS
 70
     8
  9
$ATTDIA
 70
     0
  9
$ATTREQ
 70
     1
  9
$HANDLING
 70
-16383
  9
$HANDSEED
  5
BA7
  9
$SURFTAB1
 70
     6
  9
$SURFTAB2
 70
     6
  9
$SURFTYPE
 70
     6
  9
$SURFU
 70
     6
  9
$SURFV
 70
     6
  9
$UCSNAME
  2

  9
$UCSORG
 10
0.0
 20
0.0
 30
0.0
  9
$UCSXDIR
 10
1.0
 20
0.0
 30
0.0
  9
$UCSYDIR
 10
0.0
 20
1.0
 30
0.0
  9
$PUCSNAME
  2

  9
$PUCSORG
 10
0.0
 20
0.0
 30
0.0
  9
$PUCSXDIR
 10
1.0
 20
0.0
 30
0.0
  9
$PUCSYDIR
 10
0.0
 20
1.0
 30
0.0
  9
$USERI1
 70
     1
  9
$USERI2
 70
     0
  9
$USERI3
 70
     0
  9
$USERI4
 70
     0
  9
$USERI5
 70
     0
  9
$USERR1
 40
0.0
  9
$USERR2
 40
0.0
  9
$USERR3
 40
0.0
  9
$USERR4
 40
0.0
  9
$USERR5
 40
0.0
  9
$WORLDVIEW
 70
     1
  9
$SHADEDGE
 70
     3
  9
$SHADEDIF
 70
    70
  9
$TILEMODE
 70
     1
  9
$MAXACTVP
 70
    16
  9
$PINSBASE
 10
0.0
 20
0.0
 30
0.0
  9
$PLIMCHECK
 70
     0
  9
$PEXTMIN
 10
1.00000000E+20
 20
1.00000000E+20
 30
1.00000000E+20
  9
$PEXTMAX
 10
-1.00000000E+20
 20
-1.00000000E+20
 30
-1.00000000E+20
  9
$PLIMMIN
 10
0.0
 20
0.0
  9
$PLIMMAX
 10
420.0
 20
297.0
  9
$UNITMODE
 70
     0
  9
$VISRETAIN
 70
     0
  9
$PLINEGEN
 70
     0
  9
$PSLTSCALE
 70
     1
  9
$TREEDEPTH
 70
  3020
  9
$PICKSTYLE
 70
     0
  9
$CMLSTYLE
  2
STANDARD
  9
$CMLJUST
 70
     0
  9
$CMLSCALE
 40
1.0
  9
$PROXYGRAPHICS
 70
     1
  9
$MEASUREMENT
 70
     1
  0
ENDSEC
  0
SECTION
  2
CLASSES
  0
CLASS
  1
XRECORD
  2
AcDbXrecord
  3
AutoCAD 2000
 90
        0
280
     0
281
     0
  0
CLASS
  1
ACDBDICTIONARYWDFLT
  2
AcDbDictionaryWithDefault
  3
AutoCAD 2000
 90
        0
280
     0
281
     0
  0
CLASS
  1
ACDBPLACEHOLDER
  2
AcDbPlaceHolder
  3
AutoCAD 2000
 90
        0
280
     0
281
     0
  0
CLASS
  1
LAYOUT
  2
AcDbLayout
  3
AutoCAD 2000
 90
        0
280
     0
281
     0
  0
CLASS
  1
PLOTSETTINGS
  2
AcDbPlotSettings
  3
AutoCAD 2000
 90
        0
280
     0
281
     0
  0
CLASS
  1
LONG_TRANSACTION
  2
AcDbLongTransaction
  3
AutoCAD 2000
 90
        0
280
     0
281
     0
  0
CLASS
  1
LWPOLYLINE
  2
AcDbPolyline
  3
AutoCAD 2000
 90
        0
280
     0
281
     1
  0
CLASS
  1
HATCH
  2
AcDbHatch
  3
AutoCAD 2000
 90
        0
280
     0
281
     1
  0
CLASS
  1
XRECORD
  2
AcDbXrecord
  3
AutoCAD 2000
 90
        0
280
     0
281
     0
  0
ENDSEC
  0
SECTION
  2
TABLES
  0
TABLE
  2
VPORT
  5
8
330
0
100
AcDbSymbolTable
 70
     3
  0
VPORT
  5
B80
330
8
100
AcDbSymbolTableRecord
100
AcDbViewportTableRecord
  2
*ACTIVE
 70
     0
 10
0.0
 20
0.0
 11
1.0
 21
1.0
 12
59.86814176
 22
14.47723427
 13
0.0
 23
0.0
 14
7.0
 24
7.0
 15
7.0
 25
7.0
 16
0.0
 26
0.0
 36
1.0
 17
0.0
 27
0.0
 37
0.0
 40
152.20707522
 41
1.43184713
 42
50.0
 43
0.0
 44
0.0
 50
0.0
 51
0.0
 71
     0
 72
  2000
 73
     1
 74
     0
 75
     0
 76
     0
 77
     0
 78
     0
  0
ENDTAB
  0
TABLE
  2
LTYPE
  5
5
330
0
100
AcDbSymbolTable
 70
    39
  0
LTYPE
  5
14
330
5
100
AcDbSymbolTableRecord
100
AcDbLinetypeTableRecord
  2
BYBLOCK
 70
     0
  3

 72
    65
 73
     0
 40
0.0
  0
LTYPE
  5
15
330
5
100
AcDbSymbolTableRecord
100
AcDbLinetypeTableRecord
  2
BYLAYER
 70
     0
  3

 72
    65
 73
     0
 40
0.0
  0
LTYPE
  5
16
330
5
100
AcDbSymbolTableRecord
100
AcDbLinetypeTableRecord
  2
CONTINUOUS
 70
     0
  3
Solid line
 72
    65
 73
     0
 40
0.0
  0
LTYPE
  5
258
330
5
100
AcDbSymbolTableRecord
100
AcDbLinetypeTableRecord
  2
CENTER2
 70
     0
  3
___ _ ___ _ ___ _ ___ _ ___ _ ___ _ ___ _ ___ _
 72
    65
 73
     4
 40
1.125
 49
0.75
 74
     0
 49
-0.125
 74
     0
 49
0.125
 74
     0
 49
-0.125
 74
     0
  0
LTYPE
  5
25C
330
5
100
AcDbSymbolTableRecord
100
AcDbLinetypeTableRecord
  2
HIDDEN2
 70
     0
  3
_ _ _ _ _ _ _ _ _ _ _ _ _ _ _ _ _ _ _ _ _ _ _ _
 72
    65
 73
     2
 40
0.1875
 49
0.125
 74
     0
 49
-0.0625
 74
     0
  0
ENDTAB
  0
TABLE
  2
LAYER
  5
2
330
0
100
AcDbSymbolTable
 70
    33
  0
LAYER
  5
F
330
2
100
AcDbSymbolTableRecord
100
AcDbLayerTableRecord
  2
0
 70
     0
 62
     7
  6
CONTINUOUS
  0
LAYER
  5
1AA
330
2
100
AcDbSymbolTableRecord
100
AcDbLayerTableRecord
  2
240
 70
     0
 62
     4
  6
CONTINUOUS
  0
LAYER
  5
1AB
330
2
100
AcDbSymbolTableRecord
100
AcDbLayerTableRecord
  2
241
 70
     0
 62
   211
  6
CONTINUOUS
  0
LAYER
  5
1AD
330
2
100
AcDbSymbolTableRecord
100
AcDbLayerTableRecord
  2
243
 70
     0
 62
   211
  6
HIDDEN2
  0
LAYER
  5
1AE
330
2
100
AcDbSymbolTableRecord
100
AcDbLayerTableRecord
  2
244
 70
     0
 62
     3
  6
HIDDEN2
  0
LAYER
  5
1AF
330
2
100
AcDbSymbolTableRecord
100
AcDbLayerTableRecord
  2
245
 70
     0
 62
     2
  6
CENTER2
  0
LAYER
  5
21E
330
2
100
AcDbSymbolTableRecord
100
AcDbLayerTableRecord
  2
250
 70
     0
 62
     3
  6
CONTINUOUS
  0
LAYER
  5
21F
330
2
100
AcDbSymbolTableRecord
100
AcDbLayerTableRecord
  2
251
 70
     0
 62
    40
  6
CONTINUOUS
  0
LAYER
  5
5C4
330
2
100
AcDbSymbolTableRecord
100
AcDbLayerTableRecord
  2
DEFPOINTS
 70
     0
 62
     7
  6
CONTINUOUS
  0
LAYER
  5
89B
330
2
100
AcDbSymbolTableRecord
100
AcDbLayerTableRecord
  2
AM_7
 70
     0
 62
     2
  6
CENTER2
  0
ENDTAB
  0
TABLE
  2
STYLE
  5
3
330
0
100
AcDbSymbolTable
 70
     3
  0
STYLE
  5
10
330
3
100
AcDbSymbolTableRecord
100
AcDbTextStyleTableRecord
  2
STANDARD
 70
     0
 40
0.0
 41
1.0
 50
0.0
 71
     0
 42
3.0
  3
romans.shx
  4
BIGFONT.SHX
  0
STYLE
  5
339
330
3
100
AcDbSymbolTableRecord
100
AcDbTextStyleTableRecord
  2
YOKO
 70
     0
 40
0.0
 41
1.0
 50
0.0
 71
     0
 42
3.0
  3
romans.shx
  4
extfont.shx
  0
ENDTAB
  0
TABLE
  2
VIEW
  5
6
330
0
100
AcDbSymbolTable
 70
     0
  0
ENDTAB
  0
TABLE
  2
UCS
  5
7
330
0
100
AcDbSymbolTable
 70
     0
  0
ENDTAB
  0
TABLE
  2
APPID
  5
9
330
0
100
AcDbSymbolTable
 70
    15
  0
APPID
  5
11
330
9
100
AcDbSymbolTableRecord
100
AcDbRegAppTableRecord
  2
ACAD
 70
     0
  0
APPID
  5
1B1
330
9
100
AcDbSymbolTableRecord
100
AcDbRegAppTableRecord
  2
GLOBAL
 70
     0
  0
APPID
  5
2A4
330
9
100
AcDbSymbolTableRecord
100
AcDbRegAppTableRecord
  2
DETAIL
 70
     0
  0
APPID
  5
5FD
330
9
100
AcDbSymbolTableRecord
100
AcDbRegAppTableRecord
  2
GRPNAME
 70
     0
  0
APPID
  5
5FE
330
9
100
AcDbSymbolTableRecord
100
AcDbRegAppTableRecord
  2
GPARA
 70
     0
  0
APPID
  5
6C4
330
9
100
AcDbSymbolTableRecord
100
AcDbRegAppTableRecord
  2
DCO15
 70
     0
  0
APPID
  5
6C5
330
9
100
AcDbSymbolTableRecord
100
AcDbRegAppTableRecord
  2
ITEMNAME
 70
     0
  0
APPID
  5
6C6
330
9
100
AcDbSymbolTableRecord
100
AcDbRegAppTableRecord
  2
GRADE_0
 70
     0
  0
APPID
  5
89C
330
9
100
AcDbSymbolTableRecord
100
AcDbRegAppTableRecord
  2
GENIUS_GENODEF_13
 70
     0
  0
APPID
  5
89D
330
9
100
AcDbSymbolTableRecord
100
AcDbRegAppTableRecord
  2
GENIUS_GENOREF_13
 70
     0
  0
APPID
  5
89E
330
9
100
AcDbSymbolTableRecord
100
AcDbRegAppTableRecord
  2
GENIUS_GENOBJ-N-FIL_13
 70
     0
  0
APPID
  5
89F
330
9
100
AcDbSymbolTableRecord
100
AcDbRegAppTableRecord
  2
HATCH_TYPE
 70
     0
  0
APPID
  5
8A0
330
9
100
AcDbSymbolTableRecord
100
AcDbRegAppTableRecord
  2
HATCH_DISPLAY
 70
     0
  0
APPID
  5
8A1
330
9
100
AcDbSymbolTableRecord
100
AcDbRegAppTableRecord
  2
HATCH_DISTANCE
 70
     0
  0
APPID
  5
BA6
330
9
100
AcDbSymbolTableRecord
100
AcDbRegAppTableRecord
  2
CONTENTBLOCKICON
 70
     0
  0
ENDTAB
  0
TABLE
  2
DIMSTYLE
  5
A
330
0
100
AcDbSymbolTable
 70
    11
  0
DIMSTYLE
105
725
102
{ACAD_REACTORS
330
8B2
330
8B4
102
}
330
A
100
AcDbSymbolTableRecord
100
AcDbDimStyleTableRecord
  2
BIGT
 70
     0
  3

  4

  5

  6
OPEN
  7
OPEN
 40
1.0
 41
2.23
 42
0.5
 43
2.5
 44
1.0
 45
0.0
 46
0.0
 47
0.0
 48
0.0
140
2.8
141
0.0
142
0.0
143
25.4
144
1.0
145
0.0
146
1.0
147
1.0
 71
     0
 72
     0
 73
     0
 74
     0
 75
     0
 76
     0
 77
     3
 78
     8
170
     0
171
     2
172
     1
173
     1
174
     1
175
     0
176
   256
177
   256
178
    40
270
     2
271
     3
272
     3
273
     2
274
     2
340
10
275
     0
280
     0
281
     0
282
     0
283
     1
284
     8
285
     0
286
     0
287
     2
288
     0
  0
ENDTAB
  0
TABLE
  2
BLOCK_RECORD
  5
1
330
0
100
AcDbSymbolTable
 70
    18
  0
BLOCK_RECORD
  5
1A
102
{ACAD_XDICTIONARY
360
BA4
102
}
330
1
100
AcDbSymbolTableRecord
100
AcDbBlockTableRecord
  2
*MODEL_SPACE
  0
BLOCK_RECORD
  5
17
102
{ACAD_XDICTIONARY
360
BA2
102
}
330
1
100
AcDbSymbolTableRecord
100
AcDbBlockTableRecord
  2
*PAPER_SPACE
  0
BLOCK_RECORD
  5
594
330
1
100
AcDbSymbolTableRecord
100
AcDbBlockTableRecord
  2
_OPEN
  0
BLOCK_RECORD
  5
6E3
330
1
100
AcDbSymbolTableRecord
100
AcDbBlockTableRecord
  2
矢印なし
  0
BLOCK_RECORD
  5
762
330
1
100
AcDbSymbolTableRecord
100
AcDbBlockTableRecord
  2
1
1001
CONTENTBLOCKICON
1071
        0
1004
2800000020000000200000000100080000000000000400000000000000000000000000000000000000000000000080000080000000808000800000008000800080800000C0C0C000C0DCC000F0CAA6000020400000206000002080000020A0000020C0000020E00000400000004020000040400000406000004080000040A0
1004
000040C0000040E00000600000006020000060400000606000006080000060A0000060C0000060E00000800000008020000080400000806000008080000080A0000080C0000080E00000A0000000A0200000A0400000A0600000A0800000A0A00000A0C00000A0E00000C0000000C0200000C0400000C0600000C0800000C0
1004
A00000C0C00000C0E00000E0000000E0200000E0400000E0600000E0800000E0A00000E0C00000E0E00040000000400020004000400040006000400080004000A0004000C0004000E00040200000402020004020400040206000402080004020A0004020C0004020E000404000004040200040404000404060004040800040
1004
40A0004040C0004040E00040600000406020004060400040606000406080004060A0004060C0004060E00040800000408020004080400040806000408080004080A0004080C0004080E00040A0000040A0200040A0400040A0600040A0800040A0A00040A0C00040A0E00040C0000040C0200040C0400040C0600040C08000
1004
40C0A00040C0C00040C0E00040E0000040E0200040E0400040E0600040E0800040E0A00040E0C00040E0E00080000000800020008000400080006000800080008000A0008000C0008000E00080200000802020008020400080206000802080008020A0008020C0008020E00080400000804020008040400080406000804080
1004
008040A0008040C0008040E00080600000806020008060400080606000806080008060A0008060C0008060E00080800000808020008080400080806000808080008080A0008080C0008080E00080A0000080A0200080A0400080A0600080A0800080A0A00080A0C00080A0E00080C0000080C0200080C0400080C0600080C0
1004
800080C0A00080C0C00080C0E00080E0000080E0200080E0400080E0600080E0800080E0A00080E0C00080E0E000C0000000C0002000C0004000C0006000C0008000C000A000C000C000C000E000C0200000C0202000C0204000C0206000C0208000C020A000C020C000C020E000C0400000C0402000C0404000C0406000C0
1004
408000C040A000C040C000C040E000C0600000C0602000C0604000C0606000C0608000C060A000C060C000C060E000C0800000C0802000C0804000C0806000C0808000C080A000C080C000C080E000C0A00000C0A02000C0A04000C0A06000C0A08000C0A0A000C0A0C000C0A0E000C0C00000C0C02000C0C04000C0C06000
1004
C0C08000C0C0A000F0FBFF00A4A0A000808080000000FF0000FF000000FFFF00FF000000FF00FF00FFFF0000FFFFFF0000000000000000000000000000000000000000000000000000000000000000000000000000000000000000000000000000000000000000000000000000000000000000000000000000000000000000
1004
00000000000000000000000000000000000000000000000000000000000000000000000000000000000000000000000000000000000000000000000000000000000000000000000000000000000000000000000000000000000000000000000000000000000000000000000000000000000000000000000000000000000000
1004
00000000000000000000000000000000000000000000000000000000000000000000000000000000000000000000000000000000000000000000000000000000000000000000000000000000000000000000000000000000000000000000000000000000000000000000000000000000000000000000000000000000000000
1004
000000000000000000000000000000000000000000000000000000000000000000000000000000000000000000000000000000000000000000000000000000000000000000000000000000000000000000000000000000000000000000000000000000000000000000000000000000000000000000FEFBFEFEFEFEFEFEFEFE
1004
FEFEFEFEFEFEFEFEFEFEFEFEFEFEFEFEFEFE00000000FEFEFEFEFEE7E7000000000000000000000000000000000000FE00FE000000FBFEFEFEFEFEE7E7FBFBFBFBFBFFFFFFFFFFFFFFFBFBFBFBFBE7E7E7FEFB000000FEFBFEFEFEFEFEFEFEFEFEFEFEFEFEFEFEFEFEFEFEFEFEFEFEFEFEFE00000000000000000000000000
1004
00000000000000000000000000000000000000000000000000000000000000000000000000000000000000000000000000000000000000000000000000000000000000000000000000000000000000000000000000000000000000000000000000000000000000000000000000000000000000000000000000000000000000
1004
00000000000000000000000000000000000000000000000000000000000000000000000000000000000000000000000000000000000000000000000000000000000000000000000000000000000000000000000000000000000000000000000000000000000000000000000000000000000000000000000000000000000000
1004
00000000000000000000000000000000000000000000000000000000000000000000000000000000000000000000000000000000000000000000000000000000000000000000000000000000000000000000000000000000000000000000000000000000000000000000000000000000000000000000000000000000000000
1004
0000000000000000000000000000000000000000000000000000000000000000000000000000000000000000000000000000000000000000
  0
BLOCK_RECORD
  5
8BC
330
1
100
AcDbSymbolTableRecord
100
AcDbBlockTableRecord
  2
*D16
  0
BLOCK_RECORD
  5
8C8
330
1
100
AcDbSymbolTableRecord
100
AcDbBlockTableRecord
  2
*D17
  0
ENDTAB
  0
ENDSEC
  0
SECTION
  2
BLOCKS
  0
BLOCK
  5
1B
330
1A
100
AcDbEntity
  8
0
100
AcDbBlockBegin
  2
*MODEL_SPACE
 70
     0
 10
0.0
 20
0.0
 30
0.0
  3
*MODEL_SPACE
  1

  0
ENDBLK
  5
1C
330
1A
100
AcDbEntity
  8
0
100
AcDbBlockEnd
  0
BLOCK
  5
18
330
17
100
AcDbEntity
 67
     1
  8
0
100
AcDbBlockBegin
  2
*PAPER_SPACE
 70
     0
 10
0.0
 20
0.0
 30
0.0
  3
*PAPER_SPACE
  1

  0
ENDBLK
  5
19
330
17
100
AcDbEntity
 67
     1
  8
0
100
AcDbBlockEnd
  0
BLOCK
  5
598
330
594
100
AcDbEntity
  8
0
100
AcDbBlockBegin
  2
_OPEN
 70
     0
 10
0.0
 20
0.0
 30
0.0
  3
_OPEN
  1

  0
LINE
  5
595
330
594
100
AcDbEntity
  8
0
  6
BYBLOCK
 62
     0
100
AcDbLine
 10
-1.0
 20
0.16666667
 30
0.0
 11
0.0
 21
0.0
 31
0.0
  0
LINE
  5
596
330
594
100
AcDbEntity
  8
0
  6
BYBLOCK
 62
     0
100
AcDbLine
 10
-1.0
 20
-0.16666667
 30
0.0
 11
0.0
 21
0.0
 31
0.0
  0
LINE
  5
597
330
594
100
AcDbEntity
  8
0
  6
BYBLOCK
 62
     0
100
AcDbLine
 10
0.0
 20
0.0
 30
0.0
 11
-1.0
 21
0.0
 31
0.0
  0
ENDBLK
  5
599
330
594
100
AcDbEntity
  8
0
100
AcDbBlockEnd
  0
BLOCK
  5
6E4
330
6E3
100
AcDbEntity
  8
0
100
AcDbBlockBegin
  2
矢印なし
 70
     0
 10
0.0
 20
0.0
 30
0.0
  3
矢印なし
  1

  0
ENDBLK
  5
6E5
330
6E3
100
AcDbEntity
  8
0
100
AcDbBlockEnd
  0
BLOCK
  5
881
330
762
100
AcDbEntity
  8
0
100
AcDbBlockBegin
  2
1
 70
     0
 10
0.0
 20
0.0
 30
0.0
  3
1
  1

  0
LINE
  5
A3A
330
762
100
AcDbEntity
  8
240
100
AcDbLine
 10
133.15
 20
8.0
 30
0.0
 11
149.0
 21
8.0
 31
0.0
  0
LINE
  5
A3B
330
762
100
AcDbEntity
  8
240
100
AcDbLine
 10
133.15
 20
-8.0
 30
0.0
 11
149.0
 21
-8.0
 31
0.0
  0
LINE
  5
A3C
330
762
100
AcDbEntity
  8
241
  6
HIDDEN2
100
AcDbLine
 10
139.0
 20
2.0
 30
0.0
 11
150.0
 21
2.0
 31
0.0
  0
LINE
  5
A3D
330
762
100
AcDbEntity
  8
AM_7
100
AcDbLine
 10
-48.5
 20
0.0
 30
0.0
 11
151.0
 21
0.0
 31
0.0
1001
GENIUS_GENOREF_13
1005
0
  0
LINE
  5
A3E
330
762
100
AcDbEntity
  8
240
100
AcDbLine
 10
-39.0
 20
-6.0
 30
0.0
 11
-34.0
 21
-6.0
 31
0.0
  0
LINE
  5
A3F
330
762
100
AcDbEntity
  8
240
100
AcDbLine
 10
-39.0
 20
6.0
 30
0.0
 11
-34.0
 21
6.0
 31
0.0
  0
LINE
  5
A40
330
762
100
AcDbEntity
  8
240
100
AcDbLine
 10
-39.0
 20
6.0
 30
0.0
 11
-41.0
 21
8.0
 31
0.0
  0
LINE
  5
A41
330
762
100
AcDbEntity
  8
240
100
AcDbLine
 10
-47.5
 20
7.0
 30
0.0
 11
-47.5
 21
0.0
 31
0.0
  0
LINE
  5
A42
330
762
100
AcDbEntity
  8
240
100
AcDbLine
 10
-47.5
 20
-7.0
 30
0.0
 11
-47.5
 21
0.0
 31
0.0
  0
LINE
  5
A43
330
762
100
AcDbEntity
  8
240
100
AcDbLine
 10
-46.5
 20
-8.0
 30
0.0
 11
-41.0
 21
-8.0
 31
0.0
  0
ARC
  5
A44
330
762
100
AcDbEntity
  8
240
100
AcDbCircle
 10
-46.5
 20
-7.0
 30
0.0
 40
1.0
100
AcDbArc
 50
180.0
 51
270.0
  0
LINE
  5
A45
330
762
100
AcDbEntity
  8
240
100
AcDbLine
 10
-39.0
 20
-6.0
 30
0.0
 11
-41.0
 21
-8.0
 31
0.0
  0
LINE
  5
A46
330
762
100
AcDbEntity
  8
240
100
AcDbLine
 10
-46.5
 20
8.0
 30
0.0
 11
-41.0
 21
8.0
 31
0.0
  0
ARC
  5
A47
330
762
100
AcDbEntity
  8
240
100
AcDbCircle
 10
-46.5
 20
7.0
 30
0.0
 40
1.0
100
AcDbArc
 50
90.0
 51
180.0
  0
LINE
  5
A48
330
762
100
AcDbEntity
  8
240
100
AcDbLine
 10
130.0
 20
-8.0
 30
0.0
 11
1.57117457
 21
-8.0
 31
0.0
  0
LINE
  5
A49
330
762
100
AcDbEntity
  8
240
100
AcDbLine
 10
130.0
 20
8.0
 30
0.0
 11
1.57117457
 21
8.0
 31
0.0
  0
TEXT
  5
A4A
330
762
100
AcDbEntity
  8
0
100
AcDbText
 10
53.59713877
 20
2.45479957
 30
0.0
 40
2.88
  1
MGT6-M3-150
  7
YOKO
100
AcDbText
  0
LINE
  5
A4B
330
762
100
AcDbEntity
  8
241
100
AcDbLine
 10
0.0
 20
10.64125603
 30
0.0
 11
0.0
 21
0.0
 31
0.0
  0
LINE
  5
A4C
330
762
100
AcDbEntity
  8
241
100
AcDbLine
 10
-5.12626129
 20
11.0
 30
0.0
 11
-5.12626129
 21
0.0
 31
0.0
  0
LINE
  5
A4D
330
762
100
AcDbEntity
  8
241
100
AcDbLine
 10
-11.0
 20
8.0
 30
0.0
 11
-11.0
 21
0.0
 31
0.0
  0
LINE
  5
A4E
330
762
100
AcDbEntity
  8
241
  6
CONTINUOUS
100
AcDbLine
 10
-6.5
 20
10.50000001
 30
0.0
 11
-6.5
 21
0.0
 31
0.0
  0
LINE
  5
A4F
330
762
100
AcDbEntity
  8
241
100
AcDbLine
 10
-4.0
 20
10.0
 30
0.0
 11
-4.0
 21
0.0
 31
0.0
  0
LINE
  5
A50
330
762
100
AcDbEntity
  8
241
100
AcDbLine
 10
-2.0
 20
10.0
 30
0.0
 11
-2.0
 21
0.0
 31
0.0
  0
LINE
  5
A51
330
762
100
AcDbEntity
  8
241
100
AcDbLine
 10
0.80384758
 20
8.35874397
 30
0.0
 11
0.80384758
 21
0.0
 31
0.0
  0
LINE
  5
A52
330
762
100
AcDbEntity
  8
240
100
AcDbLine
 10
-29.0
 20
6.0
 30
0.0
 11
-27.0
 21
8.0
 31
0.0
  0
LINE
  5
A53
330
762
100
AcDbEntity
  8
AM_7
100
AcDbLine
 10
-34.0
 20
-8.0
 30
0.0
 11
-34.0
 21
8.0
 31
0.0
  0
LINE
  5
A54
330
762
100
AcDbEntity
  8
241
100
AcDbLine
 10
-25.5
 20
7.0
 30
0.0
 11
-25.5
 21
0.0
 31
0.0
  0
LINE
  5
A55
330
762
100
AcDbEntity
  8
241
100
AcDbLine
 10
-16.5
 20
7.0
 30
0.0
 11
-16.5
 21
0.0
 31
0.0
  0
LINE
  5
A56
330
762
100
AcDbEntity
  8
241
100
AcDbLine
 10
-23.5
 20
7.0
 30
0.0
 11
-23.5
 21
0.0
 31
0.0
  0
LINE
  5
A57
330
762
100
AcDbEntity
  8
241
100
AcDbLine
 10
-14.5
 20
7.0
 30
0.0
 11
-14.5
 21
0.0
 31
0.0
  0
LINE
  5
A58
330
762
100
AcDbEntity
  8
240
100
AcDbLine
 10
-14.5
 20
-8.0
 30
0.0
 11
-11.0
 21
-8.0
 31
0.0
  0
LINE
  5
A59
330
762
100
AcDbEntity
  8
240
100
AcDbLine
 10
-27.0
 20
-8.0
 30
0.0
 11
-25.5
 21
-8.0
 31
0.0
  0
LINE
  5
A5A
330
762
100
AcDbEntity
  8
243
100
AcDbLine
 10
-31.5
 20
6.0
 30
0.0
 11
-31.5
 21
-6.0
 31
0.0
  0
LINE
  5
A5B
330
762
100
AcDbEntity
  8
243
100
AcDbLine
 10
-36.5
 20
6.0
 30
0.0
 11
-36.5
 21
-6.0
 31
0.0
  0
LINE
  5
A5C
330
762
100
AcDbEntity
  8
240
100
AcDbLine
 10
-34.0
 20
-6.0
 30
0.0
 11
-29.0
 21
-6.0
 31
0.0
  0
LINE
  5
A5D
330
762
100
AcDbEntity
  8
240
100
AcDbLine
 10
-29.0
 20
-6.0
 30
0.0
 11
-27.0
 21
-8.0
 31
0.0
  0
LINE
  5
A5E
330
762
100
AcDbEntity
  8
240
100
AcDbLine
 10
-34.0
 20
6.0
 30
0.0
 11
-29.0
 21
6.0
 31
0.0
  0
LINE
  5
A5F
330
762
100
AcDbEntity
  8
241
100
AcDbLine
 10
-14.5
 20
-7.0
 30
0.0
 11
-14.5
 21
0.0
 31
0.0
  0
LINE
  5
A60
330
762
100
AcDbEntity
  8
241
100
AcDbLine
 10
-16.5
 20
-7.0
 30
0.0
 11
-16.5
 21
0.0
 31
0.0
  0
LINE
  5
A61
330
762
100
AcDbEntity
  8
AM_7
100
AcDbLine
 10
-20.0
 20
-0.7698914
 30
0.0
 11
-20.0
 21
-4.52866188
 31
0.0
  0
LINE
  5
A62
330
762
100
AcDbEntity
  8
241
100
AcDbLine
 10
-23.5
 20
-7.0
 30
0.0
 11
-23.5
 21
0.0
 31
0.0
  0
ELLIPSE
  5
A63
330
762
100
AcDbEntity
  8
241
100
AcDbEllipse
 10
-20.0
 20
-2.64927664
 30
0.0
 11
-2.000000000000023
 21
0.0
 31
0.0
210
0.0
220
0.0
230
1.0
 40
0.93969262
 41
0.0
 42
6.283185307179584
  0
LINE
  5
A64
330
762
100
AcDbEntity
  8
241
100
AcDbLine
 10
-25.5
 20
-7.0
 30
0.0
 11
-25.5
 21
0.0
 31
0.0
  0
LINE
  5
A65
330
762
100
AcDbEntity
  8
AM_7
100
AcDbLine
 10
-21.99786162
 20
-2.73616115
 30
0.0
 11
-18.00213838
 21
-2.73616115
 31
0.0
  0
LINE
  5
A66
330
762
100
AcDbEntity
  8
240
100
AcDbLine
 10
-23.5
 20
-8.0
 30
0.0
 11
-16.5
 21
-8.0
 31
0.0
  0
LINE
  5
A67
330
762
100
AcDbEntity
  8
240
100
AcDbLine
 10
-23.5
 20
-7.0
 30
0.0
 11
-23.5
 21
-8.0
 31
0.0
  0
LINE
  5
A68
330
762
100
AcDbEntity
  8
240
100
AcDbLine
 10
-25.5
 20
-7.0
 30
0.0
 11
-25.5
 21
-8.0
 31
0.0
  0
ARC
  5
A69
330
762
100
AcDbEntity
  8
240
100
AcDbCircle
 10
-24.5
 20
-7.0
 30
0.0
 40
1.000000000003004
100
AcDbArc
 50
180.0
 51
0.0
  0
ARC
  5
A6A
330
762
100
AcDbEntity
  8
240
100
AcDbCircle
 10
-15.5
 20
-7.0
 30
0.0
 40
1.000000000003004
100
AcDbArc
 50
180.0
 51
0.0
  0
LINE
  5
A6B
330
762
100
AcDbEntity
  8
240
100
AcDbLine
 10
-16.5
 20
-7.0
 30
0.0
 11
-16.5
 21
-8.0
 31
0.0
  0
LINE
  5
A6C
330
762
100
AcDbEntity
  8
240
100
AcDbLine
 10
-14.5
 20
-7.0
 30
0.0
 11
-14.5
 21
-8.0
 31
0.0
  0
LINE
  5
A6D
330
762
100
AcDbEntity
  8
240
100
AcDbLine
 10
0.19859884
 20
-10.25881905
 30
0.0
 11
0.60524874
 21
-8.74118096
 31
0.0
  0
LINE
  5
A6E
330
762
100
AcDbEntity
  8
241
100
AcDbLine
 10
0.0
 20
-10.64125603
 30
0.0
 11
0.0
 21
0.0
 31
0.0
  0
LINE
  5
A6F
330
762
100
AcDbEntity
  8
240
100
AcDbLine
 10
-10.0
 20
-10.5
 30
0.0
 11
-10.0
 21
-9.0
 31
0.0
  0
LINE
  5
A70
330
762
100
AcDbEntity
  8
241
100
AcDbLine
 10
-5.12626129
 20
-11.0
 30
0.0
 11
-5.12626129
 21
0.0
 31
0.0
  0
LINE
  5
A71
330
762
100
AcDbEntity
  8
241
  6
CONTINUOUS
100
AcDbLine
 10
-6.5
 20
-10.50000001
 30
0.0
 11
-6.5
 21
0.0
 31
0.0
  0
LINE
  5
A72
330
762
100
AcDbEntity
  8
241
100
AcDbLine
 10
-2.0
 20
-10.0
 30
0.0
 11
-2.0
 21
0.0
 31
0.0
  0
LINE
  5
A73
330
762
100
AcDbEntity
  8
241
100
AcDbLine
 10
-4.0
 20
-10.0
 30
0.0
 11
-4.0
 21
0.0
 31
0.0
  0
ARC
  5
A74
330
762
100
AcDbEntity
  8
240
100
AcDbCircle
 10
-3.0
 20
-10.0
 30
0.0
 40
1.000000000000075
100
AcDbArc
 50
180.0
 51
0.0
  0
LINE
  5
A75
330
762
100
AcDbEntity
  8
240
100
AcDbLine
 10
-6.50000001
 20
-10.5
 30
0.0
 11
-10.0
 21
-10.5
 31
0.0
  0
LINE
  5
A76
330
762
100
AcDbEntity
  8
240
100
AcDbLine
 10
-6.5
 20
-10.50000001
 30
0.0
 11
-5.12626128
 21
-11.0
 31
0.0
  0
LINE
  5
A77
330
762
100
AcDbEntity
  8
240
100
AcDbLine
 10
-4.0
 20
-11.0
 30
0.0
 11
-5.12626129
 21
-11.0
 31
0.0
  0
LINE
  5
A78
330
762
100
AcDbEntity
  8
240
100
AcDbLine
 10
-4.0
 20
-10.0
 30
0.0
 11
-4.0
 21
-11.0
 31
0.0
  0
ARC
  5
A79
330
762
100
AcDbEntity
  8
240
100
AcDbCircle
 10
-0.76732699
 20
-10.0
 30
0.0
 40
1.0
100
AcDbArc
 50
285.0
 51
345.0
1001
GENIUS_GENOBJ-N-FIL_13
1002
{
1000
OWNER
1000
GEN
1002
}
1001
GENIUS_GENODEF_13
1002
{
1000
HIER
1070
     0
1002
}
1002
{
1000
MANEDIT
1070
     0
1002
}
1002
{
1000
NOSEL
1070
     0
1002
}
1002
{
1000
BEHIND
1070
     0
1002
}
1002
{
1000
OTHER
1070
     0
1002
}
1002
{
1000
REACTOR
1002
}
  0
LINE
  5
A7A
330
762
100
AcDbEntity
  8
240
100
AcDbLine
 10
-0.50850794
 20
-10.96592583
 30
0.0
 11
-0.63567449
 21
-11.0
 31
0.0
  0
LINE
  5
A7B
330
762
100
AcDbEntity
  8
240
100
AcDbLine
 10
-2.0
 20
-10.0
 30
0.0
 11
-2.0
 21
-11.0
 31
0.0
  0
LINE
  5
A7C
330
762
100
AcDbEntity
  8
240
100
AcDbLine
 10
-0.63567449
 20
-11.0
 30
0.0
 11
-2.0
 21
-11.0
 31
0.0
  0
LINE
  5
A7D
330
762
100
AcDbEntity
  8
241
100
AcDbLine
 10
-11.0
 20
-8.0
 30
0.0
 11
-11.0
 21
0.0
 31
0.0
  0
LINE
  5
A7E
330
762
100
AcDbEntity
  8
241
100
AcDbLine
 10
-6.5
 20
-8.2
 30
0.0
 11
-9.5
 21
-8.2
 31
0.0
  0
LINE
  5
A7F
330
762
100
AcDbEntity
  8
240
100
AcDbLine
 10
-10.7
 20
-7.7
 30
0.0
 11
-9.5
 21
-7.7
 31
0.0
  0
LINE
  5
A80
330
762
100
AcDbEntity
  8
240
100
AcDbLine
 10
-9.5
 20
-8.5
 30
0.0
 11
-10.0
 21
-9.0
 31
0.0
  0
LINE
  5
A81
330
762
100
AcDbEntity
  8
240
100
AcDbLine
 10
-10.7
 20
-7.7
 30
0.0
 11
-11.0
 21
-8.0
 31
0.0
  0
LINE
  5
A82
330
762
100
AcDbEntity
  8
240
100
AcDbLine
 10
-9.5
 20
-8.5
 30
0.0
 11
-9.5
 21
-7.7
 31
0.0
  0
LINE
  5
A83
330
762
100
AcDbEntity
  8
241
100
AcDbLine
 10
0.80384758
 20
-8.35874397
 30
0.0
 11
0.80384758
 21
0.0
 31
0.0
  0
ARC
  5
A84
330
762
100
AcDbEntity
  8
240
100
AcDbCircle
 10
1.57117457
 20
-9.0
 30
0.0
 40
1.0
100
AcDbArc
 50
90.0
 51
165.00000008
  0
LINE
  5
A85
330
762
100
AcDbEntity
  8
240
100
AcDbLine
 10
-14.5
 20
8.0
 30
0.0
 11
-11.0
 21
8.0
 31
0.0
  0
LINE
  5
A86
330
762
100
AcDbEntity
  8
240
100
AcDbLine
 10
-27.0
 20
8.0
 30
0.0
 11
-25.5
 21
8.0
 31
0.0
  0
LINE
  5
A87
330
762
100
AcDbEntity
  8
240
100
AcDbLine
 10
-23.5
 20
8.0
 30
0.0
 11
-16.5
 21
8.0
 31
0.0
  0
LINE
  5
A88
330
762
100
AcDbEntity
  8
240
100
AcDbLine
 10
-23.5
 20
7.0
 30
0.0
 11
-23.5
 21
8.0
 31
0.0
  0
LINE
  5
A89
330
762
100
AcDbEntity
  8
240
100
AcDbLine
 10
-25.5
 20
7.0
 30
0.0
 11
-25.5
 21
8.0
 31
0.0
  0
ARC
  5
A8A
330
762
100
AcDbEntity
  8
240
100
AcDbCircle
 10
-24.5
 20
7.0
 30
0.0
 40
1.000000000003004
100
AcDbArc
 50
0.0
 51
180.0
  0
LINE
  5
A8B
330
762
100
AcDbEntity
  8
240
100
AcDbLine
 10
-14.5
 20
7.0
 30
0.0
 11
-14.5
 21
8.0
 31
0.0
  0
LINE
  5
A8C
330
762
100
AcDbEntity
  8
240
100
AcDbLine
 10
-16.5
 20
7.0
 30
0.0
 11
-16.5
 21
8.0
 31
0.0
  0
ARC
  5
A8D
330
762
100
AcDbEntity
  8
240
100
AcDbCircle
 10
-15.5
 20
7.0
 30
0.0
 40
1.000000000003004
100
AcDbArc
 50
0.0
 51
180.0
  0
ARC
  5
A8E
330
762
100
AcDbEntity
  8
240
100
AcDbCircle
 10
-3.0
 20
10.0
 30
0.0
 40
1.000000000000075
100
AcDbArc
 50
0.0
 51
180.0
  0
LINE
  5
A8F
330
762
100
AcDbEntity
  8
240
100
AcDbLine
 10
-6.50000001
 20
10.5
 30
0.0
 11
-10.0
 21
10.5
 31
0.0
  0
LINE
  5
A90
330
762
100
AcDbEntity
  8
241
100
AcDbLine
 10
-6.5
 20
8.2
 30
0.0
 11
-9.5
 21
8.2
 31
0.0
  0
LINE
  5
A91
330
762
100
AcDbEntity
  8
240
100
AcDbLine
 10
-10.0
 20
10.5
 30
0.0
 11
-10.0
 21
9.0
 31
0.0
  0
LINE
  5
A92
330
762
100
AcDbEntity
  8
240
100
AcDbLine
 10
-9.5
 20
8.5
 30
0.0
 11
-10.0
 21
9.0
 31
0.0
  0
LINE
  5
A93
330
762
100
AcDbEntity
  8
240
100
AcDbLine
 10
-10.7
 20
7.7
 30
0.0
 11
-11.0
 21
8.0
 31
0.0
  0
LINE
  5
A94
330
762
100
AcDbEntity
  8
240
100
AcDbLine
 10
-10.7
 20
7.7
 30
0.0
 11
-9.5
 21
7.7
 31
0.0
  0
LINE
  5
A95
330
762
100
AcDbEntity
  8
240
100
AcDbLine
 10
-9.5
 20
8.5
 30
0.0
 11
-9.5
 21
7.7
 31
0.0
  0
LINE
  5
A96
330
762
100
AcDbEntity
  8
240
100
AcDbLine
 10
-6.50000001
 20
10.5
 30
0.0
 11
-5.12626128
 21
11.0
 31
0.0
  0
LINE
  5
A97
330
762
100
AcDbEntity
  8
240
100
AcDbLine
 10
-4.0
 20
10.0
 30
0.0
 11
-4.0
 21
11.0
 31
0.0
  0
LINE
  5
A98
330
762
100
AcDbEntity
  8
240
100
AcDbLine
 10
-4.0
 20
11.0
 30
0.0
 11
-5.12626129
 21
11.0
 31
0.0
  0
ARC
  5
A99
330
762
100
AcDbEntity
  8
240
100
AcDbCircle
 10
-0.76732699
 20
10.0
 30
0.0
 40
1.0
100
AcDbArc
 50
15.0
 51
75.0
1001
GENIUS_GENOBJ-N-FIL_13
1002
{
1000
OWNER
1000
GEN
1002
}
1001
GENIUS_GENODEF_13
1002
{
1000
HIER
1070
     0
1002
}
1002
{
1000
MANEDIT
1070
     0
1002
}
1002
{
1000
NOSEL
1070
     0
1002
}
1002
{
1000
BEHIND
1070
     0
1002
}
1002
{
1000
OTHER
1070
     0
1002
}
1002
{
1000
REACTOR
1002
}
  0
LINE
  5
A9A
330
762
100
AcDbEntity
  8
240
100
AcDbLine
 10
-2.0
 20
10.0
 30
0.0
 11
-2.0
 21
11.0
 31
0.0
  0
LINE
  5
A9B
330
762
100
AcDbEntity
  8
240
100
AcDbLine
 10
0.19859884
 20
10.25881905
 30
0.0
 11
0.60524874
 21
8.74118096
 31
0.0
  0
ARC
  5
A9C
330
762
100
AcDbEntity
  8
240
100
AcDbCircle
 10
1.57117457
 20
9.0
 30
0.0
 40
1.0
100
AcDbArc
 50
194.99999992
 51
270.0
  0
LINE
  5
A9D
330
762
100
AcDbEntity
  8
240
100
AcDbLine
 10
-0.50850794
 20
10.96592583
 30
0.0
 11
-0.63567449
 21
11.0
 31
0.0
  0
LINE
  5
A9E
330
762
100
AcDbEntity
  8
240
100
AcDbLine
 10
-0.63567449
 20
11.0
 30
0.0
 11
-2.0
 21
11.0
 31
0.0
  0
LINE
  5
A9F
330
762
100
AcDbEntity
  8
0
100
AcDbLine
 10
44.00197523
 20
4.54460929
 30
0.0
 11
45.26548413
 21
5.80811819
 31
0.0
  0
LINE
  5
AA0
330
762
100
AcDbEntity
  8
0
100
AcDbLine
 10
44.0667243
 20
5.43935557
 30
0.0
 11
44.25853989
 21
5.43935557
 31
0.0
  0
LINE
  5
AA1
330
762
100
AcDbEntity
  8
0
100
AcDbLine
 10
44.17246094
 20
5.80811819
 30
0.0
 11
44.0667243
 21
5.43935557
 31
0.0
  0
LINE
  5
AA2
330
762
100
AcDbEntity
  8
0
100
AcDbLine
 10
44.07737731
 20
5.43935557
 30
0.0
 11
44.44613993
 21
5.80811819
 31
0.0
  0
LINE
  5
AA3
330
762
100
AcDbEntity
  8
0
100
AcDbLine
 10
43.58533632
 20
2.48928197
 30
0.0
 11
44.63400908
 21
3.53795473
 31
0.0
  0
LINE
  5
AA4
330
762
100
AcDbEntity
  8
0
100
AcDbLine
 10
43.99500842
 20
2.48928197
 30
0.0
 11
44.46931934
 21
2.96359288
 31
0.0
  0
LINE
  5
AA5
330
762
100
AcDbEntity
  8
0
100
AcDbLine
 10
43.85153659
 20
1.93613804
 30
0.0
 11
44.2202992
 21
2.30490066
 31
0.0
  0
LINE
  5
AA6
330
762
100
AcDbEntity
  8
0
100
AcDbLine
 10
43.41261893
 20
2.48928197
 30
0.0
 11
44.94291143
 21
2.48928197
 31
0.0
  0
LINE
  5
AA7
330
762
100
AcDbEntity
  8
0
100
AcDbLine
 10
43.41261893
 20
2.48928197
 30
0.0
 11
44.25853989
 21
5.43935557
 31
0.0
  0
LINE
  5
AA8
330
762
100
AcDbEntity
  8
0
100
AcDbLine
 10
43.67257876
 20
3.39586861
 30
0.0
 11
44.96340652
 21
4.68669637
 31
0.0
  0
LINE
  5
AA9
330
762
100
AcDbEntity
  8
0
100
AcDbLine
 10
43.83727699
 20
3.97023895
 30
0.0
 11
45.12809931
 21
5.26106127
 31
0.0
  0
LINE
  5
AAA
330
762
100
AcDbEntity
  8
0
100
AcDbLine
 10
43.50788053
 20
2.82149828
 30
0.0
 11
45.06815384
 21
4.3817716
 31
0.0
  0
LINE
  5
AAB
330
762
100
AcDbEntity
  8
0
100
AcDbLine
 10
43.21911878
 20
2.30490066
 30
0.0
 11
50.70495274
 21
2.30490066
 31
0.0
  0
LINE
  5
AAC
330
762
100
AcDbEntity
  8
0
100
AcDbLine
 10
43.21911878
 20
1.93613804
 30
0.0
 11
50.70495274
 21
1.93613804
 31
0.0
  0
LINE
  5
AAD
330
762
100
AcDbEntity
  8
0
100
AcDbLine
 10
42.13511282
 20
2.26807477
 30
0.0
 11
42.40188299
 21
2.53484494
 31
0.0
  0
LINE
  5
AAE
330
762
100
AcDbEntity
  8
0
100
AcDbLine
 10
41.90646784
 20
2.44910189
 30
0.0
 11
42.16748454
 21
2.71011859
 31
0.0
  0
ARC
  5
AAF
330
762
100
AcDbEntity
  8
0
100
AcDbCircle
 10
43.21911878
 20
3.87212833
 30
0.0
 40
1.935989859374998
100
AcDbArc
 50
90.0
 51
270.0
  0
ARC
  5
AB0
330
762
100
AcDbEntity
  8
0
100
AcDbCircle
 10
43.21911878
 20
3.87212833
 30
0.0
 40
1.567227234374995
100
AcDbArc
 50
90.0
 51
270.0
  0
LINE
  5
AB1
330
762
100
AcDbEntity
  8
0
100
AcDbLine
 10
43.44186449
 20
1.93613804
 30
0.0
 11
43.81062711
 21
2.30490066
 31
0.0
  0
LINE
  5
AB2
330
762
100
AcDbEntity
  8
0
100
AcDbLine
 10
42.69485665
 20
2.0084744
 30
0.0
 11
43.00586054
 21
2.31947829
 31
0.0
  0
LINE
  5
AB3
330
762
100
AcDbEntity
  8
0
100
AcDbLine
 10
43.04045453
 20
1.94440018
 30
0.0
 11
43.400955
 21
2.30490066
 31
0.0
  0
LINE
  5
AB4
330
762
100
AcDbEntity
  8
0
100
AcDbLine
 10
42.39637089
 20
2.11966074
 30
0.0
 11
42.67799357
 21
2.40128342
 31
0.0
  0
LINE
  5
AB5
330
762
100
AcDbEntity
  8
0
100
AcDbLine
 10
43.25803311
 20
5.43935557
 30
0.0
 11
43.62679573
 21
5.80811819
 31
0.0
  0
LINE
  5
AB6
330
762
100
AcDbEntity
  8
0
100
AcDbLine
 10
43.21911878
 20
5.43935557
 30
0.0
 11
43.87492262
 21
5.43935557
 31
0.0
  0
LINE
  5
AB7
330
762
100
AcDbEntity
  8
0
100
AcDbLine
 10
43.21911878
 20
5.80811819
 30
0.0
 11
43.98065927
 21
5.80811819
 31
0.0
  0
LINE
  5
AB8
330
762
100
AcDbEntity
  8
0
100
AcDbLine
 10
42.78785681
 20
5.37885137
 30
0.0
 11
43.2171226
 21
5.80811715
 31
0.0
  0
LINE
  5
AB9
330
762
100
AcDbEntity
  8
0
100
AcDbLine
 10
43.66770521
 20
5.43935557
 30
0.0
 11
43.95822418
 21
5.72987453
 31
0.0
  0
LINE
  5
ABA
330
762
100
AcDbEntity
  8
0
100
AcDbLine
 10
43.98065927
 20
5.80811819
 30
0.0
 11
43.87492262
 21
5.43935557
 31
0.0
  0
LINE
  5
ABB
330
762
100
AcDbEntity
  8
0
100
AcDbLine
 10
41.34090759
 20
4.34157425
 30
0.0
 11
42.74967286
 21
5.75033951
 31
0.0
  0
LINE
  5
ABC
330
762
100
AcDbEntity
  8
0
100
AcDbLine
 10
41.3191396
 20
3.50046205
 30
0.0
 11
41.65236311
 21
3.83368556
 31
0.0
  0
LINE
  5
ABD
330
762
100
AcDbEntity
  8
0
100
AcDbLine
 10
41.28312995
 20
3.8741245
 30
0.0
 11
41.71239575
 21
4.3033903
 31
0.0
  0
LINE
  5
ABE
330
762
100
AcDbEntity
  8
0
100
AcDbLine
 10
41.41032286
 20
3.18197322
 30
0.0
 11
41.70310549
 21
3.47475584
 31
0.0
  0
LINE
  5
ABF
330
762
100
AcDbEntity
  8
0
100
AcDbLine
 10
41.5423753
 20
2.90435355
 30
0.0
 11
41.81466232
 21
3.17664057
 31
0.0
  0
LINE
  5
AC0
330
762
100
AcDbEntity
  8
0
100
AcDbLine
 10
41.70872298
 20
2.66102914
 30
0.0
 11
41.97142404
 21
2.92373019
 31
0.0
  0
LINE
  5
AC1
330
762
100
AcDbEntity
  8
0
100
AcDbLine
 10
49.16913325
 20
4.36996066
 30
0.0
 11
50.24327551
 21
4.36996066
 31
0.0
  0
ARC
  5
AC2
330
762
100
AcDbEntity
  8
0
100
AcDbCircle
 10
50.70495274
 20
3.87212833
 30
0.0
 40
1.935990729492184
100
AcDbArc
 50
110.22964506
 51
118.57168892
  0
ARC
  5
AC3
330
762
100
AcDbEntity
  8
0
100
AcDbCircle
 10
50.70495274
 20
3.87212833
 30
0.0
 40
1.567231584960933
100
AcDbArc
 50
110.8721834
 51
132.54194894
  0
LINE
  5
AC4
330
762
100
AcDbEntity
  8
0
100
AcDbLine
 10
49.58940474
 20
5.2159736
 30
0.0
 11
50.04189831
 21
5.66846717
 31
0.0
  0
LINE
  5
AC5
330
762
100
AcDbEntity
  8
0
100
AcDbLine
 10
49.09064573
 20
3.07852618
 30
0.0
 11
50.18747245
 21
4.17535291
 31
0.0
  0
LINE
  5
AC6
330
762
100
AcDbEntity
  8
0
100
AcDbLine
 10
49.58694599
 20
1.93613804
 30
0.0
 11
49.95570861
 21
2.30490066
 31
0.0
  0
LINE
  5
AC7
330
762
100
AcDbEntity
  8
0
100
AcDbLine
 10
48.91666575
 20
2.49487411
 30
0.0
 11
50.02277371
 21
3.60098207
 31
0.0
  0
LINE
  5
AC8
330
762
100
AcDbEntity
  8
0
100
AcDbLine
 10
49.27647517
 20
3.67402772
 30
0.0
 11
49.97240811
 21
4.36996066
 31
0.0
  0
LINE
  5
AC9
330
762
100
AcDbEntity
  8
0
100
AcDbLine
 10
49.70399776
 20
2.48928197
 30
0.0
 11
50.24327551
 21
4.36996066
 31
0.0
  0
ARC
  5
ACA
330
762
100
AcDbEntity
  8
0
100
AcDbCircle
 10
50.70495274
 20
3.87212833
 30
0.0
 40
1.935989859374998
100
AcDbArc
 50
270.0
 51
104.77079397
  0
ARC
  5
ACB
330
762
100
AcDbEntity
  8
0
100
AcDbCircle
 10
50.70495274
 20
3.87212833
 30
0.0
 40
1.567227234374995
100
AcDbArc
 50
270.0
 51
104.1274365
  0
ARC
  5
ACC
330
762
100
AcDbEntity
  8
0
100
AcDbCircle
 10
48.80088574
 20
3.68774702
 30
0.0
 40
1.198478531249999
100
AcDbArc
 50
163.9997507
 51
304.96387329
  0
ARC
  5
ACD
330
762
100
AcDbEntity
  8
0
100
AcDbCircle
 10
44.94291143
 20
3.41117504
 30
0.0
 40
0.9218926406250002
100
AcDbArc
 50
270.0
 51
40.32984065
  0
LINE
  5
ACE
330
762
100
AcDbEntity
  8
0
100
AcDbLine
 10
46.71924129
 20
1.93613804
 30
0.0
 11
47.0880039
 21
2.30490066
 31
0.0
  0
LINE
  5
ACF
330
762
100
AcDbEntity
  8
0
100
AcDbLine
 10
46.30956918
 20
1.93613804
 30
0.0
 11
46.6783318
 21
2.30490066
 31
0.0
  0
LINE
  5
AD0
330
762
100
AcDbEntity
  8
0
100
AcDbLine
 10
45.89989709
 20
1.93613804
 30
0.0
 11
46.26865971
 21
2.30490066
 31
0.0
  0
LINE
  5
AD1
330
762
100
AcDbEntity
  8
0
100
AcDbLine
 10
45.08055289
 20
1.93613804
 30
0.0
 11
45.44931551
 21
2.30490066
 31
0.0
  0
LINE
  5
AD2
330
762
100
AcDbEntity
  8
0
100
AcDbLine
 10
44.26120869
 20
1.93613804
 30
0.0
 11
44.62997131
 21
2.30490066
 31
0.0
  0
LINE
  5
AD3
330
762
100
AcDbEntity
  8
0
100
AcDbLine
 10
44.67088079
 20
1.93613804
 30
0.0
 11
45.0396434
 21
2.30490066
 31
0.0
  0
LINE
  5
AD4
330
762
100
AcDbEntity
  8
0
100
AcDbLine
 10
45.49022498
 20
1.93613804
 30
0.0
 11
45.8589876
 21
2.30490066
 31
0.0
  0
LINE
  5
AD5
330
762
100
AcDbEntity
  8
0
100
AcDbLine
 10
49.17727389
 20
1.93613804
 30
0.0
 11
49.5460365
 21
2.30490066
 31
0.0
  0
LINE
  5
AD6
330
762
100
AcDbEntity
  8
0
100
AcDbLine
 10
48.76760179
 20
1.93613804
 30
0.0
 11
49.13636441
 21
2.30490066
 31
0.0
  0
LINE
  5
AD7
330
762
100
AcDbEntity
  8
0
100
AcDbLine
 10
47.94825759
 20
1.93613804
 30
0.0
 11
48.31702021
 21
2.30490066
 31
0.0
  0
LINE
  5
AD8
330
762
100
AcDbEntity
  8
0
100
AcDbLine
 10
47.12891338
 20
1.93613804
 30
0.0
 11
47.49767601
 21
2.30490066
 31
0.0
  0
LINE
  5
AD9
330
762
100
AcDbEntity
  8
0
100
AcDbLine
 10
47.53858549
 20
1.93613804
 30
0.0
 11
47.9073481
 21
2.30490066
 31
0.0
  0
LINE
  5
ADA
330
762
100
AcDbEntity
  8
0
100
AcDbLine
 10
48.35792969
 20
1.93613804
 30
0.0
 11
48.7266923
 21
2.30490066
 31
0.0
  0
LINE
  5
ADB
330
762
100
AcDbEntity
  8
0
100
AcDbLine
 10
46.88962084
 20
5.38389439
 30
0.0
 11
47.31384463
 21
5.80811819
 31
0.0
  0
LINE
  5
ADC
330
762
100
AcDbEntity
  8
0
100
AcDbLine
 10
46.87699399
 20
5.80811819
 30
0.0
 11
47.83604411
 21
5.80811819
 31
0.0
  0
LINE
  5
ADD
330
762
100
AcDbEntity
  8
0
100
AcDbLine
 10
47.83604411
 20
5.80811819
 30
0.0
 11
46.87699399
 21
5.80811819
 31
0.0
1001
HATCH_DISTANCE
1040
1.0
1001
HATCH_DISPLAY
1070
     0
1001
HATCH_TYPE
1070
     7
  0
LINE
  5
ADE
330
762
100
AcDbEntity
  8
0
100
AcDbLine
 10
47.83604411
 20
5.80811819
 30
0.0
 11
46.87699399
 21
5.80811819
 31
0.0
  0
LINE
  5
ADF
330
762
100
AcDbEntity
  8
0
100
AcDbLine
 10
46.72492144
 20
4.8095229
 30
0.0
 11
47.72351674
 21
5.80811819
 31
0.0
  0
LINE
  5
AE0
330
762
100
AcDbEntity
  8
0
100
AcDbLine
 10
46.23082325
 20
3.08640841
 30
0.0
 11
47.38719113
 21
4.24277628
 31
0.0
  0
LINE
  5
AE1
330
762
100
AcDbEntity
  8
0
100
AcDbLine
 10
46.45304102
 20
2.48928197
 30
0.0
 11
47.05779682
 21
3.09403777
 31
0.0
  0
LINE
  5
AE2
330
762
100
AcDbEntity
  8
0
100
AcDbLine
 10
46.06612386
 20
2.5120369
 30
0.0
 11
47.22249398
 21
3.66840703
 31
0.0
  0
LINE
  5
AE3
330
762
100
AcDbEntity
  8
0
100
AcDbLine
 10
46.39552265
 20
3.6607799
 30
0.0
 11
47.55188828
 21
4.81714553
 31
0.0
  0
LINE
  5
AE4
330
762
100
AcDbEntity
  8
0
100
AcDbLine
 10
46.8843865
 20
2.48928197
 30
0.0
 11
47.83604411
 21
5.80811819
 31
0.0
  0
LINE
  5
AE5
330
762
100
AcDbEntity
  8
0
100
AcDbLine
 10
46.8843865
 20
2.48928197
 30
0.0
 11
47.83604411
 21
5.80811819
 31
0.0
1001
HATCH_DISTANCE
1040
1.0
1001
HATCH_DISPLAY
1070
     0
1001
HATCH_TYPE
1070
     7
  0
LINE
  5
AE6
330
762
100
AcDbEntity
  8
0
100
AcDbLine
 10
46.8843865
 20
2.48928197
 30
0.0
 11
47.83604411
 21
5.80811819
 31
0.0
  0
LINE
  5
AE7
330
762
100
AcDbEntity
  8
0
100
AcDbLine
 10
46.56022205
 20
4.23515139
 30
0.0
 11
47.71658543
 21
5.39151478
 31
0.0
  0
LINE
  5
AE8
330
762
100
AcDbEntity
  8
0
100
AcDbLine
 10
46.76067672
 20
5.40249043
 30
0.0
 11
46.8949532
 21
5.40249043
 31
0.0
  0
LINE
  5
AE9
330
762
100
AcDbEntity
  8
0
100
AcDbLine
 10
46.76067672
 20
5.40249043
 30
0.0
 11
46.87699399
 21
5.80811819
 31
0.0
  0
LINE
  5
AEA
330
762
100
AcDbEntity
  8
0
100
AcDbLine
 10
46.87699399
 20
5.80811819
 30
0.0
 11
46.76067672
 21
5.40249043
 31
0.0
1001
HATCH_DISTANCE
1040
1.0
1001
HATCH_DISPLAY
1070
     0
1001
HATCH_TYPE
1070
     7
  0
LINE
  5
AEB
330
762
100
AcDbEntity
  8
0
100
AcDbLine
 10
46.76067672
 20
5.40249043
 30
0.0
 11
46.8949532
 21
5.40249043
 31
0.0
1001
HATCH_DISTANCE
1040
1.0
1001
HATCH_DISPLAY
1070
     0
1001
HATCH_TYPE
1070
     7
  0
LINE
  5
AEC
330
762
100
AcDbEntity
  8
0
100
AcDbLine
 10
46.87699399
 20
5.80811819
 30
0.0
 11
46.76067672
 21
5.40249043
 31
0.0
  0
LINE
  5
AED
330
762
100
AcDbEntity
  8
0
100
AcDbLine
 10
46.76067672
 20
5.40249043
 30
0.0
 11
46.8949532
 21
5.40249043
 31
0.0
  0
LINE
  5
AEE
330
762
100
AcDbEntity
  8
0
100
AcDbLine
 10
46.86606686
 20
5.7700125
 30
0.0
 11
46.90417254
 21
5.80811819
 31
0.0
  0
LINE
  5
AEF
330
762
100
AcDbEntity
  8
0
100
AcDbLine
 10
46.86271311
 20
2.48928197
 30
0.0
 11
46.89309967
 21
2.51966853
 31
0.0
  0
LINE
  5
AF0
330
762
100
AcDbEntity
  8
0
100
AcDbLine
 10
46.05959894
 20
2.48928197
 30
0.0
 11
46.8843865
 21
2.48928197
 31
0.0
1001
HATCH_DISTANCE
1040
1.0
1001
HATCH_DISPLAY
1070
     0
1001
HATCH_TYPE
1070
     7
  0
LINE
  5
AF1
330
762
100
AcDbEntity
  8
0
100
AcDbLine
 10
46.05959894
 20
2.48928197
 30
0.0
 11
46.8843865
 21
2.48928197
 31
0.0
  0
LINE
  5
AF2
330
762
100
AcDbEntity
  8
0
100
AcDbLine
 10
46.05959894
 20
2.48928197
 30
0.0
 11
46.8843865
 21
2.48928197
 31
0.0
  0
LINE
  5
AF3
330
762
100
AcDbEntity
  8
0
100
AcDbLine
 10
46.05959894
 20
2.48928197
 30
0.0
 11
46.8949532
 21
5.40249043
 31
0.0
  0
LINE
  5
AF4
330
762
100
AcDbEntity
  8
0
100
AcDbLine
 10
46.8949532
 20
5.40249043
 30
0.0
 11
46.05959894
 21
2.48928197
 31
0.0
1001
HATCH_DISTANCE
1040
1.0
1001
HATCH_DISPLAY
1070
     0
1001
HATCH_TYPE
1070
     7
  0
LINE
  5
AF5
330
762
100
AcDbEntity
  8
0
100
AcDbLine
 10
46.8949532
 20
5.40249043
 30
0.0
 11
46.05959894
 21
2.48928197
 31
0.0
  0
LINE
  5
AF6
330
762
100
AcDbEntity
  8
0
100
AcDbLine
 10
45.17645949
 20
5.42971703
 30
0.0
 11
44.87426267
 21
4.37580787
 31
0.0
  0
LINE
  5
AF7
330
762
100
AcDbEntity
  8
0
100
AcDbLine
 10
44.16667347
 20
5.11897961
 30
0.0
 11
44.85581203
 21
5.80811819
 31
0.0
  0
LINE
  5
AF8
330
762
100
AcDbEntity
  8
0
100
AcDbLine
 10
44.17246094
 20
5.80811819
 30
0.0
 11
45.36207206
 21
5.80811819
 31
0.0
  0
LINE
  5
AF9
330
762
100
AcDbEntity
  8
0
100
AcDbLine
 10
44.75350341
 20
3.95469581
 30
0.0
 11
44.45130162
 21
2.90075538
 31
0.0
  0
ARC
  5
AFA
330
762
100
AcDbEntity
  8
0
100
AcDbCircle
 10
44.5315061
 20
3.44805409
 30
0.0
 40
0.5531443181762698
100
AcDbArc
 50
261.66285421
 51
66.33819216
  0
ARC
  5
AFB
330
762
100
AcDbEntity
  8
0
100
AcDbCircle
 10
44.95446658
 20
4.92309067
 30
0.0
 40
0.5531284929199223
100
AcDbArc
 50
261.66260169
 51
66.3381551
  0
ARC
  5
AFC
330
762
100
AcDbEntity
  8
0
100
AcDbCircle
 10
45.36587191
 20
4.88622554
 30
0.0
 40
0.9219004716796876
100
AcDbArc
 50
287.66957755
 51
90.23615984
  0
LINE
  5
AFD
330
762
100
AcDbEntity
  8
0
100
AcDbLine
 10
45.07189306
 20
3.56616662
 30
0.0
 11
46.28108126
 21
4.77535481
 31
0.0
  0
LINE
  5
AFE
330
762
100
AcDbEntity
  8
0
100
AcDbLine
 10
44.92888861
 20
3.83283426
 30
0.0
 11
46.24849781
 21
5.15244347
 31
0.0
  0
LINE
  5
AFF
330
762
100
AcDbEntity
  8
0
100
AcDbLine
 10
45.29314396
 20
2.5584012
 30
0.0
 11
45.79568526
 21
3.06094252
 31
0.0
  0
LINE
  5
B00
330
762
100
AcDbEntity
  8
0
100
AcDbLine
 10
44.81435262
 20
2.48928197
 30
0.0
 11
45.85687751
 21
3.53180686
 31
0.0
  0
LINE
  5
B01
330
762
100
AcDbEntity
  8
0
100
AcDbLine
 10
44.40468051
 20
2.48928197
 30
0.0
 11
45.75775443
 21
3.84235589
 31
0.0
  0
LINE
  5
B02
330
762
100
AcDbEntity
  8
0
100
AcDbLine
 10
45.2546899
 20
5.38765185
 30
0.0
 11
45.63500498
 21
5.76796693
 31
0.0
  0
LINE
  5
B03
330
762
100
AcDbEntity
  8
0
100
AcDbLine
 10
45.44852075
 20
5.1718106
 30
0.0
 11
45.9083405
 21
5.63163035
 31
0.0
  0
LINE
  5
B04
330
762
100
AcDbEntity
  8
0
100
AcDbLine
 10
45.49578565
 20
4.8094034
 30
0.0
 11
46.1128743
 21
5.42649206
 31
0.0
  0
LINE
  5
B05
330
762
100
AcDbEntity
  8
0
100
AcDbLine
 10
49.35417658
 20
5.39041753
 30
0.0
 11
49.63030352
 21
5.66654447
 31
0.0
  0
ARC
  5
B06
330
762
100
AcDbEntity
  8
0
100
AcDbCircle
 10
49.25827502
 20
5.01528132
 30
0.0
 40
0.3872005713500977
100
AcDbArc
 50
1.71012138
 51
163.99839835
  0
LINE
  5
B07
330
762
100
AcDbEntity
  8
0
100
AcDbLine
 10
47.79743072
 20
4.65301587
 30
0.0
 11
48.94665397
 21
5.80223912
 31
0.0
  0
ARC
  5
B08
330
762
100
AcDbEntity
  8
0
100
AcDbCircle
 10
49.06523429
 20
4.60965358
 30
0.0
 40
1.198466349609373
100
AcDbArc
 50
53.4440122
 51
164.00018439
  0
LINE
  5
B09
330
762
100
AcDbEntity
  8
0
100
AcDbLine
 10
49.13349326
 20
3.17539417
 30
0.0
 11
49.37029042
 21
4.00119802
 31
0.0
  0
LINE
  5
B0A
330
762
100
AcDbEntity
  8
0
100
AcDbLine
 10
49.48767968
 20
2.70558614
 30
0.0
 11
49.70399776
 21
2.48928197
 31
0.0
  0
LINE
  5
B0B
330
762
100
AcDbEntity
  8
0
100
AcDbLine
 10
49.51236558
 20
2.68090183
 30
0.0
 11
49.85807497
 21
3.02661122
 31
0.0
  0
LINE
  5
B0C
330
762
100
AcDbEntity
  8
0
100
AcDbLine
 10
48.53195165
 20
2.5198321
 30
0.0
 11
48.96488501
 21
2.95276545
 31
0.0
  0
LINE
  5
B0D
330
762
100
AcDbEntity
  8
0
100
AcDbLine
 10
49.06339661
 20
4.00119802
 30
0.0
 11
49.37029042
 21
4.00119802
 31
0.0
  0
LINE
  5
B0E
330
762
100
AcDbEntity
  8
0
100
AcDbLine
 10
47.99418771
 20
2.80141237
 30
0.0
 11
48.38473478
 21
3.19195944
 31
0.0
  0
LINE
  5
B0F
330
762
100
AcDbEntity
  8
0
100
AcDbLine
 10
47.80463726
 20
3.02153401
 30
0.0
 11
48.47638797
 21
3.69328472
 31
0.0
  0
LINE
  5
B10
330
762
100
AcDbEntity
  8
0
100
AcDbLine
 10
47.66854682
 20
3.29511568
 30
0.0
 11
48.64108728
 21
4.26765613
 31
0.0
  0
LINE
  5
B11
330
762
100
AcDbEntity
  8
0
100
AcDbLine
 10
48.2341711
 20
2.63172367
 30
0.0
 11
48.55616563
 21
2.95371818
 31
0.0
  0
ARC
  5
B12
330
762
100
AcDbEntity
  8
0
100
AcDbCircle
 10
48.76129192
 20
3.28211926
 30
0.0
 40
0.3872002994384767
100
AcDbArc
 50
164.00027306
 51
344.00027306
  0
LINE
  5
B13
330
762
100
AcDbEntity
  8
0
100
AcDbLine
 10
48.3890906
 20
3.38884436
 30
0.0
 11
48.88607369
 21
5.12202034
 31
0.0
  0
ARC
  5
B14
330
762
100
AcDbEntity
  8
0
100
AcDbCircle
 10
50.76033395
 20
3.62473661
 30
0.0
 40
3.136264312499998
100
AcDbArc
 50
155.20517737
 51
172.79482596
  0
LINE
  5
B15
330
762
100
AcDbEntity
  8
0
100
AcDbLine
 10
47.60337411
 20
3.63961506
 30
0.0
 11
48.80578658
 21
4.84202753
 31
0.0
  0
LINE
  5
B16
330
762
100
AcDbEntity
  8
0
100
AcDbLine
 10
47.66142252
 20
4.10733557
 30
0.0
 11
49.33211408
 21
5.77802713
 31
0.0
  0
LINE
  5
B17
330
762
100
AcDbEntity
  8
0
100
AcDbLine
 10
49.19397338
 20
4.00119802
 30
0.0
 11
49.562736
 21
4.36996066
 31
0.0
  0
LINE
  5
B18
330
762
100
AcDbEntity
  8
0
100
AcDbLine
 10
49.06339661
 20
4.00119802
 30
0.0
 11
49.16913325
 21
4.36996066
 31
0.0
  0
LINE
  5
B19
330
762
100
AcDbEntity
  8
0
100
AcDbLine
 10
51.32895509
 20
2.03945874
 30
0.0
 11
52.53762232
 21
3.24812596
 31
0.0
  0
LINE
  5
B1A
330
762
100
AcDbEntity
  8
0
100
AcDbLine
 10
50.81934525
 20
1.93952099
 30
0.0
 11
51.30354264
 21
2.4237184
 31
0.0
  0
LINE
  5
B1B
330
762
100
AcDbEntity
  8
0
100
AcDbLine
 10
49.99661808
 20
1.93613804
 30
0.0
 11
50.3653807
 21
2.30490066
 31
0.0
  0
LINE
  5
B1C
330
762
100
AcDbEntity
  8
0
100
AcDbLine
 10
50.40629019
 20
1.93613804
 30
0.0
 11
50.77669621
 21
2.30654406
 31
0.0
  0
LINE
  5
B1D
330
762
100
AcDbEntity
  8
0
100
AcDbLine
 10
52.14390874
 20
4.49310079
 30
0.0
 11
52.42037249
 21
4.76956454
 31
0.0
  0
LINE
  5
B1E
330
762
100
AcDbEntity
  8
0
100
AcDbLine
 10
51.99833802
 20
4.75720217
 30
0.0
 11
52.26275125
 21
5.02161541
 31
0.0
  0
LINE
  5
B1F
330
762
100
AcDbEntity
  8
0
100
AcDbLine
 10
51.32402319
 20
5.31190365
 30
0.0
 11
51.60060155
 21
5.58848201
 31
0.0
  0
LINE
  5
B20
330
762
100
AcDbEntity
  8
0
100
AcDbLine
 10
51.58841001
 20
5.16661836
 30
0.0
 11
51.85287323
 21
5.43108158
 31
0.0
  0
LINE
  5
B21
330
762
100
AcDbEntity
  8
0
100
AcDbLine
 10
51.8124692
 20
4.98100545
 30
0.0
 11
52.0732238
 21
5.24176004
 31
0.0
  0
LINE
  5
B22
330
762
100
AcDbEntity
  8
0
100
AcDbLine
 10
52.270537
 20
3.80038485
 30
0.0
 11
52.62080293
 21
4.15065078
 31
0.0
  0
LINE
  5
B23
330
762
100
AcDbEntity
  8
0
100
AcDbLine
 10
52.15336267
 20
3.27353841
 30
0.0
 11
52.63756007
 21
3.75773582
 31
0.0
  0
LINE
  5
B24
330
762
100
AcDbEntity
  8
0
100
AcDbLine
 10
52.24144843
 20
4.18096839
 30
0.0
 11
52.54239968
 21
4.48191964
 31
0.0
  0
LINE
  5
B25
330
762
100
AcDbEntity
  8
0
100
AcDbLine
 10
50.63035451
 20
5.43757915
 30
0.0
 11
50.98109796
 21
5.78832262
 31
0.0
  0
LINE
  5
B26
330
762
100
AcDbEntity
  8
0
100
AcDbLine
 10
50.32242138
 20
5.3919655
 30
0.0
 11
50.21136659
 21
5.74414717
 31
0.0
  0
LINE
  5
B27
330
762
100
AcDbEntity
  8
0
100
AcDbLine
 10
50.32242138
 20
5.3919655
 30
0.0
 11
50.21136659
 21
5.74414717
 31
0.0
1001
HATCH_DISTANCE
1040
1.0
1001
HATCH_DISPLAY
1070
     0
1001
HATCH_TYPE
1070
     7
  0
LINE
  5
B28
330
762
100
AcDbEntity
  8
0
100
AcDbLine
 10
50.21136659
 20
5.74414717
 30
0.0
 11
50.32242138
 21
5.3919655
 31
0.0
1001
HATCH_DISTANCE
1040
1.0
1001
HATCH_DISPLAY
1070
     0
1001
HATCH_TYPE
1070
     7
  0
LINE
  5
B29
330
762
100
AcDbEntity
  8
0
100
AcDbLine
 10
50.32242138
 20
5.3919655
 30
0.0
 11
50.21136659
 21
5.74414717
 31
0.0
  0
LINE
  5
B2A
330
762
100
AcDbEntity
  8
0
100
AcDbLine
 10
50.21136659
 20
5.74414717
 30
0.0
 11
50.32242138
 21
5.3919655
 31
0.0
  0
LINE
  5
B2B
330
762
100
AcDbEntity
  8
0
100
AcDbLine
 10
50.32242138
 20
5.3919655
 30
0.0
 11
50.21136659
 21
5.74414717
 31
0.0
1001
HATCH_DISTANCE
1040
1.0
1001
HATCH_DISPLAY
1070
     0
1001
HATCH_TYPE
1070
     7
  0
LINE
  5
B2C
330
762
100
AcDbEntity
  8
0
100
AcDbLine
 10
50.21136659
 20
5.74414717
 30
0.0
 11
50.32242138
 21
5.3919655
 31
0.0
1001
HATCH_DISTANCE
1040
1.0
1001
HATCH_DISPLAY
1070
     0
1001
HATCH_TYPE
1070
     7
  0
LINE
  5
B2D
330
762
100
AcDbEntity
  8
0
100
AcDbLine
 10
50.32242138
 20
5.3919655
 30
0.0
 11
50.21136659
 21
5.74414717
 31
0.0
  0
LINE
  5
B2E
330
762
100
AcDbEntity
  8
0
100
AcDbLine
 10
50.21136659
 20
5.74414717
 30
0.0
 11
50.32242138
 21
5.3919655
 31
0.0
  0
LINE
  5
B2F
330
762
100
AcDbEntity
  8
0
100
AcDbLine
 10
50.14657417
 20
5.33651467
 30
0.0
 11
50.03551938
 21
5.68869634
 31
0.0
  0
LINE
  5
B30
330
762
100
AcDbEntity
  8
0
100
AcDbLine
 10
50.10171783
 20
5.31861458
 30
0.0
 11
50.14011177
 21
5.35700852
 31
0.0
  0
LINE
  5
B31
330
762
100
AcDbEntity
  8
0
100
AcDbLine
 10
50.21136659
 20
5.74414717
 30
0.0
 11
50.21136659
 21
5.74414717
 31
0.0
1001
HATCH_DISTANCE
1040
1.0
1001
HATCH_DISPLAY
1070
     0
1001
HATCH_TYPE
1070
     7
  0
LINE
  5
B32
330
762
100
AcDbEntity
  8
0
100
AcDbLine
 10
50.21136659
 20
5.74414717
 30
0.0
 11
50.21136659
 21
5.74414717
 31
0.0
  0
LINE
  5
B33
330
762
100
AcDbEntity
  8
0
100
AcDbLine
 10
50.21136659
 20
5.74414717
 30
0.0
 11
50.21136659
 21
5.74414717
 31
0.0
1001
HATCH_DISTANCE
1040
1.0
1001
HATCH_DISPLAY
1070
     0
1001
HATCH_TYPE
1070
     7
  0
LINE
  5
B34
330
762
100
AcDbEntity
  8
0
100
AcDbLine
 10
50.21136659
 20
5.74414717
 30
0.0
 11
50.21136659
 21
5.74414717
 31
0.0
  0
LINE
  5
B35
330
762
100
AcDbEntity
  8
0
100
AcDbLine
 10
50.32242138
 20
5.3919655
 30
0.0
 11
50.32242138
 21
5.3919655
 31
0.0
1001
HATCH_DISTANCE
1040
1.0
1001
HATCH_DISPLAY
1070
     0
1001
HATCH_TYPE
1070
     7
  0
LINE
  5
B36
330
762
100
AcDbEntity
  8
0
100
AcDbLine
 10
50.32242138
 20
5.3919655
 30
0.0
 11
50.32242138
 21
5.3919655
 31
0.0
  0
LINE
  5
B37
330
762
100
AcDbEntity
  8
0
100
AcDbLine
 10
50.32242138
 20
5.3919655
 30
0.0
 11
50.32242138
 21
5.3919655
 31
0.0
1001
HATCH_DISTANCE
1040
1.0
1001
HATCH_DISPLAY
1070
     0
1001
HATCH_TYPE
1070
     7
  0
LINE
  5
B38
330
762
100
AcDbEntity
  8
0
100
AcDbLine
 10
50.32242138
 20
5.3919655
 30
0.0
 11
50.32242138
 21
5.3919655
 31
0.0
  0
LINE
  5
B39
330
762
100
AcDbEntity
  8
0
100
AcDbLine
 10
50.28709554
 20
5.50399229
 30
0.0
 11
50.58766538
 21
5.80456213
 31
0.0
  0
LINE
  5
B3A
330
762
100
AcDbEntity
  8
0
100
AcDbLine
 10
51.01152547
 20
5.40907802
 30
0.0
 11
51.31269986
 21
5.71025241
 31
0.0
  0
LINE
  5
B3B
330
762
100
AcDbEntity
  8
240
100
AcDbLine
 10
130.0
 20
6.2
 30
0.0
 11
130.0
 21
8.0
 31
0.0
  0
LINE
  5
B3C
330
762
100
AcDbEntity
  8
240
100
AcDbLine
 10
131.0
 20
6.2
 30
0.0
 11
131.0
 21
8.15
 31
0.0
  0
LINE
  5
B3D
330
762
100
AcDbEntity
  8
241
100
AcDbLine
 10
134.2
 20
8.0
 30
0.0
 11
134.2
 21
0.0
 31
0.0
  0
LINE
  5
B3E
330
762
100
AcDbEntity
  8
241
100
AcDbLine
 10
133.0
 20
8.15
 30
0.0
 11
133.0
 21
0.0
 31
0.0
  0
LINE
  5
B3F
330
762
100
AcDbEntity
  8
241
  6
HIDDEN2
100
AcDbLine
 10
135.0
 20
2.3
 30
0.0
 11
139.0
 21
2.3
 31
0.0
1001
GRPNAME
1000
0000002S
  0
LINE
  5
B40
330
762
100
AcDbEntity
  8
241
100
AcDbLine
 10
130.0
 20
-6.2
 30
0.0
 11
130.0
 21
0.0
 31
0.0
  0
LINE
  5
B41
330
762
100
AcDbEntity
  8
241
100
AcDbLine
 10
131.0
 20
-6.2
 30
0.0
 11
131.0
 21
0.0
 31
0.0
  0
LINE
  5
B42
330
762
100
AcDbEntity
  8
241
100
AcDbLine
 10
133.0
 20
-8.15
 30
0.0
 11
133.0
 21
0.0
 31
0.0
  0
LINE
  5
B43
330
762
100
AcDbEntity
  8
241
100
AcDbLine
 10
134.2
 20
-8.0
 30
0.0
 11
134.2
 21
0.0
 31
0.0
  0
LINE
  5
B44
330
762
100
AcDbEntity
  8
240
100
AcDbLine
 10
131.0
 20
-8.15
 30
0.0
 11
133.0
 21
-8.15
 31
0.0
  0
LINE
  5
B45
330
762
100
AcDbEntity
  8
240
100
AcDbLine
 10
131.0
 20
-6.2
 30
0.0
 11
130.0
 21
-6.2
 31
0.0
  0
LINE
  5
B46
330
762
100
AcDbEntity
  8
240
100
AcDbLine
 10
130.0
 20
-6.2
 30
0.0
 11
130.0
 21
-8.0
 31
0.0
  0
LINE
  5
B47
330
762
100
AcDbEntity
  8
240
100
AcDbLine
 10
131.0
 20
-6.2
 30
0.0
 11
131.0
 21
-8.15
 31
0.0
  0
LINE
  5
B48
330
762
100
AcDbEntity
  8
240
100
AcDbLine
 10
133.15
 20
-8.0
 30
0.0
 11
133.0
 21
-8.15
 31
0.0
  0
LINE
  5
B49
330
762
100
AcDbEntity
  8
241
  6
HIDDEN2
100
AcDbLine
 10
128.0
 20
2.33345238
 30
0.0
 11
135.0
 21
2.33345238
 31
0.0
  0
LINE
  5
B4A
330
762
100
AcDbEntity
  8
244
  6
HIDDEN2
100
AcDbLine
 10
128.0
 20
2.33345238
 30
0.0
 11
135.0
 21
0.0
 31
0.0
  0
LINE
  5
B4B
330
762
100
AcDbEntity
  8
244
  6
HIDDEN2
100
AcDbLine
 10
128.0
 20
0.0
 30
0.0
 11
135.0
 21
2.33345238
 31
0.0
  0
LINE
  5
B4C
330
762
100
AcDbEntity
  8
241
100
AcDbLine
 10
130.0
 20
6.2
 30
0.0
 11
130.0
 21
0.0
 31
0.0
  0
LINE
  5
B4D
330
762
100
AcDbEntity
  8
241
100
AcDbLine
 10
131.0
 20
6.2
 30
0.0
 11
131.0
 21
0.0
 31
0.0
  0
LINE
  5
B4E
330
762
100
AcDbEntity
  8
241
  6
HIDDEN2
100
AcDbLine
 10
128.0
 20
2.33345238
 30
0.0
 11
128.0
 21
0.0
 31
0.0
  0
LINE
  5
B4F
330
762
100
AcDbEntity
  8
240
100
AcDbLine
 10
131.0
 20
6.2
 30
0.0
 11
130.0
 21
6.2
 31
0.0
  0
LINE
  5
B50
330
762
100
AcDbEntity
  8
241
  6
HIDDEN2
100
AcDbLine
 10
135.0
 20
2.33345238
 30
0.0
 11
135.0
 21
0.0
 31
0.0
  0
LINE
  5
B51
330
762
100
AcDbEntity
  8
241
  6
HIDDEN2
100
AcDbLine
 10
139.0
 20
2.3
 30
0.0
 11
139.0
 21
0.0
 31
0.0
  0
LINE
  5
B52
330
762
100
AcDbEntity
  8
240
100
AcDbLine
 10
131.0
 20
8.15
 30
0.0
 11
133.0
 21
8.15
 31
0.0
  0
LINE
  5
B53
330
762
100
AcDbEntity
  8
240
100
AcDbLine
 10
133.15
 20
8.0
 30
0.0
 11
133.0
 21
8.15
 31
0.0
  0
LINE
  5
B54
330
762
100
AcDbEntity
  8
240
100
AcDbLine
 10
150.0
 20
7.0
 30
0.0
 11
150.0
 21
0.0
 31
0.0
  0
LINE
  5
B55
330
762
100
AcDbEntity
  8
240
100
AcDbLine
 10
150.0
 20
-7.0
 30
0.0
 11
150.0
 21
0.0
 31
0.0
  0
ARC
  5
B56
330
762
100
AcDbEntity
  8
240
100
AcDbCircle
 10
149.0
 20
-7.0
 30
0.0
 40
1.0
100
AcDbArc
 50
270.0
 51
0.0
1001
GENIUS_GENODEF_13
1002
{
1000
HIER
1070
     0
1002
}
1002
{
1000
MANEDIT
1070
     0
1002
}
1002
{
1000
NOSEL
1070
     0
1002
}
1002
{
1000
BEHIND
1070
     0
1002
}
1002
{
1000
OTHER
1070
     0
1002
}
1002
{
1000
REACTOR
1002
}
1001
GENIUS_GENOBJ-N-FIL_13
1002
{
1000
OWNER
1000
GEN
1002
}
  0
ARC
  5
B57
330
762
100
AcDbEntity
  8
240
100
AcDbCircle
 10
149.0
 20
7.0
 30
0.0
 40
1.0
100
AcDbArc
 50
359.9999824
 51
90.0
1001
GENIUS_GENODEF_13
1002
{
1000
HIER
1070
     0
1002
}
1002
{
1000
MANEDIT
1070
     0
1002
}
1002
{
1000
NOSEL
1070
     0
1002
}
1002
{
1000
BEHIND
1070
     0
1002
}
1002
{
1000
OTHER
1070
     0
1002
}
1002
{
1000
REACTOR
1002
}
1001
GENIUS_GENOBJ-N-FIL_13
1002
{
1000
OWNER
1000
GEN
1002
}
  0
ENDBLK
  5
882
330
762
100
AcDbEntity
  8
0
100
AcDbBlockEnd
  0
BLOCK
  5
8C6
330
8BC
100
AcDbEntity
  8
0
100
AcDbBlockBegin
  2
*D16
 70
     1
 10
0.0
 20
0.0
 30
0.0
  3
*D16
  1

  0
LINE
  5
A28
330
8BC
100
AcDbEntity
  8
250
  6
CONTINUOUS
100
AcDbLine
 10
0.0
 20
11.14125603
 30
0.0
 11
0.0
 21
22.0
 31
0.0
  0
LINE
  5
A29
330
8BC
100
AcDbEntity
  8
250
  6
CONTINUOUS
100
AcDbLine
 10
150.0
 20
7.5
 30
0.0
 11
150.0
 21
22.0
 31
0.0
  0
LINE
  5
A2A
330
8BC
100
AcDbEntity
  8
250
  6
CONTINUOUS
100
AcDbLine
 10
2.23
 20
21.0
 30
0.0
 11
147.77
 21
21.0
 31
0.0
  0
INSERT
  5
A2B
330
8BC
100
AcDbEntity
  8
250
  6
CONTINUOUS
100
AcDbBlockReference
  2
_OPEN
 10
0.0
 20
21.0
 30
0.0
 41
2.23
 42
2.23
 43
2.23
 50
180.0
  0
INSERT
  5
A2C
330
8BC
100
AcDbEntity
  8
250
  6
CONTINUOUS
100
AcDbBlockReference
  2
_OPEN
 10
150.0
 20
21.0
 30
0.0
 41
2.23
 42
2.23
 43
2.23
  0
MTEXT
  5
A2D
330
8BC
100
AcDbEntity
  8
250
  6
CONTINUOUS
 62
    40
100
AcDbMText
 10
74.90102409
 20
23.4
 30
0.0
 40
2.8
 41
0.0
 71
     5
 72
     1
  1
\A1;150
1001
ACAD
1000
MTEXTBEGIN
1070
    73
1070
     1
1070
    44
1040
1.0
1070
    74
1070
     0
1000
MTEXTEND
  0
POINT
  5
A2E
330
8BC
100
AcDbEntity
  8
DEFPOINTS
  6
CONTINUOUS
 62
     0
100
AcDbPoint
 10
0.0
 20
10.64125603
 30
0.0
  0
POINT
  5
A2F
330
8BC
100
AcDbEntity
  8
DEFPOINTS
  6
CONTINUOUS
 62
     0
100
AcDbPoint
 10
150.0
 20
7.0
 30
0.0
  0
POINT
  5
A30
330
8BC
100
AcDbEntity
  8
DEFPOINTS
  6
CONTINUOUS
 62
     0
100
AcDbPoint
 10
150.0
 20
21.0
 30
0.0
  0
ENDBLK
  5
8C7
330
8BC
100
AcDbEntity
  8
0
100
AcDbBlockEnd
  0
BLOCK
  5
8D2
330
8C8
100
AcDbEntity
  8
0
100
AcDbBlockBegin
  2
*D17
 70
     1
 10
0.0
 20
0.0
 30
0.0
  3
*D17
  1

  0
LINE
  5
A31
330
8C8
100
AcDbEntity
  8
250
  6
CONTINUOUS
100
AcDbLine
 10
149.5
 20
-8.0
 30
0.0
 11
168.25
 21
-8.0
 31
0.0
  0
LINE
  5
A32
330
8C8
100
AcDbEntity
  8
250
  6
CONTINUOUS
100
AcDbLine
 10
149.5
 20
8.0
 30
0.0
 11
168.25
 21
8.0
 31
0.0
  0
LINE
  5
A33
330
8C8
100
AcDbEntity
  8
250
  6
CONTINUOUS
100
AcDbLine
 10
167.25
 20
-5.77
 30
0.0
 11
167.25
 21
5.77
 31
0.0
  0
INSERT
  5
A34
330
8C8
100
AcDbEntity
  8
250
  6
CONTINUOUS
100
AcDbBlockReference
  2
_OPEN
 10
167.25
 20
-8.0
 30
0.0
 41
2.23
 42
2.23
 43
2.23
 50
270.0
  0
INSERT
  5
A35
330
8C8
100
AcDbEntity
  8
250
  6
CONTINUOUS
100
AcDbBlockReference
  2
_OPEN
 10
167.25
 20
8.0
 30
0.0
 41
2.23
 42
2.23
 43
2.23
 50
90.0
  0
MTEXT
  5
A36
330
8C8
100
AcDbEntity
  8
250
  6
CONTINUOUS
 62
    40
100
AcDbMText
 10
164.85
 20
0.0
 30
0.0
 40
2.8
 41
0.0
 71
     5
 72
     1
  1
\A1;{\H2.8;\U+2205}16
 11
0.0
 21
1.0
 31
0.0
1001
ACAD
1000
MTEXTBEGIN
1070
    73
1070
     1
1070
    44
1040
1.0
1070
    74
1070
     0
1000
MTEXTEND
  0
POINT
  5
A37
330
8C8
100
AcDbEntity
  8
DEFPOINTS
  6
CONTINUOUS
 62
     0
100
AcDbPoint
 10
149.0
 20
-8.0
 30
0.0
  0
POINT
  5
A38
330
8C8
100
AcDbEntity
  8
DEFPOINTS
  6
CONTINUOUS
 62
     0
100
AcDbPoint
 10
149.0
 20
8.0
 30
0.0
  0
POINT
  5
A39
330
8C8
100
AcDbEntity
  8
DEFPOINTS
  6
CONTINUOUS
 62
     0
100
AcDbPoint
 10
167.25
 20
8.0
 30
0.0
  0
ENDBLK
  5
8D3
330
8C8
100
AcDbEntity
  8
0
100
AcDbBlockEnd
  0
ENDSEC
  0
SECTION
  2
ENTITIES
  0
INSERT
  5
6E6
330
1A
100
AcDbEntity
  8
245
100
AcDbBlockReference
  2
矢印なし
 10
175.62382697
 20
90.55123572
 30
0.0
  0
DIMENSION
  5
8B2
330
1A
100
AcDbEntity
  8
250
  6
CONTINUOUS
100
AcDbDimension
  2
*D16
 10
150.0
 20
21.0
 30
0.0
 11
74.90102409
 21
21.0
 31
0.0
 70
   160
  3
BIGT
100
AcDbAlignedDimension
 13
0.0
 23
10.64125603
 33
0.0
 14
150.0
 24
7.0
 34
0.0
100
AcDbRotatedDimension
  0
TEXT
  5
8B3
330
1A
100
AcDbEntity
  8
241
100
AcDbText
 10
-47.5
 20
35.0
 30
0.0
 40
5.0
  1
MGT6-M3-150
  7
YOKO
 11
-47.5
 21
35.0
 31
0.0
100
AcDbText
 73
     1
  0
DIMENSION
  5
8B4
330
1A
100
AcDbEntity
  8
250
  6
CONTINUOUS
100
AcDbDimension
  2
*D17
 10
167.25
 20
8.0
 30
0.0
 11
164.85
 21
0.0
 31
0.0
 70
    32
  1
{\H2.8;\U+2205}<>
  3
BIGT
100
AcDbAlignedDimension
 13
149.0
 23
-8.0
 33
0.0
 14
149.0
 24
8.0
 34
0.0
 50
90.0
100
AcDbRotatedDimension
  0
MTEXT
  5
8B5
330
1A
100
AcDbEntity
  8
250
  6
CONTINUOUS
 62
    40
100
AcDbMText
 10
157.85
 20
-1.36807536
 30
0.0
 40
2.8
 41
0.0
 71
     5
 72
     1
  1
\A1;{\H2.8;\U+2205}4
 11
0.0
 21
1.0
 31
0.0
1001
ACAD
1000
MTEXTBEGIN
1070
    73
1070
     1
1070
    44
1040
1.0
1070
    74
1070
     0
1000
MTEXTEND
1000
MTEXTBEGIN
1070
    73
1070
     1
1070
    44
1040
1.0
1070
    74
1070
     0
1000
MTEXTEND
1000
MTEXTBEGIN
1070
    73
1070
     1
1070
    44
1040
1.0
1070
    74
1070
     0
1000
MTEXTEND
1000
MTEXTBEGIN
1070
    73
1070
     1
1070
    44
1040
1.0
1070
    74
1070
     0
1000
MTEXTEND
1000
MTEXTBEGIN
1070
    73
1070
     1
1070
    44
1040
1.0
1070
    74
1070
     0
1000
MTEXTEND
1000
MTEXTBEGIN
1070
    73
1070
     1
1070
    44
1040
1.0
1070
    74
1070
     0
1000
MTEXTEND
1000
MTEXTBEGIN
1070
    73
1070
     1
1070
    44
1040
1.0
1070
    74
1070
     0
1000
MTEXTEND
  0
LINE
  5
8B6
330
1A
100
AcDbEntity
  8
250
  6
CONTINUOUS
100
AcDbLine
 10
160.25
 20
2.0
 30
0.0
 11
160.25
 21
-3.37393748
 31
0.0
  0
MTEXT
  5
8B7
330
1A
100
AcDbEntity
  8
251
  6
CONTINUOUS
100
AcDbMText
 10
137.27492403
 20
15.0
 30
0.0
 40
2.8
 41
0.0
 71
     7
 72
     1
  1
□3.2
  7
YOKO
1001
ITEMNAME
1000
LNSP3
1001
ACAD
1000
MTEXTBEGIN
1070
    73
1070
     1
1070
    44
1040
1.0
1070
    74
1070
     0
1000
MTEXTEND
1000
MTEXTBEGIN
1070
    73
1070
     1
1070
    44
1040
1.0
1070
    74
1070
     0
1000
MTEXTEND
1000
MTEXTBEGIN
1070
    73
1070
     1
1070
    44
1040
1.0
1070
    74
1070
     0
1000
MTEXTEND
1000
MTEXTBEGIN
1070
    73
1070
     1
1070
    44
1040
1.0
1070
    74
1070
     0
1000
MTEXTEND
1000
MTEXTBEGIN
1070
    73
1070
     1
1070
    44
1040
1.0
1070
    74
1070
     0
1000
MTEXTEND
  0
LINE
  5
8B8
330
1A
100
AcDbEntity
  8
250
  6
CONTINUOUS
100
AcDbLine
 10
135.5
 20
14.0
 30
0.0
 11
149.42483822
 21
14.0
 31
0.0
1001
ITEMNAME
1000
LNSP2
  0
LEADER
  5
8B9
330
1A
100
AcDbEntity
  8
250
  6
CONTINUOUS
100
AcDbLeader
  3
BIGT
 76
     2
 10
131.29580662
 20
2.33345238
 30
0.0
 10
135.5
 20
14.0
 30
0.0
1001
ACAD
1000
DSTYLE
1002
{
1070
     6
1000
OPEN
1070
   343
1005
594
1002
}
  0
LINE
  5
8BA
330
1A
100
AcDbEntity
  8
250
  6
CONTINUOUS
100
AcDbLine
 10
150.5
 20
2.0
 30
0.0
 11
161.25
 21
2.0
 31
0.0
  0
INSERT
  5
8BB
330
1A
100
AcDbEntity
  8
250
  6
CONTINUOUS
100
AcDbBlockReference
  2
_OPEN
 10
160.25
 20
2.0
 30
0.0
 41
2.23
 42
2.23
 43
2.23
 50
90.0
  0
INSERT
  5
B58
330
1A
100
AcDbEntity
  8
245
100
AcDbBlockReference
  2
1
 10
0.0
 20
0.0
 30
0.0
  0
VIEWPORT
  5
22
330
17
100
AcDbEntity
 67
     1
  8
0
100
AcDbViewport
 10
261.51769912
 20
148.5
 30
0.0
 40
523.03539823
 41
297.0
 68
     1
 69
     1
1001
ACAD
1000
MVIEW
1002
{
1070
    16
1010
0.0
1020
0.0
1030
0.0
1010
0.0
1020
0.0
1030
1.0
1040
0.0
1040
297.0
1040
261.51769912
1040
148.5
1040
50.0
1040
0.0
1040
0.0
1070
     0
1070
   100
1070
     1
1070
     1
1070
     0
1070
     0
1070
     0
1070
     0
1040
0.0
1040
0.0
1040
0.0
1040
1.0
1040
1.0
1040
10.0
1040
10.0
1070
     0
1002
{
1002
}
1002
}
  0
ENDSEC
  0
SECTION
  2
OBJECTS
  0
DICTIONARY
  5
C
330
0
100
AcDbDictionary
  3
ACAD_GROUP
350
D
  3
ACAD_LAYOUT
350
565
  3
ACAD_MLINESTYLE
350
E
  3
ACAD_PLOTSETTINGS
350
566
  3
ACAD_PLOTSTYLENAME
350
563
  3
ACDBHEADERROUNDTRIPXREC
350
B81
  3
GRADE_DWG
350
540
  0
DICTIONARY
  5
BA4
330
1A
100
AcDbDictionary
280
     1
  3
ACAD_LAYOUTSELFREF
360
BA5
  0
DICTIONARY
  5
BA2
330
17
100
AcDbDictionary
280
     1
  3
ACAD_LAYOUTSELFREF
360
BA3
  0
DICTIONARY
  5
D
102
{ACAD_REACTORS
330
C
102
}
330
C
100
AcDbDictionary
  3
*A1
350
6C7
  3
*A2
350
6C8
  3
*A3
350
6D4
  3
*A4
350
6D5
  3
DREC-1
350
5FC
  3
DREC-2
350
654
  3
DREC-3
350
673
  0
DICTIONARY
  5
565
102
{ACAD_REACTORS
330
C
102
}
330
C
100
AcDbDictionary
  0
DICTIONARY
  5
E
102
{ACAD_REACTORS
330
C
102
}
330
C
100
AcDbDictionary
  3
STANDARD
350
13
  0
DICTIONARY
  5
566
102
{ACAD_REACTORS
330
C
102
}
330
C
100
AcDbDictionary
  3
A3_0_5倍_
350
758
  3
A3_1倍_
350
757
  3
A3_1倍__2000_
350
707
  3
A3_2倍_
350
759
  3
A4_0_5倍_
350
755
  3
A4_1倍_
350
754
  3
A4_1倍__2000_
350
708
  3
A4_2倍_
350
756
  0
ACDBDICTIONARYWDFLT
  5
563
102
{ACAD_REACTORS
330
C
102
}
330
C
100
AcDbDictionary
281
     1
  3
Normal
350
564
100
AcDbDictionaryWithDefault
340
564
  0
DICTIONARY
  5
B81
102
{ACAD_REACTORS
330
C
102
}
330
C
100
AcDbDictionary
  3
CEPSNTYPE
350
B8B
  3
DIMSTYLEDATA
350
B8F
  3
FINGERPRINTGUID
350
B8C
  3
HYPERLINKBASE
350
B84
  3
INSUNITS
350
B8A
  3
LAYOUTDICT
350
B86
  3
LWETCUNION
350
B89
  3
PLOTSETDICT
350
B87
  3
PLOTSTYLNAMDICT
350
B88
  3
PSVPSCALE
350
B8E
  3
PUCSBASE
350
B92
  3
PUCSORGBACK
350
B98
  3
PUCSORGBOTTOM
350
B94
  3
PUCSORGFRONT
350
B97
  3
PUCSORGLEFT
350
B95
  3
PUCSORGRIGHT
350
B96
  3
PUCSORGTOP
350
B93
  3
PUCSORTHOREF
350
B90
  3
PUCSORTHOVIEW
350
B91
  3
STYLESHEET
350
B85
  3
TSTACKALIGN
350
B82
  3
TSTACKSIZE
350
B83
  3
UCSBASE
350
B9B
  3
UCSORGBACK
350
BA1
  3
UCSORGBOTTOM
350
B9D
  3
UCSORGFRONT
350
BA0
  3
UCSORGLEFT
350
B9E
  3
UCSORGRIGHT
350
B9F
  3
UCSORGTOP
350
B9C
  3
UCSORTHOREF
350
B99
  3
UCSORTHOVIEW
350
B9A
  3
VERSIONGUID
350
B8D
  0
DICTIONARY
  5
540
102
{ACAD_REACTORS
330
C
102
}
330
C
100
AcDbDictionary
  3
VERSION
350
560
  0
XRECORD
  5
BA5
102
{ACAD_REACTORS
330
BA4
102
}
330
BA4
100
AcDbXrecord
340
1A
  0
XRECORD
  5
BA3
102
{ACAD_REACTORS
330
BA2
102
}
330
BA2
100
AcDbXrecord
340
17
  0
GROUP
  5
6C7
102
{ACAD_REACTORS
330
D
102
}
330
D
100
AcDbGroup
300

 70
     0
 71
     1
1001
GRPNAME
1000
DMA00
  0
GROUP
  5
6C8
102
{ACAD_REACTORS
330
D
102
}
330
D
100
AcDbGroup
300

 70
     0
 71
     1
1001
GRPNAME
1000
DMA00
  0
GROUP
  5
6D4
102
{ACAD_REACTORS
330
D
102
}
330
D
100
AcDbGroup
300

 70
     0
 71
     1
1001
GRPNAME
1000
DMA00
  0
GROUP
  5
6D5
102
{ACAD_REACTORS
330
D
102
}
330
D
100
AcDbGroup
300

 70
     0
 71
     1
1001
GRPNAME
1000
DMA00
  0
GROUP
  5
5FC
102
{ACAD_REACTORS
330
D
102
}
330
D
100
AcDbGroup
300

 70
     0
 71
     1
1001
GRPNAME
1000
DREC-
1001
GPARA
1000
xsiz
1000
44.182
1000
ysiz
1000
40.677
1000
angl
1000
0
1000
ctyp
1000
0
1000
csiz
1000
5
1000
lfnt
1000
cont
1000
hcnt
1000
hoff
1000
vcnt
1000
voff
1000
opnt
1000
4
1000
dxpt
1000
0
1000
dypt
1000
0
  0
GROUP
  5
654
102
{ACAD_REACTORS
330
D
102
}
330
D
100
AcDbGroup
300

 70
     0
 71
     1
1001
GRPNAME
1000
DREC-
1001
GPARA
1000
xsiz
1000
54.592
1000
ysiz
1000
53.036
1000
angl
1000
0
1000
ctyp
1000
0
1000
csiz
1000
5
1000
lfnt
1000
cont
1000
hcnt
1000
hoff
1000
vcnt
1000
voff
1000
opnt
1000
4
1000
dxpt
1000
0
1000
dypt
1000
0
  0
GROUP
  5
673
102
{ACAD_REACTORS
330
D
102
}
330
D
100
AcDbGroup
300

 70
     0
 71
     1
1001
GRPNAME
1000
DREC-
1001
GPARA
1000
xsiz
1000
30.363
1000
ysiz
1000
36.175
1000
angl
1000
0
1000
ctyp
1000
0
1000
csiz
1000
5
1000
lfnt
1000
cont
1000
hcnt
1000
hoff
1000
vcnt
1000
voff
1000
opnt
1000
4
1000
dxpt
1000
0
1000
dypt
1000
0
  0
MLINESTYLE
  5
13
102
{ACAD_REACTORS
330
E
102
}
330
E
100
AcDbMlineStyle
  2
STANDARD
 70
     0
  3

 62
     0
 51
90.0
 52
90.0
 71
     2
 49
0.5
 62
   256
  6
BYLAYER
 49
-0.5
 62
   256
  6
BYLAYER
  0
PLOTSETTINGS
  5
758
102
{ACAD_REACTORS
330
566
102
}
330
566
100
AcDbPlotSettings
  1
A3(0.5倍)
  2
\\AWTECPC05\HP DeskJet 1120C
  4
A3
  6

 40
5.95841646
 41
13.49375153
 42
6.04309082
 43
3.67242432
 44
296.92599487
 45
419.94665527
 46
89.96
 47
127.14
 48
0.0
 49
0.0
140
0.0
141
0.0
142
1.0
143
2.0
 70
  1716
 72
     1
 73
     1
 74
     2
  7
big.ctb
 75
    17
147
0.5
148
0.0
149
0.0
  0
PLOTSETTINGS
  5
757
102
{ACAD_REACTORS
330
566
102
}
330
566
100
AcDbPlotSettings
  1
A3(1倍)
  2
\\AWTECPC05\HP DeskJet 1120C
  4
A3
  6

 40
5.95841646
 41
13.49375153
 42
6.04309082
 43
3.67242432
 44
296.92599487
 45
419.94665527
 46
37.46
 47
52.89
 48
0.0
 49
0.0
140
0.0
141
0.0
142
1.0
143
1.0
 70
  1716
 72
     1
 73
     1
 74
     2
  7
big.ctb
 75
    16
147
1.0
148
0.0
149
0.0
  0
PLOTSETTINGS
  5
707
102
{ACAD_REACTORS
330
566
102
}
330
566
100
AcDbPlotSettings
  1
A3(1倍)(2000)
  2
SII LS-1300 (D-SCAN)
  4
User258
  6

 40
3.17499995
 41
3.17499995
 42
3.17498779
 43
3.17498779
 44
419.98898315
 45
296.98950195
 46
58.32
 47
40.32
 48
0.0
 49
0.0
140
0.0
141
0.0
142
1.0
143
1.0
 70
  1716
 72
     1
 73
     0
 74
     2
  7
big.ctb
 75
    16
147
1.0
148
0.0
149
0.0
  0
PLOTSETTINGS
  5
759
102
{ACAD_REACTORS
330
566
102
}
330
566
100
AcDbPlotSettings
  1
A3(2倍)
  2
\\AWTECPC05\HP DeskJet 1120C
  4
A3
  6

 40
5.95841646
 41
13.49375153
 42
6.04309082
 43
3.67242432
 44
296.92599487
 45
419.94665527
 46
-67.54
 47
-95.61
 48
0.0
 49
0.0
140
0.0
141
0.0
142
1.0
143
0.5
 70
  1716
 72
     1
 73
     1
 74
     2
  7
big.ctb
 75
    27
147
2.0
148
0.0
149
0.0
  0
PLOTSETTINGS
  5
755
102
{ACAD_REACTORS
330
566
102
}
330
566
100
AcDbPlotSettings
  1
A4(0.5倍)
  2
\\AWTECPC05\HP DeskJet 1120C
  4
A4
  6

 40
4.18041658
 41
13.49374962
 42
4.18040466
 43
3.92642212
 44
209.97332764
 45
296.92599487
 46
48.31
 47
65.5
 48
0.0
 49
0.0
140
0.0
141
0.0
142
1.0
143
2.0
 70
  1716
 72
     1
 73
     1
 74
     2
  7
big.ctb
 75
    17
147
0.5
148
0.0
149
0.0
  0
PLOTSETTINGS
  5
754
102
{ACAD_REACTORS
330
566
102
}
330
566
100
AcDbPlotSettings
  1
A4(1倍)
  2
\\AWTECPC05\HP DeskJet 1120C
  4
A4
  6

 40
4.18041658
 41
13.49374962
 42
4.18040466
 43
3.92642212
 44
209.97332764
 45
296.92599487
 46
-4.19
 47
-8.75
 48
0.0
 49
0.0
140
0.0
141
0.0
142
1.0
143
1.0
 70
  1716
 72
     1
 73
     1
 74
     2
  7
big.ctb
 75
    16
147
1.0
148
0.0
149
0.0
  0
PLOTSETTINGS
  5
708
102
{ACAD_REACTORS
330
566
102
}
330
566
100
AcDbPlotSettings
  1
A4(1倍)(2000)
  2
SII LS-1300 (D-SCAN)
  4
User259
  6

 40
3.17499995
 41
3.17499995
 42
3.17498779
 43
3.17500305
 44
296.98950195
 45
209.99449158
 46
-3.18
 47
-3.18
 48
0.0
 49
0.0
140
0.0
141
0.0
142
1.0
143
1.0
 70
  1716
 72
     1
 73
     0
 74
     2
  7
big.ctb
 75
    16
147
1.0
148
0.0
149
0.0
  0
PLOTSETTINGS
  5
756
102
{ACAD_REACTORS
330
566
102
}
330
566
100
AcDbPlotSettings
  1
A4(2倍)
  2
\\AWTECPC05\HP DeskJet 1120C
  4
A4
  6

 40
4.18041658
 41
13.49374962
 42
4.18040466
 43
3.92642212
 44
209.97332764
 45
296.92599487
 46
-109.19
 47
-157.25
 48
0.0
 49
0.0
140
0.0
141
0.0
142
1.0
143
0.5
 70
  1716
 72
     1
 73
     1
 74
     2
  7
big.ctb
 75
    27
147
2.0
148
0.0
149
0.0
  0
ACDBPLACEHOLDER
  5
564
102
{ACAD_REACTORS
330
563
102
}
330
563
100
AcDbPlaceHolder
280
     0
  0
XRECORD
  5
B8B
102
{ACAD_REACTORS
330
B81
102
}
330
B81
100
AcDbXrecord
 90
        0
  0
XRECORD
  5
B8F
102
{ACAD_REACTORS
330
B81
102
}
330
B81
100
AcDbXrecord
1000
DSTYLE
1002
{
1070
    79
 70
     2
1070
   179
 70
     3
1070
   289
 70
     2
1070
   341
340
594
1070
   343
340
594
1070
   344
340
594
1070
   371
 70
    -1
1070
   372
 70
    -1
1002
}
  0
XRECORD
  5
B8C
102
{ACAD_REACTORS
330
B81
102
}
330
B81
100
AcDbXrecord
  1
{51294030-9CB4-11D3-8E18-00A0C925D94D}
  0
XRECORD
  5
B84
102
{ACAD_REACTORS
330
B81
102
}
330
B81
100
AcDbXrecord
  1

  0
XRECORD
  5
B8A
102
{ACAD_REACTORS
330
B81
102
}
330
B81
100
AcDbXrecord
 90
        0
  0
XRECORD
  5
B86
102
{ACAD_REACTORS
330
B81
102
}
330
B81
100
AcDbXrecord
340
565
  0
XRECORD
  5
B89
102
{ACAD_REACTORS
330
B81
102
}
330
B81
100
AcDbXrecord
 90
    10781
  0
XRECORD
  5
B87
102
{ACAD_REACTORS
330
B81
102
}
330
B81
100
AcDbXrecord
340
566
  0
XRECORD
  5
B88
102
{ACAD_REACTORS
330
B81
102
}
330
B81
100
AcDbXrecord
340
563
  0
XRECORD
  5
B8E
102
{ACAD_REACTORS
330
B81
102
}
330
B81
100
AcDbXrecord
 40
0.0
  0
XRECORD
  5
B92
102
{ACAD_REACTORS
330
B81
102
}
330
B81
100
AcDbXrecord
340
0
  0
XRECORD
  5
B98
102
{ACAD_REACTORS
330
B81
102
}
330
B81
100
AcDbXrecord
 10
0.0
 20
0.0
 30
0.0
  0
XRECORD
  5
B94
102
{ACAD_REACTORS
330
B81
102
}
330
B81
100
AcDbXrecord
 10
0.0
 20
0.0
 30
0.0
  0
XRECORD
  5
B97
102
{ACAD_REACTORS
330
B81
102
}
330
B81
100
AcDbXrecord
 10
0.0
 20
0.0
 30
0.0
  0
XRECORD
  5
B95
102
{ACAD_REACTORS
330
B81
102
}
330
B81
100
AcDbXrecord
 10
0.0
 20
0.0
 30
0.0
  0
XRECORD
  5
B96
102
{ACAD_REACTORS
330
B81
102
}
330
B81
100
AcDbXrecord
 10
0.0
 20
0.0
 30
0.0
  0
XRECORD
  5
B93
102
{ACAD_REACTORS
330
B81
102
}
330
B81
100
AcDbXrecord
 10
0.0
 20
0.0
 30
0.0
  0
XRECORD
  5
B90
102
{ACAD_REACTORS
330
B81
102
}
330
B81
100
AcDbXrecord
340
0
  0
XRECORD
  5
B91
102
{ACAD_REACTORS
330
B81
102
}
330
B81
100
AcDbXrecord
 70
     0
  0
XRECORD
  5
B85
102
{ACAD_REACTORS
330
B81
102
}
330
B81
100
AcDbXrecord
  1
big.ctb
  0
XRECORD
  5
B82
102
{ACAD_REACTORS
330
B81
102
}
330
B81
100
AcDbXrecord
 90
        1
  0
XRECORD
  5
B83
102
{ACAD_REACTORS
330
B81
102
}
330
B81
100
AcDbXrecord
 90
       70
  0
XRECORD
  5
B9B
102
{ACAD_REACTORS
330
B81
102
}
330
B81
100
AcDbXrecord
340
0
  0
XRECORD
  5
BA1
102
{ACAD_REACTORS
330
B81
102
}
330
B81
100
AcDbXrecord
 10
0.0
 20
0.0
 30
0.0
  0
XRECORD
  5
B9D
102
{ACAD_REACTORS
330
B81
102
}
330
B81
100
AcDbXrecord
 10
0.0
 20
0.0
 30
0.0
  0
XRECORD
  5
BA0
102
{ACAD_REACTORS
330
B81
102
}
330
B81
100
AcDbXrecord
 10
0.0
 20
0.0
 30
0.0
  0
XRECORD
  5
B9E
102
{ACAD_REACTORS
330
B81
102
}
330
B81
100
AcDbXrecord
 10
0.0
 20
0.0
 30
0.0
  0
XRECORD
  5
B9F
102
{ACAD_REACTORS
330
B81
102
}
330
B81
100
AcDbXrecord
 10
0.0
 20
0.0
 30
0.0
  0
XRECORD
  5
B9C
102
{ACAD_REACTORS
330
B81
102
}
330
B81
100
AcDbXrecord
 10
0.0
 20
0.0
 30
0.0
  0
XRECORD
  5
B99
102
{ACAD_REACTORS
330
B81
102
}
330
B81
100
AcDbXrecord
340
0
  0
XRECORD
  5
B9A
102
{ACAD_REACTORS
330
B81
102
}
330
B81
100
AcDbXrecord
 70
     0
  0
XRECORD
  5
B8D
102
{ACAD_REACTORS
330
B81
102
}
330
B81
100
AcDbXrecord
  1
{CBF8E516-6DB3-4753-8887-2143E6C7D63F}
  0
XRECORD
  5
560
102
{ACAD_REACTORS
330
540
102
}
330
540
100
AcDbXrecord
  1
2.0.0
  0
ENDSEC
  0
EOF
