  0
SECTION
  2
HEADER
  9
$ACADVER
  1
AC1014
  9
$ACADMAINTVER
 70
     9
  9
$DWGCODEPAGE
  3
ANSI_932
  9
$INSBASE
 10
0.0
 20
0.0
 30
0.0
  9
$EXTMIN
 10
-48.51429639
 20
-11.07006072
 30
-0.00152582
  9
$EXTMAX
 10
89.77813028
 20
40.00231253
 30
0.00000003
  9
$LIMMIN
 10
0.0
 20
0.0
  9
$LIMMAX
 10
420.0
 20
297.0
  9
$ORTHOMODE
 70
     1
  9
$REGENMODE
 70
     1
  9
$FILLMODE
 70
     1
  9
$QTEXTMODE
 70
     0
  9
$MIRRTEXT
 70
     1
  9
$DRAGMODE
 70
     2
  9
$LTSCALE
 40
10.0
  9
$OSMODE
 70
   549
  9
$ATTMODE
 70
     1
  9
$TEXTSIZE
 40
3.0
  9
$TRACEWID
 40
1.0
  9
$TEXTSTYLE
  7
YOKO
  9
$CLAYER
  8
245
  9
$CELTYPE
  6
BYLAYER
  9
$CECOLOR
 62
   256
  9
$CELTSCALE
 40
1.0
  9
$DELOBJ
 70
     1
  9
$DISPSILH
 70
     0
  9
$DIMSCALE
 40
1.0
  9
$DIMASZ
 40
2.0
  9
$DIMEXO
 40
2.0
  9
$DIMDLI
 40
2.5
  9
$DIMRND
 40
0.0
  9
$DIMDLE
 40
0.0
  9
$DIMEXE
 40
2.0
  9
$DIMTP
 40
0.0
  9
$DIMTM
 40
0.0
  9
$DIMTXT
 40
4.0
  9
$DIMCEN
 40
0.0
  9
$DIMTSZ
 40
0.0
  9
$DIMTOL
 70
     0
  9
$DIMLIM
 70
     0
  9
$DIMTIH
 70
     0
  9
$DIMTOH
 70
     0
  9
$DIMSE1
 70
     0
  9
$DIMSE2
 70
     0
  9
$DIMTAD
 70
     3
  9
$DIMZIN
 70
     8
  9
$DIMBLK
  1

  9
$DIMASO
 70
     1
  9
$DIMSHO
 70
     1
  9
$DIMPOST
  1

  9
$DIMAPOST
  1

  9
$DIMALT
 70
     0
  9
$DIMALTD
 70
     2
  9
$DIMALTF
 40
25.4
  9
$DIMLFAC
 40
1.0
  9
$DIMTOFL
 70
     1
  9
$DIMTVP
 40
0.0
  9
$DIMTIX
 70
     1
  9
$DIMSOXD
 70
     0
  9
$DIMSAH
 70
     1
  9
$DIMBLK1
  1
OPEN
  9
$DIMBLK2
  1
OPEN
  9
$DIMSTYLE
  2
BIGT
  9
$DIMCLRD
 70
   256
  9
$DIMCLRE
 70
   256
  9
$DIMCLRT
 70
    40
  9
$DIMTFAC
 40
1.0
  9
$DIMGAP
 40
1.0
  9
$DIMJUST
 70
     0
  9
$DIMSD1
 70
     0
  9
$DIMSD2
 70
     0
  9
$DIMTOLJ
 70
     1
  9
$DIMTZIN
 70
     8
  9
$DIMALTZ
 70
     0
  9
$DIMALTTZ
 70
     0
  9
$DIMFIT
 70
     3
  9
$DIMUPT
 70
     0
  9
$DIMUNIT
 70
     2
  9
$DIMDEC
 70
     3
  9
$DIMTDEC
 70
     3
  9
$DIMALTU
 70
     2
  9
$DIMALTTD
 70
     2
  9
$DIMTXSTY
  7
STANDARD
  9
$DIMAUNIT
 70
     0
  9
$LUNITS
 70
     2
  9
$LUPREC
 70
     3
  9
$SKETCHINC
 40
1.0
  9
$FILLETRAD
 40
0.0
  9
$AUNITS
 70
     0
  9
$AUPREC
 70
     3
  9
$MENU
  1
.
  9
$ELEVATION
 40
0.0
  9
$PELEVATION
 40
0.0
  9
$THICKNESS
 40
0.0
  9
$LIMCHECK
 70
     0
  9
$BLIPMODE
 70
     0
  9
$CHAMFERA
 40
10.0
  9
$CHAMFERB
 40
10.0
  9
$CHAMFERC
 40
0.0
  9
$CHAMFERD
 40
0.0
  9
$SKPOLY
 70
     0
  9
$TDCREATE
 40
2455128.388111608
  9
$TDUPDATE
 40
2455316.414314595
  9
$TDINDWG
 40
0.0489491088
  9
$TDUSRTIMER
 40
0.0489491088
  9
$USRTIMER
 70
     1
  9
$ANGBASE
 50
0.0
  9
$ANGDIR
 70
     0
  9
$PDMODE
 70
     1
  9
$PDSIZE
 40
-5.0
  9
$PLINEWID
 40
0.0
  9
$COORDS
 70
     0
  9
$SPLFRAME
 70
     0
  9
$SPLINETYPE
 70
     6
  9
$SPLINESEGS
 70
     8
  9
$ATTDIA
 70
     0
  9
$ATTREQ
 70
     1
  9
$HANDLING
 70
-16383
  9
$HANDSEED
  5
1014
  9
$SURFTAB1
 70
     6
  9
$SURFTAB2
 70
     6
  9
$SURFTYPE
 70
     6
  9
$SURFU
 70
     6
  9
$SURFV
 70
     6
  9
$UCSNAME
  2

  9
$UCSORG
 10
0.0
 20
0.0
 30
0.0
  9
$UCSXDIR
 10
1.0
 20
0.0
 30
0.0
  9
$UCSYDIR
 10
0.0
 20
1.0
 30
0.0
  9
$PUCSNAME
  2

  9
$PUCSORG
 10
0.0
 20
0.0
 30
0.0
  9
$PUCSXDIR
 10
1.0
 20
0.0
 30
0.0
  9
$PUCSYDIR
 10
0.0
 20
1.0
 30
0.0
  9
$USERI1
 70
     1
  9
$USERI2
 70
     0
  9
$USERI3
 70
     0
  9
$USERI4
 70
     0
  9
$USERI5
 70
     0
  9
$USERR1
 40
0.0
  9
$USERR2
 40
0.0
  9
$USERR3
 40
0.0
  9
$USERR4
 40
0.0
  9
$USERR5
 40
0.0
  9
$WORLDVIEW
 70
     1
  9
$SHADEDGE
 70
     3
  9
$SHADEDIF
 70
    70
  9
$TILEMODE
 70
     1
  9
$MAXACTVP
 70
    16
  9
$PINSBASE
 10
0.0
 20
0.0
 30
0.0
  9
$PLIMCHECK
 70
     0
  9
$PEXTMIN
 10
1.00000000E+20
 20
1.00000000E+20
 30
1.00000000E+20
  9
$PEXTMAX
 10
-1.00000000E+20
 20
-1.00000000E+20
 30
-1.00000000E+20
  9
$PLIMMIN
 10
0.0
 20
0.0
  9
$PLIMMAX
 10
420.0
 20
297.0
  9
$UNITMODE
 70
     0
  9
$VISRETAIN
 70
     0
  9
$PLINEGEN
 70
     0
  9
$PSLTSCALE
 70
     1
  9
$TREEDEPTH
 70
  3020
  9
$PICKSTYLE
 70
     0
  9
$CMLSTYLE
  2
STANDARD
  9
$CMLJUST
 70
     0
  9
$CMLSCALE
 40
1.0
  9
$PROXYGRAPHICS
 70
     1
  9
$MEASUREMENT
 70
     1
  0
ENDSEC
  0
SECTION
  2
CLASSES
  0
CLASS
  1
XRECORD
  2
AcDbXrecord
  3
AutoCAD 2000
 90
        0
280
     0
281
     0
  0
CLASS
  1
ACDBDICTIONARYWDFLT
  2
AcDbDictionaryWithDefault
  3
AutoCAD 2000
 90
        0
280
     0
281
     0
  0
CLASS
  1
ACDBPLACEHOLDER
  2
AcDbPlaceHolder
  3
AutoCAD 2000
 90
        0
280
     0
281
     0
  0
CLASS
  1
LAYOUT
  2
AcDbLayout
  3
AutoCAD 2000
 90
        0
280
     0
281
     0
  0
CLASS
  1
PLOTSETTINGS
  2
AcDbPlotSettings
  3
AutoCAD 2000
 90
        0
280
     0
281
     0
  0
CLASS
  1
LONG_TRANSACTION
  2
AcDbLongTransaction
  3
AutoCAD 2000
 90
        0
280
     0
281
     0
  0
CLASS
  1
LWPOLYLINE
  2
AcDbPolyline
  3
AutoCAD 2000
 90
        0
280
     0
281
     1
  0
CLASS
  1
HATCH
  2
AcDbHatch
  3
AutoCAD 2000
 90
        0
280
     0
281
     1
  0
CLASS
  1
XRECORD
  2
AcDbXrecord
  3
AutoCAD 2000
 90
        0
280
     0
281
     0
  0
CLASS
  1
LONG_TRANSACTION
  2
AcDbLongTransaction
  3
AutoCAD 2000
 90
        0
280
     0
281
     0
  0
CLASS
  1
LWPOLYLINE
  2
AcDbPolyline
  3
AutoCAD 2000
 90
        0
280
     0
281
     1
  0
CLASS
  1
HATCH
  2
AcDbHatch
  3
AutoCAD 2000
 90
        0
280
     0
281
     1
  0
CLASS
  1
XRECORD
  2
AcDbXrecord
  3
AutoCAD 2000
 90
        0
280
     0
281
     0
  0
ENDSEC
  0
SECTION
  2
TABLES
  0
TABLE
  2
VPORT
  5
8
330
0
100
AcDbSymbolTable
 70
     2
  0
VPORT
  5
FEF
330
8
100
AcDbSymbolTableRecord
100
AcDbViewportTableRecord
  2
*ACTIVE
 70
     0
 10
0.0
 20
0.0
 11
1.0
 21
1.0
 12
20.63191694
 22
14.4661259
 13
0.0
 23
0.0
 14
7.0
 24
7.0
 15
7.0
 25
7.0
 16
0.0
 26
0.0
 36
1.0
 17
0.0
 27
0.0
 37
0.0
 40
97.09814686
 41
1.43184713
 42
50.0
 43
0.0
 44
0.0
 50
0.0
 51
0.0
 71
     0
 72
  2000
 73
     1
 74
     0
 75
     0
 76
     0
 77
     0
 78
     0
  0
ENDTAB
  0
TABLE
  2
LTYPE
  5
5
330
0
100
AcDbSymbolTable
 70
     3
  0
LTYPE
  5
14
330
5
100
AcDbSymbolTableRecord
100
AcDbLinetypeTableRecord
  2
BYBLOCK
 70
     0
  3

 72
    65
 73
     0
 40
0.0
  0
LTYPE
  5
15
330
5
100
AcDbSymbolTableRecord
100
AcDbLinetypeTableRecord
  2
BYLAYER
 70
     0
  3

 72
    65
 73
     0
 40
0.0
  0
LTYPE
  5
16
330
5
100
AcDbSymbolTableRecord
100
AcDbLinetypeTableRecord
  2
CONTINUOUS
 70
     0
  3
Solid line
 72
    65
 73
     0
 40
0.0
  0
LTYPE
  5
258
330
5
100
AcDbSymbolTableRecord
100
AcDbLinetypeTableRecord
  2
CENTER2
 70
     0
  3
___ _ ___ _ ___ _ ___ _ ___ _ ___ _ ___ _ ___ _
 72
    65
 73
     4
 40
1.125
 49
0.75
 74
     0
 49
-0.125
 74
     0
 49
0.125
 74
     0
 49
-0.125
 74
     0
  0
LTYPE
  5
25C
330
5
100
AcDbSymbolTableRecord
100
AcDbLinetypeTableRecord
  2
HIDDEN2
 70
     0
  3
_ _ _ _ _ _ _ _ _ _ _ _ _ _ _ _ _ _ _ _ _ _ _ _
 72
    65
 73
     2
 40
0.1875
 49
0.125
 74
     0
 49
-0.0625
 74
     0
  0
ENDTAB
  0
TABLE
  2
LAYER
  5
2
330
0
100
AcDbSymbolTable
 70
    12
  0
LAYER
  5
F
330
2
100
AcDbSymbolTableRecord
100
AcDbLayerTableRecord
  2
0
 70
     0
 62
     7
  6
CONTINUOUS
  0
LAYER
  5
1AA
330
2
100
AcDbSymbolTableRecord
100
AcDbLayerTableRecord
  2
240
 70
     0
 62
     4
  6
CONTINUOUS
  0
LAYER
  5
1AB
330
2
100
AcDbSymbolTableRecord
100
AcDbLayerTableRecord
  2
241
 70
     0
 62
   211
  6
CONTINUOUS
  0
LAYER
  5
1AC
330
2
100
AcDbSymbolTableRecord
100
AcDbLayerTableRecord
  2
242
 70
     0
 62
     3
  6
CONTINUOUS
  0
LAYER
  5
1AD
330
2
100
AcDbSymbolTableRecord
100
AcDbLayerTableRecord
  2
243
 70
     0
 62
   211
  6
HIDDEN2
  0
LAYER
  5
1AF
330
2
100
AcDbSymbolTableRecord
100
AcDbLayerTableRecord
  2
245
 70
     0
 62
     2
  6
CENTER2
  0
LAYER
  5
21E
330
2
100
AcDbSymbolTableRecord
100
AcDbLayerTableRecord
  2
250
 70
     0
 62
     3
  6
CONTINUOUS
  0
LAYER
  5
21F
330
2
100
AcDbSymbolTableRecord
100
AcDbLayerTableRecord
  2
251
 70
     0
 62
    40
  6
CONTINUOUS
  0
LAYER
  5
5C4
330
2
100
AcDbSymbolTableRecord
100
AcDbLayerTableRecord
  2
DEFPOINTS
 70
     0
 62
     7
  6
CONTINUOUS
  0
LAYER
  5
8B9
330
2
100
AcDbSymbolTableRecord
100
AcDbLayerTableRecord
  2
AM_7
 70
     0
 62
     2
  6
CENTER2
  0
ENDTAB
  0
TABLE
  2
STYLE
  5
3
330
0
100
AcDbSymbolTable
 70
     2
  0
STYLE
  5
10
330
3
100
AcDbSymbolTableRecord
100
AcDbTextStyleTableRecord
  2
STANDARD
 70
     0
 40
0.0
 41
1.0
 50
0.0
 71
     0
 42
3.0
  3
romans.shx
  4
BIGFONT.SHX
  0
STYLE
  5
339
330
3
100
AcDbSymbolTableRecord
100
AcDbTextStyleTableRecord
  2
YOKO
 70
     0
 40
0.0
 41
1.0
 50
0.0
 71
     0
 42
3.0
  3
romans.shx
  4
extfont.shx
  0
ENDTAB
  0
TABLE
  2
VIEW
  5
6
330
0
100
AcDbSymbolTable
 70
     0
  0
ENDTAB
  0
TABLE
  2
UCS
  5
7
330
0
100
AcDbSymbolTable
 70
     0
  0
ENDTAB
  0
TABLE
  2
APPID
  5
9
330
0
100
AcDbSymbolTable
 70
    15
  0
APPID
  5
11
330
9
100
AcDbSymbolTableRecord
100
AcDbRegAppTableRecord
  2
ACAD
 70
     0
  0
APPID
  5
1B1
330
9
100
AcDbSymbolTableRecord
100
AcDbRegAppTableRecord
  2
GLOBAL
 70
     0
  0
APPID
  5
2A4
330
9
100
AcDbSymbolTableRecord
100
AcDbRegAppTableRecord
  2
DETAIL
 70
     0
  0
APPID
  5
5FD
330
9
100
AcDbSymbolTableRecord
100
AcDbRegAppTableRecord
  2
GRPNAME
 70
     0
  0
APPID
  5
5FE
330
9
100
AcDbSymbolTableRecord
100
AcDbRegAppTableRecord
  2
GPARA
 70
     0
  0
APPID
  5
6C4
330
9
100
AcDbSymbolTableRecord
100
AcDbRegAppTableRecord
  2
DCO15
 70
     0
  0
APPID
  5
6C5
330
9
100
AcDbSymbolTableRecord
100
AcDbRegAppTableRecord
  2
ITEMNAME
 70
     0
  0
APPID
  5
6C6
330
9
100
AcDbSymbolTableRecord
100
AcDbRegAppTableRecord
  2
GRADE_0
 70
     0
  0
APPID
  5
8BA
330
9
100
AcDbSymbolTableRecord
100
AcDbRegAppTableRecord
  2
GENIUS_GENODEF_13
 70
     0
  0
APPID
  5
8BB
330
9
100
AcDbSymbolTableRecord
100
AcDbRegAppTableRecord
  2
GENIUS_GENOREF_13
 70
     0
  0
APPID
  5
8BC
330
9
100
AcDbSymbolTableRecord
100
AcDbRegAppTableRecord
  2
GENIUS_GENOBJ-N-FIL_13
 70
     0
  0
APPID
  5
8BD
330
9
100
AcDbSymbolTableRecord
100
AcDbRegAppTableRecord
  2
HATCH_TYPE
 70
     0
  0
APPID
  5
8BE
330
9
100
AcDbSymbolTableRecord
100
AcDbRegAppTableRecord
  2
HATCH_DISPLAY
 70
     0
  0
APPID
  5
8BF
330
9
100
AcDbSymbolTableRecord
100
AcDbRegAppTableRecord
  2
HATCH_DISTANCE
 70
     0
  0
APPID
  5
C00
330
9
100
AcDbSymbolTableRecord
100
AcDbRegAppTableRecord
  2
CONTENTBLOCKICON
 70
     0
  0
ENDTAB
  0
TABLE
  2
DIMSTYLE
  5
A
330
0
100
AcDbSymbolTable
 70
     1
  0
DIMSTYLE
105
725
102
{ACAD_REACTORS
330
E5D
330
D60
102
}
330
A
100
AcDbSymbolTableRecord
100
AcDbDimStyleTableRecord
  2
BIGT
 70
     0
  3

  4

  5

  6
OPEN
  7
OPEN
 40
1.0
 41
2.23
 42
0.5
 43
2.5
 44
1.0
 45
0.0
 46
0.0
 47
0.0
 48
0.0
140
2.8
141
0.0
142
0.0
143
25.4
144
1.0
145
0.0
146
1.0
147
1.0
 71
     0
 72
     0
 73
     0
 74
     0
 75
     0
 76
     0
 77
     3
 78
     8
170
     0
171
     2
172
     1
173
     1
174
     1
175
     0
176
   256
177
   256
178
    40
270
     2
271
     3
272
     3
273
     2
274
     2
340
10
275
     0
280
     0
281
     0
282
     0
283
     1
284
     8
285
     0
286
     0
287
     3
288
     0
  0
ENDTAB
  0
TABLE
  2
BLOCK_RECORD
  5
1
330
0
100
AcDbSymbolTable
 70
    10
  0
BLOCK_RECORD
  5
1A
102
{ACAD_XDICTIONARY
360
BFE
102
}
330
1
100
AcDbSymbolTableRecord
100
AcDbBlockTableRecord
  2
*MODEL_SPACE
  0
BLOCK_RECORD
  5
17
102
{ACAD_XDICTIONARY
360
BFC
102
}
330
1
100
AcDbSymbolTableRecord
100
AcDbBlockTableRecord
  2
*PAPER_SPACE
  0
BLOCK_RECORD
  5
594
330
1
100
AcDbSymbolTableRecord
100
AcDbBlockTableRecord
  2
_OPEN
  0
BLOCK_RECORD
  5
6E3
330
1
100
AcDbSymbolTableRecord
100
AcDbBlockTableRecord
  2
矢印なし
  0
BLOCK_RECORD
  5
77A
330
1
100
AcDbSymbolTableRecord
100
AcDbBlockTableRecord
  2
1
1001
CONTENTBLOCKICON
1071
        0
1004
2800000020000000200000000100080000000000000400000000000000000000000000000000000000000000000080000080000000808000800000008000800080800000C0C0C000C0DCC000F0CAA6000020400000206000002080000020A0000020C0000020E00000400000004020000040400000406000004080000040A0
1004
000040C0000040E00000600000006020000060400000606000006080000060A0000060C0000060E00000800000008020000080400000806000008080000080A0000080C0000080E00000A0000000A0200000A0400000A0600000A0800000A0A00000A0C00000A0E00000C0000000C0200000C0400000C0600000C0800000C0
1004
A00000C0C00000C0E00000E0000000E0200000E0400000E0600000E0800000E0A00000E0C00000E0E00040000000400020004000400040006000400080004000A0004000C0004000E00040200000402020004020400040206000402080004020A0004020C0004020E000404000004040200040404000404060004040800040
1004
40A0004040C0004040E00040600000406020004060400040606000406080004060A0004060C0004060E00040800000408020004080400040806000408080004080A0004080C0004080E00040A0000040A0200040A0400040A0600040A0800040A0A00040A0C00040A0E00040C0000040C0200040C0400040C0600040C08000
1004
40C0A00040C0C00040C0E00040E0000040E0200040E0400040E0600040E0800040E0A00040E0C00040E0E00080000000800020008000400080006000800080008000A0008000C0008000E00080200000802020008020400080206000802080008020A0008020C0008020E00080400000804020008040400080406000804080
1004
008040A0008040C0008040E00080600000806020008060400080606000806080008060A0008060C0008060E00080800000808020008080400080806000808080008080A0008080C0008080E00080A0000080A0200080A0400080A0600080A0800080A0A00080A0C00080A0E00080C0000080C0200080C0400080C0600080C0
1004
800080C0A00080C0C00080C0E00080E0000080E0200080E0400080E0600080E0800080E0A00080E0C00080E0E000C0000000C0002000C0004000C0006000C0008000C000A000C000C000C000E000C0200000C0202000C0204000C0206000C0208000C020A000C020C000C020E000C0400000C0402000C0404000C0406000C0
1004
408000C040A000C040C000C040E000C0600000C0602000C0604000C0606000C0608000C060A000C060C000C060E000C0800000C0802000C0804000C0806000C0808000C080A000C080C000C080E000C0A00000C0A02000C0A04000C0A06000C0A08000C0A0A000C0A0C000C0A0E000C0C00000C0C02000C0C04000C0C06000
1004
C0C08000C0C0A000F0FBFF00A4A0A000808080000000FF0000FF000000FFFF00FF000000FF00FF00FFFF0000FFFFFF0000000000000000000000000000000000000000000000000000000000000000000000000000000000000000000000000000000000000000000000000000000000000000000000000000000000000000
1004
00000000000000000000000000000000000000000000000000000000000000000000000000000000000000000000000000000000000000000000000000000000000000000000000000000000000000000000000000000000000000000000000000000000000000000000000000000000000000000000000000000000000000
1004
00000000000000000000000000000000000000000000000000000000000000000000000000000000000000000000000000000000000000000000000000000000000000000000000000000000000000000000000000000000000000000000000000000000000000000000000000000000000000000000000000000000000000
1004
000000000000000000000000000000000000000000000000000000000000000000000000000000000000000000000000000000000000000000000000000000000000000000000000000000000000000000000000000000000000000000FEFEFEFE0000000000000000000000000000000000000000FEFEFEE7FEFEFEFEFEE7
1004
E7FEFEFEFEFEFEFEFEFEFEFEFEFEFEFEFEFE00000000FE00E7E700E7FBFBE7E7E7E70000000000000000000000E7E70000FE000000FBFEFBE7E7FBE7FBE7E7E7E7E7FFFFFFFBFBFBFBFBFBFBFBE7E7E7E7FEFB000000FEFEFEE7FEFEFEFEFEE7E7FEFFFFFFFEFEFEFEFEFEFEFEFEE7FEFEFE000000000000000000000000FE
1004
FEFEFE00000000000000000000000000000000000000000000000000000000000000000000000000000000000000000000000000000000000000000000000000000000000000000000000000000000000000000000000000000000000000000000000000000000000000000000000000000000000000000000000000000000
1004
00000000000000000000000000000000000000000000000000000000000000000000000000000000000000000000000000000000000000000000000000000000000000000000000000000000000000000000000000000000000000000000000000000000000000000000000000000000000000000000000000000000000000
1004
00000000000000000000000000000000000000000000000000000000000000000000000000000000000000000000000000000000000000000000000000000000000000000000000000000000000000000000000000000000000000000000000000000000000000000000000000000000000000000000000000000000000000
1004
0000000000000000000000000000000000000000000000000000000000000000000000000000000000000000000000000000000000000000
  0
BLOCK_RECORD
  5
E81
330
1
100
AcDbSymbolTableRecord
100
AcDbBlockTableRecord
  2
*D8
  0
BLOCK_RECORD
  5
E8D
330
1
100
AcDbSymbolTableRecord
100
AcDbBlockTableRecord
  2
*D9
  0
ENDTAB
  0
ENDSEC
  0
SECTION
  2
BLOCKS
  0
BLOCK
  5
1B
330
1A
100
AcDbEntity
  8
0
100
AcDbBlockBegin
  2
*MODEL_SPACE
 70
     0
 10
0.0
 20
0.0
 30
0.0
  3
*MODEL_SPACE
  1

  0
ENDBLK
  5
1C
330
1A
100
AcDbEntity
  8
0
100
AcDbBlockEnd
  0
BLOCK
  5
18
330
17
100
AcDbEntity
 67
     1
  8
0
100
AcDbBlockBegin
  2
*PAPER_SPACE
 70
     0
 10
0.0
 20
0.0
 30
0.0
  3
*PAPER_SPACE
  1

  0
ENDBLK
  5
19
330
17
100
AcDbEntity
 67
     1
  8
0
100
AcDbBlockEnd
  0
BLOCK
  5
598
330
594
100
AcDbEntity
  8
0
100
AcDbBlockBegin
  2
_OPEN
 70
     0
 10
0.0
 20
0.0
 30
0.0
  3
_OPEN
  1

  0
LINE
  5
595
330
594
100
AcDbEntity
  8
0
  6
BYBLOCK
 62
     0
100
AcDbLine
 10
-1.0
 20
0.16666667
 30
0.0
 11
0.0
 21
0.0
 31
0.0
  0
LINE
  5
596
330
594
100
AcDbEntity
  8
0
  6
BYBLOCK
 62
     0
100
AcDbLine
 10
-1.0
 20
-0.16666667
 30
0.0
 11
0.0
 21
0.0
 31
0.0
  0
LINE
  5
597
330
594
100
AcDbEntity
  8
0
  6
BYBLOCK
 62
     0
100
AcDbLine
 10
0.0
 20
0.0
 30
0.0
 11
-1.0
 21
0.0
 31
0.0
  0
ENDBLK
  5
599
330
594
100
AcDbEntity
  8
0
100
AcDbBlockEnd
  0
BLOCK
  5
6E4
330
6E3
100
AcDbEntity
  8
0
100
AcDbBlockBegin
  2
矢印なし
 70
     0
 10
0.0
 20
0.0
 30
0.0
  3
矢印なし
  1

  0
ENDBLK
  5
6E5
330
6E3
100
AcDbEntity
  8
0
100
AcDbBlockEnd
  0
BLOCK
  5
8B7
330
77A
100
AcDbEntity
  8
0
100
AcDbBlockBegin
  2
1
 70
     0
 10
0.0
 20
0.0
 30
0.0
  3
1
  1

  0
TEXT
  5
ED0
330
77A
100
AcDbEntity
  8
0
100
AcDbText
 10
15.97896184
 20
2.36173425
 30
0.0
 40
2.88
  1
MGT6-M2-70
  7
YOKO
100
AcDbText
  0
LINE
  5
ED1
330
77A
100
AcDbEntity
  8
AM_7
100
AcDbLine
 10
-48.5
 20
0.0
 30
0.0
 11
71.0
 21
0.0
 31
0.0
1001
GENIUS_GENOREF_13
1005
0
  0
LINE
  5
ED2
330
77A
100
AcDbEntity
  8
240
100
AcDbLine
 10
50.0
 20
-8.0
 30
0.0
 11
1.57117457
 21
-8.0
 31
0.0
  0
LINE
  5
ED3
330
77A
100
AcDbEntity
  8
240
100
AcDbLine
 10
50.0
 20
8.0
 30
0.0
 11
1.57117457
 21
8.0
 31
0.0
  0
LINE
  5
ED4
330
77A
100
AcDbEntity
  8
240
100
AcDbLine
 10
-34.0
 20
6.0
 30
0.0
 11
-29.0
 21
6.0
 31
0.0
  0
LINE
  5
ED5
330
77A
100
AcDbEntity
  8
240
100
AcDbLine
 10
-34.0
 20
-6.0
 30
0.0
 11
-29.0
 21
-6.0
 31
0.0
  0
LINE
  5
ED6
330
77A
100
AcDbEntity
  8
240
100
AcDbLine
 10
-47.5
 20
-7.0
 30
0.0
 11
-47.5
 21
0.0
 31
0.0
  0
LINE
  5
ED7
330
77A
100
AcDbEntity
  8
243
100
AcDbLine
 10
-36.5
 20
6.0
 30
0.0
 11
-36.5
 21
-6.0
 31
0.0
  0
LINE
  5
ED8
330
77A
100
AcDbEntity
  8
AM_7
100
AcDbLine
 10
-34.0
 20
-8.0
 30
0.0
 11
-34.0
 21
8.0
 31
0.0
  0
LINE
  5
ED9
330
77A
100
AcDbEntity
  8
240
100
AcDbLine
 10
-46.5
 20
-8.0
 30
0.0
 11
-41.0
 21
-8.0
 31
0.0
  0
ARC
  5
EDA
330
77A
100
AcDbEntity
  8
240
100
AcDbCircle
 10
-46.5
 20
-7.0
 30
0.0
 40
1.0
100
AcDbArc
 50
180.0
 51
270.0
  0
LINE
  5
EDB
330
77A
100
AcDbEntity
  8
240
100
AcDbLine
 10
-39.0
 20
-6.0
 30
0.0
 11
-41.0
 21
-8.0
 31
0.0
  0
LINE
  5
EDC
330
77A
100
AcDbEntity
  8
240
100
AcDbLine
 10
-39.0
 20
-6.0
 30
0.0
 11
-34.0
 21
-6.0
 31
0.0
  0
LINE
  5
EDD
330
77A
100
AcDbEntity
  8
240
100
AcDbLine
 10
-46.5
 20
8.0
 30
0.0
 11
-41.0
 21
8.0
 31
0.0
  0
LINE
  5
EDE
330
77A
100
AcDbEntity
  8
240
100
AcDbLine
 10
-47.5
 20
7.0
 30
0.0
 11
-47.5
 21
0.0
 31
0.0
  0
ARC
  5
EDF
330
77A
100
AcDbEntity
  8
240
100
AcDbCircle
 10
-46.5
 20
7.0
 30
0.0
 40
1.0
100
AcDbArc
 50
90.0
 51
180.0
  0
LINE
  5
EE0
330
77A
100
AcDbEntity
  8
240
100
AcDbLine
 10
-39.0
 20
6.0
 30
0.0
 11
-34.0
 21
6.0
 31
0.0
  0
LINE
  5
EE1
330
77A
100
AcDbEntity
  8
240
100
AcDbLine
 10
-39.0
 20
6.0
 30
0.0
 11
-41.0
 21
8.0
 31
0.0
  0
LINE
  5
EE2
330
77A
100
AcDbEntity
  8
241
100
AcDbLine
 10
0.80384758
 20
-8.35874397
 30
0.0
 11
0.80384758
 21
0.0
 31
0.0
  0
LINE
  5
EE3
330
77A
100
AcDbEntity
  8
241
100
AcDbLine
 10
-5.12626129
 20
-11.0
 30
0.0
 11
-5.12626129
 21
0.0
 31
0.0
  0
LINE
  5
EE4
330
77A
100
AcDbEntity
  8
241
  6
CONTINUOUS
100
AcDbLine
 10
-6.5
 20
-10.50000001
 30
0.0
 11
-6.5
 21
0.0
 31
0.0
  0
LINE
  5
EE5
330
77A
100
AcDbEntity
  8
241
100
AcDbLine
 10
-11.0
 20
-8.0
 30
0.0
 11
-11.0
 21
0.0
 31
0.0
  0
LINE
  5
EE6
330
77A
100
AcDbEntity
  8
AM_7
100
AcDbLine
 10
-20.0
 20
-0.7698914
 30
0.0
 11
-20.0
 21
-4.52866188
 31
0.0
  0
LINE
  5
EE7
330
77A
100
AcDbEntity
  8
241
100
AcDbLine
 10
0.0
 20
-10.64125603
 30
0.0
 11
0.0
 21
0.0
 31
0.0
  0
LINE
  5
EE8
330
77A
100
AcDbEntity
  8
241
100
AcDbLine
 10
-2.0
 20
-10.0
 30
0.0
 11
-2.0
 21
0.0
 31
0.0
  0
LINE
  5
EE9
330
77A
100
AcDbEntity
  8
241
100
AcDbLine
 10
-4.0
 20
-10.0
 30
0.0
 11
-4.0
 21
0.0
 31
0.0
  0
LINE
  5
EEA
330
77A
100
AcDbEntity
  8
241
100
AcDbLine
 10
-14.5
 20
-7.0
 30
0.0
 11
-14.5
 21
0.0
 31
0.0
  0
LINE
  5
EEB
330
77A
100
AcDbEntity
  8
241
100
AcDbLine
 10
-16.5
 20
-7.0
 30
0.0
 11
-16.5
 21
0.0
 31
0.0
  0
LINE
  5
EEC
330
77A
100
AcDbEntity
  8
241
100
AcDbLine
 10
-23.5
 20
-7.0
 30
0.0
 11
-23.5
 21
0.0
 31
0.0
  0
LINE
  5
EED
330
77A
100
AcDbEntity
  8
241
100
AcDbLine
 10
-25.5
 20
-7.0
 30
0.0
 11
-25.5
 21
0.0
 31
0.0
  0
ELLIPSE
  5
EEE
330
77A
100
AcDbEntity
  8
241
100
AcDbEllipse
 10
-20.0
 20
-2.64927664
 30
0.0
 11
-2.000000000000023
 21
0.0
 31
0.0
210
0.0
220
0.0
230
1.0
 40
0.93969262
 41
0.0
 42
6.283185307179584
  0
LINE
  5
EEF
330
77A
100
AcDbEntity
  8
243
100
AcDbLine
 10
-31.5
 20
6.0
 30
0.0
 11
-31.5
 21
-6.0
 31
0.0
  0
ARC
  5
EF0
330
77A
100
AcDbEntity
  8
240
100
AcDbCircle
 10
-15.5
 20
-7.0
 30
0.0
 40
1.000000000003004
100
AcDbArc
 50
180.0
 51
0.0
  0
ARC
  5
EF1
330
77A
100
AcDbEntity
  8
240
100
AcDbCircle
 10
-24.5
 20
-7.0
 30
0.0
 40
1.000000000003004
100
AcDbArc
 50
180.0
 51
0.0
  0
LINE
  5
EF2
330
77A
100
AcDbEntity
  8
240
100
AcDbLine
 10
-25.5
 20
-7.0
 30
0.0
 11
-25.5
 21
-8.0
 31
0.0
  0
LINE
  5
EF3
330
77A
100
AcDbEntity
  8
240
100
AcDbLine
 10
-29.0
 20
-6.0
 30
0.0
 11
-27.0
 21
-8.0
 31
0.0
  0
LINE
  5
EF4
330
77A
100
AcDbEntity
  8
240
100
AcDbLine
 10
-27.0
 20
-8.0
 30
0.0
 11
-25.5
 21
-8.0
 31
0.0
  0
LINE
  5
EF5
330
77A
100
AcDbEntity
  8
240
100
AcDbLine
 10
-16.5
 20
-7.0
 30
0.0
 11
-16.5
 21
-8.0
 31
0.0
  0
LINE
  5
EF6
330
77A
100
AcDbEntity
  8
240
100
AcDbLine
 10
-23.5
 20
-7.0
 30
0.0
 11
-23.5
 21
-8.0
 31
0.0
  0
LINE
  5
EF7
330
77A
100
AcDbEntity
  8
240
100
AcDbLine
 10
-23.5
 20
-8.0
 30
0.0
 11
-16.5
 21
-8.0
 31
0.0
  0
LINE
  5
EF8
330
77A
100
AcDbEntity
  8
AM_7
100
AcDbLine
 10
-21.99786162
 20
-2.73616115
 30
0.0
 11
-18.00213838
 21
-2.73616115
 31
0.0
  0
LINE
  5
EF9
330
77A
100
AcDbEntity
  8
240
100
AcDbLine
 10
-6.5
 20
-10.50000001
 30
0.0
 11
-5.12626128
 21
-11.0
 31
0.0
  0
LINE
  5
EFA
330
77A
100
AcDbEntity
  8
240
100
AcDbLine
 10
-14.5
 20
-7.0
 30
0.0
 11
-14.5
 21
-8.0
 31
0.0
  0
LINE
  5
EFB
330
77A
100
AcDbEntity
  8
240
100
AcDbLine
 10
-10.7
 20
-7.7
 30
0.0
 11
-11.0
 21
-8.0
 31
0.0
  0
LINE
  5
EFC
330
77A
100
AcDbEntity
  8
240
100
AcDbLine
 10
-14.5
 20
-8.0
 30
0.0
 11
-11.0
 21
-8.0
 31
0.0
  0
LINE
  5
EFD
330
77A
100
AcDbEntity
  8
240
100
AcDbLine
 10
-6.50000001
 20
-10.5
 30
0.0
 11
-10.0
 21
-10.5
 31
0.0
  0
LINE
  5
EFE
330
77A
100
AcDbEntity
  8
240
100
AcDbLine
 10
-10.0
 20
-10.5
 30
0.0
 11
-10.0
 21
-9.0
 31
0.0
  0
LINE
  5
EFF
330
77A
100
AcDbEntity
  8
240
100
AcDbLine
 10
-9.5
 20
-8.5
 30
0.0
 11
-9.5
 21
-7.7
 31
0.0
  0
LINE
  5
F00
330
77A
100
AcDbEntity
  8
240
100
AcDbLine
 10
-10.7
 20
-7.7
 30
0.0
 11
-9.5
 21
-7.7
 31
0.0
  0
LINE
  5
F01
330
77A
100
AcDbEntity
  8
240
100
AcDbLine
 10
-9.5
 20
-8.5
 30
0.0
 11
-10.0
 21
-9.0
 31
0.0
  0
LINE
  5
F02
330
77A
100
AcDbEntity
  8
241
100
AcDbLine
 10
-6.5
 20
-8.2
 30
0.0
 11
-9.5
 21
-8.2
 31
0.0
  0
LINE
  5
F03
330
77A
100
AcDbEntity
  8
240
100
AcDbLine
 10
-0.63567449
 20
-11.0
 30
0.0
 11
-2.0
 21
-11.0
 31
0.0
  0
LINE
  5
F04
330
77A
100
AcDbEntity
  8
240
100
AcDbLine
 10
-4.0
 20
-11.0
 30
0.0
 11
-5.12626129
 21
-11.0
 31
0.0
  0
LINE
  5
F05
330
77A
100
AcDbEntity
  8
240
100
AcDbLine
 10
-4.0
 20
-10.0
 30
0.0
 11
-4.0
 21
-11.0
 31
0.0
  0
LINE
  5
F06
330
77A
100
AcDbEntity
  8
240
100
AcDbLine
 10
-2.0
 20
-10.0
 30
0.0
 11
-2.0
 21
-11.0
 31
0.0
  0
ARC
  5
F07
330
77A
100
AcDbEntity
  8
240
100
AcDbCircle
 10
-3.0
 20
-10.0
 30
0.0
 40
1.000000000000075
100
AcDbArc
 50
180.0
 51
0.0
  0
ARC
  5
F08
330
77A
100
AcDbEntity
  8
240
100
AcDbCircle
 10
1.57117457
 20
-9.0
 30
0.0
 40
1.0
100
AcDbArc
 50
90.0
 51
165.00000008
  0
LINE
  5
F09
330
77A
100
AcDbEntity
  8
240
100
AcDbLine
 10
0.19859884
 20
-10.25881905
 30
0.0
 11
0.60524874
 21
-8.74118096
 31
0.0
  0
ARC
  5
F0A
330
77A
100
AcDbEntity
  8
240
100
AcDbCircle
 10
-0.76732699
 20
-10.0
 30
0.0
 40
1.0
100
AcDbArc
 50
285.0
 51
345.0
1001
GENIUS_GENOBJ-N-FIL_13
1002
{
1000
OWNER
1000
GEN
1002
}
1001
GENIUS_GENODEF_13
1002
{
1000
HIER
1070
     0
1002
}
1002
{
1000
MANEDIT
1070
     0
1002
}
1002
{
1000
NOSEL
1070
     0
1002
}
1002
{
1000
BEHIND
1070
     0
1002
}
1002
{
1000
OTHER
1070
     0
1002
}
1002
{
1000
REACTOR
1002
}
  0
LINE
  5
F0B
330
77A
100
AcDbEntity
  8
240
100
AcDbLine
 10
-0.50850794
 20
-10.96592583
 30
0.0
 11
-0.63567449
 21
-11.0
 31
0.0
  0
ARC
  5
F0C
330
77A
100
AcDbEntity
  8
240
100
AcDbCircle
 10
-15.5
 20
7.0
 30
0.0
 40
1.000000000003004
100
AcDbArc
 50
0.0
 51
180.0
  0
ARC
  5
F0D
330
77A
100
AcDbEntity
  8
240
100
AcDbCircle
 10
-24.5
 20
7.0
 30
0.0
 40
1.000000000003004
100
AcDbArc
 50
0.0
 51
180.0
  0
LINE
  5
F0E
330
77A
100
AcDbEntity
  8
241
100
AcDbLine
 10
-25.5
 20
7.0
 30
0.0
 11
-25.5
 21
0.0
 31
0.0
  0
LINE
  5
F0F
330
77A
100
AcDbEntity
  8
240
100
AcDbLine
 10
-27.0
 20
8.0
 30
0.0
 11
-25.5
 21
8.0
 31
0.0
  0
LINE
  5
F10
330
77A
100
AcDbEntity
  8
240
100
AcDbLine
 10
-25.5
 20
7.0
 30
0.0
 11
-25.5
 21
8.0
 31
0.0
  0
LINE
  5
F11
330
77A
100
AcDbEntity
  8
240
100
AcDbLine
 10
-29.0
 20
6.0
 30
0.0
 11
-27.0
 21
8.0
 31
0.0
  0
LINE
  5
F12
330
77A
100
AcDbEntity
  8
241
100
AcDbLine
 10
-16.5
 20
7.0
 30
0.0
 11
-16.5
 21
0.0
 31
0.0
  0
LINE
  5
F13
330
77A
100
AcDbEntity
  8
241
100
AcDbLine
 10
-23.5
 20
7.0
 30
0.0
 11
-23.5
 21
0.0
 31
0.0
  0
LINE
  5
F14
330
77A
100
AcDbEntity
  8
240
100
AcDbLine
 10
-23.5
 20
8.0
 30
0.0
 11
-16.5
 21
8.0
 31
0.0
  0
LINE
  5
F15
330
77A
100
AcDbEntity
  8
240
100
AcDbLine
 10
-23.5
 20
7.0
 30
0.0
 11
-23.5
 21
8.0
 31
0.0
  0
LINE
  5
F16
330
77A
100
AcDbEntity
  8
240
100
AcDbLine
 10
-16.5
 20
7.0
 30
0.0
 11
-16.5
 21
8.0
 31
0.0
  0
LINE
  5
F17
330
77A
100
AcDbEntity
  8
241
100
AcDbLine
 10
-5.12626129
 20
11.0
 30
0.0
 11
-5.12626129
 21
0.0
 31
0.0
  0
LINE
  5
F18
330
77A
100
AcDbEntity
  8
240
100
AcDbLine
 10
-6.50000001
 20
10.5
 30
0.0
 11
-5.12626128
 21
11.0
 31
0.0
  0
ARC
  5
F19
330
77A
100
AcDbEntity
  8
240
100
AcDbCircle
 10
-0.76732699
 20
10.0
 30
0.0
 40
1.0
100
AcDbArc
 50
15.0
 51
75.0
1001
GENIUS_GENOBJ-N-FIL_13
1002
{
1000
OWNER
1000
GEN
1002
}
1001
GENIUS_GENODEF_13
1002
{
1000
HIER
1070
     0
1002
}
1002
{
1000
MANEDIT
1070
     0
1002
}
1002
{
1000
NOSEL
1070
     0
1002
}
1002
{
1000
BEHIND
1070
     0
1002
}
1002
{
1000
OTHER
1070
     0
1002
}
1002
{
1000
REACTOR
1002
}
  0
ARC
  5
F1A
330
77A
100
AcDbEntity
  8
240
100
AcDbCircle
 10
-3.0
 20
10.0
 30
0.0
 40
1.000000000000075
100
AcDbArc
 50
0.0
 51
180.0
  0
LINE
  5
F1B
330
77A
100
AcDbEntity
  8
240
100
AcDbLine
 10
-2.0
 20
10.0
 30
0.0
 11
-2.0
 21
11.0
 31
0.0
  0
LINE
  5
F1C
330
77A
100
AcDbEntity
  8
240
100
AcDbLine
 10
-4.0
 20
10.0
 30
0.0
 11
-4.0
 21
11.0
 31
0.0
  0
LINE
  5
F1D
330
77A
100
AcDbEntity
  8
241
100
AcDbLine
 10
0.0
 20
10.64125603
 30
0.0
 11
0.0
 21
0.0
 31
0.0
  0
LINE
  5
F1E
330
77A
100
AcDbEntity
  8
241
100
AcDbLine
 10
-14.5
 20
7.0
 30
0.0
 11
-14.5
 21
0.0
 31
0.0
  0
LINE
  5
F1F
330
77A
100
AcDbEntity
  8
241
100
AcDbLine
 10
-11.0
 20
8.0
 30
0.0
 11
-11.0
 21
0.0
 31
0.0
  0
LINE
  5
F20
330
77A
100
AcDbEntity
  8
241
  6
CONTINUOUS
100
AcDbLine
 10
-6.5
 20
10.50000001
 30
0.0
 11
-6.5
 21
0.0
 31
0.0
  0
LINE
  5
F21
330
77A
100
AcDbEntity
  8
240
100
AcDbLine
 10
-10.7
 20
7.7
 30
0.0
 11
-11.0
 21
8.0
 31
0.0
  0
LINE
  5
F22
330
77A
100
AcDbEntity
  8
240
100
AcDbLine
 10
-14.5
 20
8.0
 30
0.0
 11
-11.0
 21
8.0
 31
0.0
  0
LINE
  5
F23
330
77A
100
AcDbEntity
  8
240
100
AcDbLine
 10
-14.5
 20
7.0
 30
0.0
 11
-14.5
 21
8.0
 31
0.0
  0
LINE
  5
F24
330
77A
100
AcDbEntity
  8
240
100
AcDbLine
 10
-6.50000001
 20
10.5
 30
0.0
 11
-10.0
 21
10.5
 31
0.0
  0
LINE
  5
F25
330
77A
100
AcDbEntity
  8
240
100
AcDbLine
 10
-10.0
 20
10.5
 30
0.0
 11
-10.0
 21
9.0
 31
0.0
  0
LINE
  5
F26
330
77A
100
AcDbEntity
  8
240
100
AcDbLine
 10
-10.7
 20
7.7
 30
0.0
 11
-9.5
 21
7.7
 31
0.0
  0
LINE
  5
F27
330
77A
100
AcDbEntity
  8
240
100
AcDbLine
 10
-9.5
 20
8.5
 30
0.0
 11
-9.5
 21
7.7
 31
0.0
  0
LINE
  5
F28
330
77A
100
AcDbEntity
  8
240
100
AcDbLine
 10
-9.5
 20
8.5
 30
0.0
 11
-10.0
 21
9.0
 31
0.0
  0
LINE
  5
F29
330
77A
100
AcDbEntity
  8
241
100
AcDbLine
 10
-6.5
 20
8.2
 30
0.0
 11
-9.5
 21
8.2
 31
0.0
  0
LINE
  5
F2A
330
77A
100
AcDbEntity
  8
241
100
AcDbLine
 10
-4.0
 20
10.0
 30
0.0
 11
-4.0
 21
0.0
 31
0.0
  0
LINE
  5
F2B
330
77A
100
AcDbEntity
  8
241
100
AcDbLine
 10
-2.0
 20
10.0
 30
0.0
 11
-2.0
 21
0.0
 31
0.0
  0
LINE
  5
F2C
330
77A
100
AcDbEntity
  8
241
100
AcDbLine
 10
0.80384758
 20
8.35874397
 30
0.0
 11
0.80384758
 21
0.0
 31
0.0
  0
LINE
  5
F2D
330
77A
100
AcDbEntity
  8
240
100
AcDbLine
 10
0.19859884
 20
10.25881905
 30
0.0
 11
0.60524874
 21
8.74118096
 31
0.0
  0
ARC
  5
F2E
330
77A
100
AcDbEntity
  8
240
100
AcDbCircle
 10
1.57117457
 20
9.0
 30
0.0
 40
1.0
100
AcDbArc
 50
194.99999992
 51
270.0
  0
LINE
  5
F2F
330
77A
100
AcDbEntity
  8
240
100
AcDbLine
 10
-0.63567449
 20
11.0
 30
0.0
 11
-2.0
 21
11.0
 31
0.0
  0
LINE
  5
F30
330
77A
100
AcDbEntity
  8
240
100
AcDbLine
 10
-4.0
 20
11.0
 30
0.0
 11
-5.12626129
 21
11.0
 31
0.0
  0
LINE
  5
F31
330
77A
100
AcDbEntity
  8
240
100
AcDbLine
 10
-0.50850794
 20
10.96592583
 30
0.0
 11
-0.63567449
 21
11.0
 31
0.0
  0
ARC
  5
F32
330
77A
100
AcDbEntity
  8
0
100
AcDbCircle
 10
11.64009809
 20
4.922216
 30
0.0
 40
0.3872005713500977
100
AcDbArc
 50
1.71012138
 51
163.99839835
  0
ARC
  5
F33
330
77A
100
AcDbEntity
  8
0
100
AcDbCircle
 10
11.44705736
 20
4.51658826
 30
0.0
 40
1.198466349609373
100
AcDbArc
 50
53.4440122
 51
164.00018439
  0
LINE
  5
F34
330
77A
100
AcDbEntity
  8
0
100
AcDbLine
 10
11.29848882
 20
2.40180879
 30
0.0
 11
12.40459678
 21
3.50791675
 31
0.0
  0
ARC
  5
F35
330
77A
100
AcDbEntity
  8
0
100
AcDbCircle
 10
13.08677581
 20
3.77906301
 30
0.0
 40
1.935989859374998
100
AcDbArc
 50
270.0
 51
104.77079397
  0
LINE
  5
F36
330
77A
100
AcDbEntity
  8
0
100
AcDbLine
 10
5.60094185
 20
1.84307272
 30
0.0
 11
13.08677581
 21
1.84307272
 31
0.0
  0
LINE
  5
F37
330
77A
100
AcDbEntity
  8
0
100
AcDbLine
 10
5.60094185
 20
2.21183534
 30
0.0
 11
13.08677581
 21
2.21183534
 31
0.0
  0
ARC
  5
F38
330
77A
100
AcDbEntity
  8
0
100
AcDbCircle
 10
13.08677581
 20
3.77906301
 30
0.0
 40
1.567227234374995
100
AcDbArc
 50
270.0
 51
104.1274365
  0
LINE
  5
F39
330
77A
100
AcDbEntity
  8
0
100
AcDbLine
 10
11.55909696
 20
1.84307272
 30
0.0
 11
11.92785957
 21
2.21183534
 31
0.0
  0
LINE
  5
F3A
330
77A
100
AcDbEntity
  8
0
100
AcDbLine
 10
11.86950275
 20
2.61252082
 30
0.0
 11
12.08582083
 21
2.39621665
 31
0.0
  0
LINE
  5
F3B
330
77A
100
AcDbEntity
  8
0
100
AcDbLine
 10
11.57579645
 20
3.9081327
 30
0.0
 11
11.94455907
 21
4.27689534
 31
0.0
  0
LINE
  5
F3C
330
77A
100
AcDbEntity
  8
0
100
AcDbLine
 10
11.65829824
 20
3.5809624
 30
0.0
 11
12.35423118
 21
4.27689534
 31
0.0
  0
LINE
  5
F3D
330
77A
100
AcDbEntity
  8
0
100
AcDbLine
 10
11.4724688
 20
2.98546086
 30
0.0
 11
12.56929552
 21
4.08228759
 31
0.0
  0
LINE
  5
F3E
330
77A
100
AcDbEntity
  8
0
100
AcDbLine
 10
11.55095632
 20
4.27689534
 30
0.0
 11
12.62509858
 21
4.27689534
 31
0.0
  0
LINE
  5
F3F
330
77A
100
AcDbEntity
  8
0
100
AcDbLine
 10
11.73599965
 20
5.29735221
 30
0.0
 11
12.01212659
 21
5.57347915
 31
0.0
  0
LINE
  5
F40
330
77A
100
AcDbEntity
  8
0
100
AcDbLine
 10
7.45371613
 20
3.4731013
 30
0.0
 11
8.66290433
 21
4.68228949
 31
0.0
  0
LINE
  5
F41
330
77A
100
AcDbEntity
  8
0
100
AcDbLine
 10
9.98519718
 20
3.54654974
 30
0.0
 11
11.18760965
 21
4.74896221
 31
0.0
  0
ARC
  5
F42
330
77A
100
AcDbEntity
  8
0
100
AcDbCircle
 10
13.14215702
 20
3.53167129
 30
0.0
 40
3.136264312499998
100
AcDbArc
 50
155.20517737
 51
172.79482596
  0
LINE
  5
F43
330
77A
100
AcDbEntity
  8
0
100
AcDbLine
 10
10.77091367
 20
3.29577904
 30
0.0
 11
11.26789676
 21
5.02895502
 31
0.0
  0
LINE
  5
F44
330
77A
100
AcDbEntity
  8
0
100
AcDbLine
 10
8.77734572
 20
3.56771458
 30
0.0
 11
9.93371135
 21
4.72408021
 31
0.0
  0
LINE
  5
F45
330
77A
100
AcDbEntity
  8
0
100
AcDbLine
 10
6.05440183
 20
3.30280329
 30
0.0
 11
7.34522959
 21
4.59363105
 31
0.0
  0
LINE
  5
F46
330
77A
100
AcDbEntity
  8
0
100
AcDbLine
 10
10.04324559
 20
4.01427025
 30
0.0
 11
11.71393715
 21
5.68496181
 31
0.0
  0
LINE
  5
F47
330
77A
100
AcDbEntity
  8
0
100
AcDbLine
 10
10.17925379
 20
4.55995055
 30
0.0
 11
11.32847704
 21
5.7091738
 31
0.0
  0
LINE
  5
F48
330
77A
100
AcDbEntity
  8
0
100
AcDbLine
 10
7.31071168
 20
3.73976894
 30
0.0
 11
8.63032088
 21
5.05937815
 31
0.0
  0
ARC
  5
F49
330
77A
100
AcDbEntity
  8
0
100
AcDbCircle
 10
7.74769498
 20
4.79316022
 30
0.0
 40
0.9219004716796876
100
AcDbArc
 50
287.66957755
 51
90.23615984
  0
LINE
  5
F4A
330
77A
100
AcDbEntity
  8
0
100
AcDbLine
 10
9.27677627
 20
5.30942511
 30
0.0
 11
8.44142201
 21
2.39621665
 31
0.0
  0
LINE
  5
F4B
330
77A
100
AcDbEntity
  8
0
100
AcDbLine
 10
9.27677627
 20
5.30942511
 30
0.0
 11
8.44142201
 21
2.39621665
 31
0.0
1001
HATCH_DISTANCE
1040
1.0
1001
HATCH_DISPLAY
1070
     0
1001
HATCH_TYPE
1070
     7
  0
LINE
  5
F4C
330
77A
100
AcDbEntity
  8
0
100
AcDbLine
 10
8.44142201
 20
2.39621665
 30
0.0
 11
9.27677627
 21
5.30942511
 31
0.0
  0
LINE
  5
F4D
330
77A
100
AcDbEntity
  8
0
100
AcDbLine
 10
6.3837983
 20
4.45154397
 30
0.0
 11
7.6473072
 21
5.71505287
 31
0.0
  0
ARC
  5
F4E
330
77A
100
AcDbEntity
  8
0
100
AcDbCircle
 10
7.33628965
 20
4.83002535
 30
0.0
 40
0.5531284929199223
100
AcDbArc
 50
261.66260169
 51
66.3381551
  0
LINE
  5
F4F
330
77A
100
AcDbEntity
  8
0
100
AcDbLine
 10
6.21910006
 20
3.87717363
 30
0.0
 11
7.50992238
 21
5.16799595
 31
0.0
  0
LINE
  5
F50
330
77A
100
AcDbEntity
  8
0
100
AcDbLine
 10
7.55828256
 20
5.33665171
 30
0.0
 11
7.25608574
 21
4.28274255
 31
0.0
  0
LINE
  5
F51
330
77A
100
AcDbEntity
  8
0
100
AcDbLine
 10
8.94204512
 20
4.14208607
 30
0.0
 11
10.0984085
 21
5.29844946
 31
0.0
  0
LINE
  5
F52
330
77A
100
AcDbEntity
  8
0
100
AcDbLine
 10
9.26620957
 20
2.39621665
 30
0.0
 11
10.21786718
 21
5.71505287
 31
0.0
  0
LINE
  5
F53
330
77A
100
AcDbEntity
  8
0
100
AcDbLine
 10
9.26620957
 20
2.39621665
 30
0.0
 11
10.21786718
 21
5.71505287
 31
0.0
1001
HATCH_DISTANCE
1040
1.0
1001
HATCH_DISPLAY
1070
     0
1001
HATCH_TYPE
1070
     7
  0
LINE
  5
F54
330
77A
100
AcDbEntity
  8
0
100
AcDbLine
 10
9.26620957
 20
2.39621665
 30
0.0
 11
10.21786718
 21
5.71505287
 31
0.0
  0
ARC
  5
F55
330
77A
100
AcDbEntity
  8
0
100
AcDbCircle
 10
5.60094185
 20
3.77906301
 30
0.0
 40
1.567227234374995
100
AcDbArc
 50
90.0
 51
270.0
  0
ARC
  5
F56
330
77A
100
AcDbEntity
  8
0
100
AcDbCircle
 10
5.60094185
 20
3.77906301
 30
0.0
 40
1.935989859374998
100
AcDbArc
 50
90.0
 51
270.0
  0
LINE
  5
F57
330
77A
100
AcDbEntity
  8
0
100
AcDbLine
 10
3.72273066
 20
4.24850893
 30
0.0
 11
5.13149593
 21
5.65727419
 31
0.0
  0
LINE
  5
F58
330
77A
100
AcDbEntity
  8
0
100
AcDbLine
 10
5.794442
 20
2.39621665
 30
0.0
 11
6.64036296
 21
5.34629025
 31
0.0
  0
LINE
  5
F59
330
77A
100
AcDbEntity
  8
0
100
AcDbLine
 10
6.78650358
 20
2.39621665
 30
0.0
 11
8.1395775
 21
3.74929057
 31
0.0
  0
ARC
  5
F5A
330
77A
100
AcDbEntity
  8
0
100
AcDbCircle
 10
6.91332917
 20
3.35498877
 30
0.0
 40
0.5531443181762698
100
AcDbArc
 50
261.66285421
 51
66.33819216
  0
LINE
  5
F5B
330
77A
100
AcDbEntity
  8
0
100
AcDbLine
 10
5.8897036
 20
2.72843296
 30
0.0
 11
7.44997691
 21
4.28870628
 31
0.0
  0
LINE
  5
F5C
330
77A
100
AcDbEntity
  8
0
100
AcDbLine
 10
5.794442
 20
2.39621665
 30
0.0
 11
7.3247345
 21
2.39621665
 31
0.0
  0
LINE
  5
F5D
330
77A
100
AcDbEntity
  8
0
100
AcDbLine
 10
7.05270386
 20
1.84307272
 30
0.0
 11
7.42146647
 21
2.21183534
 31
0.0
  0
LINE
  5
F5E
330
77A
100
AcDbEntity
  8
0
100
AcDbLine
 10
7.19617569
 20
2.39621665
 30
0.0
 11
8.23870058
 21
3.43874154
 31
0.0
  0
LINE
  5
F5F
330
77A
100
AcDbEntity
  8
0
100
AcDbLine
 10
6.64303176
 20
1.84307272
 30
0.0
 11
7.01179438
 21
2.21183534
 31
0.0
  0
LINE
  5
F60
330
77A
100
AcDbEntity
  8
0
100
AcDbLine
 10
5.96715939
 20
2.39621665
 30
0.0
 11
7.01583215
 21
3.44488941
 31
0.0
  0
LINE
  5
F61
330
77A
100
AcDbEntity
  8
0
100
AcDbLine
 10
7.13532648
 20
3.86163049
 30
0.0
 11
6.83312469
 21
2.80769006
 31
0.0
  0
LINE
  5
F62
330
77A
100
AcDbEntity
  8
0
100
AcDbLine
 10
6.23335966
 20
1.84307272
 30
0.0
 11
6.60212227
 21
2.21183534
 31
0.0
  0
LINE
  5
F63
330
77A
100
AcDbEntity
  8
0
100
AcDbLine
 10
6.37683149
 20
2.39621665
 30
0.0
 11
6.85114241
 21
2.87052756
 31
0.0
  0
LINE
  5
F64
330
77A
100
AcDbEntity
  8
0
100
AcDbLine
 10
5.4222776
 20
1.85133486
 30
0.0
 11
5.78277807
 21
2.21183534
 31
0.0
  0
LINE
  5
F65
330
77A
100
AcDbEntity
  8
0
100
AcDbLine
 10
4.28829091
 20
2.35603657
 30
0.0
 11
4.54930761
 21
2.61705327
 31
0.0
  0
LINE
  5
F66
330
77A
100
AcDbEntity
  8
0
100
AcDbLine
 10
4.51693589
 20
2.17500945
 30
0.0
 11
4.78370606
 21
2.44177962
 31
0.0
  0
LINE
  5
F67
330
77A
100
AcDbEntity
  8
0
100
AcDbLine
 10
4.77819396
 20
2.02659542
 30
0.0
 11
5.05981664
 21
2.3082181
 31
0.0
  0
LINE
  5
F68
330
77A
100
AcDbEntity
  8
0
100
AcDbLine
 10
5.07667972
 20
1.91540908
 30
0.0
 11
5.38768361
 21
2.22641297
 31
0.0
  0
LINE
  5
F69
330
77A
100
AcDbEntity
  8
0
100
AcDbLine
 10
3.79214593
 20
3.0889079
 30
0.0
 11
4.08492856
 21
3.38169052
 31
0.0
  0
LINE
  5
F6A
330
77A
100
AcDbEntity
  8
0
100
AcDbLine
 10
3.92419837
 20
2.81128823
 30
0.0
 11
4.19648539
 21
3.08357525
 31
0.0
  0
LINE
  5
F6B
330
77A
100
AcDbEntity
  8
0
100
AcDbLine
 10
4.09054605
 20
2.56796382
 30
0.0
 11
4.35324711
 21
2.83066487
 31
0.0
  0
LINE
  5
F6C
330
77A
100
AcDbEntity
  8
0
100
AcDbLine
 10
3.66495302
 20
3.78105918
 30
0.0
 11
4.09421882
 21
4.21032498
 31
0.0
  0
LINE
  5
F6D
330
77A
100
AcDbEntity
  8
0
100
AcDbLine
 10
3.70096267
 20
3.40739673
 30
0.0
 11
4.03418618
 21
3.74062024
 31
0.0
  0
LINE
  5
F6E
330
77A
100
AcDbEntity
  8
0
100
AcDbLine
 10
5.82368756
 20
1.84307272
 30
0.0
 11
6.19245018
 21
2.21183534
 31
0.0
  0
LINE
  5
F6F
330
77A
100
AcDbEntity
  8
0
100
AcDbLine
 10
11.14942486
 20
1.84307272
 30
0.0
 11
11.51818748
 21
2.21183534
 31
0.0
  0
ARC
  5
F70
330
77A
100
AcDbEntity
  8
0
100
AcDbCircle
 10
11.14311499
 20
3.18905394
 30
0.0
 40
0.3872002994384767
100
AcDbArc
 50
164.00027306
 51
344.00027306
  0
LINE
  5
F71
330
77A
100
AcDbEntity
  8
0
100
AcDbLine
 10
11.44521968
 20
3.9081327
 30
0.0
 11
11.55095632
 21
4.27689534
 31
0.0
  0
LINE
  5
F72
330
77A
100
AcDbEntity
  8
0
100
AcDbLine
 10
11.44521968
 20
3.9081327
 30
0.0
 11
11.75211349
 21
3.9081327
 31
0.0
  0
ARC
  5
F73
330
77A
100
AcDbEntity
  8
0
100
AcDbCircle
 10
11.18270881
 20
3.5946817
 30
0.0
 40
1.198478531249999
100
AcDbArc
 50
163.9997507
 51
304.96387329
  0
LINE
  5
F74
330
77A
100
AcDbEntity
  8
0
100
AcDbLine
 10
10.73975276
 20
1.84307272
 30
0.0
 11
11.10851537
 21
2.21183534
 31
0.0
  0
LINE
  5
F75
330
77A
100
AcDbEntity
  8
0
100
AcDbLine
 10
10.91377472
 20
2.42676678
 30
0.0
 11
11.34670808
 21
2.85970013
 31
0.0
  0
LINE
  5
F76
330
77A
100
AcDbEntity
  8
0
100
AcDbLine
 10
10.61599417
 20
2.53865835
 30
0.0
 11
10.9379887
 21
2.86065286
 31
0.0
  0
ARC
  5
F77
330
77A
100
AcDbEntity
  8
0
100
AcDbCircle
 10
7.3247345
 20
3.31810972
 30
0.0
 40
0.9218926406250002
100
AcDbArc
 50
270.0
 51
40.32984065
  0
LINE
  5
F78
330
77A
100
AcDbEntity
  8
0
100
AcDbLine
 10
8.28172016
 20
1.84307272
 30
0.0
 11
8.65048278
 21
2.21183534
 31
0.0
  0
LINE
  5
F79
330
77A
100
AcDbEntity
  8
0
100
AcDbLine
 10
7.46237596
 20
1.84307272
 30
0.0
 11
7.83113858
 21
2.21183534
 31
0.0
  0
LINE
  5
F7A
330
77A
100
AcDbEntity
  8
0
100
AcDbLine
 10
7.87204805
 20
1.84307272
 30
0.0
 11
8.24081067
 21
2.21183534
 31
0.0
  0
LINE
  5
F7B
330
77A
100
AcDbEntity
  8
0
100
AcDbLine
 10
9.10106436
 20
1.84307272
 30
0.0
 11
9.46982697
 21
2.21183534
 31
0.0
  0
LINE
  5
F7C
330
77A
100
AcDbEntity
  8
0
100
AcDbLine
 10
9.51073645
 20
1.84307272
 30
0.0
 11
9.87949908
 21
2.21183534
 31
0.0
  0
LINE
  5
F7D
330
77A
100
AcDbEntity
  8
0
100
AcDbLine
 10
9.92040856
 20
1.84307272
 30
0.0
 11
10.28917117
 21
2.21183534
 31
0.0
  0
LINE
  5
F7E
330
77A
100
AcDbEntity
  8
0
100
AcDbLine
 10
8.69139225
 20
1.84307272
 30
0.0
 11
9.06015487
 21
2.21183534
 31
0.0
  0
LINE
  5
F7F
330
77A
100
AcDbEntity
  8
0
100
AcDbLine
 10
8.44142201
 20
2.39621665
 30
0.0
 11
9.26620957
 21
2.39621665
 31
0.0
  0
LINE
  5
F80
330
77A
100
AcDbEntity
  8
0
100
AcDbLine
 10
8.44794693
 20
2.41897158
 30
0.0
 11
9.60431705
 21
3.57534171
 31
0.0
  0
LINE
  5
F81
330
77A
100
AcDbEntity
  8
0
100
AcDbLine
 10
8.44142201
 20
2.39621665
 30
0.0
 11
9.26620957
 21
2.39621665
 31
0.0
  0
LINE
  5
F82
330
77A
100
AcDbEntity
  8
0
100
AcDbLine
 10
8.44142201
 20
2.39621665
 30
0.0
 11
9.26620957
 21
2.39621665
 31
0.0
1001
HATCH_DISTANCE
1040
1.0
1001
HATCH_DISPLAY
1070
     0
1001
HATCH_TYPE
1070
     7
  0
LINE
  5
F83
330
77A
100
AcDbEntity
  8
0
100
AcDbLine
 10
7.67496703
 20
2.46533588
 30
0.0
 11
8.17750833
 21
2.9678772
 31
0.0
  0
LINE
  5
F84
330
77A
100
AcDbEntity
  8
0
100
AcDbLine
 10
8.83486409
 20
2.39621665
 30
0.0
 11
9.43961989
 21
3.00097245
 31
0.0
  0
LINE
  5
F85
330
77A
100
AcDbEntity
  8
0
100
AcDbLine
 10
9.24453618
 20
2.39621665
 30
0.0
 11
9.27492274
 21
2.42660321
 31
0.0
  0
LINE
  5
F86
330
77A
100
AcDbEntity
  8
0
100
AcDbLine
 10
8.61264632
 20
2.99334309
 30
0.0
 11
9.7690142
 21
4.14971096
 31
0.0
  0
LINE
  5
F87
330
77A
100
AcDbEntity
  8
0
100
AcDbLine
 10
10.33008066
 20
1.84307272
 30
0.0
 11
10.69884328
 21
2.21183534
 31
0.0
  0
LINE
  5
F88
330
77A
100
AcDbEntity
  8
0
100
AcDbLine
 10
10.05036989
 20
3.20205036
 30
0.0
 11
11.02291035
 21
4.17459081
 31
0.0
  0
LINE
  5
F89
330
77A
100
AcDbEntity
  8
0
100
AcDbLine
 10
10.18646033
 20
2.92846869
 30
0.0
 11
10.85821104
 21
3.6002194
 31
0.0
  0
LINE
  5
F8A
330
77A
100
AcDbEntity
  8
0
100
AcDbLine
 10
10.37601078
 20
2.70834705
 30
0.0
 11
10.76655785
 21
3.09889412
 31
0.0
  0
LINE
  5
F8B
330
77A
100
AcDbEntity
  8
0
100
AcDbLine
 10
11.51531633
 20
3.08232885
 30
0.0
 11
11.75211349
 21
3.9081327
 31
0.0
  0
LINE
  5
F8C
330
77A
100
AcDbEntity
  8
0
100
AcDbLine
 10
6.55428401
 20
5.71505287
 30
0.0
 11
7.74389513
 21
5.71505287
 31
0.0
  0
LINE
  5
F8D
330
77A
100
AcDbEntity
  8
0
100
AcDbLine
 10
6.45920038
 20
5.34629025
 30
0.0
 11
6.827963
 21
5.71505287
 31
0.0
  0
LINE
  5
F8E
330
77A
100
AcDbEntity
  8
0
100
AcDbLine
 10
6.55428401
 20
5.71505287
 30
0.0
 11
6.44854737
 21
5.34629025
 31
0.0
  0
LINE
  5
F8F
330
77A
100
AcDbEntity
  8
0
100
AcDbLine
 10
6.44854737
 20
5.34629025
 30
0.0
 11
6.64036296
 21
5.34629025
 31
0.0
  0
LINE
  5
F90
330
77A
100
AcDbEntity
  8
0
100
AcDbLine
 10
6.36248234
 20
5.71505287
 30
0.0
 11
6.25674569
 21
5.34629025
 31
0.0
  0
LINE
  5
F91
330
77A
100
AcDbEntity
  8
0
100
AcDbLine
 10
6.04952828
 20
5.34629025
 30
0.0
 11
6.34004725
 21
5.63680921
 31
0.0
  0
LINE
  5
F92
330
77A
100
AcDbEntity
  8
0
100
AcDbLine
 10
5.16967988
 20
5.28578605
 30
0.0
 11
5.59894567
 21
5.71505183
 31
0.0
  0
LINE
  5
F93
330
77A
100
AcDbEntity
  8
0
100
AcDbLine
 10
5.60094185
 20
5.71505287
 30
0.0
 11
6.36248234
 21
5.71505287
 31
0.0
  0
LINE
  5
F94
330
77A
100
AcDbEntity
  8
0
100
AcDbLine
 10
5.60094185
 20
5.34629025
 30
0.0
 11
6.25674569
 21
5.34629025
 31
0.0
  0
LINE
  5
F95
330
77A
100
AcDbEntity
  8
0
100
AcDbLine
 10
5.63985618
 20
5.34629025
 30
0.0
 11
6.0086188
 21
5.71505287
 31
0.0
  0
LINE
  5
F96
330
77A
100
AcDbEntity
  8
0
100
AcDbLine
 10
6.54849654
 20
5.02591429
 30
0.0
 11
7.2376351
 21
5.71505287
 31
0.0
  0
LINE
  5
F97
330
77A
100
AcDbEntity
  8
0
100
AcDbLine
 10
7.83034382
 20
5.07874528
 30
0.0
 11
8.29016357
 21
5.53856503
 31
0.0
  0
LINE
  5
F98
330
77A
100
AcDbEntity
  8
0
100
AcDbLine
 10
7.63651297
 20
5.29458653
 30
0.0
 11
8.01682805
 21
5.67490161
 31
0.0
  0
LINE
  5
F99
330
77A
100
AcDbEntity
  8
0
100
AcDbLine
 10
9.24788993
 20
5.67694718
 30
0.0
 11
9.28599561
 21
5.71505287
 31
0.0
  0
LINE
  5
F9A
330
77A
100
AcDbEntity
  8
0
100
AcDbLine
 10
9.27144391
 20
5.29082907
 30
0.0
 11
9.6956677
 21
5.71505287
 31
0.0
  0
LINE
  5
F9B
330
77A
100
AcDbEntity
  8
0
100
AcDbLine
 10
10.21786718
 20
5.71505287
 30
0.0
 11
9.25881706
 21
5.71505287
 31
0.0
  0
LINE
  5
F9C
330
77A
100
AcDbEntity
  8
0
100
AcDbLine
 10
9.14249979
 20
5.30942511
 30
0.0
 11
9.27677627
 21
5.30942511
 31
0.0
  0
LINE
  5
F9D
330
77A
100
AcDbEntity
  8
0
100
AcDbLine
 10
9.25881706
 20
5.71505287
 30
0.0
 11
9.14249979
 21
5.30942511
 31
0.0
  0
LINE
  5
F9E
330
77A
100
AcDbEntity
  8
0
100
AcDbLine
 10
10.21786718
 20
5.71505287
 30
0.0
 11
9.25881706
 21
5.71505287
 31
0.0
1001
HATCH_DISTANCE
1040
1.0
1001
HATCH_DISPLAY
1070
     0
1001
HATCH_TYPE
1070
     7
  0
LINE
  5
F9F
330
77A
100
AcDbEntity
  8
0
100
AcDbLine
 10
9.14249979
 20
5.30942511
 30
0.0
 11
9.27677627
 21
5.30942511
 31
0.0
1001
HATCH_DISTANCE
1040
1.0
1001
HATCH_DISPLAY
1070
     0
1001
HATCH_TYPE
1070
     7
  0
LINE
  5
FA0
330
77A
100
AcDbEntity
  8
0
100
AcDbLine
 10
9.25881706
 20
5.71505287
 30
0.0
 11
9.14249979
 21
5.30942511
 31
0.0
1001
HATCH_DISTANCE
1040
1.0
1001
HATCH_DISPLAY
1070
     0
1001
HATCH_TYPE
1070
     7
  0
LINE
  5
FA1
330
77A
100
AcDbEntity
  8
0
100
AcDbLine
 10
9.25881706
 20
5.71505287
 30
0.0
 11
10.21786718
 21
5.71505287
 31
0.0
  0
LINE
  5
FA2
330
77A
100
AcDbEntity
  8
0
100
AcDbLine
 10
9.14249979
 20
5.30942511
 30
0.0
 11
9.25881706
 21
5.71505287
 31
0.0
  0
LINE
  5
FA3
330
77A
100
AcDbEntity
  8
0
100
AcDbLine
 10
9.14249979
 20
5.30942511
 30
0.0
 11
9.27677627
 21
5.30942511
 31
0.0
  0
LINE
  5
FA4
330
77A
100
AcDbEntity
  8
0
100
AcDbLine
 10
7.87760872
 20
4.71633808
 30
0.0
 11
8.49469737
 21
5.33342674
 31
0.0
  0
LINE
  5
FA5
330
77A
100
AcDbEntity
  8
0
100
AcDbLine
 10
9.10674451
 20
4.71645758
 30
0.0
 11
10.10533981
 21
5.71505287
 31
0.0
  0
LINE
  5
FA6
330
77A
100
AcDbEntity
  8
0
100
AcDbLine
 10
14.52573181
 20
4.40003547
 30
0.0
 11
14.80219556
 21
4.67649922
 31
0.0
  0
LINE
  5
FA7
330
77A
100
AcDbEntity
  8
0
100
AcDbLine
 10
13.71077816
 20
1.94639342
 30
0.0
 11
14.91944539
 21
3.15506064
 31
0.0
  0
LINE
  5
FA8
330
77A
100
AcDbEntity
  8
0
100
AcDbLine
 10
13.20116832
 20
1.84645567
 30
0.0
 11
13.68536571
 21
2.33065308
 31
0.0
  0
LINE
  5
FA9
330
77A
100
AcDbEntity
  8
0
100
AcDbLine
 10
11.96876906
 20
1.84307272
 30
0.0
 11
12.33753168
 21
2.21183534
 31
0.0
  0
LINE
  5
FAA
330
77A
100
AcDbEntity
  8
0
100
AcDbLine
 10
12.37844115
 20
1.84307272
 30
0.0
 11
12.74720377
 21
2.21183534
 31
0.0
  0
LINE
  5
FAB
330
77A
100
AcDbEntity
  8
0
100
AcDbLine
 10
12.78811326
 20
1.84307272
 30
0.0
 11
13.15851928
 21
2.21347874
 31
0.0
  0
LINE
  5
FAC
330
77A
100
AcDbEntity
  8
0
100
AcDbLine
 10
11.89418865
 20
2.58783651
 30
0.0
 11
12.23989804
 21
2.9335459
 31
0.0
  0
LINE
  5
FAD
330
77A
100
AcDbEntity
  8
0
100
AcDbLine
 10
12.08582083
 20
2.39621665
 30
0.0
 11
12.62509858
 21
4.27689534
 31
0.0
  0
LINE
  5
FAE
330
77A
100
AcDbEntity
  8
0
100
AcDbLine
 10
14.6232715
 20
4.08790307
 30
0.0
 11
14.92422275
 21
4.38885432
 31
0.0
  0
LINE
  5
FAF
330
77A
100
AcDbEntity
  8
0
100
AcDbLine
 10
14.65236007
 20
3.70731953
 30
0.0
 11
15.002626
 21
4.05758546
 31
0.0
  0
LINE
  5
FB0
330
77A
100
AcDbEntity
  8
0
100
AcDbLine
 10
14.53518574
 20
3.18047309
 30
0.0
 11
15.01938314
 21
3.6646705
 31
0.0
  0
LINE
  5
FB1
330
77A
100
AcDbEntity
  8
0
100
AcDbLine
 10
13.97023308
 20
5.07355304
 30
0.0
 11
14.2346963
 21
5.33801626
 31
0.0
  0
LINE
  5
FB2
330
77A
100
AcDbEntity
  8
0
100
AcDbLine
 10
13.01217758
 20
5.34451383
 30
0.0
 11
13.36292103
 21
5.6952573
 31
0.0
  0
LINE
  5
FB3
330
77A
100
AcDbEntity
  8
0
100
AcDbLine
 10
13.39334854
 20
5.3160127
 30
0.0
 11
13.69452293
 21
5.61718709
 31
0.0
  0
LINE
  5
FB4
330
77A
100
AcDbEntity
  8
0
100
AcDbLine
 10
13.70584626
 20
5.21883833
 30
0.0
 11
13.98242462
 21
5.49541669
 31
0.0
  0
LINE
  5
FB5
330
77A
100
AcDbEntity
  8
0
100
AcDbLine
 10
12.70424445
 20
5.29890018
 30
0.0
 11
12.70424445
 21
5.29890018
 31
0.0
  0
LINE
  5
FB6
330
77A
100
AcDbEntity
  8
0
100
AcDbLine
 10
12.59318966
 20
5.65108185
 30
0.0
 11
12.70424445
 21
5.29890018
 31
0.0
  0
LINE
  5
FB7
330
77A
100
AcDbEntity
  8
0
100
AcDbLine
 10
12.59318966
 20
5.65108185
 30
0.0
 11
12.59318966
 21
5.65108185
 31
0.0
  0
LINE
  5
FB8
330
77A
100
AcDbEntity
  8
0
100
AcDbLine
 10
12.70424445
 20
5.29890018
 30
0.0
 11
12.59318966
 21
5.65108185
 31
0.0
  0
LINE
  5
FB9
330
77A
100
AcDbEntity
  8
0
100
AcDbLine
 10
12.70424445
 20
5.29890018
 30
0.0
 11
12.70424445
 21
5.29890018
 31
0.0
1001
HATCH_DISTANCE
1040
1.0
1001
HATCH_DISPLAY
1070
     0
1001
HATCH_TYPE
1070
     7
  0
LINE
  5
FBA
330
77A
100
AcDbEntity
  8
0
100
AcDbLine
 10
12.59318966
 20
5.65108185
 30
0.0
 11
12.70424445
 21
5.29890018
 31
0.0
1001
HATCH_DISTANCE
1040
1.0
1001
HATCH_DISPLAY
1070
     0
1001
HATCH_TYPE
1070
     7
  0
LINE
  5
FBB
330
77A
100
AcDbEntity
  8
0
100
AcDbLine
 10
12.59318966
 20
5.65108185
 30
0.0
 11
12.59318966
 21
5.65108185
 31
0.0
1001
HATCH_DISTANCE
1040
1.0
1001
HATCH_DISPLAY
1070
     0
1001
HATCH_TYPE
1070
     7
  0
LINE
  5
FBC
330
77A
100
AcDbEntity
  8
0
100
AcDbLine
 10
12.70424445
 20
5.29890018
 30
0.0
 11
12.59318966
 21
5.65108185
 31
0.0
1001
HATCH_DISTANCE
1040
1.0
1001
HATCH_DISPLAY
1070
     0
1001
HATCH_TYPE
1070
     7
  0
LINE
  5
FBD
330
77A
100
AcDbEntity
  8
0
100
AcDbLine
 10
12.70424445
 20
5.29890018
 30
0.0
 11
12.70424445
 21
5.29890018
 31
0.0
  0
LINE
  5
FBE
330
77A
100
AcDbEntity
  8
0
100
AcDbLine
 10
12.59318966
 20
5.65108185
 30
0.0
 11
12.70424445
 21
5.29890018
 31
0.0
  0
LINE
  5
FBF
330
77A
100
AcDbEntity
  8
0
100
AcDbLine
 10
12.59318966
 20
5.65108185
 30
0.0
 11
12.59318966
 21
5.65108185
 31
0.0
  0
LINE
  5
FC0
330
77A
100
AcDbEntity
  8
0
100
AcDbLine
 10
12.70424445
 20
5.29890018
 30
0.0
 11
12.59318966
 21
5.65108185
 31
0.0
  0
LINE
  5
FC1
330
77A
100
AcDbEntity
  8
0
100
AcDbLine
 10
12.70424445
 20
5.29890018
 30
0.0
 11
12.70424445
 21
5.29890018
 31
0.0
1001
HATCH_DISTANCE
1040
1.0
1001
HATCH_DISPLAY
1070
     0
1001
HATCH_TYPE
1070
     7
  0
LINE
  5
FC2
330
77A
100
AcDbEntity
  8
0
100
AcDbLine
 10
12.59318966
 20
5.65108185
 30
0.0
 11
12.70424445
 21
5.29890018
 31
0.0
1001
HATCH_DISTANCE
1040
1.0
1001
HATCH_DISPLAY
1070
     0
1001
HATCH_TYPE
1070
     7
  0
LINE
  5
FC3
330
77A
100
AcDbEntity
  8
0
100
AcDbLine
 10
12.59318966
 20
5.65108185
 30
0.0
 11
12.59318966
 21
5.65108185
 31
0.0
1001
HATCH_DISTANCE
1040
1.0
1001
HATCH_DISPLAY
1070
     0
1001
HATCH_TYPE
1070
     7
  0
LINE
  5
FC4
330
77A
100
AcDbEntity
  8
0
100
AcDbLine
 10
12.70424445
 20
5.29890018
 30
0.0
 11
12.59318966
 21
5.65108185
 31
0.0
1001
HATCH_DISTANCE
1040
1.0
1001
HATCH_DISPLAY
1070
     0
1001
HATCH_TYPE
1070
     7
  0
LINE
  5
FC5
330
77A
100
AcDbEntity
  8
0
100
AcDbLine
 10
11.97122781
 20
5.12290828
 30
0.0
 11
12.42372138
 21
5.57540185
 31
0.0
  0
LINE
  5
FC6
330
77A
100
AcDbEntity
  8
0
100
AcDbLine
 10
12.4835409
 20
5.22554926
 30
0.0
 11
12.52193484
 21
5.2639432
 31
0.0
  0
LINE
  5
FC7
330
77A
100
AcDbEntity
  8
0
100
AcDbLine
 10
12.52839724
 20
5.24344935
 30
0.0
 11
12.41734245
 21
5.59563102
 31
0.0
  0
ARC
  5
FC8
330
77A
100
AcDbEntity
  8
0
100
AcDbCircle
 10
13.08677581
 20
3.77906301
 30
0.0
 40
1.935990729492184
100
AcDbArc
 50
110.22964506
 51
118.57168892
  0
LINE
  5
FC9
330
77A
100
AcDbEntity
  8
0
100
AcDbLine
 10
12.70424445
 20
5.29890018
 30
0.0
 11
12.59318966
 21
5.65108185
 31
0.0
  0
LINE
  5
FCA
330
77A
100
AcDbEntity
  8
0
100
AcDbLine
 10
12.66891861
 20
5.41092697
 30
0.0
 11
12.96948845
 21
5.71149681
 31
0.0
  0
LINE
  5
FCB
330
77A
100
AcDbEntity
  8
0
100
AcDbLine
 10
14.38016109
 20
4.66413685
 30
0.0
 11
14.64457432
 21
4.92855009
 31
0.0
  0
LINE
  5
FCC
330
77A
100
AcDbEntity
  8
0
100
AcDbLine
 10
14.19429227
 20
4.88794013
 30
0.0
 11
14.45504687
 21
5.14869472
 31
0.0
  0
ARC
  5
FCD
330
77A
100
AcDbEntity
  8
0
100
AcDbCircle
 10
13.08677581
 20
3.77906301
 30
0.0
 40
1.567231584960933
100
AcDbArc
 50
110.8721834
 51
132.54194894
  0
LINE
  5
FCE
330
77A
100
AcDbEntity
  8
241
100
AcDbLine
 10
53.0
 20
-8.15
 30
0.0
 11
53.0
 21
0.0
 31
0.0
  0
LINE
  5
FCF
330
77A
100
AcDbEntity
  8
240
100
AcDbLine
 10
70.0
 20
-7.0
 30
0.0
 11
70.0
 21
0.0
 31
0.0
  0
LINE
  5
FD0
330
77A
100
AcDbEntity
  8
241
100
AcDbLine
 10
50.0
 20
-6.2
 30
0.0
 11
50.0
 21
0.0
 31
0.0
  0
LINE
  5
FD1
330
77A
100
AcDbEntity
  8
241
100
AcDbLine
 10
51.0
 20
-6.2
 30
0.0
 11
51.0
 21
0.0
 31
0.0
  0
LINE
  5
FD2
330
77A
100
AcDbEntity
  8
241
100
AcDbLine
 10
54.2
 20
-8.0
 30
0.0
 11
54.2
 21
0.0
 31
0.0
  0
LINE
  5
FD3
330
77A
100
AcDbEntity
  8
240
100
AcDbLine
 10
53.15
 20
-8.0
 30
0.0
 11
69.0
 21
-8.0
 31
0.0
  0
LINE
  5
FD4
330
77A
100
AcDbEntity
  8
240
100
AcDbLine
 10
50.0
 20
-6.2
 30
0.0
 11
50.0
 21
-8.0
 31
0.0
  0
LINE
  5
FD5
330
77A
100
AcDbEntity
  8
240
100
AcDbLine
 10
51.0
 20
-6.2
 30
0.0
 11
51.0
 21
-8.15
 31
0.0
  0
LINE
  5
FD6
330
77A
100
AcDbEntity
  8
240
100
AcDbLine
 10
53.15
 20
-8.0
 30
0.0
 11
53.0
 21
-8.15
 31
0.0
  0
LINE
  5
FD7
330
77A
100
AcDbEntity
  8
240
100
AcDbLine
 10
51.0
 20
-8.15
 30
0.0
 11
53.0
 21
-8.15
 31
0.0
  0
LINE
  5
FD8
330
77A
100
AcDbEntity
  8
240
100
AcDbLine
 10
51.0
 20
-6.2
 30
0.0
 11
50.0
 21
-6.2
 31
0.0
  0
ARC
  5
FD9
330
77A
100
AcDbEntity
  8
240
100
AcDbCircle
 10
69.0
 20
-7.0
 30
0.0
 40
1.0
100
AcDbArc
 50
270.0
 51
0.0
1001
GENIUS_GENODEF_13
1002
{
1000
HIER
1070
     0
1002
}
1002
{
1000
MANEDIT
1070
     0
1002
}
1002
{
1000
NOSEL
1070
     0
1002
}
1002
{
1000
BEHIND
1070
     0
1002
}
1002
{
1000
OTHER
1070
     0
1002
}
1002
{
1000
REACTOR
1002
}
1001
GENIUS_GENOBJ-N-FIL_13
1002
{
1000
OWNER
1000
GEN
1002
}
  0
LINE
  5
FDA
330
77A
100
AcDbEntity
  8
241
  6
HIDDEN2
100
AcDbLine
 10
56.0
 20
1.8
 30
0.0
 11
60.0
 21
1.8
 31
0.0
1001
GRPNAME
1000
0000002S
  0
LINE
  5
FDB
330
77A
100
AcDbEntity
  8
240
100
AcDbLine
 10
53.15
 20
8.0
 30
0.0
 11
69.0
 21
8.0
 31
0.0
  0
LINE
  5
FDC
330
77A
100
AcDbEntity
  8
241
100
AcDbLine
 10
54.2
 20
8.0
 30
0.0
 11
54.2
 21
0.0
 31
0.0
  0
LINE
  5
FDD
330
77A
100
AcDbEntity
  8
241
100
AcDbLine
 10
53.0
 20
8.15
 30
0.0
 11
53.0
 21
0.0
 31
0.0
  0
LINE
  5
FDE
330
77A
100
AcDbEntity
  8
241
100
AcDbLine
 10
51.0
 20
6.2
 30
0.0
 11
51.0
 21
0.0
 31
0.0
  0
LINE
  5
FDF
330
77A
100
AcDbEntity
  8
241
100
AcDbLine
 10
50.0
 20
6.2
 30
0.0
 11
50.0
 21
0.0
 31
0.0
  0
LINE
  5
FE0
330
77A
100
AcDbEntity
  8
241
  6
HIDDEN2
100
AcDbLine
 10
50.0
 20
1.83847763
 30
0.0
 11
56.0
 21
1.83847763
 31
0.0
  0
LINE
  5
FE1
330
77A
100
AcDbEntity
  8
242
  6
HIDDEN2
100
AcDbLine
 10
50.0
 20
1.83847763
 30
0.0
 11
56.0
 21
0.0
 31
0.0
  0
LINE
  5
FE2
330
77A
100
AcDbEntity
  8
242
  6
HIDDEN2
100
AcDbLine
 10
50.0
 20
0.0
 30
0.0
 11
56.0
 21
1.83847763
 31
0.0
  0
LINE
  5
FE3
330
77A
100
AcDbEntity
  8
241
  6
HIDDEN2
100
AcDbLine
 10
50.0
 20
1.83847763
 30
0.0
 11
50.0
 21
0.0
 31
0.0
  0
LINE
  5
FE4
330
77A
100
AcDbEntity
  8
241
  6
HIDDEN2
100
AcDbLine
 10
56.0
 20
1.83847763
 30
0.0
 11
56.0
 21
0.0
 31
0.0
  0
LINE
  5
FE5
330
77A
100
AcDbEntity
  8
240
100
AcDbLine
 10
53.15
 20
8.0
 30
0.0
 11
53.0
 21
8.15
 31
0.0
  0
LINE
  5
FE6
330
77A
100
AcDbEntity
  8
240
100
AcDbLine
 10
51.0
 20
6.2
 30
0.0
 11
51.0
 21
8.15
 31
0.0
  0
LINE
  5
FE7
330
77A
100
AcDbEntity
  8
240
100
AcDbLine
 10
51.0
 20
8.15
 30
0.0
 11
53.0
 21
8.15
 31
0.0
  0
LINE
  5
FE8
330
77A
100
AcDbEntity
  8
240
100
AcDbLine
 10
50.0
 20
6.2
 30
0.0
 11
50.0
 21
8.0
 31
0.0
  0
LINE
  5
FE9
330
77A
100
AcDbEntity
  8
240
100
AcDbLine
 10
51.0
 20
6.2
 30
0.0
 11
50.0
 21
6.2
 31
0.0
  0
LINE
  5
FEA
330
77A
100
AcDbEntity
  8
241
  6
HIDDEN2
100
AcDbLine
 10
60.0
 20
1.5
 30
0.0
 11
70.0
 21
1.5
 31
0.0
  0
LINE
  5
FEB
330
77A
100
AcDbEntity
  8
241
  6
HIDDEN2
100
AcDbLine
 10
60.0
 20
1.8
 30
0.0
 11
60.0
 21
0.0
 31
0.0
  0
LINE
  5
FEC
330
77A
100
AcDbEntity
  8
240
100
AcDbLine
 10
70.0
 20
7.0
 30
0.0
 11
70.0
 21
0.0
 31
0.0
  0
ARC
  5
FED
330
77A
100
AcDbEntity
  8
240
100
AcDbCircle
 10
69.0
 20
7.0
 30
0.0
 40
1.0
100
AcDbArc
 50
359.9999824
 51
90.0
1001
GENIUS_GENODEF_13
1002
{
1000
HIER
1070
     0
1002
}
1002
{
1000
MANEDIT
1070
     0
1002
}
1002
{
1000
NOSEL
1070
     0
1002
}
1002
{
1000
BEHIND
1070
     0
1002
}
1002
{
1000
OTHER
1070
     0
1002
}
1002
{
1000
REACTOR
1002
}
1001
GENIUS_GENOBJ-N-FIL_13
1002
{
1000
OWNER
1000
GEN
1002
}
  0
ENDBLK
  5
8B8
330
77A
100
AcDbEntity
  8
0
100
AcDbBlockEnd
  0
BLOCK
  5
E8B
330
E81
100
AcDbEntity
  8
0
100
AcDbBlockBegin
  2
*D8
 70
     1
 10
0.0
 20
0.0
 30
0.0
  3
*D8
  1

  0
LINE
  5
EBE
330
E81
100
AcDbEntity
  8
250
  6
CONTINUOUS
100
AcDbLine
 10
69.5
 20
-8.0
 30
0.0
 11
89.75
 21
-8.0
 31
0.0
  0
LINE
  5
EBF
330
E81
100
AcDbEntity
  8
250
  6
CONTINUOUS
100
AcDbLine
 10
69.5
 20
8.0
 30
0.0
 11
89.75
 21
8.0
 31
0.0
  0
LINE
  5
EC0
330
E81
100
AcDbEntity
  8
250
  6
CONTINUOUS
100
AcDbLine
 10
88.75
 20
-5.77
 30
0.0
 11
88.75
 21
5.77
 31
0.0
  0
INSERT
  5
EC1
330
E81
100
AcDbEntity
  8
250
  6
CONTINUOUS
100
AcDbBlockReference
  2
_OPEN
 10
88.75
 20
-8.0
 30
0.0
 41
2.23
 42
2.23
 43
2.23
 50
270.0
  0
INSERT
  5
EC2
330
E81
100
AcDbEntity
  8
250
  6
CONTINUOUS
100
AcDbBlockReference
  2
_OPEN
 10
88.75
 20
8.0
 30
0.0
 41
2.23
 42
2.23
 43
2.23
 50
90.0
  0
MTEXT
  5
EC3
330
E81
100
AcDbEntity
  8
250
  6
CONTINUOUS
 62
    40
100
AcDbMText
 10
86.35
 20
0.0
 30
0.0
 40
2.8
 41
0.0
 71
     5
 72
     1
  1
\A1;{\H2.8;\U+2205}16
 11
0.0
 21
1.0
 31
0.0
1001
ACAD
1000
MTEXTBEGIN
1070
    73
1070
     1
1070
    44
1040
1.0
1070
    74
1070
     0
1000
MTEXTEND
  0
POINT
  5
EC4
330
E81
100
AcDbEntity
  8
DEFPOINTS
  6
CONTINUOUS
 62
     0
100
AcDbPoint
 10
69.0
 20
-8.0
 30
0.0
  0
POINT
  5
EC5
330
E81
100
AcDbEntity
  8
DEFPOINTS
  6
CONTINUOUS
 62
     0
100
AcDbPoint
 10
69.0
 20
8.0
 30
0.0
  0
POINT
  5
EC6
330
E81
100
AcDbEntity
  8
DEFPOINTS
  6
CONTINUOUS
 62
     0
100
AcDbPoint
 10
88.75
 20
8.0
 30
0.0
  0
ENDBLK
  5
E8C
330
E81
100
AcDbEntity
  8
0
100
AcDbBlockEnd
  0
BLOCK
  5
E97
330
E8D
100
AcDbEntity
  8
0
100
AcDbBlockBegin
  2
*D9
 70
     1
 10
0.0
 20
0.0
 30
0.0
  3
*D9
  1

  0
LINE
  5
EC7
330
E8D
100
AcDbEntity
  8
250
  6
CONTINUOUS
100
AcDbLine
 10
0.0
 20
11.14125603
 30
0.0
 11
0.0
 21
22.0
 31
0.0
  0
LINE
  5
EC8
330
E8D
100
AcDbEntity
  8
250
  6
CONTINUOUS
100
AcDbLine
 10
70.0
 20
7.5
 30
0.0
 11
70.0
 21
22.0
 31
0.0
  0
LINE
  5
EC9
330
E8D
100
AcDbEntity
  8
250
  6
CONTINUOUS
100
AcDbLine
 10
2.23
 20
21.0
 30
0.0
 11
67.77
 21
21.0
 31
0.0
  0
INSERT
  5
ECA
330
E8D
100
AcDbEntity
  8
250
  6
CONTINUOUS
100
AcDbBlockReference
  2
_OPEN
 10
0.0
 20
21.0
 30
0.0
 41
2.23
 42
2.23
 43
2.23
 50
180.0
  0
INSERT
  5
ECB
330
E8D
100
AcDbEntity
  8
250
  6
CONTINUOUS
100
AcDbBlockReference
  2
_OPEN
 10
70.0
 20
21.0
 30
0.0
 41
2.23
 42
2.23
 43
2.23
  0
MTEXT
  5
ECC
330
E8D
100
AcDbEntity
  8
250
  6
CONTINUOUS
 62
    40
100
AcDbMText
 10
35.20070547
 20
23.4
 30
0.0
 40
2.8
 41
0.0
 71
     5
 72
     1
  1
\A1;70
1001
ACAD
1000
MTEXTBEGIN
1070
    73
1070
     1
1070
    44
1040
1.0
1070
    74
1070
     0
1000
MTEXTEND
  0
POINT
  5
ECD
330
E8D
100
AcDbEntity
  8
DEFPOINTS
  6
CONTINUOUS
 62
     0
100
AcDbPoint
 10
0.0
 20
10.64125603
 30
0.0
  0
POINT
  5
ECE
330
E8D
100
AcDbEntity
  8
DEFPOINTS
  6
CONTINUOUS
 62
     0
100
AcDbPoint
 10
70.0
 20
7.0
 30
0.0
  0
POINT
  5
ECF
330
E8D
100
AcDbEntity
  8
DEFPOINTS
  6
CONTINUOUS
 62
     0
100
AcDbPoint
 10
70.0
 20
21.0
 30
0.0
  0
ENDBLK
  5
E98
330
E8D
100
AcDbEntity
  8
0
100
AcDbBlockEnd
  0
ENDSEC
  0
SECTION
  2
ENTITIES
  0
INSERT
  5
6E6
330
1A
100
AcDbEntity
  8
245
100
AcDbBlockReference
  2
矢印なし
 10
175.62382697
 20
90.55123572
 30
0.0
  0
TEXT
  5
8D1
330
1A
100
AcDbEntity
  8
241
100
AcDbText
 10
-47.5
 20
35.0
 30
0.0
 40
5.0
  1
MGT6-M2-70
  7
YOKO
 11
-47.5
 21
35.0
 31
0.0
100
AcDbText
 73
     1
  0
MTEXT
  5
D59
330
1A
100
AcDbEntity
  8
251
  6
CONTINUOUS
100
AcDbMText
 10
56.55
 20
14.99914563
 30
0.0
 40
2.8
 41
0.0
 71
     7
 72
     1
  1
□2.5
  7
YOKO
1001
ITEMNAME
1000
LNSP3
1001
ACAD
1000
MTEXTBEGIN
1070
    73
1070
     1
1070
    44
1040
1.0
1070
    74
1070
     0
1000
MTEXTEND
1000
MTEXTBEGIN
1070
    73
1070
     1
1070
    44
1040
1.0
1070
    74
1070
     0
1000
MTEXTEND
1000
MTEXTBEGIN
1070
    73
1070
     1
1070
    44
1040
1.0
1070
    74
1070
     0
1000
MTEXTEND
1000
MTEXTBEGIN
1070
    73
1070
     1
1070
    44
1040
1.0
1070
    74
1070
     0
1000
MTEXTEND
1000
MTEXTBEGIN
1070
    73
1070
     1
1070
    44
1040
1.0
1070
    74
1070
     0
1000
MTEXTEND
1000
MTEXTBEGIN
1070
    73
1070
     1
1070
    44
1040
1.0
1070
    74
1070
     0
1000
MTEXTEND
  0
LEADER
  5
D5A
330
1A
100
AcDbEntity
  8
250
  6
CONTINUOUS
100
AcDbLeader
  3
BIGT
 76
     2
 10
51.85276585
 20
1.83847763
 30
0.0
 10
53.75
 20
13.99914563
 30
0.0
1001
ACAD
1000
DSTYLE
1002
{
1070
     6
1000
OPEN
1070
   343
1005
594
1002
}
  0
MTEXT
  5
D5B
330
1A
100
AcDbEntity
  8
250
  6
CONTINUOUS
 62
    40
100
AcDbMText
 10
79.35
 20
-1.72211461
 30
0.0
 40
2.8
 41
0.0
 71
     5
 72
     1
  1
\A1;{\H2.8;\U+2205}3
 11
0.0
 21
1.0
 31
0.0
1001
ACAD
1000
MTEXTBEGIN
1070
    73
1070
     1
1070
    44
1040
1.0
1070
    74
1070
     0
1000
MTEXTEND
1000
MTEXTBEGIN
1070
    73
1070
     1
1070
    44
1040
1.0
1070
    74
1070
     0
1000
MTEXTEND
1000
MTEXTBEGIN
1070
    73
1070
     1
1070
    44
1040
1.0
1070
    74
1070
     0
1000
MTEXTEND
1000
MTEXTBEGIN
1070
    73
1070
     1
1070
    44
1040
1.0
1070
    74
1070
     0
1000
MTEXTEND
1000
MTEXTBEGIN
1070
    73
1070
     1
1070
    44
1040
1.0
1070
    74
1070
     0
1000
MTEXTEND
1000
MTEXTBEGIN
1070
    73
1070
     1
1070
    44
1040
1.0
1070
    74
1070
     0
1000
MTEXTEND
  0
DIMENSION
  5
D60
330
1A
100
AcDbEntity
  8
250
  6
CONTINUOUS
100
AcDbDimension
  2
*D9
 10
70.0
 20
21.0
 30
0.0
 11
35.20070547
 21
21.0
 31
0.0
 70
   160
  3
BIGT
100
AcDbAlignedDimension
 13
0.0
 23
10.64125603
 33
0.0
 14
70.0
 24
7.0
 34
0.0
100
AcDbRotatedDimension
  0
LINE
  5
E5C
330
1A
100
AcDbEntity
  8
250
  6
CONTINUOUS
100
AcDbLine
 10
70.5
 20
1.5
 30
0.0
 11
82.75
 21
1.5
 31
0.0
  0
DIMENSION
  5
E5D
330
1A
100
AcDbEntity
  8
250
  6
CONTINUOUS
100
AcDbDimension
  2
*D8
 10
88.75
 20
8.0
 30
0.0
 11
88.75
 21
0.0
 31
0.0
 70
   160
  1
{\H2.8;\U+2205}<>
  3
BIGT
100
AcDbAlignedDimension
 13
69.0
 23
-8.0
 33
0.0
 14
69.0
 24
8.0
 34
0.0
 50
90.0
100
AcDbRotatedDimension
  0
LINE
  5
E63
330
1A
100
AcDbEntity
  8
250
  6
CONTINUOUS
100
AcDbLine
 10
81.75
 20
1.5
 30
0.0
 11
81.75
 21
-4.68283229
 31
0.0
  0
LINE
  5
E6D
330
1A
100
AcDbEntity
  8
250
  6
CONTINUOUS
100
AcDbLine
 10
53.75
 20
13.99914563
 30
0.0
 11
68.60333333
 21
13.99914563
 31
0.0
1001
ITEMNAME
1000
LNSP2
  0
INSERT
  5
E80
330
1A
100
AcDbEntity
  8
250
  6
CONTINUOUS
100
AcDbBlockReference
  2
_OPEN
 10
81.75
 20
1.5
 30
0.0
 41
2.23
 42
2.23
 43
2.23
 50
90.0
  0
INSERT
  5
FEE
330
1A
100
AcDbEntity
  8
245
100
AcDbBlockReference
  2
1
 10
0.0
 20
0.0
 30
0.0
  0
VIEWPORT
  5
22
330
17
100
AcDbEntity
 67
     1
  8
0
100
AcDbViewport
 10
261.51769912
 20
148.5
 30
0.0
 40
523.03539823
 41
297.0
 68
     1
 69
     1
1001
ACAD
1000
MVIEW
1002
{
1070
    16
1010
0.0
1020
0.0
1030
0.0
1010
0.0
1020
0.0
1030
1.0
1040
0.0
1040
297.0
1040
261.51769912
1040
148.5
1040
50.0
1040
0.0
1040
0.0
1070
     0
1070
   100
1070
     1
1070
     1
1070
     0
1070
     0
1070
     0
1070
     0
1040
0.0
1040
0.0
1040
0.0
1040
1.0
1040
1.0
1040
10.0
1040
10.0
1070
     0
1002
{
1002
}
1002
}
  0
ENDSEC
  0
SECTION
  2
OBJECTS
  0
DICTIONARY
  5
C
330
0
100
AcDbDictionary
  3
ACAD_GROUP
350
D
  3
ACAD_LAYOUT
350
565
  3
ACAD_MLINESTYLE
350
E
  3
ACAD_PLOTSETTINGS
350
566
  3
ACAD_PLOTSTYLENAME
350
563
  3
ACDBHEADERROUNDTRIPXREC
350
FF0
  3
GRADE_DWG
350
540
  0
DICTIONARY
  5
BFE
330
1A
100
AcDbDictionary
280
     1
  3
ACAD_LAYOUTSELFREF
360
1012
  0
DICTIONARY
  5
BFC
330
17
100
AcDbDictionary
280
     1
  3
ACAD_LAYOUTSELFREF
360
1011
  0
DICTIONARY
  5
D
102
{ACAD_REACTORS
330
C
102
}
330
C
100
AcDbDictionary
  3
*A1
350
6C7
  3
*A2
350
6C8
  3
*A3
350
6D4
  3
*A4
350
6D5
  3
DREC-1
350
5FC
  3
DREC-2
350
654
  3
DREC-3
350
673
  0
DICTIONARY
  5
565
102
{ACAD_REACTORS
330
C
102
}
330
C
100
AcDbDictionary
  0
DICTIONARY
  5
E
102
{ACAD_REACTORS
330
C
102
}
330
C
100
AcDbDictionary
  3
STANDARD
350
13
  0
DICTIONARY
  5
566
102
{ACAD_REACTORS
330
C
102
}
330
C
100
AcDbDictionary
  3
A3_0_5倍_
350
758
  3
A3_1倍_
350
757
  3
A3_1倍__2000_
350
707
  3
A3_2倍_
350
759
  3
A4_0_5倍_
350
755
  3
A4_1倍_
350
754
  3
A4_1倍__2000_
350
708
  3
A4_2倍_
350
756
  0
ACDBDICTIONARYWDFLT
  5
563
102
{ACAD_REACTORS
330
C
102
}
330
C
100
AcDbDictionary
281
     1
  3
Normal
350
564
100
AcDbDictionaryWithDefault
340
564
  0
DICTIONARY
  5
FF0
102
{ACAD_REACTORS
330
C
102
}
330
C
100
AcDbDictionary
  3
CEPSNTYPE
350
FFA
  3
DIMSTYLEDATA
350
FFE
  3
FINGERPRINTGUID
350
FFB
  3
HYPERLINKBASE
350
FF3
  3
INSUNITS
350
FF9
  3
LAYOUTDICT
350
FF5
  3
LWETCUNION
350
FF8
  3
PLOTSETDICT
350
FF6
  3
PLOTSTYLNAMDICT
350
FF7
  3
PSVPSCALE
350
FFD
  3
PUCSBASE
350
1001
  3
PUCSORGBACK
350
1007
  3
PUCSORGBOTTOM
350
1003
  3
PUCSORGFRONT
350
1006
  3
PUCSORGLEFT
350
1004
  3
PUCSORGRIGHT
350
1005
  3
PUCSORGTOP
350
1002
  3
PUCSORTHOREF
350
FFF
  3
PUCSORTHOVIEW
350
1000
  3
STYLESHEET
350
FF4
  3
TSTACKALIGN
350
FF1
  3
TSTACKSIZE
350
FF2
  3
UCSBASE
350
100A
  3
UCSORGBACK
350
1010
  3
UCSORGBOTTOM
350
100C
  3
UCSORGFRONT
350
100F
  3
UCSORGLEFT
350
100D
  3
UCSORGRIGHT
350
100E
  3
UCSORGTOP
350
100B
  3
UCSORTHOREF
350
1008
  3
UCSORTHOVIEW
350
1009
  3
VERSIONGUID
350
FFC
  0
DICTIONARY
  5
540
102
{ACAD_REACTORS
330
C
102
}
330
C
100
AcDbDictionary
  3
VERSION
350
560
  0
XRECORD
  5
1012
102
{ACAD_REACTORS
330
BFE
102
}
330
BFE
100
AcDbXrecord
340
1A
  0
XRECORD
  5
1011
102
{ACAD_REACTORS
330
BFC
102
}
330
BFC
100
AcDbXrecord
340
17
  0
GROUP
  5
6C7
102
{ACAD_REACTORS
330
D
102
}
330
D
100
AcDbGroup
300

 70
     0
 71
     1
1001
GRPNAME
1000
DMA00
  0
GROUP
  5
6C8
102
{ACAD_REACTORS
330
D
102
}
330
D
100
AcDbGroup
300

 70
     0
 71
     1
1001
GRPNAME
1000
DMA00
  0
GROUP
  5
6D4
102
{ACAD_REACTORS
330
D
102
}
330
D
100
AcDbGroup
300

 70
     0
 71
     1
1001
GRPNAME
1000
DMA00
  0
GROUP
  5
6D5
102
{ACAD_REACTORS
330
D
102
}
330
D
100
AcDbGroup
300

 70
     0
 71
     1
1001
GRPNAME
1000
DMA00
  0
GROUP
  5
5FC
102
{ACAD_REACTORS
330
D
102
}
330
D
100
AcDbGroup
300

 70
     0
 71
     1
1001
GRPNAME
1000
DREC-
1001
GPARA
1000
xsiz
1000
44.182
1000
ysiz
1000
40.677
1000
angl
1000
0
1000
ctyp
1000
0
1000
csiz
1000
5
1000
lfnt
1000
cont
1000
hcnt
1000
hoff
1000
vcnt
1000
voff
1000
opnt
1000
4
1000
dxpt
1000
0
1000
dypt
1000
0
  0
GROUP
  5
654
102
{ACAD_REACTORS
330
D
102
}
330
D
100
AcDbGroup
300

 70
     0
 71
     1
1001
GRPNAME
1000
DREC-
1001
GPARA
1000
xsiz
1000
54.592
1000
ysiz
1000
53.036
1000
angl
1000
0
1000
ctyp
1000
0
1000
csiz
1000
5
1000
lfnt
1000
cont
1000
hcnt
1000
hoff
1000
vcnt
1000
voff
1000
opnt
1000
4
1000
dxpt
1000
0
1000
dypt
1000
0
  0
GROUP
  5
673
102
{ACAD_REACTORS
330
D
102
}
330
D
100
AcDbGroup
300

 70
     0
 71
     1
1001
GRPNAME
1000
DREC-
1001
GPARA
1000
xsiz
1000
30.363
1000
ysiz
1000
36.175
1000
angl
1000
0
1000
ctyp
1000
0
1000
csiz
1000
5
1000
lfnt
1000
cont
1000
hcnt
1000
hoff
1000
vcnt
1000
voff
1000
opnt
1000
4
1000
dxpt
1000
0
1000
dypt
1000
0
  0
MLINESTYLE
  5
13
102
{ACAD_REACTORS
330
E
102
}
330
E
100
AcDbMlineStyle
  2
STANDARD
 70
     0
  3

 62
     0
 51
90.0
 52
90.0
 71
     2
 49
0.5
 62
   256
  6
BYLAYER
 49
-0.5
 62
   256
  6
BYLAYER
  0
PLOTSETTINGS
  5
758
102
{ACAD_REACTORS
330
566
102
}
330
566
100
AcDbPlotSettings
  1
A3(0.5倍)
  2
\\AWTECPC05\HP DeskJet 1120C
  4
A3
  6

 40
5.95841646
 41
13.49375153
 42
6.04309082
 43
3.67242432
 44
296.92599487
 45
419.94665527
 46
89.96
 47
127.14
 48
0.0
 49
0.0
140
0.0
141
0.0
142
1.0
143
2.0
 70
  1716
 72
     1
 73
     1
 74
     2
  7
big.ctb
 75
    17
147
0.5
148
0.0
149
0.0
  0
PLOTSETTINGS
  5
757
102
{ACAD_REACTORS
330
566
102
}
330
566
100
AcDbPlotSettings
  1
A3(1倍)
  2
\\AWTECPC05\HP DeskJet 1120C
  4
A3
  6

 40
5.95841646
 41
13.49375153
 42
6.04309082
 43
3.67242432
 44
296.92599487
 45
419.94665527
 46
37.46
 47
52.89
 48
0.0
 49
0.0
140
0.0
141
0.0
142
1.0
143
1.0
 70
  1716
 72
     1
 73
     1
 74
     2
  7
big.ctb
 75
    16
147
1.0
148
0.0
149
0.0
  0
PLOTSETTINGS
  5
707
102
{ACAD_REACTORS
330
566
102
}
330
566
100
AcDbPlotSettings
  1
A3(1倍)(2000)
  2
SII LS-1300 (D-SCAN)
  4
User258
  6

 40
3.17499995
 41
3.17499995
 42
3.17498779
 43
3.17498779
 44
419.98898315
 45
296.98950195
 46
58.32
 47
40.32
 48
0.0
 49
0.0
140
0.0
141
0.0
142
1.0
143
1.0
 70
  1716
 72
     1
 73
     0
 74
     2
  7
big.ctb
 75
    16
147
1.0
148
0.0
149
0.0
  0
PLOTSETTINGS
  5
759
102
{ACAD_REACTORS
330
566
102
}
330
566
100
AcDbPlotSettings
  1
A3(2倍)
  2
\\AWTECPC05\HP DeskJet 1120C
  4
A3
  6

 40
5.95841646
 41
13.49375153
 42
6.04309082
 43
3.67242432
 44
296.92599487
 45
419.94665527
 46
-67.54
 47
-95.61
 48
0.0
 49
0.0
140
0.0
141
0.0
142
1.0
143
0.5
 70
  1716
 72
     1
 73
     1
 74
     2
  7
big.ctb
 75
    27
147
2.0
148
0.0
149
0.0
  0
PLOTSETTINGS
  5
755
102
{ACAD_REACTORS
330
566
102
}
330
566
100
AcDbPlotSettings
  1
A4(0.5倍)
  2
\\AWTECPC05\HP DeskJet 1120C
  4
A4
  6

 40
4.18041658
 41
13.49374962
 42
4.18040466
 43
3.92642212
 44
209.97332764
 45
296.92599487
 46
48.31
 47
65.5
 48
0.0
 49
0.0
140
0.0
141
0.0
142
1.0
143
2.0
 70
  1716
 72
     1
 73
     1
 74
     2
  7
big.ctb
 75
    17
147
0.5
148
0.0
149
0.0
  0
PLOTSETTINGS
  5
754
102
{ACAD_REACTORS
330
566
102
}
330
566
100
AcDbPlotSettings
  1
A4(1倍)
  2
\\AWTECPC05\HP DeskJet 1120C
  4
A4
  6

 40
4.18041658
 41
13.49374962
 42
4.18040466
 43
3.92642212
 44
209.97332764
 45
296.92599487
 46
-4.19
 47
-8.75
 48
0.0
 49
0.0
140
0.0
141
0.0
142
1.0
143
1.0
 70
  1716
 72
     1
 73
     1
 74
     2
  7
big.ctb
 75
    16
147
1.0
148
0.0
149
0.0
  0
PLOTSETTINGS
  5
708
102
{ACAD_REACTORS
330
566
102
}
330
566
100
AcDbPlotSettings
  1
A4(1倍)(2000)
  2
SII LS-1300 (D-SCAN)
  4
User259
  6

 40
3.17499995
 41
3.17499995
 42
3.17498779
 43
3.17500305
 44
296.98950195
 45
209.99449158
 46
-3.18
 47
-3.18
 48
0.0
 49
0.0
140
0.0
141
0.0
142
1.0
143
1.0
 70
  1716
 72
     1
 73
     0
 74
     2
  7
big.ctb
 75
    16
147
1.0
148
0.0
149
0.0
  0
PLOTSETTINGS
  5
756
102
{ACAD_REACTORS
330
566
102
}
330
566
100
AcDbPlotSettings
  1
A4(2倍)
  2
\\AWTECPC05\HP DeskJet 1120C
  4
A4
  6

 40
4.18041658
 41
13.49374962
 42
4.18040466
 43
3.92642212
 44
209.97332764
 45
296.92599487
 46
-109.19
 47
-157.25
 48
0.0
 49
0.0
140
0.0
141
0.0
142
1.0
143
0.5
 70
  1716
 72
     1
 73
     1
 74
     2
  7
big.ctb
 75
    27
147
2.0
148
0.0
149
0.0
  0
ACDBPLACEHOLDER
  5
564
102
{ACAD_REACTORS
330
563
102
}
330
563
100
AcDbPlaceHolder
280
     0
  0
XRECORD
  5
FFA
102
{ACAD_REACTORS
330
FF0
102
}
330
FF0
100
AcDbXrecord
 90
        0
  0
XRECORD
  5
FFE
102
{ACAD_REACTORS
330
FF0
102
}
330
FF0
100
AcDbXrecord
1000
DSTYLE
1002
{
1070
    79
 70
     2
1070
   179
 70
     3
1070
   341
340
594
1070
   343
340
594
1070
   344
340
594
1070
   371
 70
    -1
1070
   372
 70
    -1
1002
}
  0
XRECORD
  5
FFB
102
{ACAD_REACTORS
330
FF0
102
}
330
FF0
100
AcDbXrecord
  1
{51294030-9CB4-11D3-8E18-00A0C925D94D}
  0
XRECORD
  5
FF3
102
{ACAD_REACTORS
330
FF0
102
}
330
FF0
100
AcDbXrecord
  1

  0
XRECORD
  5
FF9
102
{ACAD_REACTORS
330
FF0
102
}
330
FF0
100
AcDbXrecord
 90
        0
  0
XRECORD
  5
FF5
102
{ACAD_REACTORS
330
FF0
102
}
330
FF0
100
AcDbXrecord
340
565
  0
XRECORD
  5
FF8
102
{ACAD_REACTORS
330
FF0
102
}
330
FF0
100
AcDbXrecord
 90
    10781
  0
XRECORD
  5
FF6
102
{ACAD_REACTORS
330
FF0
102
}
330
FF0
100
AcDbXrecord
340
566
  0
XRECORD
  5
FF7
102
{ACAD_REACTORS
330
FF0
102
}
330
FF0
100
AcDbXrecord
340
563
  0
XRECORD
  5
FFD
102
{ACAD_REACTORS
330
FF0
102
}
330
FF0
100
AcDbXrecord
 40
0.0
  0
XRECORD
  5
1001
102
{ACAD_REACTORS
330
FF0
102
}
330
FF0
100
AcDbXrecord
340
0
  0
XRECORD
  5
1007
102
{ACAD_REACTORS
330
FF0
102
}
330
FF0
100
AcDbXrecord
 10
0.0
 20
0.0
 30
0.0
  0
XRECORD
  5
1003
102
{ACAD_REACTORS
330
FF0
102
}
330
FF0
100
AcDbXrecord
 10
0.0
 20
0.0
 30
0.0
  0
XRECORD
  5
1006
102
{ACAD_REACTORS
330
FF0
102
}
330
FF0
100
AcDbXrecord
 10
0.0
 20
0.0
 30
0.0
  0
XRECORD
  5
1004
102
{ACAD_REACTORS
330
FF0
102
}
330
FF0
100
AcDbXrecord
 10
0.0
 20
0.0
 30
0.0
  0
XRECORD
  5
1005
102
{ACAD_REACTORS
330
FF0
102
}
330
FF0
100
AcDbXrecord
 10
0.0
 20
0.0
 30
0.0
  0
XRECORD
  5
1002
102
{ACAD_REACTORS
330
FF0
102
}
330
FF0
100
AcDbXrecord
 10
0.0
 20
0.0
 30
0.0
  0
XRECORD
  5
FFF
102
{ACAD_REACTORS
330
FF0
102
}
330
FF0
100
AcDbXrecord
340
0
  0
XRECORD
  5
1000
102
{ACAD_REACTORS
330
FF0
102
}
330
FF0
100
AcDbXrecord
 70
     0
  0
XRECORD
  5
FF4
102
{ACAD_REACTORS
330
FF0
102
}
330
FF0
100
AcDbXrecord
  1
big.ctb
  0
XRECORD
  5
FF1
102
{ACAD_REACTORS
330
FF0
102
}
330
FF0
100
AcDbXrecord
 90
        1
  0
XRECORD
  5
FF2
102
{ACAD_REACTORS
330
FF0
102
}
330
FF0
100
AcDbXrecord
 90
       70
  0
XRECORD
  5
100A
102
{ACAD_REACTORS
330
FF0
102
}
330
FF0
100
AcDbXrecord
340
0
  0
XRECORD
  5
1010
102
{ACAD_REACTORS
330
FF0
102
}
330
FF0
100
AcDbXrecord
 10
0.0
 20
0.0
 30
0.0
  0
XRECORD
  5
100C
102
{ACAD_REACTORS
330
FF0
102
}
330
FF0
100
AcDbXrecord
 10
0.0
 20
0.0
 30
0.0
  0
XRECORD
  5
100F
102
{ACAD_REACTORS
330
FF0
102
}
330
FF0
100
AcDbXrecord
 10
0.0
 20
0.0
 30
0.0
  0
XRECORD
  5
100D
102
{ACAD_REACTORS
330
FF0
102
}
330
FF0
100
AcDbXrecord
 10
0.0
 20
0.0
 30
0.0
  0
XRECORD
  5
100E
102
{ACAD_REACTORS
330
FF0
102
}
330
FF0
100
AcDbXrecord
 10
0.0
 20
0.0
 30
0.0
  0
XRECORD
  5
100B
102
{ACAD_REACTORS
330
FF0
102
}
330
FF0
100
AcDbXrecord
 10
0.0
 20
0.0
 30
0.0
  0
XRECORD
  5
1008
102
{ACAD_REACTORS
330
FF0
102
}
330
FF0
100
AcDbXrecord
340
0
  0
XRECORD
  5
1009
102
{ACAD_REACTORS
330
FF0
102
}
330
FF0
100
AcDbXrecord
 70
     0
  0
XRECORD
  5
FFC
102
{ACAD_REACTORS
330
FF0
102
}
330
FF0
100
AcDbXrecord
  1
{3F6EB08F-88EF-4AD2-BB6B-C3139CC57D7B}
  0
XRECORD
  5
560
102
{ACAD_REACTORS
330
540
102
}
330
540
100
AcDbXrecord
  1
2.0.0
  0
ENDSEC
  0
EOF
