  0
SECTION
  2
HEADER
  9
$ACADVER
  1
AC1014
  9
$ACADMAINTVER
 70
     9
  9
$DWGCODEPAGE
  3
ANSI_932
  9
$INSBASE
 10
0.0
 20
0.0
 30
0.0
  9
$EXTMIN
 10
-48.50760694
 20
-11.07835368
 30
-0.00152582
  9
$EXTMAX
 10
49.78125853
 20
40.02482723
 30
0.00000003
  9
$LIMMIN
 10
0.0
 20
0.0
  9
$LIMMAX
 10
420.0
 20
297.0
  9
$ORTHOMODE
 70
     0
  9
$REGENMODE
 70
     1
  9
$FILLMODE
 70
     1
  9
$QTEXTMODE
 70
     0
  9
$MIRRTEXT
 70
     1
  9
$DRAGMODE
 70
     2
  9
$LTSCALE
 40
10.0
  9
$OSMODE
 70
   549
  9
$ATTMODE
 70
     1
  9
$TEXTSIZE
 40
3.0
  9
$TRACEWID
 40
1.0
  9
$TEXTSTYLE
  7
YOKO
  9
$CLAYER
  8
245
  9
$CELTYPE
  6
BYLAYER
  9
$CECOLOR
 62
   256
  9
$CELTSCALE
 40
1.0
  9
$DELOBJ
 70
     1
  9
$DISPSILH
 70
     0
  9
$DIMSCALE
 40
1.0
  9
$DIMASZ
 40
2.0
  9
$DIMEXO
 40
2.0
  9
$DIMDLI
 40
2.5
  9
$DIMRND
 40
0.0
  9
$DIMDLE
 40
0.0
  9
$DIMEXE
 40
2.0
  9
$DIMTP
 40
0.0
  9
$DIMTM
 40
0.0
  9
$DIMTXT
 40
4.0
  9
$DIMCEN
 40
0.0
  9
$DIMTSZ
 40
0.0
  9
$DIMTOL
 70
     0
  9
$DIMLIM
 70
     0
  9
$DIMTIH
 70
     0
  9
$DIMTOH
 70
     0
  9
$DIMSE1
 70
     0
  9
$DIMSE2
 70
     0
  9
$DIMTAD
 70
     3
  9
$DIMZIN
 70
     8
  9
$DIMBLK
  1

  9
$DIMASO
 70
     1
  9
$DIMSHO
 70
     1
  9
$DIMPOST
  1

  9
$DIMAPOST
  1

  9
$DIMALT
 70
     0
  9
$DIMALTD
 70
     2
  9
$DIMALTF
 40
25.4
  9
$DIMLFAC
 40
1.0
  9
$DIMTOFL
 70
     1
  9
$DIMTVP
 40
0.0
  9
$DIMTIX
 70
     1
  9
$DIMSOXD
 70
     0
  9
$DIMSAH
 70
     1
  9
$DIMBLK1
  1
OPEN
  9
$DIMBLK2
  1
OPEN
  9
$DIMSTYLE
  2
BIGT
  9
$DIMCLRD
 70
   256
  9
$DIMCLRE
 70
   256
  9
$DIMCLRT
 70
    40
  9
$DIMTFAC
 40
1.0
  9
$DIMGAP
 40
1.0
  9
$DIMJUST
 70
     0
  9
$DIMSD1
 70
     0
  9
$DIMSD2
 70
     0
  9
$DIMTOLJ
 70
     1
  9
$DIMTZIN
 70
     8
  9
$DIMALTZ
 70
     0
  9
$DIMALTTZ
 70
     0
  9
$DIMFIT
 70
     3
  9
$DIMUPT
 70
     0
  9
$DIMUNIT
 70
     2
  9
$DIMDEC
 70
     3
  9
$DIMTDEC
 70
     3
  9
$DIMALTU
 70
     2
  9
$DIMALTTD
 70
     2
  9
$DIMTXSTY
  7
STANDARD
  9
$DIMAUNIT
 70
     0
  9
$LUNITS
 70
     2
  9
$LUPREC
 70
     3
  9
$SKETCHINC
 40
1.0
  9
$FILLETRAD
 40
0.0
  9
$AUNITS
 70
     0
  9
$AUPREC
 70
     3
  9
$MENU
  1
.
  9
$ELEVATION
 40
0.0
  9
$PELEVATION
 40
0.0
  9
$THICKNESS
 40
0.0
  9
$LIMCHECK
 70
     0
  9
$BLIPMODE
 70
     0
  9
$CHAMFERA
 40
10.0
  9
$CHAMFERB
 40
10.0
  9
$CHAMFERC
 40
0.0
  9
$CHAMFERD
 40
0.0
  9
$SKPOLY
 70
     0
  9
$TDCREATE
 40
2455128.392928958
  9
$TDUPDATE
 40
2455316.415862627
  9
$TDINDWG
 40
0.0482107176
  9
$TDUSRTIMER
 40
0.0482107176
  9
$USRTIMER
 70
     1
  9
$ANGBASE
 50
0.0
  9
$ANGDIR
 70
     0
  9
$PDMODE
 70
    35
  9
$PDSIZE
 40
-5.0
  9
$PLINEWID
 40
0.0
  9
$COORDS
 70
     0
  9
$SPLFRAME
 70
     0
  9
$SPLINETYPE
 70
     6
  9
$SPLINESEGS
 70
     8
  9
$ATTDIA
 70
     0
  9
$ATTREQ
 70
     1
  9
$HANDLING
 70
-16383
  9
$HANDSEED
  5
197E
  9
$SURFTAB1
 70
     6
  9
$SURFTAB2
 70
     6
  9
$SURFTYPE
 70
     6
  9
$SURFU
 70
     6
  9
$SURFV
 70
     6
  9
$UCSNAME
  2

  9
$UCSORG
 10
0.0
 20
0.0
 30
0.0
  9
$UCSXDIR
 10
1.0
 20
0.0
 30
0.0
  9
$UCSYDIR
 10
0.0
 20
1.0
 30
0.0
  9
$PUCSNAME
  2

  9
$PUCSORG
 10
0.0
 20
0.0
 30
0.0
  9
$PUCSXDIR
 10
1.0
 20
0.0
 30
0.0
  9
$PUCSYDIR
 10
0.0
 20
1.0
 30
0.0
  9
$USERI1
 70
     1
  9
$USERI2
 70
     0
  9
$USERI3
 70
     0
  9
$USERI4
 70
     0
  9
$USERI5
 70
     0
  9
$USERR1
 40
0.0
  9
$USERR2
 40
0.0
  9
$USERR3
 40
0.0
  9
$USERR4
 40
0.0
  9
$USERR5
 40
0.0
  9
$WORLDVIEW
 70
     1
  9
$SHADEDGE
 70
     3
  9
$SHADEDIF
 70
    70
  9
$TILEMODE
 70
     1
  9
$MAXACTVP
 70
    16
  9
$PINSBASE
 10
0.0
 20
0.0
 30
0.0
  9
$PLIMCHECK
 70
     0
  9
$PEXTMIN
 10
1.00000000E+20
 20
1.00000000E+20
 30
1.00000000E+20
  9
$PEXTMAX
 10
-1.00000000E+20
 20
-1.00000000E+20
 30
-1.00000000E+20
  9
$PLIMMIN
 10
0.0
 20
0.0
  9
$PLIMMAX
 10
420.0
 20
297.0
  9
$UNITMODE
 70
     0
  9
$VISRETAIN
 70
     0
  9
$PLINEGEN
 70
     0
  9
$PSLTSCALE
 70
     1
  9
$TREEDEPTH
 70
  3020
  9
$PICKSTYLE
 70
     0
  9
$CMLSTYLE
  2
STANDARD
  9
$CMLJUST
 70
     0
  9
$CMLSCALE
 40
1.0
  9
$PROXYGRAPHICS
 70
     1
  9
$MEASUREMENT
 70
     1
  0
ENDSEC
  0
SECTION
  2
CLASSES
  0
CLASS
  1
XRECORD
  2
AcDbXrecord
  3
AutoCAD 2000
 90
        0
280
     0
281
     0
  0
CLASS
  1
ACDBDICTIONARYWDFLT
  2
AcDbDictionaryWithDefault
  3
AutoCAD 2000
 90
        0
280
     0
281
     0
  0
CLASS
  1
ACDBPLACEHOLDER
  2
AcDbPlaceHolder
  3
AutoCAD 2000
 90
        0
280
     0
281
     0
  0
CLASS
  1
LAYOUT
  2
AcDbLayout
  3
AutoCAD 2000
 90
        0
280
     0
281
     0
  0
CLASS
  1
PLOTSETTINGS
  2
AcDbPlotSettings
  3
AutoCAD 2000
 90
        0
280
     0
281
     0
  0
CLASS
  1
LONG_TRANSACTION
  2
AcDbLongTransaction
  3
AutoCAD 2000
 90
        0
280
     0
281
     0
  0
CLASS
  1
LWPOLYLINE
  2
AcDbPolyline
  3
AutoCAD 2000
 90
        0
280
     0
281
     1
  0
CLASS
  1
HATCH
  2
AcDbHatch
  3
AutoCAD 2000
 90
        0
280
     0
281
     1
  0
CLASS
  1
XRECORD
  2
AcDbXrecord
  3
AutoCAD 2000
 90
        0
280
     0
281
     0
  0
CLASS
  1
LONG_TRANSACTION
  2
AcDbLongTransaction
  3
AutoCAD 2000
 90
        0
280
     0
281
     0
  0
CLASS
  1
LWPOLYLINE
  2
AcDbPolyline
  3
AutoCAD 2000
 90
        0
280
     0
281
     1
  0
CLASS
  1
HATCH
  2
AcDbHatch
  3
AutoCAD 2000
 90
        0
280
     0
281
     1
  0
CLASS
  1
XRECORD
  2
AcDbXrecord
  3
AutoCAD 2000
 90
        0
280
     0
281
     0
  0
CLASS
  1
LONG_TRANSACTION
  2
AcDbLongTransaction
  3
AutoCAD 2000
 90
        0
280
     0
281
     0
  0
CLASS
  1
LWPOLYLINE
  2
AcDbPolyline
  3
AutoCAD 2000
 90
        0
280
     0
281
     1
  0
CLASS
  1
HATCH
  2
AcDbHatch
  3
AutoCAD 2000
 90
        0
280
     0
281
     1
  0
CLASS
  1
XRECORD
  2
AcDbXrecord
  3
AutoCAD 2000
 90
        0
280
     0
281
     0
  0
ENDSEC
  0
SECTION
  2
TABLES
  0
TABLE
  2
VPORT
  5
8
330
0
100
AcDbSymbolTable
 70
     2
  0
VPORT
  5
1959
330
8
100
AcDbSymbolTableRecord
100
AcDbViewportTableRecord
  2
*ACTIVE
 70
     0
 10
0.0
 20
0.0
 11
1.0
 21
1.0
 12
0.6368258
 22
14.47323677
 13
0.0
 23
0.0
 14
7.0
 24
7.0
 15
7.0
 25
7.0
 16
0.0
 26
0.0
 36
1.0
 17
0.0
 27
0.0
 37
0.0
 40
69.01076887
 41
1.43184713
 42
50.0
 43
0.0
 44
0.0
 50
0.0
 51
0.0
 71
     0
 72
  2000
 73
     1
 74
     0
 75
     0
 76
     0
 77
     0
 78
     0
  0
ENDTAB
  0
TABLE
  2
LTYPE
  5
5
330
0
100
AcDbSymbolTable
 70
     3
  0
LTYPE
  5
14
330
5
100
AcDbSymbolTableRecord
100
AcDbLinetypeTableRecord
  2
BYBLOCK
 70
     0
  3

 72
    65
 73
     0
 40
0.0
  0
LTYPE
  5
15
330
5
100
AcDbSymbolTableRecord
100
AcDbLinetypeTableRecord
  2
BYLAYER
 70
     0
  3

 72
    65
 73
     0
 40
0.0
  0
LTYPE
  5
16
330
5
100
AcDbSymbolTableRecord
100
AcDbLinetypeTableRecord
  2
CONTINUOUS
 70
     0
  3
Solid line
 72
    65
 73
     0
 40
0.0
  0
LTYPE
  5
258
330
5
100
AcDbSymbolTableRecord
100
AcDbLinetypeTableRecord
  2
CENTER2
 70
     0
  3
___ _ ___ _ ___ _ ___ _ ___ _ ___ _ ___ _ ___ _
 72
    65
 73
     4
 40
1.125
 49
0.75
 74
     0
 49
-0.125
 74
     0
 49
0.125
 74
     0
 49
-0.125
 74
     0
  0
LTYPE
  5
25C
330
5
100
AcDbSymbolTableRecord
100
AcDbLinetypeTableRecord
  2
HIDDEN2
 70
     0
  3
_ _ _ _ _ _ _ _ _ _ _ _ _ _ _ _ _ _ _ _ _ _ _ _
 72
    65
 73
     2
 40
0.1875
 49
0.125
 74
     0
 49
-0.0625
 74
     0
  0
ENDTAB
  0
TABLE
  2
LAYER
  5
2
330
0
100
AcDbSymbolTable
 70
    10
  0
LAYER
  5
F
330
2
100
AcDbSymbolTableRecord
100
AcDbLayerTableRecord
  2
0
 70
     0
 62
     7
  6
CONTINUOUS
  0
LAYER
  5
1AA
330
2
100
AcDbSymbolTableRecord
100
AcDbLayerTableRecord
  2
240
 70
     0
 62
     4
  6
CONTINUOUS
  0
LAYER
  5
1AB
330
2
100
AcDbSymbolTableRecord
100
AcDbLayerTableRecord
  2
241
 70
     0
 62
   211
  6
CONTINUOUS
  0
LAYER
  5
1AC
330
2
100
AcDbSymbolTableRecord
100
AcDbLayerTableRecord
  2
242
 70
     0
 62
     3
  6
CONTINUOUS
  0
LAYER
  5
1AD
330
2
100
AcDbSymbolTableRecord
100
AcDbLayerTableRecord
  2
243
 70
     0
 62
   211
  6
HIDDEN2
  0
LAYER
  5
1AF
330
2
100
AcDbSymbolTableRecord
100
AcDbLayerTableRecord
  2
245
 70
     0
 62
     2
  6
CENTER2
  0
LAYER
  5
21E
330
2
100
AcDbSymbolTableRecord
100
AcDbLayerTableRecord
  2
250
 70
     0
 62
     3
  6
CONTINUOUS
  0
LAYER
  5
21F
330
2
100
AcDbSymbolTableRecord
100
AcDbLayerTableRecord
  2
251
 70
     0
 62
    40
  6
CONTINUOUS
  0
LAYER
  5
5C4
330
2
100
AcDbSymbolTableRecord
100
AcDbLayerTableRecord
  2
DEFPOINTS
 70
     0
 62
     7
  6
CONTINUOUS
  0
LAYER
  5
8B9
330
2
100
AcDbSymbolTableRecord
100
AcDbLayerTableRecord
  2
AM_7
 70
     0
 62
     2
  6
CENTER2
  0
ENDTAB
  0
TABLE
  2
STYLE
  5
3
330
0
100
AcDbSymbolTable
 70
     2
  0
STYLE
  5
10
330
3
100
AcDbSymbolTableRecord
100
AcDbTextStyleTableRecord
  2
STANDARD
 70
     0
 40
0.0
 41
1.0
 50
0.0
 71
     0
 42
3.0
  3
romans.shx
  4
BIGFONT.SHX
  0
STYLE
  5
339
330
3
100
AcDbSymbolTableRecord
100
AcDbTextStyleTableRecord
  2
YOKO
 70
     0
 40
0.0
 41
1.0
 50
0.0
 71
     0
 42
3.0
  3
romans.shx
  4
extfont.shx
  0
ENDTAB
  0
TABLE
  2
VIEW
  5
6
330
0
100
AcDbSymbolTable
 70
     0
  0
ENDTAB
  0
TABLE
  2
UCS
  5
7
330
0
100
AcDbSymbolTable
 70
     0
  0
ENDTAB
  0
TABLE
  2
APPID
  5
9
330
0
100
AcDbSymbolTable
 70
    15
  0
APPID
  5
11
330
9
100
AcDbSymbolTableRecord
100
AcDbRegAppTableRecord
  2
ACAD
 70
     0
  0
APPID
  5
1B1
330
9
100
AcDbSymbolTableRecord
100
AcDbRegAppTableRecord
  2
GLOBAL
 70
     0
  0
APPID
  5
2A4
330
9
100
AcDbSymbolTableRecord
100
AcDbRegAppTableRecord
  2
DETAIL
 70
     0
  0
APPID
  5
5FD
330
9
100
AcDbSymbolTableRecord
100
AcDbRegAppTableRecord
  2
GRPNAME
 70
     0
  0
APPID
  5
5FE
330
9
100
AcDbSymbolTableRecord
100
AcDbRegAppTableRecord
  2
GPARA
 70
     0
  0
APPID
  5
6C4
330
9
100
AcDbSymbolTableRecord
100
AcDbRegAppTableRecord
  2
DCO15
 70
     0
  0
APPID
  5
6C5
330
9
100
AcDbSymbolTableRecord
100
AcDbRegAppTableRecord
  2
ITEMNAME
 70
     0
  0
APPID
  5
6C6
330
9
100
AcDbSymbolTableRecord
100
AcDbRegAppTableRecord
  2
GRADE_0
 70
     0
  0
APPID
  5
8BA
330
9
100
AcDbSymbolTableRecord
100
AcDbRegAppTableRecord
  2
GENIUS_GENODEF_13
 70
     0
  0
APPID
  5
8BB
330
9
100
AcDbSymbolTableRecord
100
AcDbRegAppTableRecord
  2
GENIUS_GENOREF_13
 70
     0
  0
APPID
  5
8BC
330
9
100
AcDbSymbolTableRecord
100
AcDbRegAppTableRecord
  2
GENIUS_GENOBJ-N-FIL_13
 70
     0
  0
APPID
  5
8BD
330
9
100
AcDbSymbolTableRecord
100
AcDbRegAppTableRecord
  2
HATCH_TYPE
 70
     0
  0
APPID
  5
8BE
330
9
100
AcDbSymbolTableRecord
100
AcDbRegAppTableRecord
  2
HATCH_DISPLAY
 70
     0
  0
APPID
  5
8BF
330
9
100
AcDbSymbolTableRecord
100
AcDbRegAppTableRecord
  2
HATCH_DISTANCE
 70
     0
  0
APPID
  5
B92
330
9
100
AcDbSymbolTableRecord
100
AcDbRegAppTableRecord
  2
CONTENTBLOCKICON
 70
     0
  0
ENDTAB
  0
TABLE
  2
DIMSTYLE
  5
A
330
0
100
AcDbSymbolTable
 70
     1
  0
DIMSTYLE
105
725
102
{ACAD_REACTORS
330
16D6
330
1737
102
}
330
A
100
AcDbSymbolTableRecord
100
AcDbDimStyleTableRecord
  2
BIGT
 70
     0
  3

  4

  5

  6
OPEN
  7
OPEN
 40
1.0
 41
2.23
 42
0.5
 43
2.5
 44
1.0
 45
0.0
 46
0.0
 47
0.0
 48
0.0
140
2.8
141
0.0
142
0.0
143
25.4
144
1.0
145
0.0
146
1.0
147
1.0
 71
     0
 72
     0
 73
     0
 74
     0
 75
     0
 76
     0
 77
     3
 78
     8
170
     0
171
     2
172
     1
173
     1
174
     1
175
     0
176
   256
177
   256
178
    40
270
     2
271
     3
272
     3
273
     2
274
     2
340
10
275
     0
280
     0
281
     0
282
     0
283
     1
284
     8
285
     0
286
     0
287
     3
288
     0
  0
ENDTAB
  0
TABLE
  2
BLOCK_RECORD
  5
1
330
0
100
AcDbSymbolTable
 70
    10
  0
BLOCK_RECORD
  5
1A
102
{ACAD_XDICTIONARY
360
B90
102
}
330
1
100
AcDbSymbolTableRecord
100
AcDbBlockTableRecord
  2
*MODEL_SPACE
  0
BLOCK_RECORD
  5
17
102
{ACAD_XDICTIONARY
360
B8E
102
}
330
1
100
AcDbSymbolTableRecord
100
AcDbBlockTableRecord
  2
*PAPER_SPACE
  0
BLOCK_RECORD
  5
594
330
1
100
AcDbSymbolTableRecord
100
AcDbBlockTableRecord
  2
_OPEN
  0
BLOCK_RECORD
  5
6E3
330
1
100
AcDbSymbolTableRecord
100
AcDbBlockTableRecord
  2
矢印なし
  0
BLOCK_RECORD
  5
762
330
1
100
AcDbSymbolTableRecord
100
AcDbBlockTableRecord
  2
1
1001
CONTENTBLOCKICON
1071
        0
1004
2800000020000000200000000100080000000000000400000000000000000000000000000000000000000000000080000080000000808000800000008000800080800000C0C0C000C0DCC000F0CAA6000020400000206000002080000020A0000020C0000020E00000400000004020000040400000406000004080000040A0
1004
000040C0000040E00000600000006020000060400000606000006080000060A0000060C0000060E00000800000008020000080400000806000008080000080A0000080C0000080E00000A0000000A0200000A0400000A0600000A0800000A0A00000A0C00000A0E00000C0000000C0200000C0400000C0600000C0800000C0
1004
A00000C0C00000C0E00000E0000000E0200000E0400000E0600000E0800000E0A00000E0C00000E0E00040000000400020004000400040006000400080004000A0004000C0004000E00040200000402020004020400040206000402080004020A0004020C0004020E000404000004040200040404000404060004040800040
1004
40A0004040C0004040E00040600000406020004060400040606000406080004060A0004060C0004060E00040800000408020004080400040806000408080004080A0004080C0004080E00040A0000040A0200040A0400040A0600040A0800040A0A00040A0C00040A0E00040C0000040C0200040C0400040C0600040C08000
1004
40C0A00040C0C00040C0E00040E0000040E0200040E0400040E0600040E0800040E0A00040E0C00040E0E00080000000800020008000400080006000800080008000A0008000C0008000E00080200000802020008020400080206000802080008020A0008020C0008020E00080400000804020008040400080406000804080
1004
008040A0008040C0008040E00080600000806020008060400080606000806080008060A0008060C0008060E00080800000808020008080400080806000808080008080A0008080C0008080E00080A0000080A0200080A0400080A0600080A0800080A0A00080A0C00080A0E00080C0000080C0200080C0400080C0600080C0
1004
800080C0A00080C0C00080C0E00080E0000080E0200080E0400080E0600080E0800080E0A00080E0C00080E0E000C0000000C0002000C0004000C0006000C0008000C000A000C000C000C000E000C0200000C0202000C0204000C0206000C0208000C020A000C020C000C020E000C0400000C0402000C0404000C0406000C0
1004
408000C040A000C040C000C040E000C0600000C0602000C0604000C0606000C0608000C060A000C060C000C060E000C0800000C0802000C0804000C0806000C0808000C080A000C080C000C080E000C0A00000C0A02000C0A04000C0A06000C0A08000C0A0A000C0A0C000C0A0E000C0C00000C0C02000C0C04000C0C06000
1004
C0C08000C0C0A000F0FBFF00A4A0A000808080000000FF0000FF000000FFFF00FF000000FF00FF00FFFF0000FFFFFF0000000000000000000000000000000000000000000000000000000000000000000000000000000000000000000000000000000000000000000000000000000000000000000000000000000000000000
1004
00000000000000000000000000000000000000000000000000000000000000000000000000000000000000000000000000000000000000000000000000000000000000000000000000000000000000000000000000000000000000000000000000000000000000000000000000000000000000000000000000000000000000
1004
00000000000000000000000000000000000000000000000000000000000000000000000000000000000000000000000000000000000000000000000000000000000000000000000000000000000000000000000000000000000000000000000000000000000000000000000000000000000000000000000000000000000000
1004
000000000000000000000000000000000000000000000000000000000000000000000000000000000000000000000000000000000000000000000000000000000000FEFEE7E7FE0000000000000000000000000000FEFEFEFEFEFEFEFEFEFEFEFEFEFEE7E7E7FEFEFEFEFEE7FEFEFEFEFE00000000FE000000E7E70000E7E7
1004
E7E700E7E7E7E7E700FFE7E7E700000000FE00000000FE000000E7E70000E7FBFBE700E7E7E7E7E7FFFFE7E7E700000000FE000000FBFEFBFBFBE7E7FBFBE7FBFBE7FBE7E7E7E7E7FFFFE7FAE7E7E7E7E7FEFB000000FE000000E7E70000E70000E700E7E7E7E7E700FFE7E7E700000000FE00000000FEFEFEFEFEFEFEFEFE
1004
FEFEFEFEFEE7E7E7FEFEFEFEFEE7FEFEFEFEFE0000000000000000000000000000000000FEFEFEFEFE0000000000000000000000000000000000000000000000000000000000000000000000000000000000000000000000000000000000000000000000000000000000000000000000000000000000000000000000000000
1004
00000000000000000000000000000000000000000000000000000000000000000000000000000000000000000000000000000000000000000000000000000000000000000000000000000000000000000000000000000000000000000000000000000000000000000000000000000000000000000000000000000000000000
1004
00000000000000000000000000000000000000000000000000000000000000000000000000000000000000000000000000000000000000000000000000000000000000000000000000000000000000000000000000000000000000000000000000000000000000000000000000000000000000000000000000000000000000
1004
0000000000000000000000000000000000000000000000000000000000000000000000000000000000000000000000000000000000000000
  0
BLOCK_RECORD
  5
17FE
330
1
100
AcDbSymbolTableRecord
100
AcDbBlockTableRecord
  2
*D8
  0
BLOCK_RECORD
  5
180A
330
1
100
AcDbSymbolTableRecord
100
AcDbBlockTableRecord
  2
*D9
  0
ENDTAB
  0
ENDSEC
  0
SECTION
  2
BLOCKS
  0
BLOCK
  5
1B
330
1A
100
AcDbEntity
  8
0
100
AcDbBlockBegin
  2
*MODEL_SPACE
 70
     0
 10
0.0
 20
0.0
 30
0.0
  3
*MODEL_SPACE
  1

  0
ENDBLK
  5
1C
330
1A
100
AcDbEntity
  8
0
100
AcDbBlockEnd
  0
BLOCK
  5
18
330
17
100
AcDbEntity
 67
     1
  8
0
100
AcDbBlockBegin
  2
*PAPER_SPACE
 70
     0
 10
0.0
 20
0.0
 30
0.0
  3
*PAPER_SPACE
  1

  0
ENDBLK
  5
19
330
17
100
AcDbEntity
 67
     1
  8
0
100
AcDbBlockEnd
  0
BLOCK
  5
598
330
594
100
AcDbEntity
  8
0
100
AcDbBlockBegin
  2
_OPEN
 70
     0
 10
0.0
 20
0.0
 30
0.0
  3
_OPEN
  1

  0
LINE
  5
595
330
594
100
AcDbEntity
  8
0
  6
BYBLOCK
 62
     0
100
AcDbLine
 10
-1.0
 20
0.16666667
 30
0.0
 11
0.0
 21
0.0
 31
0.0
  0
LINE
  5
596
330
594
100
AcDbEntity
  8
0
  6
BYBLOCK
 62
     0
100
AcDbLine
 10
-1.0
 20
-0.16666667
 30
0.0
 11
0.0
 21
0.0
 31
0.0
  0
LINE
  5
597
330
594
100
AcDbEntity
  8
0
  6
BYBLOCK
 62
     0
100
AcDbLine
 10
0.0
 20
0.0
 30
0.0
 11
-1.0
 21
0.0
 31
0.0
  0
ENDBLK
  5
599
330
594
100
AcDbEntity
  8
0
100
AcDbBlockEnd
  0
BLOCK
  5
6E4
330
6E3
100
AcDbEntity
  8
0
100
AcDbBlockBegin
  2
矢印なし
 70
     0
 10
0.0
 20
0.0
 30
0.0
  3
矢印なし
  1

  0
ENDBLK
  5
6E5
330
6E3
100
AcDbEntity
  8
0
100
AcDbBlockEnd
  0
BLOCK
  5
89F
330
762
100
AcDbEntity
  8
0
100
AcDbBlockBegin
  2
1
 70
     0
 10
0.0
 20
0.0
 30
0.0
  3
1
  1

  0
LINE
  5
183A
330
762
100
AcDbEntity
  8
AM_7
100
AcDbLine
 10
-48.5
 20
0.0
 30
0.0
 11
31.0
 21
0.0
 31
0.0
1001
GENIUS_GENOREF_13
1005
0
  0
ARC
  5
183B
330
762
100
AcDbEntity
  8
240
100
AcDbCircle
 10
-3.0
 20
-10.0
 30
0.0
 40
1.000000000000075
100
AcDbArc
 50
180.0
 51
0.0
  0
ARC
  5
183C
330
762
100
AcDbEntity
  8
240
100
AcDbCircle
 10
-3.0
 20
10.0
 30
0.0
 40
1.000000000000075
100
AcDbArc
 50
0.0
 51
180.0
  0
LINE
  5
183D
330
762
100
AcDbEntity
  8
241
100
AcDbLine
 10
-5.12626129
 20
-11.0
 30
0.0
 11
-5.12626129
 21
0.0
 31
0.0
  0
LINE
  5
183E
330
762
100
AcDbEntity
  8
241
  6
CONTINUOUS
100
AcDbLine
 10
-6.5
 20
-10.50000001
 30
0.0
 11
-6.5
 21
0.0
 31
0.0
  0
LINE
  5
183F
330
762
100
AcDbEntity
  8
240
100
AcDbLine
 10
-10.0
 20
-10.5
 30
0.0
 11
-10.0
 21
-9.0
 31
0.0
  0
LINE
  5
1840
330
762
100
AcDbEntity
  8
240
100
AcDbLine
 10
-4.0
 20
-10.0
 30
0.0
 11
-4.0
 21
-11.0
 31
0.0
  0
LINE
  5
1841
330
762
100
AcDbEntity
  8
240
100
AcDbLine
 10
-6.50000001
 20
-10.5
 30
0.0
 11
-10.0
 21
-10.5
 31
0.0
  0
LINE
  5
1842
330
762
100
AcDbEntity
  8
240
100
AcDbLine
 10
-6.5
 20
-10.50000001
 30
0.0
 11
-5.12626128
 21
-11.0
 31
0.0
  0
LINE
  5
1843
330
762
100
AcDbEntity
  8
240
100
AcDbLine
 10
-4.0
 20
-11.0
 30
0.0
 11
-5.12626129
 21
-11.0
 31
0.0
  0
LINE
  5
1844
330
762
100
AcDbEntity
  8
240
100
AcDbLine
 10
-46.5
 20
-8.0
 30
0.0
 11
-41.0
 21
-8.0
 31
0.0
  0
LINE
  5
1845
330
762
100
AcDbEntity
  8
240
100
AcDbLine
 10
-46.5
 20
8.0
 30
0.0
 11
-41.0
 21
8.0
 31
0.0
  0
LINE
  5
1846
330
762
100
AcDbEntity
  8
240
100
AcDbLine
 10
-47.5
 20
7.0
 30
0.0
 11
-47.5
 21
0.0
 31
0.0
  0
LINE
  5
1847
330
762
100
AcDbEntity
  8
240
100
AcDbLine
 10
-47.5
 20
-7.0
 30
0.0
 11
-47.5
 21
0.0
 31
0.0
  0
ARC
  5
1848
330
762
100
AcDbEntity
  8
240
100
AcDbCircle
 10
-46.5
 20
-7.0
 30
0.0
 40
1.0
100
AcDbArc
 50
180.0
 51
270.0
  0
ARC
  5
1849
330
762
100
AcDbEntity
  8
240
100
AcDbCircle
 10
-46.5
 20
7.0
 30
0.0
 40
1.0
100
AcDbArc
 50
90.0
 51
180.0
  0
ARC
  5
184A
330
762
100
AcDbEntity
  8
240
100
AcDbCircle
 10
-24.5
 20
-7.0
 30
0.0
 40
1.000000000003004
100
AcDbArc
 50
180.0
 51
0.0
  0
ARC
  5
184B
330
762
100
AcDbEntity
  8
240
100
AcDbCircle
 10
-24.5
 20
7.0
 30
0.0
 40
1.000000000003004
100
AcDbArc
 50
0.0
 51
180.0
  0
LINE
  5
184C
330
762
100
AcDbEntity
  8
243
100
AcDbLine
 10
-36.5
 20
6.0
 30
0.0
 11
-36.5
 21
-6.0
 31
0.0
  0
LINE
  5
184D
330
762
100
AcDbEntity
  8
AM_7
100
AcDbLine
 10
-34.0
 20
-8.0
 30
0.0
 11
-34.0
 21
8.0
 31
0.0
  0
LINE
  5
184E
330
762
100
AcDbEntity
  8
243
100
AcDbLine
 10
-31.5
 20
6.0
 30
0.0
 11
-31.5
 21
-6.0
 31
0.0
  0
LINE
  5
184F
330
762
100
AcDbEntity
  8
241
100
AcDbLine
 10
-25.5
 20
7.0
 30
0.0
 11
-25.5
 21
0.0
 31
0.0
  0
LINE
  5
1850
330
762
100
AcDbEntity
  8
240
100
AcDbLine
 10
-39.0
 20
-6.0
 30
0.0
 11
-34.0
 21
-6.0
 31
0.0
  0
LINE
  5
1851
330
762
100
AcDbEntity
  8
240
100
AcDbLine
 10
-39.0
 20
-6.0
 30
0.0
 11
-41.0
 21
-8.0
 31
0.0
  0
LINE
  5
1852
330
762
100
AcDbEntity
  8
241
100
AcDbLine
 10
-25.5
 20
-7.0
 30
0.0
 11
-25.5
 21
0.0
 31
0.0
  0
LINE
  5
1853
330
762
100
AcDbEntity
  8
240
100
AcDbLine
 10
-34.0
 20
-6.0
 30
0.0
 11
-29.0
 21
-6.0
 31
0.0
  0
LINE
  5
1854
330
762
100
AcDbEntity
  8
240
100
AcDbLine
 10
-25.5
 20
-7.0
 30
0.0
 11
-25.5
 21
-8.0
 31
0.0
  0
LINE
  5
1855
330
762
100
AcDbEntity
  8
240
100
AcDbLine
 10
-29.0
 20
-6.0
 30
0.0
 11
-27.0
 21
-8.0
 31
0.0
  0
LINE
  5
1856
330
762
100
AcDbEntity
  8
240
100
AcDbLine
 10
-27.0
 20
-8.0
 30
0.0
 11
-25.5
 21
-8.0
 31
0.0
  0
LINE
  5
1857
330
762
100
AcDbEntity
  8
240
100
AcDbLine
 10
-39.0
 20
6.0
 30
0.0
 11
-34.0
 21
6.0
 31
0.0
  0
LINE
  5
1858
330
762
100
AcDbEntity
  8
240
100
AcDbLine
 10
-39.0
 20
6.0
 30
0.0
 11
-41.0
 21
8.0
 31
0.0
  0
LINE
  5
1859
330
762
100
AcDbEntity
  8
240
100
AcDbLine
 10
-34.0
 20
6.0
 30
0.0
 11
-29.0
 21
6.0
 31
0.0
  0
LINE
  5
185A
330
762
100
AcDbEntity
  8
240
100
AcDbLine
 10
-27.0
 20
8.0
 30
0.0
 11
-25.5
 21
8.0
 31
0.0
  0
LINE
  5
185B
330
762
100
AcDbEntity
  8
240
100
AcDbLine
 10
-25.5
 20
7.0
 30
0.0
 11
-25.5
 21
8.0
 31
0.0
  0
LINE
  5
185C
330
762
100
AcDbEntity
  8
240
100
AcDbLine
 10
-29.0
 20
6.0
 30
0.0
 11
-27.0
 21
8.0
 31
0.0
  0
LINE
  5
185D
330
762
100
AcDbEntity
  8
241
100
AcDbLine
 10
-16.5
 20
7.0
 30
0.0
 11
-16.5
 21
0.0
 31
0.0
  0
LINE
  5
185E
330
762
100
AcDbEntity
  8
241
100
AcDbLine
 10
-23.5
 20
7.0
 30
0.0
 11
-23.5
 21
0.0
 31
0.0
  0
LINE
  5
185F
330
762
100
AcDbEntity
  8
241
100
AcDbLine
 10
-5.12626129
 20
11.0
 30
0.0
 11
-5.12626129
 21
0.0
 31
0.0
  0
LINE
  5
1860
330
762
100
AcDbEntity
  8
241
100
AcDbLine
 10
-14.5
 20
7.0
 30
0.0
 11
-14.5
 21
0.0
 31
0.0
  0
LINE
  5
1861
330
762
100
AcDbEntity
  8
241
100
AcDbLine
 10
-11.0
 20
8.0
 30
0.0
 11
-11.0
 21
0.0
 31
0.0
  0
LINE
  5
1862
330
762
100
AcDbEntity
  8
241
  6
CONTINUOUS
100
AcDbLine
 10
-6.5
 20
10.50000001
 30
0.0
 11
-6.5
 21
0.0
 31
0.0
  0
LINE
  5
1863
330
762
100
AcDbEntity
  8
241
100
AcDbLine
 10
-4.0
 20
10.0
 30
0.0
 11
-4.0
 21
0.0
 31
0.0
  0
LINE
  5
1864
330
762
100
AcDbEntity
  8
240
100
AcDbLine
 10
-14.5
 20
-8.0
 30
0.0
 11
-11.0
 21
-8.0
 31
0.0
  0
LINE
  5
1865
330
762
100
AcDbEntity
  8
AM_7
100
AcDbLine
 10
-20.0
 20
-0.7698914
 30
0.0
 11
-20.0
 21
-4.52866188
 31
0.0
  0
LINE
  5
1866
330
762
100
AcDbEntity
  8
241
100
AcDbLine
 10
-14.5
 20
-7.0
 30
0.0
 11
-14.5
 21
0.0
 31
0.0
  0
LINE
  5
1867
330
762
100
AcDbEntity
  8
241
100
AcDbLine
 10
-16.5
 20
-7.0
 30
0.0
 11
-16.5
 21
0.0
 31
0.0
  0
LINE
  5
1868
330
762
100
AcDbEntity
  8
241
100
AcDbLine
 10
-23.5
 20
-7.0
 30
0.0
 11
-23.5
 21
0.0
 31
0.0
  0
ELLIPSE
  5
1869
330
762
100
AcDbEntity
  8
241
100
AcDbEllipse
 10
-20.0
 20
-2.64927664
 30
0.0
 11
-2.000000000000023
 21
0.0
 31
0.0
210
0.0
220
0.0
230
1.0
 40
0.93969262
 41
0.0
 42
6.283185307179584
  0
LINE
  5
186A
330
762
100
AcDbEntity
  8
240
100
AcDbLine
 10
-23.5
 20
-8.0
 30
0.0
 11
-16.5
 21
-8.0
 31
0.0
  0
LINE
  5
186B
330
762
100
AcDbEntity
  8
240
100
AcDbLine
 10
-23.5
 20
-7.0
 30
0.0
 11
-23.5
 21
-8.0
 31
0.0
  0
ARC
  5
186C
330
762
100
AcDbEntity
  8
240
100
AcDbCircle
 10
-15.5
 20
-7.0
 30
0.0
 40
1.000000000003004
100
AcDbArc
 50
180.0
 51
0.0
  0
LINE
  5
186D
330
762
100
AcDbEntity
  8
240
100
AcDbLine
 10
-16.5
 20
-7.0
 30
0.0
 11
-16.5
 21
-8.0
 31
0.0
  0
LINE
  5
186E
330
762
100
AcDbEntity
  8
240
100
AcDbLine
 10
-14.5
 20
-7.0
 30
0.0
 11
-14.5
 21
-8.0
 31
0.0
  0
LINE
  5
186F
330
762
100
AcDbEntity
  8
AM_7
100
AcDbLine
 10
-21.99786162
 20
-2.73616115
 30
0.0
 11
-18.00213838
 21
-2.73616115
 31
0.0
  0
LINE
  5
1870
330
762
100
AcDbEntity
  8
241
100
AcDbLine
 10
-11.0
 20
-8.0
 30
0.0
 11
-11.0
 21
0.0
 31
0.0
  0
LINE
  5
1871
330
762
100
AcDbEntity
  8
241
100
AcDbLine
 10
-4.0
 20
-10.0
 30
0.0
 11
-4.0
 21
0.0
 31
0.0
  0
LINE
  5
1872
330
762
100
AcDbEntity
  8
241
100
AcDbLine
 10
-6.5
 20
-8.2
 30
0.0
 11
-9.5
 21
-8.2
 31
0.0
  0
LINE
  5
1873
330
762
100
AcDbEntity
  8
240
100
AcDbLine
 10
-10.7
 20
-7.7
 30
0.0
 11
-11.0
 21
-8.0
 31
0.0
  0
LINE
  5
1874
330
762
100
AcDbEntity
  8
240
100
AcDbLine
 10
-9.5
 20
-8.5
 30
0.0
 11
-9.5
 21
-7.7
 31
0.0
  0
LINE
  5
1875
330
762
100
AcDbEntity
  8
240
100
AcDbLine
 10
-10.7
 20
-7.7
 30
0.0
 11
-9.5
 21
-7.7
 31
0.0
  0
LINE
  5
1876
330
762
100
AcDbEntity
  8
240
100
AcDbLine
 10
-9.5
 20
-8.5
 30
0.0
 11
-10.0
 21
-9.0
 31
0.0
  0
LINE
  5
1877
330
762
100
AcDbEntity
  8
240
100
AcDbLine
 10
-14.5
 20
8.0
 30
0.0
 11
-11.0
 21
8.0
 31
0.0
  0
LINE
  5
1878
330
762
100
AcDbEntity
  8
240
100
AcDbLine
 10
-23.5
 20
8.0
 30
0.0
 11
-16.5
 21
8.0
 31
0.0
  0
LINE
  5
1879
330
762
100
AcDbEntity
  8
240
100
AcDbLine
 10
-23.5
 20
7.0
 30
0.0
 11
-23.5
 21
8.0
 31
0.0
  0
ARC
  5
187A
330
762
100
AcDbEntity
  8
240
100
AcDbCircle
 10
-15.5
 20
7.0
 30
0.0
 40
1.000000000003004
100
AcDbArc
 50
0.0
 51
180.0
  0
LINE
  5
187B
330
762
100
AcDbEntity
  8
240
100
AcDbLine
 10
-16.5
 20
7.0
 30
0.0
 11
-16.5
 21
8.0
 31
0.0
  0
LINE
  5
187C
330
762
100
AcDbEntity
  8
240
100
AcDbLine
 10
-14.5
 20
7.0
 30
0.0
 11
-14.5
 21
8.0
 31
0.0
  0
LINE
  5
187D
330
762
100
AcDbEntity
  8
240
100
AcDbLine
 10
-6.50000001
 20
10.5
 30
0.0
 11
-10.0
 21
10.5
 31
0.0
  0
LINE
  5
187E
330
762
100
AcDbEntity
  8
241
100
AcDbLine
 10
-6.5
 20
8.2
 30
0.0
 11
-9.5
 21
8.2
 31
0.0
  0
LINE
  5
187F
330
762
100
AcDbEntity
  8
240
100
AcDbLine
 10
-10.7
 20
7.7
 30
0.0
 11
-11.0
 21
8.0
 31
0.0
  0
LINE
  5
1880
330
762
100
AcDbEntity
  8
240
100
AcDbLine
 10
-10.0
 20
10.5
 30
0.0
 11
-10.0
 21
9.0
 31
0.0
  0
LINE
  5
1881
330
762
100
AcDbEntity
  8
240
100
AcDbLine
 10
-10.7
 20
7.7
 30
0.0
 11
-9.5
 21
7.7
 31
0.0
  0
LINE
  5
1882
330
762
100
AcDbEntity
  8
240
100
AcDbLine
 10
-9.5
 20
8.5
 30
0.0
 11
-9.5
 21
7.7
 31
0.0
  0
LINE
  5
1883
330
762
100
AcDbEntity
  8
240
100
AcDbLine
 10
-9.5
 20
8.5
 30
0.0
 11
-10.0
 21
9.0
 31
0.0
  0
LINE
  5
1884
330
762
100
AcDbEntity
  8
240
100
AcDbLine
 10
-6.50000001
 20
10.5
 30
0.0
 11
-5.12626128
 21
11.0
 31
0.0
  0
LINE
  5
1885
330
762
100
AcDbEntity
  8
240
100
AcDbLine
 10
-4.0
 20
10.0
 30
0.0
 11
-4.0
 21
11.0
 31
0.0
  0
LINE
  5
1886
330
762
100
AcDbEntity
  8
240
100
AcDbLine
 10
-4.0
 20
11.0
 30
0.0
 11
-5.12626129
 21
11.0
 31
0.0
  0
LINE
  5
1887
330
762
100
AcDbEntity
  8
241
100
AcDbLine
 10
0.0
 20
-10.64125603
 30
0.0
 11
0.0
 21
0.0
 31
0.0
  0
LINE
  5
1888
330
762
100
AcDbEntity
  8
240
100
AcDbLine
 10
-2.0
 20
-10.0
 30
0.0
 11
-2.0
 21
-11.0
 31
0.0
  0
LINE
  5
1889
330
762
100
AcDbEntity
  8
240
100
AcDbLine
 10
0.19859884
 20
-10.25881905
 30
0.0
 11
0.60524874
 21
-8.74118096
 31
0.0
  0
LINE
  5
188A
330
762
100
AcDbEntity
  8
240
100
AcDbLine
 10
-0.63567449
 20
-11.0
 30
0.0
 11
-2.0
 21
-11.0
 31
0.0
  0
ARC
  5
188B
330
762
100
AcDbEntity
  8
240
100
AcDbCircle
 10
-0.76732699
 20
-10.0
 30
0.0
 40
1.0
100
AcDbArc
 50
285.0
 51
345.0
1001
GENIUS_GENOBJ-N-FIL_13
1002
{
1000
OWNER
1000
GEN
1002
}
1001
GENIUS_GENODEF_13
1002
{
1000
HIER
1070
     0
1002
}
1002
{
1000
MANEDIT
1070
     0
1002
}
1002
{
1000
NOSEL
1070
     0
1002
}
1002
{
1000
BEHIND
1070
     0
1002
}
1002
{
1000
OTHER
1070
     0
1002
}
1002
{
1000
REACTOR
1002
}
  0
LINE
  5
188C
330
762
100
AcDbEntity
  8
240
100
AcDbLine
 10
-0.50850794
 20
-10.96592583
 30
0.0
 11
-0.63567449
 21
-11.0
 31
0.0
  0
LINE
  5
188D
330
762
100
AcDbEntity
  8
240
100
AcDbLine
 10
13.15
 20
-8.0
 30
0.0
 11
29.0
 21
-8.0
 31
0.0
  0
LINE
  5
188E
330
762
100
AcDbEntity
  8
240
100
AcDbLine
 10
13.15
 20
8.0
 30
0.0
 11
29.0
 21
8.0
 31
0.0
  0
LINE
  5
188F
330
762
100
AcDbEntity
  8
241
  6
HIDDEN2
100
AcDbLine
 10
16.0
 20
1.8
 30
0.0
 11
20.0
 21
1.8
 31
0.0
1001
GRPNAME
1000
0000002S
  0
TEXT
  5
1890
330
762
100
AcDbEntity
  8
0
100
AcDbText
 10
7.51231774
 20
-6.1632241
 30
0.0
 40
1.25
  1
MGT6-M2-30
 50
90.0
  7
YOKO
100
AcDbText
  0
LINE
  5
1891
330
762
100
AcDbEntity
  8
241
100
AcDbLine
 10
0.0
 20
10.64125603
 30
0.0
 11
0.0
 21
0.0
 31
0.0
  0
LINE
  5
1892
330
762
100
AcDbEntity
  8
241
100
AcDbLine
 10
-2.0
 20
10.0
 30
0.0
 11
-2.0
 21
0.0
 31
0.0
  0
LINE
  5
1893
330
762
100
AcDbEntity
  8
241
100
AcDbLine
 10
0.80384758
 20
8.35874397
 30
0.0
 11
0.80384758
 21
0.0
 31
0.0
  0
LINE
  5
1894
330
762
100
AcDbEntity
  8
241
100
AcDbLine
 10
11.0
 20
6.2
 30
0.0
 11
11.0
 21
0.0
 31
0.0
  0
LINE
  5
1895
330
762
100
AcDbEntity
  8
241
100
AcDbLine
 10
10.0
 20
6.2
 30
0.0
 11
10.0
 21
0.0
 31
0.0
  0
LINE
  5
1896
330
762
100
AcDbEntity
  8
241
100
AcDbLine
 10
14.2
 20
8.0
 30
0.0
 11
14.2
 21
0.0
 31
0.0
  0
LINE
  5
1897
330
762
100
AcDbEntity
  8
241
100
AcDbLine
 10
13.0
 20
8.15
 30
0.0
 11
13.0
 21
0.0
 31
0.0
  0
LINE
  5
1898
330
762
100
AcDbEntity
  8
240
100
AcDbLine
 10
10.0
 20
-8.0
 30
0.0
 11
1.57117457
 21
-8.0
 31
0.0
  0
LINE
  5
1899
330
762
100
AcDbEntity
  8
241
100
AcDbLine
 10
0.80384758
 20
-8.35874397
 30
0.0
 11
0.80384758
 21
0.0
 31
0.0
  0
LINE
  5
189A
330
762
100
AcDbEntity
  8
241
100
AcDbLine
 10
-2.0
 20
-10.0
 30
0.0
 11
-2.0
 21
0.0
 31
0.0
  0
ARC
  5
189B
330
762
100
AcDbEntity
  8
240
100
AcDbCircle
 10
1.57117457
 20
-9.0
 30
0.0
 40
1.0
100
AcDbArc
 50
90.0
 51
165.00000008
  0
ARC
  5
189C
330
762
100
AcDbEntity
  8
0
100
AcDbCircle
 10
4.01528203
 20
0.75578785
 30
0.0
 40
0.4925880432128908
100
AcDbArc
 50
253.9997507
 51
34.96387329
  0
LINE
  5
189D
330
762
100
AcDbEntity
  8
0
100
AcDbLine
 10
3.95564956
 20
-0.83564616
 30
0.0
 11
3.41327545
 21
-0.29327205
 31
0.0
  0
LINE
  5
189E
330
762
100
AcDbEntity
  8
0
100
AcDbLine
 10
3.55426875
 20
-0.60264515
 30
0.0
 11
3.30063843
 21
-0.34901483
 31
0.0
  0
ARC
  5
189F
330
762
100
AcDbEntity
  8
0
100
AcDbCircle
 10
3.50754201
 20
-0.82513332
 30
0.0
 40
0.2273419797420503
100
AcDbArc
 50
351.66260169
 51
156.3381551
  0
LINE
  5
18A0
330
762
100
AcDbEntity
  8
0
100
AcDbLine
 10
3.8991747
 20
-1.2843107
 30
0.0
 11
3.36863233
 21
-0.75376834
 31
0.0
  0
LINE
  5
18A1
330
762
100
AcDbEntity
  8
0
100
AcDbLine
 10
3.66310208
 20
-1.21661789
 30
0.0
 11
3.14378583
 21
-0.69730164
 31
0.0
  0
LINE
  5
18A2
330
762
100
AcDbEntity
  8
0
100
AcDbLine
 10
3.29931292
 20
-0.73389176
 30
0.0
 11
3.73248135
 21
-0.85809803
 31
0.0
  0
LINE
  5
18A3
330
762
100
AcDbEntity
  8
0
100
AcDbLine
 10
3.40531534
 20
-0.62207155
 30
0.0
 11
3.2163243
 21
-0.43308051
 31
0.0
  0
LINE
  5
18A4
330
762
100
AcDbEntity
  8
0
100
AcDbLine
 10
3.14378583
 20
-1.14654636
 30
0.0
 11
3.14378583
 21
-0.65760293
 31
0.0
  0
LINE
  5
18A5
330
762
100
AcDbEntity
  8
0
100
AcDbLine
 10
3.29535138
 20
-1.1856268
 30
0.0
 11
3.14378583
 21
-1.03406125
 31
0.0
  0
LINE
  5
18A6
330
762
100
AcDbEntity
  8
0
100
AcDbLine
 10
3.42702947
 20
-1.14892508
 30
0.0
 11
3.14378583
 21
-0.86568144
 31
0.0
  0
LINE
  5
18A7
330
762
100
AcDbEntity
  8
0
100
AcDbLine
 10
3.14378583
 20
-1.14654636
 30
0.0
 11
3.29535138
 21
-1.1900053
 31
0.0
  0
LINE
  5
18A8
330
762
100
AcDbEntity
  8
0
100
AcDbLine
 10
3.29535138
 20
-1.1900053
 30
0.0
 11
3.29535138
 21
-1.11116695
 31
0.0
  0
LINE
  5
18A9
330
762
100
AcDbEntity
  8
0
100
AcDbLine
 10
3.14378583
 20
-1.22537899
 30
0.0
 11
3.29535138
 21
-1.26883793
 31
0.0
  0
LINE
  5
18AA
330
762
100
AcDbEntity
  8
0
100
AcDbLine
 10
3.31660219
 20
-0.70173819
 30
0.0
 11
3.16028845
 21
-0.54542445
 31
0.0
  0
LINE
  5
18AB
330
762
100
AcDbEntity
  8
0
100
AcDbLine
 10
4.50786453
 20
-0.88272173
 30
0.0
 11
4.07937517
 21
-0.45423237
 31
0.0
  0
LINE
  5
18AC
330
762
100
AcDbEntity
  8
0
100
AcDbLine
 10
4.06525293
 20
-0.77686973
 30
0.0
 11
3.5682631
 21
-0.27987989
 31
0.0
  0
LINE
  5
18AD
330
762
100
AcDbEntity
  8
0
100
AcDbLine
 10
4.50786453
 20
-1.05110153
 30
0.0
 11
3.95173606
 21
-0.49497306
 31
0.0
  0
ARC
  5
18AE
330
762
100
AcDbEntity
  8
0
100
AcDbCircle
 10
4.1137985
 20
-0.9989748
 30
0.0
 40
0.2273484840989113
100
AcDbArc
 50
351.66285421
 51
156.33819216
  0
LINE
  5
18AF
330
762
100
AcDbEntity
  8
0
100
AcDbLine
 10
4.50786453
 20
-1.38786113
 30
0.0
 11
4.07684833
 21
-0.95684493
 31
0.0
  0
LINE
  5
18B0
330
762
100
AcDbEntity
  8
0
100
AcDbLine
 10
4.50786453
 20
-1.21948133
 30
0.0
 11
4.31291745
 21
-1.02453425
 31
0.0
  0
LINE
  5
18B1
330
762
100
AcDbEntity
  8
0
100
AcDbLine
 10
4.37131992
 20
-1.41969632
 30
0.0
 11
3.73003019
 21
-0.77840659
 31
0.0
  0
LINE
  5
18B2
330
762
100
AcDbEntity
  8
0
100
AcDbLine
 10
4.13524731
 20
-1.35200351
 30
0.0
 11
3.60470271
 21
-0.82145891
 31
0.0
  0
LINE
  5
18B3
330
762
100
AcDbEntity
  8
0
100
AcDbLine
 10
3.9055631
 20
-0.90773143
 30
0.0
 11
4.33874437
 21
-1.03193974
 31
0.0
  0
LINE
  5
18B4
330
762
100
AcDbEntity
  8
0
100
AcDbLine
 10
4.47945575
 20
-0.68593314
 30
0.0
 11
4.27290567
 21
-0.47938306
 31
0.0
  0
ARC
  5
18B5
330
762
100
AcDbEntity
  8
0
100
AcDbCircle
 10
4.1289562
 20
-0.82988262
 30
0.0
 40
0.3789081573486329
100
AcDbArc
 50
0.0
 51
130.32984065
  0
LINE
  5
18B6
330
762
100
AcDbEntity
  8
0
100
AcDbLine
 10
4.50786453
 20
-0.3709116
 30
0.0
 11
3.31050336
 21
-0.02757168
 31
0.0
  0
LINE
  5
18B7
330
762
100
AcDbEntity
  8
0
100
AcDbLine
 10
4.50786453
 20
-0.3709116
 30
0.0
 11
4.50786453
 21
-0.03191471
 31
0.0
  0
ARC
  5
18B8
330
762
100
AcDbEntity
  8
0
100
AcDbCircle
 10
3.52269399
 20
-0.65604115
 30
0.0
 40
0.3789113759994507
100
AcDbArc
 50
17.66957755
 51
180.23615984
  0
ARC
  5
18B9
330
762
100
AcDbEntity
  8
0
100
AcDbCircle
 10
3.63636815
 20
0.86443806
 30
0.0
 40
0.4925830364227294
100
AcDbArc
 50
143.4440122
 51
254.00018439
  0
ARC
  5
18BA
330
762
100
AcDbEntity
  8
0
100
AcDbCircle
 10
3.93949926
 20
1.53838062
 30
0.0
 40
0.644147872924803
100
AcDbArc
 50
0.0
 51
194.1274365
  0
ARC
  5
18BB
330
762
100
AcDbEntity
  8
0
100
AcDbCircle
 10
3.93949926
 20
1.53838062
 30
0.0
 40
0.7957134246826168
100
AcDbArc
 50
0.0
 51
194.77079397
  0
LINE
  5
18BC
330
762
100
AcDbEntity
  8
0
100
AcDbLine
 10
3.29535138
 20
-1.3540066
 30
0.0
 11
3.17594484
 21
-1.23460006
 31
0.0
  0
LINE
  5
18BD
330
762
100
AcDbEntity
  8
0
100
AcDbLine
 10
4.73521286
 20
-1.27844985
 30
0.0
 11
4.58364731
 21
-1.1268843
 31
0.0
  0
LINE
  5
18BE
330
762
100
AcDbEntity
  8
0
100
AcDbLine
 10
4.73521286
 20
-1.11007005
 30
0.0
 11
4.58364731
 21
-0.9585045
 31
0.0
  0
LINE
  5
18BF
330
762
100
AcDbEntity
  8
0
100
AcDbLine
 10
4.73521286
 20
-0.94169025
 30
0.0
 11
4.58364731
 21
-0.7901247
 31
0.0
  0
LINE
  5
18C0
330
762
100
AcDbEntity
  8
0
100
AcDbLine
 10
4.73521286
 20
-0.77331044
 30
0.0
 11
4.58364731
 21
-0.6217449
 31
0.0
  0
LINE
  5
18C1
330
762
100
AcDbEntity
  8
0
100
AcDbLine
 10
4.73521286
 20
-0.60493064
 30
0.0
 11
4.58364731
 21
-0.45336509
 31
0.0
  0
LINE
  5
18C2
330
762
100
AcDbEntity
  8
0
100
AcDbLine
 10
4.73521286
 20
-0.43655084
 30
0.0
 11
4.58364731
 21
-0.28498529
 31
0.0
  0
LINE
  5
18C3
330
762
100
AcDbEntity
  8
0
100
AcDbLine
 10
4.73521286
 20
-0.26817104
 30
0.0
 11
4.58364731
 21
-0.11660549
 31
0.0
  0
LINE
  5
18C4
330
762
100
AcDbEntity
  8
0
100
AcDbLine
 10
4.73521286
 20
-0.09979124
 30
0.0
 11
4.58364731
 21
0.05177431
 31
0.0
  0
LINE
  5
18C5
330
762
100
AcDbEntity
  8
0
100
AcDbLine
 10
3.26878497
 20
1.36663665
 30
0.0
 11
3.14524741
 21
1.49017421
 31
0.0
  0
LINE
  5
18C6
330
762
100
AcDbEntity
  8
0
100
AcDbLine
 10
4.73521286
 20
0.06858857
 30
0.0
 11
4.58364731
 21
0.22015411
 31
0.0
  0
LINE
  5
18C7
330
762
100
AcDbEntity
  8
0
100
AcDbLine
 10
3.2960815
 20
1.50771992
 30
0.0
 11
3.15192203
 21
1.65187939
 31
0.0
  0
LINE
  5
18C8
330
762
100
AcDbEntity
  8
0
100
AcDbLine
 10
4.73521286
 20
0.23696837
 30
0.0
 11
4.58364731
 21
0.38853392
 31
0.0
  0
LINE
  5
18C9
330
762
100
AcDbEntity
  8
0
100
AcDbLine
 10
3.30779579
 20
1.66438543
 30
0.0
 11
3.18400975
 21
1.78817147
 31
0.0
  0
LINE
  5
18CA
330
762
100
AcDbEntity
  8
0
100
AcDbLine
 10
4.73521286
 20
0.40534817
 30
0.0
 11
4.58364731
 21
0.55691372
 31
0.0
  0
LINE
  5
18CB
330
762
100
AcDbEntity
  8
0
100
AcDbLine
 10
3.34773554
 20
1.79282549
 30
0.0
 11
3.23405875
 21
1.90650227
 31
0.0
  0
LINE
  5
18CC
330
762
100
AcDbEntity
  8
0
100
AcDbLine
 10
4.73521286
 20
0.57372797
 30
0.0
 11
4.58364731
 21
0.72529352
 31
0.0
  0
LINE
  5
18CD
330
762
100
AcDbEntity
  8
0
100
AcDbLine
 10
3.40744941
 20
1.90149142
 30
0.0
 11
3.29875208
 21
2.01018875
 31
0.0
  0
LINE
  5
18CE
330
762
100
AcDbEntity
  8
0
100
AcDbLine
 10
4.73521286
 20
0.74210778
 30
0.0
 11
4.58364731
 21
0.89367332
 31
0.0
  0
LINE
  5
18CF
330
762
100
AcDbEntity
  8
0
100
AcDbLine
 10
3.48373839
 20
1.99358224
 30
0.0
 11
3.37656534
 21
2.10075529
 31
0.0
  0
LINE
  5
18D0
330
762
100
AcDbEntity
  8
0
100
AcDbLine
 10
4.73521286
 20
0.91048758
 30
0.0
 11
4.58364731
 21
1.06205313
 31
0.0
  0
LINE
  5
18D1
330
762
100
AcDbEntity
  8
0
100
AcDbLine
 10
3.57572403
 20
2.0699764
 30
0.0
 11
3.46704725
 21
2.17865319
 31
0.0
  0
LINE
  5
18D2
330
762
100
AcDbEntity
  8
0
100
AcDbLine
 10
4.73521286
 20
1.07886738
 30
0.0
 11
4.58364731
 21
1.23043293
 31
0.0
  0
LINE
  5
18D3
330
762
100
AcDbEntity
  8
0
100
AcDbLine
 10
3.68427264
 20
2.12980759
 30
0.0
 11
3.57064296
 21
2.24343728
 31
0.0
  0
LINE
  5
18D4
330
762
100
AcDbEntity
  8
0
100
AcDbLine
 10
4.73521286
 20
1.24724718
 30
0.0
 11
4.58364731
 21
1.39881273
 31
0.0
  0
LINE
  5
18D5
330
762
100
AcDbEntity
  8
0
100
AcDbLine
 10
3.81256255
 20
2.16989749
 30
0.0
 11
3.68886823
 21
2.29359181
 31
0.0
  0
LINE
  5
18D6
330
762
100
AcDbEntity
  8
0
100
AcDbLine
 10
4.73521286
 20
1.41562698
 30
0.0
 11
4.58297185
 21
1.56786799
 31
0.0
  0
LINE
  5
18D7
330
762
100
AcDbEntity
  8
0
100
AcDbLine
 10
3.96898663
 20
2.18185322
 30
0.0
 11
3.82502342
 21
2.32581642
 31
0.0
  0
LINE
  5
18D8
330
762
100
AcDbEntity
  8
0
100
AcDbLine
 10
4.73382242
 20
1.58539722
 30
0.0
 11
4.53481189
 21
1.78440775
 31
0.0
  0
LINE
  5
18D9
330
762
100
AcDbEntity
  8
0
100
AcDbLine
 10
4.18552638
 20
2.13369326
 30
0.0
 11
3.98651585
 21
2.33270379
 31
0.0
  0
LINE
  5
18DA
330
762
100
AcDbEntity
  8
0
100
AcDbLine
 10
4.69274689
 20
1.79485255
 30
0.0
 11
4.19597118
 21
2.29162826
 31
0.0
  0
LINE
  5
18DB
330
762
100
AcDbEntity
  8
0
100
AcDbLine
 10
3.15944769
 20
-0.03944429
 30
0.0
 11
3.14378583
 21
-0.02378243
 31
0.0
  0
LINE
  5
18DC
330
762
100
AcDbEntity
  8
0
100
AcDbLine
 10
3.31814654
 20
-0.02976334
 30
0.0
 11
3.14378583
 21
0.14459737
 31
0.0
  0
LINE
  5
18DD
330
762
100
AcDbEntity
  8
0
100
AcDbLine
 10
3.55421963
 20
-0.09745663
 30
0.0
 11
3.14378583
 21
0.31297717
 31
0.0
  0
LINE
  5
18DE
330
762
100
AcDbEntity
  8
0
100
AcDbLine
 10
3.79029272
 20
-0.16514992
 30
0.0
 11
3.31501448
 21
0.31012833
 31
0.0
  0
LINE
  5
18DF
330
762
100
AcDbEntity
  8
0
100
AcDbLine
 10
4.02636582
 20
-0.23284321
 30
0.0
 11
3.55108664
 21
0.24243596
 31
0.0
  0
LINE
  5
18E0
330
762
100
AcDbEntity
  8
0
100
AcDbLine
 10
4.26243891
 20
-0.3005365
 30
0.0
 11
3.78715881
 21
0.1747436
 31
0.0
  0
LINE
  5
18E1
330
762
100
AcDbEntity
  8
0
100
AcDbLine
 10
4.498512
 20
-0.36822979
 30
0.0
 11
4.02323098
 21
0.10705123
 31
0.0
  0
LINE
  5
18E2
330
762
100
AcDbEntity
  8
0
100
AcDbLine
 10
4.50786453
 20
-0.20920252
 30
0.0
 11
4.25930315
 21
0.03935887
 31
0.0
  0
LINE
  5
18E3
330
762
100
AcDbEntity
  8
0
100
AcDbLine
 10
4.50786453
 20
-0.04082271
 30
0.0
 11
4.49537532
 21
-0.0283335
 31
0.0
  0
LINE
  5
18E4
330
762
100
AcDbEntity
  8
0
100
AcDbLine
 10
3.14378583
 20
0.35922718
 30
0.0
 11
3.14378583
 21
-0.03495312
 31
0.0
  0
LINE
  5
18E5
330
762
100
AcDbEntity
  8
0
100
AcDbLine
 10
4.50786453
 20
-0.03191471
 30
0.0
 11
3.14378583
 21
0.35922718
 31
0.0
  0
LINE
  5
18E6
330
762
100
AcDbEntity
  8
0
100
AcDbLine
 10
4.50786453
 20
-0.3709116
 30
0.0
 11
4.50786453
 21
-0.03191471
 31
0.0
  0
LINE
  5
18E7
330
762
100
AcDbEntity
  8
0
100
AcDbLine
 10
3.31050336
 20
-0.02757168
 30
0.0
 11
4.50786453
 21
-0.3709116
 31
0.0
  0
LINE
  5
18E8
330
762
100
AcDbEntity
  8
0
100
AcDbLine
 10
3.31050336
 20
-0.08276081
 30
0.0
 11
3.31050336
 21
-0.02757168
 31
0.0
  0
LINE
  5
18E9
330
762
100
AcDbEntity
  8
0
100
AcDbLine
 10
3.14378583
 20
-0.03495312
 30
0.0
 11
3.31050336
 21
-0.08276081
 31
0.0
  0
LINE
  5
18EA
330
762
100
AcDbEntity
  8
0
100
AcDbLine
 10
3.14378583
 20
0.35922718
 30
0.0
 11
3.14378583
 21
-0.03495312
 31
0.0
1001
HATCH_DISTANCE
1040
1.0
1001
HATCH_DISPLAY
1070
     0
1001
HATCH_TYPE
1070
     7
  0
LINE
  5
18EB
330
762
100
AcDbEntity
  8
0
100
AcDbLine
 10
4.50786453
 20
-0.03191471
 30
0.0
 11
3.14378583
 21
0.35922718
 31
0.0
1001
HATCH_DISTANCE
1040
1.0
1001
HATCH_DISPLAY
1070
     0
1001
HATCH_TYPE
1070
     7
  0
LINE
  5
18EC
330
762
100
AcDbEntity
  8
0
100
AcDbLine
 10
4.50786453
 20
-0.3709116
 30
0.0
 11
4.50786453
 21
-0.03191471
 31
0.0
1001
HATCH_DISTANCE
1040
1.0
1001
HATCH_DISPLAY
1070
     0
1001
HATCH_TYPE
1070
     7
  0
LINE
  5
18ED
330
762
100
AcDbEntity
  8
0
100
AcDbLine
 10
3.31050336
 20
-0.02757168
 30
0.0
 11
4.50786453
 21
-0.3709116
 31
0.0
1001
HATCH_DISTANCE
1040
1.0
1001
HATCH_DISPLAY
1070
     0
1001
HATCH_TYPE
1070
     7
  0
LINE
  5
18EE
330
762
100
AcDbEntity
  8
0
100
AcDbLine
 10
3.31050336
 20
-0.08276081
 30
0.0
 11
3.31050336
 21
-0.02757168
 31
0.0
1001
HATCH_DISTANCE
1040
1.0
1001
HATCH_DISPLAY
1070
     0
1001
HATCH_TYPE
1070
     7
  0
LINE
  5
18EF
330
762
100
AcDbEntity
  8
0
100
AcDbLine
 10
3.14378583
 20
-0.03495312
 30
0.0
 11
3.31050336
 21
-0.08276081
 31
0.0
1001
HATCH_DISTANCE
1040
1.0
1001
HATCH_DISPLAY
1070
     0
1001
HATCH_TYPE
1070
     7
  0
LINE
  5
18F0
330
762
100
AcDbEntity
  8
0
100
AcDbLine
 10
3.31482923
 20
1.38115597
 30
0.0
 11
3.31482923
 21
1.38115597
 31
0.0
  0
LINE
  5
18F1
330
762
100
AcDbEntity
  8
0
100
AcDbLine
 10
3.17007863
 20
1.33551121
 30
0.0
 11
3.31482923
 21
1.38115597
 31
0.0
  0
LINE
  5
18F2
330
762
100
AcDbEntity
  8
0
100
AcDbLine
 10
3.17007863
 20
1.33551121
 30
0.0
 11
3.17007863
 21
1.33551121
 31
0.0
  0
LINE
  5
18F3
330
762
100
AcDbEntity
  8
0
100
AcDbLine
 10
3.31482923
 20
1.38115597
 30
0.0
 11
3.17007863
 21
1.33551121
 31
0.0
  0
LINE
  5
18F4
330
762
100
AcDbEntity
  8
0
100
AcDbLine
 10
3.31482923
 20
1.38115597
 30
0.0
 11
3.31482923
 21
1.38115597
 31
0.0
1001
HATCH_DISTANCE
1040
1.0
1001
HATCH_DISPLAY
1070
     0
1001
HATCH_TYPE
1070
     7
  0
LINE
  5
18F5
330
762
100
AcDbEntity
  8
0
100
AcDbLine
 10
3.17007863
 20
1.33551121
 30
0.0
 11
3.31482923
 21
1.38115597
 31
0.0
1001
HATCH_DISTANCE
1040
1.0
1001
HATCH_DISPLAY
1070
     0
1001
HATCH_TYPE
1070
     7
  0
LINE
  5
18F6
330
762
100
AcDbEntity
  8
0
100
AcDbLine
 10
3.17007863
 20
1.33551121
 30
0.0
 11
3.17007863
 21
1.33551121
 31
0.0
1001
HATCH_DISTANCE
1040
1.0
1001
HATCH_DISPLAY
1070
     0
1001
HATCH_TYPE
1070
     7
  0
LINE
  5
18F7
330
762
100
AcDbEntity
  8
0
100
AcDbLine
 10
3.31482923
 20
1.38115597
 30
0.0
 11
3.17007863
 21
1.33551121
 31
0.0
1001
HATCH_DISTANCE
1040
1.0
1001
HATCH_DISPLAY
1070
     0
1001
HATCH_TYPE
1070
     7
  0
LINE
  5
18F8
330
762
100
AcDbEntity
  8
0
100
AcDbLine
 10
3.31482923
 20
1.38115597
 30
0.0
 11
3.31482923
 21
1.38115597
 31
0.0
  0
LINE
  5
18F9
330
762
100
AcDbEntity
  8
0
100
AcDbLine
 10
3.17007863
 20
1.33551121
 30
0.0
 11
3.31482923
 21
1.38115597
 31
0.0
  0
LINE
  5
18FA
330
762
100
AcDbEntity
  8
0
100
AcDbLine
 10
3.17007863
 20
1.33551121
 30
0.0
 11
3.17007863
 21
1.33551121
 31
0.0
  0
LINE
  5
18FB
330
762
100
AcDbEntity
  8
0
100
AcDbLine
 10
3.31482923
 20
1.38115597
 30
0.0
 11
3.17007863
 21
1.33551121
 31
0.0
  0
LINE
  5
18FC
330
762
100
AcDbEntity
  8
0
100
AcDbLine
 10
3.31482923
 20
1.38115597
 30
0.0
 11
3.31482923
 21
1.38115597
 31
0.0
1001
HATCH_DISTANCE
1040
1.0
1001
HATCH_DISPLAY
1070
     0
1001
HATCH_TYPE
1070
     7
  0
LINE
  5
18FD
330
762
100
AcDbEntity
  8
0
100
AcDbLine
 10
3.17007863
 20
1.33551121
 30
0.0
 11
3.31482923
 21
1.38115597
 31
0.0
1001
HATCH_DISTANCE
1040
1.0
1001
HATCH_DISPLAY
1070
     0
1001
HATCH_TYPE
1070
     7
  0
LINE
  5
18FE
330
762
100
AcDbEntity
  8
0
100
AcDbLine
 10
3.17007863
 20
1.33551121
 30
0.0
 11
3.17007863
 21
1.33551121
 31
0.0
1001
HATCH_DISTANCE
1040
1.0
1001
HATCH_DISPLAY
1070
     0
1001
HATCH_TYPE
1070
     7
  0
LINE
  5
18FF
330
762
100
AcDbEntity
  8
0
100
AcDbLine
 10
3.31482923
 20
1.38115597
 30
0.0
 11
3.17007863
 21
1.33551121
 31
0.0
1001
HATCH_DISTANCE
1040
1.0
1001
HATCH_DISPLAY
1070
     0
1001
HATCH_TYPE
1070
     7
  0
LINE
  5
1900
330
762
100
AcDbEntity
  8
0
100
AcDbLine
 10
3.61854577
 20
0.34335665
 30
0.0
 11
3.14620219
 21
0.81570022
 31
0.0
  0
LINE
  5
1901
330
762
100
AcDbEntity
  8
0
100
AcDbLine
 10
3.84282645
 20
0.28745576
 30
0.0
 11
3.15615359
 21
0.97412862
 31
0.0
  0
LINE
  5
1902
330
762
100
AcDbEntity
  8
0
100
AcDbLine
 10
4.0350648
 20
0.26359721
 30
0.0
 11
3.54085987
 21
0.75780215
 31
0.0
  0
LINE
  5
1903
330
762
100
AcDbEntity
  8
0
100
AcDbLine
 10
3.31546546
 20
0.98319656
 30
0.0
 11
3.20197421
 21
1.09668781
 31
0.0
  0
LINE
  5
1904
330
762
100
AcDbEntity
  8
0
100
AcDbLine
 10
4.17665789
 20
0.29038393
 30
0.0
 11
3.77693292
 21
0.6901089
 31
0.0
  0
LINE
  5
1905
330
762
100
AcDbEntity
  8
0
100
AcDbLine
 10
3.38716386
 20
1.07987796
 30
0.0
 11
3.20118396
 21
1.26585786
 31
0.0
  0
LINE
  5
1906
330
762
100
AcDbEntity
  8
0
100
AcDbLine
 10
4.28910301
 20
0.34631861
 30
0.0
 11
4.01300597
 21
0.62241565
 31
0.0
  0
LINE
  5
1907
330
762
100
AcDbEntity
  8
0
100
AcDbLine
 10
3.34497727
 20
1.29044435
 30
0.0
 11
3.32919693
 21
1.30622469
 31
0.0
  0
LINE
  5
1908
330
762
100
AcDbEntity
  8
0
100
AcDbLine
 10
4.37957546
 20
0.42422597
 30
0.0
 11
4.21905626
 21
0.58474517
 31
0.0
  0
LINE
  5
1909
330
762
100
AcDbEntity
  8
0
100
AcDbLine
 10
3.88645017
 20
0.91735125
 30
0.0
 11
3.73488462
 21
1.06891681
 31
0.0
  0
LINE
  5
190A
330
762
100
AcDbEntity
  8
0
100
AcDbLine
 10
4.44931941
 20
0.52286182
 30
0.0
 11
4.31697607
 21
0.65520515
 31
0.0
  0
LINE
  5
190B
330
762
100
AcDbEntity
  8
0
100
AcDbLine
 10
4.02092082
 20
0.95126041
 30
0.0
 11
3.73488462
 21
1.23729661
 31
0.0
  0
LINE
  5
190C
330
762
100
AcDbEntity
  8
0
100
AcDbLine
 10
4.49530809
 20
0.64525294
 30
0.0
 11
4.31736765
 21
0.82319338
 31
0.0
  0
LINE
  5
190D
330
762
100
AcDbEntity
  8
0
100
AcDbLine
 10
4.26567859
 20
0.87488244
 30
0.0
 11
3.81487057
 21
1.32569046
 31
0.0
  0
LINE
  5
190E
330
762
100
AcDbEntity
  8
0
100
AcDbLine
 10
4.5055661
 20
0.80337473
 30
0.0
 11
4.05094339
 21
1.25799744
 31
0.0
  0
LINE
  5
190F
330
762
100
AcDbEntity
  8
0
100
AcDbLine
 10
4.42910663
 20
1.048214
 30
0.0
 11
4.28701622
 21
1.19030442
 31
0.0
  0
LINE
  5
1910
330
762
100
AcDbEntity
  8
0
100
AcDbLine
 10
3.14378583
 20
-0.03495312
 30
0.0
 11
3.14378583
 21
0.35922718
 31
0.0
  0
ARC
  5
1911
330
762
100
AcDbEntity
  8
0
100
AcDbCircle
 10
4.04118001
 20
1.56114292
 30
0.0
 40
1.289039611816406
100
AcDbArc
 50
245.20517737
 51
262.79482596
  0
LINE
  5
1912
330
762
100
AcDbEntity
  8
0
100
AcDbLine
 10
4.50786453
 20
-0.03191471
 30
0.0
 11
3.14378583
 21
0.35922718
 31
0.0
  0
LINE
  5
1913
330
762
100
AcDbEntity
  8
0
100
AcDbLine
 10
3.31050336
 20
-0.08276081
 30
0.0
 11
3.14378583
 21
-0.03495312
 31
0.0
  0
LINE
  5
1914
330
762
100
AcDbEntity
  8
0
100
AcDbLine
 10
3.31050336
 20
-0.08276081
 30
0.0
 11
3.31050336
 21
-0.02757168
 31
0.0
  0
LINE
  5
1915
330
762
100
AcDbEntity
  8
0
100
AcDbLine
 10
4.13813436
 20
0.58653545
 30
0.0
 11
3.4257797
 21
0.79080105
 31
0.0
  0
LINE
  5
1916
330
762
100
AcDbEntity
  8
0
100
AcDbLine
 10
3.33762014
 20
1.30888081
 30
0.0
 11
3.19286954
 21
1.26323605
 31
0.0
  0
ARC
  5
1917
330
762
100
AcDbEntity
  8
0
100
AcDbCircle
 10
3.93949926
 20
1.53838062
 30
0.0
 40
0.6441496610641467
100
AcDbArc
 50
200.8721834
 51
222.54194894
  0
ARC
  5
1918
330
762
100
AcDbEntity
  8
0
100
AcDbCircle
 10
3.46965062
 20
0.94377995
 30
0.0
 40
0.159143753349781
100
AcDbArc
 50
91.71012138
 51
253.99839835
  0
ARC
  5
1919
330
762
100
AcDbEntity
  8
0
100
AcDbCircle
 10
3.93949926
 20
1.53838062
 30
0.0
 40
0.7957137823104845
100
AcDbArc
 50
200.22964506
 51
208.57168892
  0
LINE
  5
191A
330
762
100
AcDbEntity
  8
0
100
AcDbLine
 10
3.31482923
 20
1.38115597
 30
0.0
 11
3.17007863
 21
1.33551121
 31
0.0
  0
LINE
  5
191B
330
762
100
AcDbEntity
  8
0
100
AcDbLine
 10
3.73488462
 20
0.90714169
 30
0.0
 11
3.73488462
 21
1.34862614
 31
0.0
  0
LINE
  5
191C
330
762
100
AcDbEntity
  8
0
100
AcDbLine
 10
4.50786453
 20
1.12697697
 30
0.0
 11
3.73488462
 21
1.34862614
 31
0.0
  0
LINE
  5
191D
330
762
100
AcDbEntity
  8
0
100
AcDbLine
 10
4.41896111
 20
1.03806782
 30
0.0
 11
4.50786453
 21
1.12697697
 31
0.0
  0
LINE
  5
191E
330
762
100
AcDbEntity
  8
0
100
AcDbLine
 10
3.88645017
 20
0.86368275
 30
0.0
 11
3.73488462
 21
0.90714169
 31
0.0
  0
LINE
  5
191F
330
762
100
AcDbEntity
  8
0
100
AcDbLine
 10
3.88645017
 20
0.86368275
 30
0.0
 11
3.88645017
 21
0.98981953
 31
0.0
  0
LINE
  5
1920
330
762
100
AcDbEntity
  8
0
100
AcDbLine
 10
4.22586477
 20
0.89249325
 30
0.0
 11
3.88645017
 21
0.98981953
 31
0.0
  0
ARC
  5
1921
330
762
100
AcDbEntity
  8
0
100
AcDbCircle
 10
4.18199956
 20
0.73951435
 30
0.0
 40
0.1591436415910721
100
AcDbArc
 50
254.00027306
 51
74.00027306
  0
LINE
  5
1922
330
762
100
AcDbEntity
  8
0
100
AcDbLine
 10
3.74655175
 20
-2.31034637
 30
0.0
 11
3.16753351
 21
-1.73132813
 31
0.0
  0
LINE
  5
1923
330
762
100
AcDbEntity
  8
0
100
AcDbLine
 10
3.9386788
 20
-2.33409362
 30
0.0
 11
3.76224578
 21
-2.1576606
 31
0.0
  0
LINE
  5
1924
330
762
100
AcDbEntity
  8
0
100
AcDbLine
 10
3.32021928
 20
-1.7156341
 30
0.0
 11
3.14378625
 21
-1.53920108
 31
0.0
  0
LINE
  5
1925
330
762
100
AcDbEntity
  8
0
100
AcDbLine
 10
4.09225824
 20
-2.31929326
 30
0.0
 11
3.95529966
 21
-2.18233468
 31
0.0
  0
LINE
  5
1926
330
762
100
AcDbEntity
  8
0
100
AcDbLine
 10
4.2231607
 20
-2.28181592
 30
0.0
 11
4.10282378
 21
-2.161479
 31
0.0
  0
LINE
  5
1927
330
762
100
AcDbEntity
  8
0
100
AcDbLine
 10
4.33726548
 20
-2.2275409
 30
0.0
 11
4.22535248
 21
-2.1156279
 31
0.0
  0
LINE
  5
1928
330
762
100
AcDbEntity
  8
0
100
AcDbLine
 10
4.43727453
 20
-2.15917014
 30
0.0
 11
4.32930147
 21
-2.05119708
 31
0.0
  0
LINE
  5
1929
330
762
100
AcDbEntity
  8
0
100
AcDbLine
 10
4.52437899
 20
-2.0778948
 30
0.0
 11
4.41709822
 21
-1.97061403
 31
0.0
  0
LINE
  5
192A
330
762
100
AcDbEntity
  8
0
100
AcDbLine
 10
4.59878316
 20
-1.98391916
 30
0.0
 11
4.48913764
 21
-1.87427365
 31
0.0
  0
LINE
  5
192B
330
762
100
AcDbEntity
  8
0
100
AcDbLine
 10
4.65978298
 20
-1.87653918
 30
0.0
 11
4.54403291
 21
-1.76078912
 31
0.0
  0
LINE
  5
192C
330
762
100
AcDbEntity
  8
0
100
AcDbLine
 10
4.70548181
 20
-1.75385821
 30
0.0
 11
4.57765574
 21
-1.62603214
 31
0.0
  0
LINE
  5
192D
330
762
100
AcDbEntity
  8
0
100
AcDbLine
 10
4.73181703
 20
-1.61181363
 30
0.0
 11
4.58364731
 21
-1.46364391
 31
0.0
  0
ARC
  5
192E
330
762
100
AcDbEntity
  8
0
100
AcDbCircle
 10
3.93949926
 20
-1.53838062
 30
0.0
 40
0.644147872924803
100
AcDbArc
 50
180.0
 51
0.0
  0
ARC
  5
192F
330
762
100
AcDbEntity
  8
0
100
AcDbCircle
 10
3.93949926
 20
-1.53838062
 30
0.0
 40
0.7957134246826168
100
AcDbArc
 50
180.0
 51
0.0
  0
LINE
  5
1930
330
762
100
AcDbEntity
  8
0
100
AcDbLine
 10
3.29535138
 20
-1.5223864
 30
0.0
 11
3.14378583
 21
-1.37082085
 31
0.0
  0
LINE
  5
1931
330
762
100
AcDbEntity
  8
0
100
AcDbLine
 10
4.73521286
 20
-1.44682965
 30
0.0
 11
4.58364731
 21
-1.29526411
 31
0.0
  0
LINE
  5
1932
330
762
100
AcDbEntity
  8
0
100
AcDbLine
 10
4.50786453
 20
-1.45884991
 30
0.0
 11
3.29535138
 21
-1.11116695
 31
0.0
  0
LINE
  5
1933
330
762
100
AcDbEntity
  8
0
100
AcDbLine
 10
3.14378583
 20
-1.53838062
 30
0.0
 11
3.14378583
 21
-1.22537899
 31
0.0
  0
LINE
  5
1934
330
762
100
AcDbEntity
  8
0
100
AcDbLine
 10
3.29535138
 20
-1.53838062
 30
0.0
 11
3.29535138
 21
-1.26883793
 31
0.0
  0
LINE
  5
1935
330
762
100
AcDbEntity
  8
0
100
AcDbLine
 10
4.50786453
 20
-1.45884991
 30
0.0
 11
4.50786453
 21
-0.82988262
 31
0.0
  0
LINE
  5
1936
330
762
100
AcDbEntity
  8
0
100
AcDbLine
 10
4.73521286
 20
-1.53838062
 30
0.0
 11
4.73521286
 21
1.53838062
 31
0.0
  0
LINE
  5
1937
330
762
100
AcDbEntity
  8
0
100
AcDbLine
 10
4.58364731
 20
-1.53838062
 30
0.0
 11
4.58364731
 21
1.53838062
 31
0.0
  0
LINE
  5
1938
330
762
100
AcDbEntity
  8
241
100
AcDbLine
 10
13.0
 20
-8.15
 30
0.0
 11
13.0
 21
0.0
 31
0.0
  0
LINE
  5
1939
330
762
100
AcDbEntity
  8
241
100
AcDbLine
 10
10.0
 20
-6.2
 30
0.0
 11
10.0
 21
0.0
 31
0.0
  0
LINE
  5
193A
330
762
100
AcDbEntity
  8
241
100
AcDbLine
 10
11.0
 20
-6.2
 30
0.0
 11
11.0
 21
0.0
 31
0.0
  0
LINE
  5
193B
330
762
100
AcDbEntity
  8
241
100
AcDbLine
 10
14.2
 20
-8.0
 30
0.0
 11
14.2
 21
0.0
 31
0.0
  0
LINE
  5
193C
330
762
100
AcDbEntity
  8
240
100
AcDbLine
 10
11.0
 20
-8.15
 30
0.0
 11
13.0
 21
-8.15
 31
0.0
  0
LINE
  5
193D
330
762
100
AcDbEntity
  8
240
100
AcDbLine
 10
10.0
 20
-6.2
 30
0.0
 11
10.0
 21
-8.0
 31
0.0
  0
LINE
  5
193E
330
762
100
AcDbEntity
  8
240
100
AcDbLine
 10
11.0
 20
-6.2
 30
0.0
 11
11.0
 21
-8.15
 31
0.0
  0
LINE
  5
193F
330
762
100
AcDbEntity
  8
240
100
AcDbLine
 10
11.0
 20
-6.2
 30
0.0
 11
10.0
 21
-6.2
 31
0.0
  0
LINE
  5
1940
330
762
100
AcDbEntity
  8
240
100
AcDbLine
 10
13.15
 20
-8.0
 30
0.0
 11
13.0
 21
-8.15
 31
0.0
  0
LINE
  5
1941
330
762
100
AcDbEntity
  8
241
  6
HIDDEN2
100
AcDbLine
 10
10.0
 20
1.83847763
 30
0.0
 11
16.0
 21
1.83847763
 31
0.0
  0
LINE
  5
1942
330
762
100
AcDbEntity
  8
242
  6
HIDDEN2
100
AcDbLine
 10
10.0
 20
1.83847763
 30
0.0
 11
16.0
 21
0.0
 31
0.0
  0
LINE
  5
1943
330
762
100
AcDbEntity
  8
242
  6
HIDDEN2
100
AcDbLine
 10
10.0
 20
0.0
 30
0.0
 11
16.0
 21
1.83847763
 31
0.0
  0
LINE
  5
1944
330
762
100
AcDbEntity
  8
241
  6
HIDDEN2
100
AcDbLine
 10
10.0
 20
1.83847763
 30
0.0
 11
10.0
 21
0.0
 31
0.0
  0
LINE
  5
1945
330
762
100
AcDbEntity
  8
241
  6
HIDDEN2
100
AcDbLine
 10
16.0
 20
1.83847763
 30
0.0
 11
16.0
 21
0.0
 31
0.0
  0
LINE
  5
1946
330
762
100
AcDbEntity
  8
240
100
AcDbLine
 10
10.0
 20
8.0
 30
0.0
 11
1.57117457
 21
8.0
 31
0.0
  0
ARC
  5
1947
330
762
100
AcDbEntity
  8
240
100
AcDbCircle
 10
1.57117457
 20
9.0
 30
0.0
 40
1.0
100
AcDbArc
 50
194.99999992
 51
270.0
  0
ARC
  5
1948
330
762
100
AcDbEntity
  8
240
100
AcDbCircle
 10
-0.76732699
 20
10.0
 30
0.0
 40
1.0
100
AcDbArc
 50
15.0
 51
75.0
1001
GENIUS_GENOBJ-N-FIL_13
1002
{
1000
OWNER
1000
GEN
1002
}
1001
GENIUS_GENODEF_13
1002
{
1000
HIER
1070
     0
1002
}
1002
{
1000
MANEDIT
1070
     0
1002
}
1002
{
1000
NOSEL
1070
     0
1002
}
1002
{
1000
BEHIND
1070
     0
1002
}
1002
{
1000
OTHER
1070
     0
1002
}
1002
{
1000
REACTOR
1002
}
  0
LINE
  5
1949
330
762
100
AcDbEntity
  8
240
100
AcDbLine
 10
-2.0
 20
10.0
 30
0.0
 11
-2.0
 21
11.0
 31
0.0
  0
LINE
  5
194A
330
762
100
AcDbEntity
  8
240
100
AcDbLine
 10
0.19859884
 20
10.25881905
 30
0.0
 11
0.60524874
 21
8.74118096
 31
0.0
  0
LINE
  5
194B
330
762
100
AcDbEntity
  8
240
100
AcDbLine
 10
-0.63567449
 20
11.0
 30
0.0
 11
-2.0
 21
11.0
 31
0.0
  0
LINE
  5
194C
330
762
100
AcDbEntity
  8
240
100
AcDbLine
 10
-0.50850794
 20
10.96592583
 30
0.0
 11
-0.63567449
 21
11.0
 31
0.0
  0
LINE
  5
194D
330
762
100
AcDbEntity
  8
240
100
AcDbLine
 10
11.0
 20
8.15
 30
0.0
 11
13.0
 21
8.15
 31
0.0
  0
LINE
  5
194E
330
762
100
AcDbEntity
  8
240
100
AcDbLine
 10
11.0
 20
6.2
 30
0.0
 11
11.0
 21
8.15
 31
0.0
  0
LINE
  5
194F
330
762
100
AcDbEntity
  8
240
100
AcDbLine
 10
10.0
 20
6.2
 30
0.0
 11
10.0
 21
8.0
 31
0.0
  0
LINE
  5
1950
330
762
100
AcDbEntity
  8
240
100
AcDbLine
 10
11.0
 20
6.2
 30
0.0
 11
10.0
 21
6.2
 31
0.0
  0
LINE
  5
1951
330
762
100
AcDbEntity
  8
240
100
AcDbLine
 10
13.15
 20
8.0
 30
0.0
 11
13.0
 21
8.15
 31
0.0
  0
LINE
  5
1952
330
762
100
AcDbEntity
  8
240
100
AcDbLine
 10
30.0
 20
7.0
 30
0.0
 11
30.0
 21
0.0
 31
0.0
  0
LINE
  5
1953
330
762
100
AcDbEntity
  8
241
  6
HIDDEN2
100
AcDbLine
 10
20.0
 20
1.5
 30
0.0
 11
30.0
 21
1.5
 31
0.0
  0
LINE
  5
1954
330
762
100
AcDbEntity
  8
241
  6
HIDDEN2
100
AcDbLine
 10
20.0
 20
1.8
 30
0.0
 11
20.0
 21
0.0
 31
0.0
  0
LINE
  5
1955
330
762
100
AcDbEntity
  8
240
100
AcDbLine
 10
30.0
 20
-7.0
 30
0.0
 11
30.0
 21
0.0
 31
0.0
  0
ARC
  5
1956
330
762
100
AcDbEntity
  8
240
100
AcDbCircle
 10
29.0
 20
-7.0
 30
0.0
 40
1.0
100
AcDbArc
 50
270.0
 51
0.0
1001
GENIUS_GENODEF_13
1002
{
1000
HIER
1070
     0
1002
}
1002
{
1000
MANEDIT
1070
     0
1002
}
1002
{
1000
NOSEL
1070
     0
1002
}
1002
{
1000
BEHIND
1070
     0
1002
}
1002
{
1000
OTHER
1070
     0
1002
}
1002
{
1000
REACTOR
1002
}
1001
GENIUS_GENOBJ-N-FIL_13
1002
{
1000
OWNER
1000
GEN
1002
}
  0
ARC
  5
1957
330
762
100
AcDbEntity
  8
240
100
AcDbCircle
 10
29.0
 20
7.0
 30
0.0
 40
1.0
100
AcDbArc
 50
359.9999824
 51
90.0
1001
GENIUS_GENODEF_13
1002
{
1000
HIER
1070
     0
1002
}
1002
{
1000
MANEDIT
1070
     0
1002
}
1002
{
1000
NOSEL
1070
     0
1002
}
1002
{
1000
BEHIND
1070
     0
1002
}
1002
{
1000
OTHER
1070
     0
1002
}
1002
{
1000
REACTOR
1002
}
1001
GENIUS_GENOBJ-N-FIL_13
1002
{
1000
OWNER
1000
GEN
1002
}
  0
ENDBLK
  5
8A0
330
762
100
AcDbEntity
  8
0
100
AcDbBlockEnd
  0
BLOCK
  5
1808
330
17FE
100
AcDbEntity
  8
0
100
AcDbBlockBegin
  2
*D8
 70
     1
 10
0.0
 20
0.0
 30
0.0
  3
*D8
  1

  0
LINE
  5
1828
330
17FE
100
AcDbEntity
  8
250
  6
CONTINUOUS
100
AcDbLine
 10
29.5
 20
-8.0
 30
0.0
 11
49.75
 21
-8.0
 31
0.0
  0
LINE
  5
1829
330
17FE
100
AcDbEntity
  8
250
  6
CONTINUOUS
100
AcDbLine
 10
29.5
 20
8.0
 30
0.0
 11
49.75
 21
8.0
 31
0.0
  0
LINE
  5
182A
330
17FE
100
AcDbEntity
  8
250
  6
CONTINUOUS
100
AcDbLine
 10
48.75
 20
-5.77
 30
0.0
 11
48.75
 21
5.77
 31
0.0
  0
INSERT
  5
182B
330
17FE
100
AcDbEntity
  8
250
  6
CONTINUOUS
100
AcDbBlockReference
  2
_OPEN
 10
48.75
 20
-8.0
 30
0.0
 41
2.23
 42
2.23
 43
2.23
 50
270.0
  0
INSERT
  5
182C
330
17FE
100
AcDbEntity
  8
250
  6
CONTINUOUS
100
AcDbBlockReference
  2
_OPEN
 10
48.75
 20
8.0
 30
0.0
 41
2.23
 42
2.23
 43
2.23
 50
90.0
  0
MTEXT
  5
182D
330
17FE
100
AcDbEntity
  8
250
  6
CONTINUOUS
 62
    40
100
AcDbMText
 10
46.35
 20
0.0
 30
0.0
 40
2.8
 41
0.0
 71
     5
 72
     1
  1
\A1;{\H2.8;\U+2205}16
 11
0.0
 21
1.0
 31
0.0
1001
ACAD
1000
MTEXTBEGIN
1070
    73
1070
     1
1070
    44
1040
1.0
1070
    74
1070
     0
1000
MTEXTEND
  0
POINT
  5
182E
330
17FE
100
AcDbEntity
  8
DEFPOINTS
  6
CONTINUOUS
 62
     0
100
AcDbPoint
 10
29.0
 20
-8.0
 30
0.0
  0
POINT
  5
182F
330
17FE
100
AcDbEntity
  8
DEFPOINTS
  6
CONTINUOUS
 62
     0
100
AcDbPoint
 10
29.0
 20
8.0
 30
0.0
  0
POINT
  5
1830
330
17FE
100
AcDbEntity
  8
DEFPOINTS
  6
CONTINUOUS
 62
     0
100
AcDbPoint
 10
48.75
 20
8.0
 30
0.0
  0
ENDBLK
  5
1809
330
17FE
100
AcDbEntity
  8
0
100
AcDbBlockEnd
  0
BLOCK
  5
1814
330
180A
100
AcDbEntity
  8
0
100
AcDbBlockBegin
  2
*D9
 70
     1
 10
0.0
 20
0.0
 30
0.0
  3
*D9
  1

  0
LINE
  5
1831
330
180A
100
AcDbEntity
  8
250
  6
CONTINUOUS
100
AcDbLine
 10
0.0
 20
11.14125603
 30
0.0
 11
0.0
 21
22.0
 31
0.0
  0
LINE
  5
1832
330
180A
100
AcDbEntity
  8
250
  6
CONTINUOUS
100
AcDbLine
 10
30.0
 20
7.5
 30
0.0
 11
30.0
 21
22.0
 31
0.0
  0
LINE
  5
1833
330
180A
100
AcDbEntity
  8
250
  6
CONTINUOUS
100
AcDbLine
 10
2.23
 20
21.0
 30
0.0
 11
27.77
 21
21.0
 31
0.0
  0
INSERT
  5
1834
330
180A
100
AcDbEntity
  8
250
  6
CONTINUOUS
100
AcDbBlockReference
  2
_OPEN
 10
0.0
 20
21.0
 30
0.0
 41
2.23
 42
2.23
 43
2.23
 50
180.0
  0
INSERT
  5
1835
330
180A
100
AcDbEntity
  8
250
  6
CONTINUOUS
100
AcDbBlockReference
  2
_OPEN
 10
30.0
 20
21.0
 30
0.0
 41
2.23
 42
2.23
 43
2.23
  0
MTEXT
  5
1836
330
180A
100
AcDbEntity
  8
250
  6
CONTINUOUS
 62
    40
100
AcDbMText
 10
14.95035814
 20
23.4
 30
0.0
 40
2.8
 41
0.0
 71
     5
 72
     1
  1
\A1;30
1001
ACAD
1000
MTEXTBEGIN
1070
    73
1070
     1
1070
    44
1040
1.0
1070
    74
1070
     0
1000
MTEXTEND
  0
POINT
  5
1837
330
180A
100
AcDbEntity
  8
DEFPOINTS
  6
CONTINUOUS
 62
     0
100
AcDbPoint
 10
0.0
 20
10.64125603
 30
0.0
  0
POINT
  5
1838
330
180A
100
AcDbEntity
  8
DEFPOINTS
  6
CONTINUOUS
 62
     0
100
AcDbPoint
 10
30.0
 20
7.0
 30
0.0
  0
POINT
  5
1839
330
180A
100
AcDbEntity
  8
DEFPOINTS
  6
CONTINUOUS
 62
     0
100
AcDbPoint
 10
30.0
 20
21.0
 30
0.0
  0
ENDBLK
  5
1815
330
180A
100
AcDbEntity
  8
0
100
AcDbBlockEnd
  0
ENDSEC
  0
SECTION
  2
ENTITIES
  0
INSERT
  5
6E6
330
1A
100
AcDbEntity
  8
245
100
AcDbBlockReference
  2
矢印なし
 10
175.62382697
 20
90.55123572
 30
0.0
  0
DIMENSION
  5
16D6
330
1A
100
AcDbEntity
  8
250
  6
CONTINUOUS
100
AcDbDimension
  2
*D8
 10
48.75
 20
8.0
 30
0.0
 11
48.75
 21
0.0
 31
0.0
 70
   160
  1
{\H2.8;\U+2205}<>
  3
BIGT
100
AcDbAlignedDimension
 13
29.0
 23
-8.0
 33
0.0
 14
29.0
 24
8.0
 34
0.0
 50
90.0
100
AcDbRotatedDimension
  0
MTEXT
  5
16D7
330
1A
100
AcDbEntity
  8
250
  6
CONTINUOUS
 62
    40
100
AcDbMText
 10
39.35
 20
-1.72211461
 30
0.0
 40
2.8
 41
0.0
 71
     5
 72
     1
  1
\A1;{\H2.8;\U+2205}3
 11
0.0
 21
1.0
 31
0.0
1001
ACAD
1000
MTEXTBEGIN
1070
    73
1070
     1
1070
    44
1040
1.0
1070
    74
1070
     0
1000
MTEXTEND
1000
MTEXTBEGIN
1070
    73
1070
     1
1070
    44
1040
1.0
1070
    74
1070
     0
1000
MTEXTEND
1000
MTEXTBEGIN
1070
    73
1070
     1
1070
    44
1040
1.0
1070
    74
1070
     0
1000
MTEXTEND
1000
MTEXTBEGIN
1070
    73
1070
     1
1070
    44
1040
1.0
1070
    74
1070
     0
1000
MTEXTEND
1000
MTEXTBEGIN
1070
    73
1070
     1
1070
    44
1040
1.0
1070
    74
1070
     0
1000
MTEXTEND
1000
MTEXTBEGIN
1070
    73
1070
     1
1070
    44
1040
1.0
1070
    74
1070
     0
1000
MTEXTEND
  0
LINE
  5
16D8
330
1A
100
AcDbEntity
  8
250
  6
CONTINUOUS
100
AcDbLine
 10
30.5
 20
1.5
 30
0.0
 11
42.75
 21
1.5
 31
0.0
  0
TEXT
  5
16DC
330
1A
100
AcDbEntity
  8
241
100
AcDbText
 10
-47.5
 20
35.0
 30
0.0
 40
5.0
  1
MGT6-M2-30
  7
YOKO
 11
-47.5
 21
35.0
 31
0.0
100
AcDbText
 73
     1
  0
DIMENSION
  5
1737
330
1A
100
AcDbEntity
  8
250
  6
CONTINUOUS
100
AcDbDimension
  2
*D9
 10
30.0
 20
21.0
 30
0.0
 11
14.95035814
 21
21.0
 31
0.0
 70
   160
  3
BIGT
100
AcDbAlignedDimension
 13
0.0
 23
10.64125603
 33
0.0
 14
30.0
 24
7.0
 34
0.0
100
AcDbRotatedDimension
  0
MTEXT
  5
175F
330
1A
100
AcDbEntity
  8
251
  6
CONTINUOUS
100
AcDbMText
 10
16.55
 20
14.99914563
 30
0.0
 40
2.8
 41
0.0
 71
     7
 72
     1
  1
□2.5
  7
YOKO
1001
ITEMNAME
1000
LNSP3
1001
ACAD
1000
MTEXTBEGIN
1070
    73
1070
     1
1070
    44
1040
1.0
1070
    74
1070
     0
1000
MTEXTEND
1000
MTEXTBEGIN
1070
    73
1070
     1
1070
    44
1040
1.0
1070
    74
1070
     0
1000
MTEXTEND
1000
MTEXTBEGIN
1070
    73
1070
     1
1070
    44
1040
1.0
1070
    74
1070
     0
1000
MTEXTEND
1000
MTEXTBEGIN
1070
    73
1070
     1
1070
    44
1040
1.0
1070
    74
1070
     0
1000
MTEXTEND
1000
MTEXTBEGIN
1070
    73
1070
     1
1070
    44
1040
1.0
1070
    74
1070
     0
1000
MTEXTEND
1000
MTEXTBEGIN
1070
    73
1070
     1
1070
    44
1040
1.0
1070
    74
1070
     0
1000
MTEXTEND
  0
LINE
  5
1762
330
1A
100
AcDbEntity
  8
250
  6
CONTINUOUS
100
AcDbLine
 10
13.75
 20
13.99914563
 30
0.0
 11
28.60333333
 21
13.99914563
 31
0.0
1001
ITEMNAME
1000
LNSP2
  0
LEADER
  5
1763
330
1A
100
AcDbEntity
  8
250
  6
CONTINUOUS
100
AcDbLeader
  3
BIGT
 76
     2
 10
11.85276585
 20
1.83847763
 30
0.0
 10
13.75
 20
13.99914563
 30
0.0
1001
ACAD
1000
DSTYLE
1002
{
1070
     6
1000
OPEN
1070
   343
1005
594
1002
}
  0
LINE
  5
17FC
330
1A
100
AcDbEntity
  8
250
  6
CONTINUOUS
100
AcDbLine
 10
41.75
 20
1.5
 30
0.0
 11
41.75
 21
-4.68283229
 31
0.0
  0
INSERT
  5
17FD
330
1A
100
AcDbEntity
  8
250
  6
CONTINUOUS
100
AcDbBlockReference
  2
_OPEN
 10
41.75
 20
1.5
 30
0.0
 41
2.23
 42
2.23
 43
2.23
 50
90.0
  0
INSERT
  5
1958
330
1A
100
AcDbEntity
  8
245
100
AcDbBlockReference
  2
1
 10
0.0
 20
0.0
 30
0.0
  0
VIEWPORT
  5
22
330
17
100
AcDbEntity
 67
     1
  8
0
100
AcDbViewport
 10
261.51769912
 20
148.5
 30
0.0
 40
523.03539823
 41
297.0
 68
     1
 69
     1
1001
ACAD
1000
MVIEW
1002
{
1070
    16
1010
0.0
1020
0.0
1030
0.0
1010
0.0
1020
0.0
1030
1.0
1040
0.0
1040
297.0
1040
261.51769912
1040
148.5
1040
50.0
1040
0.0
1040
0.0
1070
     0
1070
   100
1070
     1
1070
     1
1070
     0
1070
     0
1070
     0
1070
     0
1040
0.0
1040
0.0
1040
0.0
1040
1.0
1040
1.0
1040
10.0
1040
10.0
1070
     0
1002
{
1002
}
1002
}
  0
ENDSEC
  0
SECTION
  2
OBJECTS
  0
DICTIONARY
  5
C
330
0
100
AcDbDictionary
  3
ACAD_GROUP
350
D
  3
ACAD_LAYOUT
350
565
  3
ACAD_MLINESTYLE
350
E
  3
ACAD_PLOTSETTINGS
350
566
  3
ACAD_PLOTSTYLENAME
350
563
  3
ACDBHEADERROUNDTRIPXREC
350
195A
  3
GRADE_DWG
350
540
  0
DICTIONARY
  5
B90
330
1A
100
AcDbDictionary
280
     1
  3
ACAD_LAYOUTSELFREF
360
197C
  0
DICTIONARY
  5
B8E
330
17
100
AcDbDictionary
280
     1
  3
ACAD_LAYOUTSELFREF
360
197B
  0
DICTIONARY
  5
D
102
{ACAD_REACTORS
330
C
102
}
330
C
100
AcDbDictionary
  3
*A1
350
6C7
  3
*A2
350
6C8
  3
*A3
350
6D4
  3
*A4
350
6D5
  3
DREC-1
350
5FC
  3
DREC-2
350
654
  3
DREC-3
350
673
  0
DICTIONARY
  5
565
102
{ACAD_REACTORS
330
C
102
}
330
C
100
AcDbDictionary
  0
DICTIONARY
  5
E
102
{ACAD_REACTORS
330
C
102
}
330
C
100
AcDbDictionary
  3
STANDARD
350
13
  0
DICTIONARY
  5
566
102
{ACAD_REACTORS
330
C
102
}
330
C
100
AcDbDictionary
  3
A3_0_5倍_
350
758
  3
A3_1倍_
350
757
  3
A3_1倍__2000_
350
707
  3
A3_2倍_
350
759
  3
A4_0_5倍_
350
755
  3
A4_1倍_
350
754
  3
A4_1倍__2000_
350
708
  3
A4_2倍_
350
756
  0
ACDBDICTIONARYWDFLT
  5
563
102
{ACAD_REACTORS
330
C
102
}
330
C
100
AcDbDictionary
281
     1
  3
Normal
350
564
100
AcDbDictionaryWithDefault
340
564
  0
DICTIONARY
  5
195A
102
{ACAD_REACTORS
330
C
102
}
330
C
100
AcDbDictionary
  3
CEPSNTYPE
350
1964
  3
DIMSTYLEDATA
350
1968
  3
FINGERPRINTGUID
350
1965
  3
HYPERLINKBASE
350
195D
  3
INSUNITS
350
1963
  3
LAYOUTDICT
350
195F
  3
LWETCUNION
350
1962
  3
PLOTSETDICT
350
1960
  3
PLOTSTYLNAMDICT
350
1961
  3
PSVPSCALE
350
1967
  3
PUCSBASE
350
196B
  3
PUCSORGBACK
350
1971
  3
PUCSORGBOTTOM
350
196D
  3
PUCSORGFRONT
350
1970
  3
PUCSORGLEFT
350
196E
  3
PUCSORGRIGHT
350
196F
  3
PUCSORGTOP
350
196C
  3
PUCSORTHOREF
350
1969
  3
PUCSORTHOVIEW
350
196A
  3
STYLESHEET
350
195E
  3
TSTACKALIGN
350
195B
  3
TSTACKSIZE
350
195C
  3
UCSBASE
350
1974
  3
UCSORGBACK
350
197A
  3
UCSORGBOTTOM
350
1976
  3
UCSORGFRONT
350
1979
  3
UCSORGLEFT
350
1977
  3
UCSORGRIGHT
350
1978
  3
UCSORGTOP
350
1975
  3
UCSORTHOREF
350
1972
  3
UCSORTHOVIEW
350
1973
  3
VERSIONGUID
350
1966
  0
DICTIONARY
  5
540
102
{ACAD_REACTORS
330
C
102
}
330
C
100
AcDbDictionary
  3
VERSION
350
560
  0
XRECORD
  5
197C
102
{ACAD_REACTORS
330
B90
102
}
330
B90
100
AcDbXrecord
340
1A
  0
XRECORD
  5
197B
102
{ACAD_REACTORS
330
B8E
102
}
330
B8E
100
AcDbXrecord
340
17
  0
GROUP
  5
6C7
102
{ACAD_REACTORS
330
D
102
}
330
D
100
AcDbGroup
300

 70
     0
 71
     1
1001
GRPNAME
1000
DMA00
  0
GROUP
  5
6C8
102
{ACAD_REACTORS
330
D
102
}
330
D
100
AcDbGroup
300

 70
     0
 71
     1
1001
GRPNAME
1000
DMA00
  0
GROUP
  5
6D4
102
{ACAD_REACTORS
330
D
102
}
330
D
100
AcDbGroup
300

 70
     0
 71
     1
1001
GRPNAME
1000
DMA00
  0
GROUP
  5
6D5
102
{ACAD_REACTORS
330
D
102
}
330
D
100
AcDbGroup
300

 70
     0
 71
     1
1001
GRPNAME
1000
DMA00
  0
GROUP
  5
5FC
102
{ACAD_REACTORS
330
D
102
}
330
D
100
AcDbGroup
300

 70
     0
 71
     1
1001
GRPNAME
1000
DREC-
1001
GPARA
1000
xsiz
1000
44.182
1000
ysiz
1000
40.677
1000
angl
1000
0
1000
ctyp
1000
0
1000
csiz
1000
5
1000
lfnt
1000
cont
1000
hcnt
1000
hoff
1000
vcnt
1000
voff
1000
opnt
1000
4
1000
dxpt
1000
0
1000
dypt
1000
0
  0
GROUP
  5
654
102
{ACAD_REACTORS
330
D
102
}
330
D
100
AcDbGroup
300

 70
     0
 71
     1
1001
GRPNAME
1000
DREC-
1001
GPARA
1000
xsiz
1000
54.592
1000
ysiz
1000
53.036
1000
angl
1000
0
1000
ctyp
1000
0
1000
csiz
1000
5
1000
lfnt
1000
cont
1000
hcnt
1000
hoff
1000
vcnt
1000
voff
1000
opnt
1000
4
1000
dxpt
1000
0
1000
dypt
1000
0
  0
GROUP
  5
673
102
{ACAD_REACTORS
330
D
102
}
330
D
100
AcDbGroup
300

 70
     0
 71
     1
1001
GRPNAME
1000
DREC-
1001
GPARA
1000
xsiz
1000
30.363
1000
ysiz
1000
36.175
1000
angl
1000
0
1000
ctyp
1000
0
1000
csiz
1000
5
1000
lfnt
1000
cont
1000
hcnt
1000
hoff
1000
vcnt
1000
voff
1000
opnt
1000
4
1000
dxpt
1000
0
1000
dypt
1000
0
  0
MLINESTYLE
  5
13
102
{ACAD_REACTORS
330
E
102
}
330
E
100
AcDbMlineStyle
  2
STANDARD
 70
     0
  3

 62
     0
 51
90.0
 52
90.0
 71
     2
 49
0.5
 62
   256
  6
BYLAYER
 49
-0.5
 62
   256
  6
BYLAYER
  0
PLOTSETTINGS
  5
758
102
{ACAD_REACTORS
330
566
102
}
330
566
100
AcDbPlotSettings
  1
A3(0.5倍)
  2
\\AWTECPC05\HP DeskJet 1120C
  4
A3
  6

 40
5.95841646
 41
13.49375153
 42
6.04309082
 43
3.67242432
 44
296.92599487
 45
419.94665527
 46
89.96
 47
127.14
 48
0.0
 49
0.0
140
0.0
141
0.0
142
1.0
143
2.0
 70
  1716
 72
     1
 73
     1
 74
     2
  7
big.ctb
 75
    17
147
0.5
148
0.0
149
0.0
  0
PLOTSETTINGS
  5
757
102
{ACAD_REACTORS
330
566
102
}
330
566
100
AcDbPlotSettings
  1
A3(1倍)
  2
\\AWTECPC05\HP DeskJet 1120C
  4
A3
  6

 40
5.95841646
 41
13.49375153
 42
6.04309082
 43
3.67242432
 44
296.92599487
 45
419.94665527
 46
37.46
 47
52.89
 48
0.0
 49
0.0
140
0.0
141
0.0
142
1.0
143
1.0
 70
  1716
 72
     1
 73
     1
 74
     2
  7
big.ctb
 75
    16
147
1.0
148
0.0
149
0.0
  0
PLOTSETTINGS
  5
707
102
{ACAD_REACTORS
330
566
102
}
330
566
100
AcDbPlotSettings
  1
A3(1倍)(2000)
  2
SII LS-1300 (D-SCAN)
  4
User258
  6

 40
3.17499995
 41
3.17499995
 42
3.17498779
 43
3.17498779
 44
419.98898315
 45
296.98950195
 46
58.32
 47
40.32
 48
0.0
 49
0.0
140
0.0
141
0.0
142
1.0
143
1.0
 70
  1716
 72
     1
 73
     0
 74
     2
  7
big.ctb
 75
    16
147
1.0
148
0.0
149
0.0
  0
PLOTSETTINGS
  5
759
102
{ACAD_REACTORS
330
566
102
}
330
566
100
AcDbPlotSettings
  1
A3(2倍)
  2
\\AWTECPC05\HP DeskJet 1120C
  4
A3
  6

 40
5.95841646
 41
13.49375153
 42
6.04309082
 43
3.67242432
 44
296.92599487
 45
419.94665527
 46
-67.54
 47
-95.61
 48
0.0
 49
0.0
140
0.0
141
0.0
142
1.0
143
0.5
 70
  1716
 72
     1
 73
     1
 74
     2
  7
big.ctb
 75
    27
147
2.0
148
0.0
149
0.0
  0
PLOTSETTINGS
  5
755
102
{ACAD_REACTORS
330
566
102
}
330
566
100
AcDbPlotSettings
  1
A4(0.5倍)
  2
\\AWTECPC05\HP DeskJet 1120C
  4
A4
  6

 40
4.18041658
 41
13.49374962
 42
4.18040466
 43
3.92642212
 44
209.97332764
 45
296.92599487
 46
48.31
 47
65.5
 48
0.0
 49
0.0
140
0.0
141
0.0
142
1.0
143
2.0
 70
  1716
 72
     1
 73
     1
 74
     2
  7
big.ctb
 75
    17
147
0.5
148
0.0
149
0.0
  0
PLOTSETTINGS
  5
754
102
{ACAD_REACTORS
330
566
102
}
330
566
100
AcDbPlotSettings
  1
A4(1倍)
  2
\\AWTECPC05\HP DeskJet 1120C
  4
A4
  6

 40
4.18041658
 41
13.49374962
 42
4.18040466
 43
3.92642212
 44
209.97332764
 45
296.92599487
 46
-4.19
 47
-8.75
 48
0.0
 49
0.0
140
0.0
141
0.0
142
1.0
143
1.0
 70
  1716
 72
     1
 73
     1
 74
     2
  7
big.ctb
 75
    16
147
1.0
148
0.0
149
0.0
  0
PLOTSETTINGS
  5
708
102
{ACAD_REACTORS
330
566
102
}
330
566
100
AcDbPlotSettings
  1
A4(1倍)(2000)
  2
SII LS-1300 (D-SCAN)
  4
User259
  6

 40
3.17499995
 41
3.17499995
 42
3.17498779
 43
3.17500305
 44
296.98950195
 45
209.99449158
 46
-3.18
 47
-3.18
 48
0.0
 49
0.0
140
0.0
141
0.0
142
1.0
143
1.0
 70
  1716
 72
     1
 73
     0
 74
     2
  7
big.ctb
 75
    16
147
1.0
148
0.0
149
0.0
  0
PLOTSETTINGS
  5
756
102
{ACAD_REACTORS
330
566
102
}
330
566
100
AcDbPlotSettings
  1
A4(2倍)
  2
\\AWTECPC05\HP DeskJet 1120C
  4
A4
  6

 40
4.18041658
 41
13.49374962
 42
4.18040466
 43
3.92642212
 44
209.97332764
 45
296.92599487
 46
-109.19
 47
-157.25
 48
0.0
 49
0.0
140
0.0
141
0.0
142
1.0
143
0.5
 70
  1716
 72
     1
 73
     1
 74
     2
  7
big.ctb
 75
    27
147
2.0
148
0.0
149
0.0
  0
ACDBPLACEHOLDER
  5
564
102
{ACAD_REACTORS
330
563
102
}
330
563
100
AcDbPlaceHolder
280
     0
  0
XRECORD
  5
1964
102
{ACAD_REACTORS
330
195A
102
}
330
195A
100
AcDbXrecord
 90
        0
  0
XRECORD
  5
1968
102
{ACAD_REACTORS
330
195A
102
}
330
195A
100
AcDbXrecord
1000
DSTYLE
1002
{
1070
    79
 70
     2
1070
   179
 70
     3
1070
   341
340
594
1070
   343
340
594
1070
   344
340
594
1070
   371
 70
    -1
1070
   372
 70
    -1
1002
}
  0
XRECORD
  5
1965
102
{ACAD_REACTORS
330
195A
102
}
330
195A
100
AcDbXrecord
  1
{51294030-9CB4-11D3-8E18-00A0C925D94D}
  0
XRECORD
  5
195D
102
{ACAD_REACTORS
330
195A
102
}
330
195A
100
AcDbXrecord
  1

  0
XRECORD
  5
1963
102
{ACAD_REACTORS
330
195A
102
}
330
195A
100
AcDbXrecord
 90
        0
  0
XRECORD
  5
195F
102
{ACAD_REACTORS
330
195A
102
}
330
195A
100
AcDbXrecord
340
565
  0
XRECORD
  5
1962
102
{ACAD_REACTORS
330
195A
102
}
330
195A
100
AcDbXrecord
 90
    10781
  0
XRECORD
  5
1960
102
{ACAD_REACTORS
330
195A
102
}
330
195A
100
AcDbXrecord
340
566
  0
XRECORD
  5
1961
102
{ACAD_REACTORS
330
195A
102
}
330
195A
100
AcDbXrecord
340
563
  0
XRECORD
  5
1967
102
{ACAD_REACTORS
330
195A
102
}
330
195A
100
AcDbXrecord
 40
0.0
  0
XRECORD
  5
196B
102
{ACAD_REACTORS
330
195A
102
}
330
195A
100
AcDbXrecord
340
0
  0
XRECORD
  5
1971
102
{ACAD_REACTORS
330
195A
102
}
330
195A
100
AcDbXrecord
 10
0.0
 20
0.0
 30
0.0
  0
XRECORD
  5
196D
102
{ACAD_REACTORS
330
195A
102
}
330
195A
100
AcDbXrecord
 10
0.0
 20
0.0
 30
0.0
  0
XRECORD
  5
1970
102
{ACAD_REACTORS
330
195A
102
}
330
195A
100
AcDbXrecord
 10
0.0
 20
0.0
 30
0.0
  0
XRECORD
  5
196E
102
{ACAD_REACTORS
330
195A
102
}
330
195A
100
AcDbXrecord
 10
0.0
 20
0.0
 30
0.0
  0
XRECORD
  5
196F
102
{ACAD_REACTORS
330
195A
102
}
330
195A
100
AcDbXrecord
 10
0.0
 20
0.0
 30
0.0
  0
XRECORD
  5
196C
102
{ACAD_REACTORS
330
195A
102
}
330
195A
100
AcDbXrecord
 10
0.0
 20
0.0
 30
0.0
  0
XRECORD
  5
1969
102
{ACAD_REACTORS
330
195A
102
}
330
195A
100
AcDbXrecord
340
0
  0
XRECORD
  5
196A
102
{ACAD_REACTORS
330
195A
102
}
330
195A
100
AcDbXrecord
 70
     0
  0
XRECORD
  5
195E
102
{ACAD_REACTORS
330
195A
102
}
330
195A
100
AcDbXrecord
  1
big.ctb
  0
XRECORD
  5
195B
102
{ACAD_REACTORS
330
195A
102
}
330
195A
100
AcDbXrecord
 90
        1
  0
XRECORD
  5
195C
102
{ACAD_REACTORS
330
195A
102
}
330
195A
100
AcDbXrecord
 90
       70
  0
XRECORD
  5
1974
102
{ACAD_REACTORS
330
195A
102
}
330
195A
100
AcDbXrecord
340
0
  0
XRECORD
  5
197A
102
{ACAD_REACTORS
330
195A
102
}
330
195A
100
AcDbXrecord
 10
0.0
 20
0.0
 30
0.0
  0
XRECORD
  5
1976
102
{ACAD_REACTORS
330
195A
102
}
330
195A
100
AcDbXrecord
 10
0.0
 20
0.0
 30
0.0
  0
XRECORD
  5
1979
102
{ACAD_REACTORS
330
195A
102
}
330
195A
100
AcDbXrecord
 10
0.0
 20
0.0
 30
0.0
  0
XRECORD
  5
1977
102
{ACAD_REACTORS
330
195A
102
}
330
195A
100
AcDbXrecord
 10
0.0
 20
0.0
 30
0.0
  0
XRECORD
  5
1978
102
{ACAD_REACTORS
330
195A
102
}
330
195A
100
AcDbXrecord
 10
0.0
 20
0.0
 30
0.0
  0
XRECORD
  5
1975
102
{ACAD_REACTORS
330
195A
102
}
330
195A
100
AcDbXrecord
 10
0.0
 20
0.0
 30
0.0
  0
XRECORD
  5
1972
102
{ACAD_REACTORS
330
195A
102
}
330
195A
100
AcDbXrecord
340
0
  0
XRECORD
  5
1973
102
{ACAD_REACTORS
330
195A
102
}
330
195A
100
AcDbXrecord
 70
     0
  0
XRECORD
  5
1966
102
{ACAD_REACTORS
330
195A
102
}
330
195A
100
AcDbXrecord
  1
{DBFE75F8-730D-4751-8927-3AAEB2EF5206}
  0
XRECORD
  5
560
102
{ACAD_REACTORS
330
540
102
}
330
540
100
AcDbXrecord
  1
2.0.0
  0
ENDSEC
  0
EOF
