  0
SECTION
  2
HEADER
  9
$ACADVER
  1
AC1014
  9
$ACADMAINTVER
 70
     9
  9
$DWGCODEPAGE
  3
ANSI_932
  9
$INSBASE
 10
0.0
 20
0.0
 30
0.0
  9
$EXTMIN
 10
-48.51429639
 20
-11.07006072
 30
-0.00152582
  9
$EXTMAX
 10
119.76710584
 20
40.00231253
 30
0.00000003
  9
$LIMMIN
 10
0.0
 20
0.0
  9
$LIMMAX
 10
420.0
 20
297.0
  9
$ORTHOMODE
 70
     0
  9
$REGENMODE
 70
     1
  9
$FILLMODE
 70
     1
  9
$QTEXTMODE
 70
     0
  9
$MIRRTEXT
 70
     1
  9
$DRAGMODE
 70
     2
  9
$LTSCALE
 40
10.0
  9
$OSMODE
 70
   549
  9
$ATTMODE
 70
     1
  9
$TEXTSIZE
 40
3.0
  9
$TRACEWID
 40
1.0
  9
$TEXTSTYLE
  7
YOKO
  9
$CLAYER
  8
245
  9
$CELTYPE
  6
BYLAYER
  9
$CECOLOR
 62
   256
  9
$CELTSCALE
 40
1.0
  9
$DELOBJ
 70
     1
  9
$DISPSILH
 70
     0
  9
$DIMSCALE
 40
1.0
  9
$DIMASZ
 40
2.0
  9
$DIMEXO
 40
2.0
  9
$DIMDLI
 40
2.5
  9
$DIMRND
 40
0.0
  9
$DIMDLE
 40
0.0
  9
$DIMEXE
 40
2.0
  9
$DIMTP
 40
0.0
  9
$DIMTM
 40
0.0
  9
$DIMTXT
 40
4.0
  9
$DIMCEN
 40
0.0
  9
$DIMTSZ
 40
0.0
  9
$DIMTOL
 70
     0
  9
$DIMLIM
 70
     0
  9
$DIMTIH
 70
     0
  9
$DIMTOH
 70
     0
  9
$DIMSE1
 70
     0
  9
$DIMSE2
 70
     0
  9
$DIMTAD
 70
     3
  9
$DIMZIN
 70
     8
  9
$DIMBLK
  1

  9
$DIMASO
 70
     1
  9
$DIMSHO
 70
     1
  9
$DIMPOST
  1

  9
$DIMAPOST
  1

  9
$DIMALT
 70
     0
  9
$DIMALTD
 70
     2
  9
$DIMALTF
 40
25.4
  9
$DIMLFAC
 40
1.0
  9
$DIMTOFL
 70
     1
  9
$DIMTVP
 40
0.0
  9
$DIMTIX
 70
     1
  9
$DIMSOXD
 70
     0
  9
$DIMSAH
 70
     1
  9
$DIMBLK1
  1
OPEN
  9
$DIMBLK2
  1
OPEN
  9
$DIMSTYLE
  2
BIGT
  9
$DIMCLRD
 70
   256
  9
$DIMCLRE
 70
   256
  9
$DIMCLRT
 70
    40
  9
$DIMTFAC
 40
1.0
  9
$DIMGAP
 40
1.0
  9
$DIMJUST
 70
     0
  9
$DIMSD1
 70
     0
  9
$DIMSD2
 70
     0
  9
$DIMTOLJ
 70
     1
  9
$DIMTZIN
 70
     8
  9
$DIMALTZ
 70
     0
  9
$DIMALTTZ
 70
     0
  9
$DIMFIT
 70
     3
  9
$DIMUPT
 70
     0
  9
$DIMUNIT
 70
     2
  9
$DIMDEC
 70
     3
  9
$DIMTDEC
 70
     3
  9
$DIMALTU
 70
     2
  9
$DIMALTTD
 70
     2
  9
$DIMTXSTY
  7
STANDARD
  9
$DIMAUNIT
 70
     0
  9
$LUNITS
 70
     2
  9
$LUPREC
 70
     3
  9
$SKETCHINC
 40
1.0
  9
$FILLETRAD
 40
1.0
  9
$AUNITS
 70
     0
  9
$AUPREC
 70
     3
  9
$MENU
  1
.
  9
$ELEVATION
 40
0.0
  9
$PELEVATION
 40
0.0
  9
$THICKNESS
 40
0.0
  9
$LIMCHECK
 70
     0
  9
$BLIPMODE
 70
     0
  9
$CHAMFERA
 40
10.0
  9
$CHAMFERB
 40
10.0
  9
$CHAMFERC
 40
0.0
  9
$CHAMFERD
 40
0.0
  9
$SKPOLY
 70
     0
  9
$TDCREATE
 40
2455128.377265625
  9
$TDUPDATE
 40
2455316.412533275
  9
$TDINDWG
 40
0.0476347222
  9
$TDUSRTIMER
 40
0.0476345486
  9
$USRTIMER
 70
     1
  9
$ANGBASE
 50
0.0
  9
$ANGDIR
 70
     0
  9
$PDMODE
 70
     1
  9
$PDSIZE
 40
-5.0
  9
$PLINEWID
 40
0.0
  9
$COORDS
 70
     0
  9
$SPLFRAME
 70
     0
  9
$SPLINETYPE
 70
     6
  9
$SPLINESEGS
 70
     8
  9
$ATTDIA
 70
     0
  9
$ATTREQ
 70
     1
  9
$HANDLING
 70
-16383
  9
$HANDSEED
  5
10E8
  9
$SURFTAB1
 70
     6
  9
$SURFTAB2
 70
     6
  9
$SURFTYPE
 70
     6
  9
$SURFU
 70
     6
  9
$SURFV
 70
     6
  9
$UCSNAME
  2

  9
$UCSORG
 10
0.0
 20
0.0
 30
0.0
  9
$UCSXDIR
 10
1.0
 20
0.0
 30
0.0
  9
$UCSYDIR
 10
0.0
 20
1.0
 30
0.0
  9
$PUCSNAME
  2

  9
$PUCSORG
 10
0.0
 20
0.0
 30
0.0
  9
$PUCSXDIR
 10
1.0
 20
0.0
 30
0.0
  9
$PUCSYDIR
 10
0.0
 20
1.0
 30
0.0
  9
$USERI1
 70
     1
  9
$USERI2
 70
     0
  9
$USERI3
 70
     0
  9
$USERI4
 70
     0
  9
$USERI5
 70
     0
  9
$USERR1
 40
0.0
  9
$USERR2
 40
0.0
  9
$USERR3
 40
0.0
  9
$USERR4
 40
0.0
  9
$USERR5
 40
0.0
  9
$WORLDVIEW
 70
     1
  9
$SHADEDGE
 70
     3
  9
$SHADEDIF
 70
    70
  9
$TILEMODE
 70
     1
  9
$MAXACTVP
 70
    16
  9
$PINSBASE
 10
0.0
 20
0.0
 30
0.0
  9
$PLIMCHECK
 70
     0
  9
$PEXTMIN
 10
1.00000000E+20
 20
1.00000000E+20
 30
1.00000000E+20
  9
$PEXTMAX
 10
-1.00000000E+20
 20
-1.00000000E+20
 30
-1.00000000E+20
  9
$PLIMMIN
 10
0.0
 20
0.0
  9
$PLIMMAX
 10
420.0
 20
297.0
  9
$UNITMODE
 70
     0
  9
$VISRETAIN
 70
     0
  9
$PLINEGEN
 70
     0
  9
$PSLTSCALE
 70
     1
  9
$TREEDEPTH
 70
  3020
  9
$PICKSTYLE
 70
     0
  9
$CMLSTYLE
  2
STANDARD
  9
$CMLJUST
 70
     0
  9
$CMLSCALE
 40
1.0
  9
$PROXYGRAPHICS
 70
     1
  9
$MEASUREMENT
 70
     1
  0
ENDSEC
  0
SECTION
  2
CLASSES
  0
CLASS
  1
XRECORD
  2
AcDbXrecord
  3
AutoCAD 2000
 90
        0
280
     0
281
     0
  0
CLASS
  1
ACDBDICTIONARYWDFLT
  2
AcDbDictionaryWithDefault
  3
AutoCAD 2000
 90
        0
280
     0
281
     0
  0
CLASS
  1
ACDBPLACEHOLDER
  2
AcDbPlaceHolder
  3
AutoCAD 2000
 90
        0
280
     0
281
     0
  0
CLASS
  1
LAYOUT
  2
AcDbLayout
  3
AutoCAD 2000
 90
        0
280
     0
281
     0
  0
CLASS
  1
PLOTSETTINGS
  2
AcDbPlotSettings
  3
AutoCAD 2000
 90
        0
280
     0
281
     0
  0
CLASS
  1
LONG_TRANSACTION
  2
AcDbLongTransaction
  3
AutoCAD 2000
 90
        0
280
     0
281
     0
  0
CLASS
  1
LWPOLYLINE
  2
AcDbPolyline
  3
AutoCAD 2000
 90
        0
280
     0
281
     1
  0
CLASS
  1
HATCH
  2
AcDbHatch
  3
AutoCAD 2000
 90
        0
280
     0
281
     1
  0
CLASS
  1
XRECORD
  2
AcDbXrecord
  3
AutoCAD 2000
 90
        0
280
     0
281
     0
  0
CLASS
  1
LONG_TRANSACTION
  2
AcDbLongTransaction
  3
AutoCAD 2000
 90
        0
280
     0
281
     0
  0
CLASS
  1
LWPOLYLINE
  2
AcDbPolyline
  3
AutoCAD 2000
 90
        0
280
     0
281
     1
  0
CLASS
  1
HATCH
  2
AcDbHatch
  3
AutoCAD 2000
 90
        0
280
     0
281
     1
  0
CLASS
  1
XRECORD
  2
AcDbXrecord
  3
AutoCAD 2000
 90
        0
280
     0
281
     0
  0
CLASS
  1
LONG_TRANSACTION
  2
AcDbLongTransaction
  3
AutoCAD 2000
 90
        0
280
     0
281
     0
  0
CLASS
  1
LWPOLYLINE
  2
AcDbPolyline
  3
AutoCAD 2000
 90
        0
280
     0
281
     1
  0
CLASS
  1
HATCH
  2
AcDbHatch
  3
AutoCAD 2000
 90
        0
280
     0
281
     1
  0
CLASS
  1
XRECORD
  2
AcDbXrecord
  3
AutoCAD 2000
 90
        0
280
     0
281
     0
  0
ENDSEC
  0
SECTION
  2
TABLES
  0
TABLE
  2
VPORT
  5
8
330
0
100
AcDbSymbolTable
 70
     3
  0
VPORT
  5
10C3
330
8
100
AcDbSymbolTableRecord
100
AcDbViewportTableRecord
  2
*ACTIVE
 70
     0
 10
0.0
 20
0.0
 11
1.0
 21
1.0
 12
35.62640472
 22
14.4661259
 13
0.0
 23
0.0
 14
7.0
 24
7.0
 15
7.0
 25
7.0
 16
0.0
 26
0.0
 36
1.0
 17
0.0
 27
0.0
 37
0.0
 40
118.15406455
 41
1.43184713
 42
50.0
 43
0.0
 44
0.0
 50
0.0
 51
0.0
 71
     0
 72
  2000
 73
     1
 74
     0
 75
     0
 76
     0
 77
     0
 78
     0
  0
ENDTAB
  0
TABLE
  2
LTYPE
  5
5
330
0
100
AcDbSymbolTable
 70
     3
  0
LTYPE
  5
14
330
5
100
AcDbSymbolTableRecord
100
AcDbLinetypeTableRecord
  2
BYBLOCK
 70
     0
  3

 72
    65
 73
     0
 40
0.0
  0
LTYPE
  5
15
330
5
100
AcDbSymbolTableRecord
100
AcDbLinetypeTableRecord
  2
BYLAYER
 70
     0
  3

 72
    65
 73
     0
 40
0.0
  0
LTYPE
  5
16
330
5
100
AcDbSymbolTableRecord
100
AcDbLinetypeTableRecord
  2
CONTINUOUS
 70
     0
  3
Solid line
 72
    65
 73
     0
 40
0.0
  0
LTYPE
  5
258
330
5
100
AcDbSymbolTableRecord
100
AcDbLinetypeTableRecord
  2
CENTER2
 70
     0
  3
___ _ ___ _ ___ _ ___ _ ___ _ ___ _ ___ _ ___ _
 72
    65
 73
     4
 40
1.125
 49
0.75
 74
     0
 49
-0.125
 74
     0
 49
0.125
 74
     0
 49
-0.125
 74
     0
  0
LTYPE
  5
25C
330
5
100
AcDbSymbolTableRecord
100
AcDbLinetypeTableRecord
  2
HIDDEN2
 70
     0
  3
_ _ _ _ _ _ _ _ _ _ _ _ _ _ _ _ _ _ _ _ _ _ _ _
 72
    65
 73
     2
 40
0.1875
 49
0.125
 74
     0
 49
-0.0625
 74
     0
  0
ENDTAB
  0
TABLE
  2
LAYER
  5
2
330
0
100
AcDbSymbolTable
 70
    11
  0
LAYER
  5
F
330
2
100
AcDbSymbolTableRecord
100
AcDbLayerTableRecord
  2
0
 70
     0
 62
     7
  6
CONTINUOUS
  0
LAYER
  5
1AA
330
2
100
AcDbSymbolTableRecord
100
AcDbLayerTableRecord
  2
240
 70
     0
 62
     4
  6
CONTINUOUS
  0
LAYER
  5
1AB
330
2
100
AcDbSymbolTableRecord
100
AcDbLayerTableRecord
  2
241
 70
     0
 62
   211
  6
CONTINUOUS
  0
LAYER
  5
1AC
330
2
100
AcDbSymbolTableRecord
100
AcDbLayerTableRecord
  2
242
 70
     0
 62
     3
  6
CONTINUOUS
  0
LAYER
  5
1AD
330
2
100
AcDbSymbolTableRecord
100
AcDbLayerTableRecord
  2
243
 70
     0
 62
   211
  6
HIDDEN2
  0
LAYER
  5
1AF
330
2
100
AcDbSymbolTableRecord
100
AcDbLayerTableRecord
  2
245
 70
     0
 62
     2
  6
CENTER2
  0
LAYER
  5
21E
330
2
100
AcDbSymbolTableRecord
100
AcDbLayerTableRecord
  2
250
 70
     0
 62
     3
  6
CONTINUOUS
  0
LAYER
  5
21F
330
2
100
AcDbSymbolTableRecord
100
AcDbLayerTableRecord
  2
251
 70
     0
 62
    40
  6
CONTINUOUS
  0
LAYER
  5
5C4
330
2
100
AcDbSymbolTableRecord
100
AcDbLayerTableRecord
  2
DEFPOINTS
 70
     0
 62
     7
  6
CONTINUOUS
  0
LAYER
  5
80C
330
2
100
AcDbSymbolTableRecord
100
AcDbLayerTableRecord
  2
AM_7
 70
     0
 62
     2
  6
CENTER2
  0
ENDTAB
  0
TABLE
  2
STYLE
  5
3
330
0
100
AcDbSymbolTable
 70
     2
  0
STYLE
  5
10
330
3
100
AcDbSymbolTableRecord
100
AcDbTextStyleTableRecord
  2
STANDARD
 70
     0
 40
0.0
 41
1.0
 50
0.0
 71
     0
 42
3.0
  3
romans.shx
  4
BIGFONT.SHX
  0
STYLE
  5
339
330
3
100
AcDbSymbolTableRecord
100
AcDbTextStyleTableRecord
  2
YOKO
 70
     0
 40
0.0
 41
1.0
 50
0.0
 71
     0
 42
3.0
  3
romans.shx
  4
extfont.shx
  0
ENDTAB
  0
TABLE
  2
VIEW
  5
6
330
0
100
AcDbSymbolTable
 70
     0
  0
ENDTAB
  0
TABLE
  2
UCS
  5
7
330
0
100
AcDbSymbolTable
 70
     0
  0
ENDTAB
  0
TABLE
  2
APPID
  5
9
330
0
100
AcDbSymbolTable
 70
    15
  0
APPID
  5
11
330
9
100
AcDbSymbolTableRecord
100
AcDbRegAppTableRecord
  2
ACAD
 70
     0
  0
APPID
  5
1B1
330
9
100
AcDbSymbolTableRecord
100
AcDbRegAppTableRecord
  2
GLOBAL
 70
     0
  0
APPID
  5
2A4
330
9
100
AcDbSymbolTableRecord
100
AcDbRegAppTableRecord
  2
DETAIL
 70
     0
  0
APPID
  5
5FD
330
9
100
AcDbSymbolTableRecord
100
AcDbRegAppTableRecord
  2
GRPNAME
 70
     0
  0
APPID
  5
5FE
330
9
100
AcDbSymbolTableRecord
100
AcDbRegAppTableRecord
  2
GPARA
 70
     0
  0
APPID
  5
6C4
330
9
100
AcDbSymbolTableRecord
100
AcDbRegAppTableRecord
  2
DCO15
 70
     0
  0
APPID
  5
6C5
330
9
100
AcDbSymbolTableRecord
100
AcDbRegAppTableRecord
  2
ITEMNAME
 70
     0
  0
APPID
  5
6C6
330
9
100
AcDbSymbolTableRecord
100
AcDbRegAppTableRecord
  2
GRADE_0
 70
     0
  0
APPID
  5
811
330
9
100
AcDbSymbolTableRecord
100
AcDbRegAppTableRecord
  2
GENIUS_GENODEF_13
 70
     0
  0
APPID
  5
812
330
9
100
AcDbSymbolTableRecord
100
AcDbRegAppTableRecord
  2
GENIUS_GENOREF_13
 70
     0
  0
APPID
  5
813
330
9
100
AcDbSymbolTableRecord
100
AcDbRegAppTableRecord
  2
GENIUS_GENOBJ-N-FIL_13
 70
     0
  0
APPID
  5
814
330
9
100
AcDbSymbolTableRecord
100
AcDbRegAppTableRecord
  2
HATCH_TYPE
 70
     0
  0
APPID
  5
815
330
9
100
AcDbSymbolTableRecord
100
AcDbRegAppTableRecord
  2
HATCH_DISPLAY
 70
     0
  0
APPID
  5
816
330
9
100
AcDbSymbolTableRecord
100
AcDbRegAppTableRecord
  2
HATCH_DISTANCE
 70
     0
  0
APPID
  5
D93
330
9
100
AcDbSymbolTableRecord
100
AcDbRegAppTableRecord
  2
CONTENTBLOCKICON
 70
     0
  0
ENDTAB
  0
TABLE
  2
DIMSTYLE
  5
A
330
0
100
AcDbSymbolTable
 70
     1
  0
DIMSTYLE
105
725
102
{ACAD_REACTORS
330
BB8
330
BC5
102
}
330
A
100
AcDbSymbolTableRecord
100
AcDbDimStyleTableRecord
  2
BIGT
 70
     0
  3

  4

  5

  6
OPEN
  7
OPEN
 40
1.0
 41
2.23
 42
0.5
 43
2.5
 44
1.0
 45
0.0
 46
0.0
 47
0.0
 48
0.0
140
2.8
141
0.0
142
0.0
143
25.4
144
1.0
145
0.0
146
1.0
147
1.0
 71
     0
 72
     0
 73
     0
 74
     0
 75
     0
 76
     0
 77
     3
 78
     8
170
     0
171
     2
172
     1
173
     1
174
     1
175
     0
176
   256
177
   256
178
    40
270
     2
271
     3
272
     3
273
     2
274
     2
340
10
275
     0
280
     0
281
     0
282
     0
283
     1
284
     8
285
     0
286
     0
287
     3
288
     0
  0
ENDTAB
  0
TABLE
  2
BLOCK_RECORD
  5
1
330
0
100
AcDbSymbolTable
 70
     5
  0
BLOCK_RECORD
  5
1A
102
{ACAD_XDICTIONARY
360
D91
102
}
330
1
100
AcDbSymbolTableRecord
100
AcDbBlockTableRecord
  2
*MODEL_SPACE
  0
BLOCK_RECORD
  5
17
102
{ACAD_XDICTIONARY
360
D8F
102
}
330
1
100
AcDbSymbolTableRecord
100
AcDbBlockTableRecord
  2
*PAPER_SPACE
  0
BLOCK_RECORD
  5
594
330
1
100
AcDbSymbolTableRecord
100
AcDbBlockTableRecord
  2
_OPEN
  0
BLOCK_RECORD
  5
6E3
330
1
100
AcDbSymbolTableRecord
100
AcDbBlockTableRecord
  2
矢印なし
  0
BLOCK_RECORD
  5
BCA
330
1
100
AcDbSymbolTableRecord
100
AcDbBlockTableRecord
  2
*D2
  0
BLOCK_RECORD
  5
BD6
330
1
100
AcDbSymbolTableRecord
100
AcDbBlockTableRecord
  2
*D3
  0
BLOCK_RECORD
  5
C06
330
1
100
AcDbSymbolTableRecord
100
AcDbBlockTableRecord
  2
1
1001
CONTENTBLOCKICON
1071
        0
1004
2800000020000000200000000100080000000000000400000000000000000000000000000000000000000000000080000080000000808000800000008000800080800000C0C0C000C0DCC000F0CAA6000020400000206000002080000020A0000020C0000020E00000400000004020000040400000406000004080000040A0
1004
000040C0000040E00000600000006020000060400000606000006080000060A0000060C0000060E00000800000008020000080400000806000008080000080A0000080C0000080E00000A0000000A0200000A0400000A0600000A0800000A0A00000A0C00000A0E00000C0000000C0200000C0400000C0600000C0800000C0
1004
A00000C0C00000C0E00000E0000000E0200000E0400000E0600000E0800000E0A00000E0C00000E0E00040000000400020004000400040006000400080004000A0004000C0004000E00040200000402020004020400040206000402080004020A0004020C0004020E000404000004040200040404000404060004040800040
1004
40A0004040C0004040E00040600000406020004060400040606000406080004060A0004060C0004060E00040800000408020004080400040806000408080004080A0004080C0004080E00040A0000040A0200040A0400040A0600040A0800040A0A00040A0C00040A0E00040C0000040C0200040C0400040C0600040C08000
1004
40C0A00040C0C00040C0E00040E0000040E0200040E0400040E0600040E0800040E0A00040E0C00040E0E00080000000800020008000400080006000800080008000A0008000C0008000E00080200000802020008020400080206000802080008020A0008020C0008020E00080400000804020008040400080406000804080
1004
008040A0008040C0008040E00080600000806020008060400080606000806080008060A0008060C0008060E00080800000808020008080400080806000808080008080A0008080C0008080E00080A0000080A0200080A0400080A0600080A0800080A0A00080A0C00080A0E00080C0000080C0200080C0400080C0600080C0
1004
800080C0A00080C0C00080C0E00080E0000080E0200080E0400080E0600080E0800080E0A00080E0C00080E0E000C0000000C0002000C0004000C0006000C0008000C000A000C000C000C000E000C0200000C0202000C0204000C0206000C0208000C020A000C020C000C020E000C0400000C0402000C0404000C0406000C0
1004
408000C040A000C040C000C040E000C0600000C0602000C0604000C0606000C0608000C060A000C060C000C060E000C0800000C0802000C0804000C0806000C0808000C080A000C080C000C080E000C0A00000C0A02000C0A04000C0A06000C0A08000C0A0A000C0A0C000C0A0E000C0C00000C0C02000C0C04000C0C06000
1004
C0C08000C0C0A000F0FBFF00A4A0A000808080000000FF0000FF000000FFFF00FF000000FF00FF00FFFF0000FFFFFF0000000000000000000000000000000000000000000000000000000000000000000000000000000000000000000000000000000000000000000000000000000000000000000000000000000000000000
1004
00000000000000000000000000000000000000000000000000000000000000000000000000000000000000000000000000000000000000000000000000000000000000000000000000000000000000000000000000000000000000000000000000000000000000000000000000000000000000000000000000000000000000
1004
00000000000000000000000000000000000000000000000000000000000000000000000000000000000000000000000000000000000000000000000000000000000000000000000000000000000000000000000000000000000000000000000000000000000000000000000000000000000000000000000000000000000000
1004
000000000000000000000000000000000000000000000000000000000000000000000000000000000000000000000000000000000000000000000000000000000000000000000000000000000000000000000000000000000000000000FEE700000000000000000000000000000000000000000000FEFEFEFEFEFEFEE7FEFE
1004
FEFEFEFEFEFEFEFEFEFEFEFEFEFEFEFEFEFE00000000FE00FBE7FBFBE7E7E7E70000000000000000000000000000E70000FE000000FBFEFBFBE7E7E7E7E7E7E7FBFBFFFFFFFBFBFBFBFBFBFBFBFBE7E7E7FEFB000000FEFEFEFEFEFEFEE7E7FEFEFEFFFFFFFFFFFFFFFFFFFEFEFEFEFEFEFE000000000000000000000000FE
1004
E7000000000000000000000000000000000000000000000000000000000000000000000000000000000000000000000000000000000000000000000000000000000000000000000000000000000000000000000000000000000000000000000000000000000000000000000000000000000000000000000000000000000000
1004
00000000000000000000000000000000000000000000000000000000000000000000000000000000000000000000000000000000000000000000000000000000000000000000000000000000000000000000000000000000000000000000000000000000000000000000000000000000000000000000000000000000000000
1004
00000000000000000000000000000000000000000000000000000000000000000000000000000000000000000000000000000000000000000000000000000000000000000000000000000000000000000000000000000000000000000000000000000000000000000000000000000000000000000000000000000000000000
1004
0000000000000000000000000000000000000000000000000000000000000000000000000000000000000000000000000000000000000000
  0
ENDTAB
  0
ENDSEC
  0
SECTION
  2
BLOCKS
  0
BLOCK
  5
1B
330
1A
100
AcDbEntity
  8
0
100
AcDbBlockBegin
  2
*MODEL_SPACE
 70
     0
 10
0.0
 20
0.0
 30
0.0
  3
*MODEL_SPACE
  1

  0
ENDBLK
  5
1C
330
1A
100
AcDbEntity
  8
0
100
AcDbBlockEnd
  0
BLOCK
  5
18
330
17
100
AcDbEntity
 67
     1
  8
0
100
AcDbBlockBegin
  2
*PAPER_SPACE
 70
     0
 10
0.0
 20
0.0
 30
0.0
  3
*PAPER_SPACE
  1

  0
ENDBLK
  5
19
330
17
100
AcDbEntity
 67
     1
  8
0
100
AcDbBlockEnd
  0
BLOCK
  5
598
330
594
100
AcDbEntity
  8
0
100
AcDbBlockBegin
  2
_OPEN
 70
     0
 10
0.0
 20
0.0
 30
0.0
  3
_OPEN
  1

  0
LINE
  5
595
330
594
100
AcDbEntity
  8
0
  6
BYBLOCK
 62
     0
100
AcDbLine
 10
-1.0
 20
0.16666667
 30
0.0
 11
0.0
 21
0.0
 31
0.0
  0
LINE
  5
596
330
594
100
AcDbEntity
  8
0
  6
BYBLOCK
 62
     0
100
AcDbLine
 10
-1.0
 20
-0.16666667
 30
0.0
 11
0.0
 21
0.0
 31
0.0
  0
LINE
  5
597
330
594
100
AcDbEntity
  8
0
  6
BYBLOCK
 62
     0
100
AcDbLine
 10
0.0
 20
0.0
 30
0.0
 11
-1.0
 21
0.0
 31
0.0
  0
ENDBLK
  5
599
330
594
100
AcDbEntity
  8
0
100
AcDbBlockEnd
  0
BLOCK
  5
6E4
330
6E3
100
AcDbEntity
  8
0
100
AcDbBlockBegin
  2
矢印なし
 70
     0
 10
0.0
 20
0.0
 30
0.0
  3
矢印なし
  1

  0
ENDBLK
  5
6E5
330
6E3
100
AcDbEntity
  8
0
100
AcDbBlockEnd
  0
BLOCK
  5
BD4
330
BCA
100
AcDbEntity
  8
0
100
AcDbBlockBegin
  2
*D2
 70
     1
 10
0.0
 20
0.0
 30
0.0
  3
*D2
  1

  0
LINE
  5
BF4
330
BCA
100
AcDbEntity
  8
250
  6
CONTINUOUS
100
AcDbLine
 10
0.0
 20
11.14125603
 30
0.0
 11
0.0
 21
22.0
 31
0.0
  0
LINE
  5
BF5
330
BCA
100
AcDbEntity
  8
250
  6
CONTINUOUS
100
AcDbLine
 10
100.0
 20
7.5
 30
0.0
 11
100.0
 21
22.0
 31
0.0
  0
LINE
  5
BF6
330
BCA
100
AcDbEntity
  8
250
  6
CONTINUOUS
100
AcDbLine
 10
2.23
 20
21.0
 30
0.0
 11
97.77
 21
21.0
 31
0.0
  0
INSERT
  5
BF7
330
BCA
100
AcDbEntity
  8
250
  6
CONTINUOUS
100
AcDbBlockReference
  2
_OPEN
 10
0.0
 20
21.0
 30
0.0
 41
2.23
 42
2.23
 43
2.23
 50
180.0
  0
INSERT
  5
BF8
330
BCA
100
AcDbEntity
  8
250
  6
CONTINUOUS
100
AcDbBlockReference
  2
_OPEN
 10
100.0
 20
21.0
 30
0.0
 41
2.23
 42
2.23
 43
2.23
  0
MTEXT
  5
BF9
330
BCA
100
AcDbEntity
  8
250
  6
CONTINUOUS
 62
    40
100
AcDbMText
 10
49.8160488
 20
23.4
 30
0.0
 40
2.8
 41
0.0
 71
     5
 72
     1
  1
\A1;100
1001
ACAD
1000
MTEXTBEGIN
1070
    73
1070
     1
1070
    44
1040
1.0
1070
    74
1070
     0
1000
MTEXTEND
1000
MTEXTBEGIN
1070
    73
1070
     1
1070
    44
1040
1.0
1070
    74
1070
     0
1000
MTEXTEND
1000
MTEXTBEGIN
1070
    73
1070
     1
1070
    44
1040
1.0
1070
    74
1070
     0
1000
MTEXTEND
  0
POINT
  5
BFA
330
BCA
100
AcDbEntity
  8
DEFPOINTS
  6
CONTINUOUS
 62
     0
100
AcDbPoint
 10
0.0
 20
10.64125603
 30
0.0
  0
POINT
  5
BFB
330
BCA
100
AcDbEntity
  8
DEFPOINTS
  6
CONTINUOUS
 62
     0
100
AcDbPoint
 10
100.0
 20
7.0
 30
0.0
  0
POINT
  5
BFC
330
BCA
100
AcDbEntity
  8
DEFPOINTS
  6
CONTINUOUS
 62
     0
100
AcDbPoint
 10
100.0
 20
21.0
 30
0.0
  0
ENDBLK
  5
BD5
330
BCA
100
AcDbEntity
  8
0
100
AcDbBlockEnd
  0
BLOCK
  5
BE0
330
BD6
100
AcDbEntity
  8
0
100
AcDbBlockBegin
  2
*D3
 70
     1
 10
0.0
 20
0.0
 30
0.0
  3
*D3
  1

  0
LINE
  5
BFD
330
BD6
100
AcDbEntity
  8
250
  6
CONTINUOUS
100
AcDbLine
 10
99.5
 20
-8.0
 30
0.0
 11
119.75
 21
-8.0
 31
0.0
  0
LINE
  5
BFE
330
BD6
100
AcDbEntity
  8
250
  6
CONTINUOUS
100
AcDbLine
 10
99.5
 20
8.0
 30
0.0
 11
119.75
 21
8.0
 31
0.0
  0
LINE
  5
BFF
330
BD6
100
AcDbEntity
  8
250
  6
CONTINUOUS
100
AcDbLine
 10
118.75
 20
-5.77
 30
0.0
 11
118.75
 21
5.77
 31
0.0
  0
INSERT
  5
C00
330
BD6
100
AcDbEntity
  8
250
  6
CONTINUOUS
100
AcDbBlockReference
  2
_OPEN
 10
118.75
 20
-8.0
 30
0.0
 41
2.23
 42
2.23
 43
2.23
 50
270.0
  0
INSERT
  5
C01
330
BD6
100
AcDbEntity
  8
250
  6
CONTINUOUS
100
AcDbBlockReference
  2
_OPEN
 10
118.75
 20
8.0
 30
0.0
 41
2.23
 42
2.23
 43
2.23
 50
90.0
  0
MTEXT
  5
C02
330
BD6
100
AcDbEntity
  8
250
  6
CONTINUOUS
 62
    40
100
AcDbMText
 10
116.35
 20
0.0
 30
0.0
 40
2.8
 41
0.0
 71
     5
 72
     1
  1
\A1;{\H2.8;\U+2205}16
 11
0.0
 21
1.0
 31
0.0
1001
ACAD
1000
MTEXTBEGIN
1070
    73
1070
     1
1070
    44
1040
1.0
1070
    74
1070
     0
1000
MTEXTEND
1000
MTEXTBEGIN
1070
    73
1070
     1
1070
    44
1040
1.0
1070
    74
1070
     0
1000
MTEXTEND
1000
MTEXTBEGIN
1070
    73
1070
     1
1070
    44
1040
1.0
1070
    74
1070
     0
1000
MTEXTEND
  0
POINT
  5
C03
330
BD6
100
AcDbEntity
  8
DEFPOINTS
  6
CONTINUOUS
 62
     0
100
AcDbPoint
 10
99.0
 20
-8.0
 30
0.0
  0
POINT
  5
C04
330
BD6
100
AcDbEntity
  8
DEFPOINTS
  6
CONTINUOUS
 62
     0
100
AcDbPoint
 10
99.0
 20
8.0
 30
0.0
  0
POINT
  5
C05
330
BD6
100
AcDbEntity
  8
DEFPOINTS
  6
CONTINUOUS
 62
     0
100
AcDbPoint
 10
118.75
 20
8.0
 30
0.0
  0
ENDBLK
  5
BE1
330
BD6
100
AcDbEntity
  8
0
100
AcDbBlockEnd
  0
BLOCK
  5
C07
330
C06
100
AcDbEntity
  8
0
100
AcDbBlockBegin
  2
1
 70
     0
 10
0.0
 20
0.0
 30
0.0
  3
1
  1

  0
LINE
  5
F7F
330
C06
100
AcDbEntity
  8
240
100
AcDbLine
 10
80.0
 20
8.0
 30
0.0
 11
1.57117457
 21
8.0
 31
0.0
  0
LINE
  5
F80
330
C06
100
AcDbEntity
  8
240
100
AcDbLine
 10
80.0
 20
-8.0
 30
0.0
 11
1.57117457
 21
-8.0
 31
0.0
  0
TEXT
  5
F81
330
C06
100
AcDbEntity
  8
0
100
AcDbText
 10
31.19055087
 20
2.45479957
 30
0.0
 40
2.88
  1
MGT6-M2-100
  7
YOKO
100
AcDbText
  0
LINE
  5
F82
330
C06
100
AcDbEntity
  8
AM_7
100
AcDbLine
 10
-48.5
 20
0.0
 30
0.0
 11
101.0
 21
0.0
 31
0.0
1001
GENIUS_GENOREF_13
1005
0
  0
LINE
  5
F83
330
C06
100
AcDbEntity
  8
240
100
AcDbLine
 10
-34.0
 20
6.0
 30
0.0
 11
-29.0
 21
6.0
 31
0.0
  0
LINE
  5
F84
330
C06
100
AcDbEntity
  8
240
100
AcDbLine
 10
-34.0
 20
-6.0
 30
0.0
 11
-29.0
 21
-6.0
 31
0.0
  0
LINE
  5
F85
330
C06
100
AcDbEntity
  8
240
100
AcDbLine
 10
-47.5
 20
-7.0
 30
0.0
 11
-47.5
 21
0.0
 31
0.0
  0
LINE
  5
F86
330
C06
100
AcDbEntity
  8
243
100
AcDbLine
 10
-36.5
 20
6.0
 30
0.0
 11
-36.5
 21
-6.0
 31
0.0
  0
LINE
  5
F87
330
C06
100
AcDbEntity
  8
AM_7
100
AcDbLine
 10
-34.0
 20
-8.0
 30
0.0
 11
-34.0
 21
8.0
 31
0.0
  0
LINE
  5
F88
330
C06
100
AcDbEntity
  8
240
100
AcDbLine
 10
-46.5
 20
-8.0
 30
0.0
 11
-41.0
 21
-8.0
 31
0.0
  0
ARC
  5
F89
330
C06
100
AcDbEntity
  8
240
100
AcDbCircle
 10
-46.5
 20
-7.0
 30
0.0
 40
1.0
100
AcDbArc
 50
180.0
 51
270.0
  0
LINE
  5
F8A
330
C06
100
AcDbEntity
  8
240
100
AcDbLine
 10
-39.0
 20
-6.0
 30
0.0
 11
-41.0
 21
-8.0
 31
0.0
  0
LINE
  5
F8B
330
C06
100
AcDbEntity
  8
240
100
AcDbLine
 10
-39.0
 20
-6.0
 30
0.0
 11
-34.0
 21
-6.0
 31
0.0
  0
LINE
  5
F8C
330
C06
100
AcDbEntity
  8
240
100
AcDbLine
 10
-46.5
 20
8.0
 30
0.0
 11
-41.0
 21
8.0
 31
0.0
  0
LINE
  5
F8D
330
C06
100
AcDbEntity
  8
240
100
AcDbLine
 10
-47.5
 20
7.0
 30
0.0
 11
-47.5
 21
0.0
 31
0.0
  0
ARC
  5
F8E
330
C06
100
AcDbEntity
  8
240
100
AcDbCircle
 10
-46.5
 20
7.0
 30
0.0
 40
1.0
100
AcDbArc
 50
90.0
 51
180.0
  0
LINE
  5
F8F
330
C06
100
AcDbEntity
  8
240
100
AcDbLine
 10
-39.0
 20
6.0
 30
0.0
 11
-34.0
 21
6.0
 31
0.0
  0
LINE
  5
F90
330
C06
100
AcDbEntity
  8
240
100
AcDbLine
 10
-39.0
 20
6.0
 30
0.0
 11
-41.0
 21
8.0
 31
0.0
  0
LINE
  5
F91
330
C06
100
AcDbEntity
  8
241
100
AcDbLine
 10
0.80384758
 20
-8.35874397
 30
0.0
 11
0.80384758
 21
0.0
 31
0.0
  0
LINE
  5
F92
330
C06
100
AcDbEntity
  8
241
100
AcDbLine
 10
-5.12626129
 20
-11.0
 30
0.0
 11
-5.12626129
 21
0.0
 31
0.0
  0
LINE
  5
F93
330
C06
100
AcDbEntity
  8
241
  6
CONTINUOUS
100
AcDbLine
 10
-6.5
 20
-10.50000001
 30
0.0
 11
-6.5
 21
0.0
 31
0.0
  0
LINE
  5
F94
330
C06
100
AcDbEntity
  8
241
100
AcDbLine
 10
-11.0
 20
-8.0
 30
0.0
 11
-11.0
 21
0.0
 31
0.0
  0
LINE
  5
F95
330
C06
100
AcDbEntity
  8
AM_7
100
AcDbLine
 10
-20.0
 20
-0.7698914
 30
0.0
 11
-20.0
 21
-4.52866188
 31
0.0
  0
LINE
  5
F96
330
C06
100
AcDbEntity
  8
241
100
AcDbLine
 10
0.0
 20
-10.64125603
 30
0.0
 11
0.0
 21
0.0
 31
0.0
  0
LINE
  5
F97
330
C06
100
AcDbEntity
  8
241
100
AcDbLine
 10
-2.0
 20
-10.0
 30
0.0
 11
-2.0
 21
0.0
 31
0.0
  0
LINE
  5
F98
330
C06
100
AcDbEntity
  8
241
100
AcDbLine
 10
-4.0
 20
-10.0
 30
0.0
 11
-4.0
 21
0.0
 31
0.0
  0
LINE
  5
F99
330
C06
100
AcDbEntity
  8
241
100
AcDbLine
 10
-14.5
 20
-7.0
 30
0.0
 11
-14.5
 21
0.0
 31
0.0
  0
LINE
  5
F9A
330
C06
100
AcDbEntity
  8
241
100
AcDbLine
 10
-16.5
 20
-7.0
 30
0.0
 11
-16.5
 21
0.0
 31
0.0
  0
LINE
  5
F9B
330
C06
100
AcDbEntity
  8
241
100
AcDbLine
 10
-23.5
 20
-7.0
 30
0.0
 11
-23.5
 21
0.0
 31
0.0
  0
LINE
  5
F9C
330
C06
100
AcDbEntity
  8
241
100
AcDbLine
 10
-25.5
 20
-7.0
 30
0.0
 11
-25.5
 21
0.0
 31
0.0
  0
ELLIPSE
  5
F9D
330
C06
100
AcDbEntity
  8
241
100
AcDbEllipse
 10
-20.0
 20
-2.64927664
 30
0.0
 11
-2.000000000000023
 21
0.0
 31
0.0
210
0.0
220
0.0
230
1.0
 40
0.93969262
 41
0.0
 42
6.283185307179584
  0
LINE
  5
F9E
330
C06
100
AcDbEntity
  8
243
100
AcDbLine
 10
-31.5
 20
6.0
 30
0.0
 11
-31.5
 21
-6.0
 31
0.0
  0
ARC
  5
F9F
330
C06
100
AcDbEntity
  8
240
100
AcDbCircle
 10
-15.5
 20
-7.0
 30
0.0
 40
1.000000000003004
100
AcDbArc
 50
180.0
 51
0.0
  0
ARC
  5
FA0
330
C06
100
AcDbEntity
  8
240
100
AcDbCircle
 10
-24.5
 20
-7.0
 30
0.0
 40
1.000000000003004
100
AcDbArc
 50
180.0
 51
0.0
  0
LINE
  5
FA1
330
C06
100
AcDbEntity
  8
240
100
AcDbLine
 10
-25.5
 20
-7.0
 30
0.0
 11
-25.5
 21
-8.0
 31
0.0
  0
LINE
  5
FA2
330
C06
100
AcDbEntity
  8
240
100
AcDbLine
 10
-29.0
 20
-6.0
 30
0.0
 11
-27.0
 21
-8.0
 31
0.0
  0
LINE
  5
FA3
330
C06
100
AcDbEntity
  8
240
100
AcDbLine
 10
-27.0
 20
-8.0
 30
0.0
 11
-25.5
 21
-8.0
 31
0.0
  0
LINE
  5
FA4
330
C06
100
AcDbEntity
  8
240
100
AcDbLine
 10
-16.5
 20
-7.0
 30
0.0
 11
-16.5
 21
-8.0
 31
0.0
  0
LINE
  5
FA5
330
C06
100
AcDbEntity
  8
240
100
AcDbLine
 10
-23.5
 20
-7.0
 30
0.0
 11
-23.5
 21
-8.0
 31
0.0
  0
LINE
  5
FA6
330
C06
100
AcDbEntity
  8
240
100
AcDbLine
 10
-23.5
 20
-8.0
 30
0.0
 11
-16.5
 21
-8.0
 31
0.0
  0
LINE
  5
FA7
330
C06
100
AcDbEntity
  8
AM_7
100
AcDbLine
 10
-21.99786162
 20
-2.73616115
 30
0.0
 11
-18.00213838
 21
-2.73616115
 31
0.0
  0
LINE
  5
FA8
330
C06
100
AcDbEntity
  8
240
100
AcDbLine
 10
-6.5
 20
-10.50000001
 30
0.0
 11
-5.12626128
 21
-11.0
 31
0.0
  0
LINE
  5
FA9
330
C06
100
AcDbEntity
  8
240
100
AcDbLine
 10
-14.5
 20
-7.0
 30
0.0
 11
-14.5
 21
-8.0
 31
0.0
  0
LINE
  5
FAA
330
C06
100
AcDbEntity
  8
240
100
AcDbLine
 10
-10.7
 20
-7.7
 30
0.0
 11
-11.0
 21
-8.0
 31
0.0
  0
LINE
  5
FAB
330
C06
100
AcDbEntity
  8
240
100
AcDbLine
 10
-14.5
 20
-8.0
 30
0.0
 11
-11.0
 21
-8.0
 31
0.0
  0
LINE
  5
FAC
330
C06
100
AcDbEntity
  8
240
100
AcDbLine
 10
-6.50000001
 20
-10.5
 30
0.0
 11
-10.0
 21
-10.5
 31
0.0
  0
LINE
  5
FAD
330
C06
100
AcDbEntity
  8
240
100
AcDbLine
 10
-10.0
 20
-10.5
 30
0.0
 11
-10.0
 21
-9.0
 31
0.0
  0
LINE
  5
FAE
330
C06
100
AcDbEntity
  8
240
100
AcDbLine
 10
-9.5
 20
-8.5
 30
0.0
 11
-9.5
 21
-7.7
 31
0.0
  0
LINE
  5
FAF
330
C06
100
AcDbEntity
  8
240
100
AcDbLine
 10
-10.7
 20
-7.7
 30
0.0
 11
-9.5
 21
-7.7
 31
0.0
  0
LINE
  5
FB0
330
C06
100
AcDbEntity
  8
240
100
AcDbLine
 10
-9.5
 20
-8.5
 30
0.0
 11
-10.0
 21
-9.0
 31
0.0
  0
LINE
  5
FB1
330
C06
100
AcDbEntity
  8
241
100
AcDbLine
 10
-6.5
 20
-8.2
 30
0.0
 11
-9.5
 21
-8.2
 31
0.0
  0
LINE
  5
FB2
330
C06
100
AcDbEntity
  8
240
100
AcDbLine
 10
-0.63567449
 20
-11.0
 30
0.0
 11
-2.0
 21
-11.0
 31
0.0
  0
LINE
  5
FB3
330
C06
100
AcDbEntity
  8
240
100
AcDbLine
 10
-4.0
 20
-11.0
 30
0.0
 11
-5.12626129
 21
-11.0
 31
0.0
  0
LINE
  5
FB4
330
C06
100
AcDbEntity
  8
240
100
AcDbLine
 10
-4.0
 20
-10.0
 30
0.0
 11
-4.0
 21
-11.0
 31
0.0
  0
LINE
  5
FB5
330
C06
100
AcDbEntity
  8
240
100
AcDbLine
 10
-2.0
 20
-10.0
 30
0.0
 11
-2.0
 21
-11.0
 31
0.0
  0
ARC
  5
FB6
330
C06
100
AcDbEntity
  8
240
100
AcDbCircle
 10
-3.0
 20
-10.0
 30
0.0
 40
1.000000000000075
100
AcDbArc
 50
180.0
 51
0.0
  0
ARC
  5
FB7
330
C06
100
AcDbEntity
  8
240
100
AcDbCircle
 10
1.57117457
 20
-9.0
 30
0.0
 40
1.0
100
AcDbArc
 50
90.0
 51
165.00000008
  0
LINE
  5
FB8
330
C06
100
AcDbEntity
  8
240
100
AcDbLine
 10
0.19859884
 20
-10.25881905
 30
0.0
 11
0.60524874
 21
-8.74118096
 31
0.0
  0
ARC
  5
FB9
330
C06
100
AcDbEntity
  8
240
100
AcDbCircle
 10
-0.76732699
 20
-10.0
 30
0.0
 40
1.0
100
AcDbArc
 50
285.0
 51
345.0
1001
GENIUS_GENOBJ-N-FIL_13
1002
{
1000
OWNER
1000
GEN
1002
}
1001
GENIUS_GENODEF_13
1002
{
1000
HIER
1070
     0
1002
}
1002
{
1000
MANEDIT
1070
     0
1002
}
1002
{
1000
NOSEL
1070
     0
1002
}
1002
{
1000
BEHIND
1070
     0
1002
}
1002
{
1000
OTHER
1070
     0
1002
}
1002
{
1000
REACTOR
1002
}
  0
LINE
  5
FBA
330
C06
100
AcDbEntity
  8
240
100
AcDbLine
 10
-0.50850794
 20
-10.96592583
 30
0.0
 11
-0.63567449
 21
-11.0
 31
0.0
  0
ARC
  5
FBB
330
C06
100
AcDbEntity
  8
240
100
AcDbCircle
 10
-15.5
 20
7.0
 30
0.0
 40
1.000000000003004
100
AcDbArc
 50
0.0
 51
180.0
  0
ARC
  5
FBC
330
C06
100
AcDbEntity
  8
240
100
AcDbCircle
 10
-24.5
 20
7.0
 30
0.0
 40
1.000000000003004
100
AcDbArc
 50
0.0
 51
180.0
  0
LINE
  5
FBD
330
C06
100
AcDbEntity
  8
241
100
AcDbLine
 10
-25.5
 20
7.0
 30
0.0
 11
-25.5
 21
0.0
 31
0.0
  0
LINE
  5
FBE
330
C06
100
AcDbEntity
  8
240
100
AcDbLine
 10
-27.0
 20
8.0
 30
0.0
 11
-25.5
 21
8.0
 31
0.0
  0
LINE
  5
FBF
330
C06
100
AcDbEntity
  8
240
100
AcDbLine
 10
-25.5
 20
7.0
 30
0.0
 11
-25.5
 21
8.0
 31
0.0
  0
LINE
  5
FC0
330
C06
100
AcDbEntity
  8
240
100
AcDbLine
 10
-29.0
 20
6.0
 30
0.0
 11
-27.0
 21
8.0
 31
0.0
  0
LINE
  5
FC1
330
C06
100
AcDbEntity
  8
241
100
AcDbLine
 10
-16.5
 20
7.0
 30
0.0
 11
-16.5
 21
0.0
 31
0.0
  0
LINE
  5
FC2
330
C06
100
AcDbEntity
  8
241
100
AcDbLine
 10
-23.5
 20
7.0
 30
0.0
 11
-23.5
 21
0.0
 31
0.0
  0
LINE
  5
FC3
330
C06
100
AcDbEntity
  8
240
100
AcDbLine
 10
-23.5
 20
8.0
 30
0.0
 11
-16.5
 21
8.0
 31
0.0
  0
LINE
  5
FC4
330
C06
100
AcDbEntity
  8
240
100
AcDbLine
 10
-23.5
 20
7.0
 30
0.0
 11
-23.5
 21
8.0
 31
0.0
  0
LINE
  5
FC5
330
C06
100
AcDbEntity
  8
240
100
AcDbLine
 10
-16.5
 20
7.0
 30
0.0
 11
-16.5
 21
8.0
 31
0.0
  0
LINE
  5
FC6
330
C06
100
AcDbEntity
  8
241
100
AcDbLine
 10
0.0
 20
10.64125603
 30
0.0
 11
0.0
 21
0.0
 31
0.0
  0
LINE
  5
FC7
330
C06
100
AcDbEntity
  8
241
100
AcDbLine
 10
-5.12626129
 20
11.0
 30
0.0
 11
-5.12626129
 21
0.0
 31
0.0
  0
LINE
  5
FC8
330
C06
100
AcDbEntity
  8
240
100
AcDbLine
 10
-6.50000001
 20
10.5
 30
0.0
 11
-5.12626128
 21
11.0
 31
0.0
  0
ARC
  5
FC9
330
C06
100
AcDbEntity
  8
240
100
AcDbCircle
 10
-0.76732699
 20
10.0
 30
0.0
 40
1.0
100
AcDbArc
 50
15.0
 51
75.0
1001
GENIUS_GENOBJ-N-FIL_13
1002
{
1000
OWNER
1000
GEN
1002
}
1001
GENIUS_GENODEF_13
1002
{
1000
HIER
1070
     0
1002
}
1002
{
1000
MANEDIT
1070
     0
1002
}
1002
{
1000
NOSEL
1070
     0
1002
}
1002
{
1000
BEHIND
1070
     0
1002
}
1002
{
1000
OTHER
1070
     0
1002
}
1002
{
1000
REACTOR
1002
}
  0
ARC
  5
FCA
330
C06
100
AcDbEntity
  8
240
100
AcDbCircle
 10
-3.0
 20
10.0
 30
0.0
 40
1.000000000000075
100
AcDbArc
 50
0.0
 51
180.0
  0
LINE
  5
FCB
330
C06
100
AcDbEntity
  8
240
100
AcDbLine
 10
-2.0
 20
10.0
 30
0.0
 11
-2.0
 21
11.0
 31
0.0
  0
LINE
  5
FCC
330
C06
100
AcDbEntity
  8
240
100
AcDbLine
 10
-4.0
 20
10.0
 30
0.0
 11
-4.0
 21
11.0
 31
0.0
  0
LINE
  5
FCD
330
C06
100
AcDbEntity
  8
241
100
AcDbLine
 10
-14.5
 20
7.0
 30
0.0
 11
-14.5
 21
0.0
 31
0.0
  0
LINE
  5
FCE
330
C06
100
AcDbEntity
  8
241
100
AcDbLine
 10
-11.0
 20
8.0
 30
0.0
 11
-11.0
 21
0.0
 31
0.0
  0
LINE
  5
FCF
330
C06
100
AcDbEntity
  8
241
  6
CONTINUOUS
100
AcDbLine
 10
-6.5
 20
10.50000001
 30
0.0
 11
-6.5
 21
0.0
 31
0.0
  0
LINE
  5
FD0
330
C06
100
AcDbEntity
  8
240
100
AcDbLine
 10
-10.7
 20
7.7
 30
0.0
 11
-11.0
 21
8.0
 31
0.0
  0
LINE
  5
FD1
330
C06
100
AcDbEntity
  8
240
100
AcDbLine
 10
-14.5
 20
8.0
 30
0.0
 11
-11.0
 21
8.0
 31
0.0
  0
LINE
  5
FD2
330
C06
100
AcDbEntity
  8
240
100
AcDbLine
 10
-14.5
 20
7.0
 30
0.0
 11
-14.5
 21
8.0
 31
0.0
  0
LINE
  5
FD3
330
C06
100
AcDbEntity
  8
240
100
AcDbLine
 10
-6.50000001
 20
10.5
 30
0.0
 11
-10.0
 21
10.5
 31
0.0
  0
LINE
  5
FD4
330
C06
100
AcDbEntity
  8
240
100
AcDbLine
 10
-10.0
 20
10.5
 30
0.0
 11
-10.0
 21
9.0
 31
0.0
  0
LINE
  5
FD5
330
C06
100
AcDbEntity
  8
240
100
AcDbLine
 10
-10.7
 20
7.7
 30
0.0
 11
-9.5
 21
7.7
 31
0.0
  0
LINE
  5
FD6
330
C06
100
AcDbEntity
  8
240
100
AcDbLine
 10
-9.5
 20
8.5
 30
0.0
 11
-9.5
 21
7.7
 31
0.0
  0
LINE
  5
FD7
330
C06
100
AcDbEntity
  8
240
100
AcDbLine
 10
-9.5
 20
8.5
 30
0.0
 11
-10.0
 21
9.0
 31
0.0
  0
LINE
  5
FD8
330
C06
100
AcDbEntity
  8
241
100
AcDbLine
 10
-6.5
 20
8.2
 30
0.0
 11
-9.5
 21
8.2
 31
0.0
  0
LINE
  5
FD9
330
C06
100
AcDbEntity
  8
241
100
AcDbLine
 10
-4.0
 20
10.0
 30
0.0
 11
-4.0
 21
0.0
 31
0.0
  0
LINE
  5
FDA
330
C06
100
AcDbEntity
  8
241
100
AcDbLine
 10
-2.0
 20
10.0
 30
0.0
 11
-2.0
 21
0.0
 31
0.0
  0
LINE
  5
FDB
330
C06
100
AcDbEntity
  8
241
100
AcDbLine
 10
0.80384758
 20
8.35874397
 30
0.0
 11
0.80384758
 21
0.0
 31
0.0
  0
LINE
  5
FDC
330
C06
100
AcDbEntity
  8
240
100
AcDbLine
 10
0.19859884
 20
10.25881905
 30
0.0
 11
0.60524874
 21
8.74118096
 31
0.0
  0
ARC
  5
FDD
330
C06
100
AcDbEntity
  8
240
100
AcDbCircle
 10
1.57117457
 20
9.0
 30
0.0
 40
1.0
100
AcDbArc
 50
194.99999992
 51
270.0
  0
LINE
  5
FDE
330
C06
100
AcDbEntity
  8
240
100
AcDbLine
 10
-0.63567449
 20
11.0
 30
0.0
 11
-2.0
 21
11.0
 31
0.0
  0
LINE
  5
FDF
330
C06
100
AcDbEntity
  8
240
100
AcDbLine
 10
-4.0
 20
11.0
 30
0.0
 11
-5.12626129
 21
11.0
 31
0.0
  0
LINE
  5
FE0
330
C06
100
AcDbEntity
  8
240
100
AcDbLine
 10
-0.50850794
 20
10.96592583
 30
0.0
 11
-0.63567449
 21
11.0
 31
0.0
  0
LINE
  5
FE1
330
C06
100
AcDbEntity
  8
0
100
AcDbLine
 10
21.00603103
 20
2.48928197
 30
0.0
 11
21.85195199
 21
5.43935557
 31
0.0
  0
LINE
  5
FE2
330
C06
100
AcDbEntity
  8
0
100
AcDbLine
 10
21.00603103
 20
2.48928197
 30
0.0
 11
22.53632353
 21
2.48928197
 31
0.0
  0
LINE
  5
FE3
330
C06
100
AcDbEntity
  8
0
100
AcDbLine
 10
21.03527659
 20
1.93613804
 30
0.0
 11
21.40403921
 21
2.30490066
 31
0.0
  0
LINE
  5
FE4
330
C06
100
AcDbEntity
  8
0
100
AcDbLine
 10
20.81253088
 20
2.30490066
 30
0.0
 11
28.29836484
 21
2.30490066
 31
0.0
  0
LINE
  5
FE5
330
C06
100
AcDbEntity
  8
0
100
AcDbLine
 10
20.81253088
 20
1.93613804
 30
0.0
 11
28.29836484
 21
1.93613804
 31
0.0
  0
LINE
  5
FE6
330
C06
100
AcDbEntity
  8
0
100
AcDbLine
 10
20.85144521
 20
5.43935557
 30
0.0
 11
21.22020783
 21
5.80811819
 31
0.0
  0
LINE
  5
FE7
330
C06
100
AcDbEntity
  8
0
100
AcDbLine
 10
20.81253088
 20
5.43935557
 30
0.0
 11
21.46833472
 21
5.43935557
 31
0.0
  0
LINE
  5
FE8
330
C06
100
AcDbEntity
  8
0
100
AcDbLine
 10
20.81253088
 20
5.80811819
 30
0.0
 11
21.57407137
 21
5.80811819
 31
0.0
  0
LINE
  5
FE9
330
C06
100
AcDbEntity
  8
0
100
AcDbLine
 10
18.93431969
 20
4.34157425
 30
0.0
 11
20.34308496
 21
5.75033951
 31
0.0
  0
ARC
  5
FEA
330
C06
100
AcDbEntity
  8
0
100
AcDbCircle
 10
20.81253088
 20
3.87212833
 30
0.0
 40
1.935989859374998
100
AcDbArc
 50
90.0
 51
270.0
  0
ARC
  5
FEB
330
C06
100
AcDbEntity
  8
0
100
AcDbCircle
 10
20.81253088
 20
3.87212833
 30
0.0
 40
1.567227234374995
100
AcDbArc
 50
90.0
 51
270.0
  0
LINE
  5
FEC
330
C06
100
AcDbEntity
  8
0
100
AcDbLine
 10
18.9125517
 20
3.50046205
 30
0.0
 11
19.24577521
 21
3.83368556
 31
0.0
  0
LINE
  5
FED
330
C06
100
AcDbEntity
  8
0
100
AcDbLine
 10
18.87654205
 20
3.8741245
 30
0.0
 11
19.30580785
 21
4.3033903
 31
0.0
  0
LINE
  5
FEE
330
C06
100
AcDbEntity
  8
0
100
AcDbLine
 10
19.30213508
 20
2.66102914
 30
0.0
 11
19.56483614
 21
2.92373019
 31
0.0
  0
LINE
  5
FEF
330
C06
100
AcDbEntity
  8
0
100
AcDbLine
 10
19.1357874
 20
2.90435355
 30
0.0
 11
19.40807442
 21
3.17664057
 31
0.0
  0
LINE
  5
FF0
330
C06
100
AcDbEntity
  8
0
100
AcDbLine
 10
19.00373496
 20
3.18197322
 30
0.0
 11
19.29651759
 21
3.47475584
 31
0.0
  0
LINE
  5
FF1
330
C06
100
AcDbEntity
  8
0
100
AcDbLine
 10
20.28826875
 20
2.0084744
 30
0.0
 11
20.59927264
 21
2.31947829
 31
0.0
  0
LINE
  5
FF2
330
C06
100
AcDbEntity
  8
0
100
AcDbLine
 10
19.98978299
 20
2.11966074
 30
0.0
 11
20.27140567
 21
2.40128342
 31
0.0
  0
LINE
  5
FF3
330
C06
100
AcDbEntity
  8
0
100
AcDbLine
 10
19.72852492
 20
2.26807477
 30
0.0
 11
19.99529509
 21
2.53484494
 31
0.0
  0
LINE
  5
FF4
330
C06
100
AcDbEntity
  8
0
100
AcDbLine
 10
19.49987994
 20
2.44910189
 30
0.0
 11
19.76089664
 21
2.71011859
 31
0.0
  0
LINE
  5
FF5
330
C06
100
AcDbEntity
  8
0
100
AcDbLine
 10
20.63386663
 20
1.94440018
 30
0.0
 11
20.9943671
 21
2.30490066
 31
0.0
  0
LINE
  5
FF6
330
C06
100
AcDbEntity
  8
0
100
AcDbLine
 10
20.38126891
 20
5.37885137
 30
0.0
 11
20.8105347
 21
5.80811715
 31
0.0
  0
LINE
  5
FF7
330
C06
100
AcDbEntity
  8
0
100
AcDbLine
 10
29.74677477
 20
3.27353841
 30
0.0
 11
30.23097217
 21
3.75773582
 31
0.0
  0
LINE
  5
FF8
330
C06
100
AcDbEntity
  8
0
100
AcDbLine
 10
29.8639491
 20
3.80038485
 30
0.0
 11
30.21421503
 21
4.15065078
 31
0.0
  0
ARC
  5
FF9
330
C06
100
AcDbEntity
  8
0
100
AcDbCircle
 10
28.29836484
 20
3.87212833
 30
0.0
 40
1.935989859374998
100
AcDbArc
 50
270.0
 51
104.77079397
  0
LINE
  5
FFA
330
C06
100
AcDbEntity
  8
0
100
AcDbLine
 10
29.73732084
 20
4.49310079
 30
0.0
 11
30.01378459
 21
4.76956454
 31
0.0
  0
ARC
  5
FFB
330
C06
100
AcDbEntity
  8
0
100
AcDbCircle
 10
28.29836484
 20
3.87212833
 30
0.0
 40
1.567227234374995
100
AcDbArc
 50
270.0
 51
104.1274365
  0
LINE
  5
FFC
330
C06
100
AcDbEntity
  8
0
100
AcDbLine
 10
23.98893475
 20
3.6607799
 30
0.0
 11
25.14530038
 21
4.81714553
 31
0.0
  0
LINE
  5
FFD
330
C06
100
AcDbEntity
  8
0
100
AcDbLine
 10
25.9825027
 20
3.38884436
 30
0.0
 11
26.47948579
 21
5.12202034
 31
0.0
  0
LINE
  5
FFE
330
C06
100
AcDbEntity
  8
0
100
AcDbLine
 10
24.4777986
 20
2.48928197
 30
0.0
 11
25.42945621
 21
5.80811819
 31
0.0
  0
ARC
  5
FFF
330
C06
100
AcDbEntity
  8
0
100
AcDbCircle
 10
28.35374605
 20
3.62473661
 30
0.0
 40
3.136264312499998
100
AcDbArc
 50
155.20517737
 51
172.79482596
  0
LINE
  5
1000
330
C06
100
AcDbEntity
  8
0
100
AcDbLine
 10
25.19678621
 20
3.63961506
 30
0.0
 11
26.39919868
 21
4.84202753
 31
0.0
  0
LINE
  5
1001
330
C06
100
AcDbEntity
  8
0
100
AcDbLine
 10
24.4777986
 20
2.48928197
 30
0.0
 11
25.42945621
 21
5.80811819
 31
0.0
1001
HATCH_DISTANCE
1040
1.0
1001
HATCH_DISPLAY
1070
     0
1001
HATCH_TYPE
1070
     7
  0
LINE
  5
1002
330
C06
100
AcDbEntity
  8
0
100
AcDbLine
 10
24.4777986
 20
2.48928197
 30
0.0
 11
25.42945621
 21
5.80811819
 31
0.0
  0
LINE
  5
1003
330
C06
100
AcDbEntity
  8
0
100
AcDbLine
 10
24.15363415
 20
4.23515139
 30
0.0
 11
25.30999753
 21
5.39151478
 31
0.0
  0
LINE
  5
1004
330
C06
100
AcDbEntity
  8
0
100
AcDbLine
 10
21.26599086
 20
3.39586861
 30
0.0
 11
22.55681862
 21
4.68669637
 31
0.0
  0
LINE
  5
1005
330
C06
100
AcDbEntity
  8
0
100
AcDbLine
 10
22.76987159
 20
5.42971703
 30
0.0
 11
22.46767477
 21
4.37580787
 31
0.0
  0
LINE
  5
1006
330
C06
100
AcDbEntity
  8
0
100
AcDbLine
 10
21.43068909
 20
3.97023895
 30
0.0
 11
22.72151141
 21
5.26106127
 31
0.0
  0
ARC
  5
1007
330
C06
100
AcDbEntity
  8
0
100
AcDbCircle
 10
22.54787868
 20
4.92309067
 30
0.0
 40
0.5531284929199223
100
AcDbArc
 50
261.66260169
 51
66.3381551
  0
LINE
  5
1008
330
C06
100
AcDbEntity
  8
0
100
AcDbLine
 10
21.59538733
 20
4.54460929
 30
0.0
 11
22.85889623
 21
5.80811819
 31
0.0
  0
LINE
  5
1009
330
C06
100
AcDbEntity
  8
0
100
AcDbLine
 10
23.65301104
 20
2.48928197
 30
0.0
 11
24.4883653
 21
5.40249043
 31
0.0
  0
LINE
  5
100A
330
C06
100
AcDbEntity
  8
0
100
AcDbLine
 10
24.4883653
 20
5.40249043
 30
0.0
 11
23.65301104
 21
2.48928197
 31
0.0
1001
HATCH_DISTANCE
1040
1.0
1001
HATCH_DISPLAY
1070
     0
1001
HATCH_TYPE
1070
     7
  0
LINE
  5
100B
330
C06
100
AcDbEntity
  8
0
100
AcDbLine
 10
24.4883653
 20
5.40249043
 30
0.0
 11
23.65301104
 21
2.48928197
 31
0.0
  0
ARC
  5
100C
330
C06
100
AcDbEntity
  8
0
100
AcDbCircle
 10
22.95928401
 20
4.88622554
 30
0.0
 40
0.9219004716796876
100
AcDbArc
 50
287.66957755
 51
90.23615984
  0
LINE
  5
100D
330
C06
100
AcDbEntity
  8
0
100
AcDbLine
 10
22.66530516
 20
3.56616662
 30
0.0
 11
23.87449336
 21
4.77535481
 31
0.0
  0
LINE
  5
100E
330
C06
100
AcDbEntity
  8
0
100
AcDbLine
 10
22.52230071
 20
3.83283426
 30
0.0
 11
23.84190991
 21
5.15244347
 31
0.0
  0
LINE
  5
100F
330
C06
100
AcDbEntity
  8
0
100
AcDbLine
 10
25.25483462
 20
4.10733557
 30
0.0
 11
26.92552618
 21
5.77802713
 31
0.0
  0
LINE
  5
1010
330
C06
100
AcDbEntity
  8
0
100
AcDbLine
 10
25.58759981
 20
2.80141237
 30
0.0
 11
25.97814688
 21
3.19195944
 31
0.0
  0
LINE
  5
1011
330
C06
100
AcDbEntity
  8
0
100
AcDbLine
 10
25.39804936
 20
3.02153401
 30
0.0
 11
26.06980007
 21
3.69328472
 31
0.0
  0
LINE
  5
1012
330
C06
100
AcDbEntity
  8
0
100
AcDbLine
 10
25.26195892
 20
3.29511568
 30
0.0
 11
26.23449938
 21
4.26765613
 31
0.0
  0
LINE
  5
1013
330
C06
100
AcDbEntity
  8
0
100
AcDbLine
 10
25.54166969
 20
1.93613804
 30
0.0
 11
25.91043231
 21
2.30490066
 31
0.0
  0
ARC
  5
1014
330
C06
100
AcDbEntity
  8
0
100
AcDbCircle
 10
26.39429784
 20
3.68774702
 30
0.0
 40
1.198478531249999
100
AcDbArc
 50
163.9997507
 51
304.96387329
  0
LINE
  5
1015
330
C06
100
AcDbEntity
  8
0
100
AcDbLine
 10
23.82423535
 20
3.08640841
 30
0.0
 11
24.98060323
 21
4.24277628
 31
0.0
  0
LINE
  5
1016
330
C06
100
AcDbEntity
  8
0
100
AcDbLine
 10
24.45612521
 20
2.48928197
 30
0.0
 11
24.48651177
 21
2.51966853
 31
0.0
  0
LINE
  5
1017
330
C06
100
AcDbEntity
  8
0
100
AcDbLine
 10
24.04645312
 20
2.48928197
 30
0.0
 11
24.65120892
 21
3.09403777
 31
0.0
  0
LINE
  5
1018
330
C06
100
AcDbEntity
  8
0
100
AcDbLine
 10
21.10129263
 20
2.82149828
 30
0.0
 11
22.66156594
 21
4.3817716
 31
0.0
  0
LINE
  5
1019
330
C06
100
AcDbEntity
  8
0
100
AcDbLine
 10
22.88655606
 20
2.5584012
 30
0.0
 11
23.38909736
 21
3.06094252
 31
0.0
  0
LINE
  5
101A
330
C06
100
AcDbEntity
  8
0
100
AcDbLine
 10
22.34691551
 20
3.95469581
 30
0.0
 11
22.04471372
 21
2.90075538
 31
0.0
  0
LINE
  5
101B
330
C06
100
AcDbEntity
  8
0
100
AcDbLine
 10
21.58842052
 20
2.48928197
 30
0.0
 11
22.06273144
 21
2.96359288
 31
0.0
  0
LINE
  5
101C
330
C06
100
AcDbEntity
  8
0
100
AcDbLine
 10
21.17874842
 20
2.48928197
 30
0.0
 11
22.22742118
 21
3.53795473
 31
0.0
  0
ARC
  5
101D
330
C06
100
AcDbEntity
  8
0
100
AcDbCircle
 10
22.1249182
 20
3.44805409
 30
0.0
 40
0.5531443181762698
100
AcDbArc
 50
261.66285421
 51
66.33819216
  0
LINE
  5
101E
330
C06
100
AcDbEntity
  8
0
100
AcDbLine
 10
21.99809261
 20
2.48928197
 30
0.0
 11
23.35116653
 21
3.84235589
 31
0.0
  0
LINE
  5
101F
330
C06
100
AcDbEntity
  8
0
100
AcDbLine
 10
22.40776472
 20
2.48928197
 30
0.0
 11
23.45028961
 21
3.53180686
 31
0.0
  0
LINE
  5
1020
330
C06
100
AcDbEntity
  8
0
100
AcDbLine
 10
23.65301104
 20
2.48928197
 30
0.0
 11
24.4777986
 21
2.48928197
 31
0.0
1001
HATCH_DISTANCE
1040
1.0
1001
HATCH_DISPLAY
1070
     0
1001
HATCH_TYPE
1070
     7
  0
LINE
  5
1021
330
C06
100
AcDbEntity
  8
0
100
AcDbLine
 10
23.65301104
 20
2.48928197
 30
0.0
 11
24.4777986
 21
2.48928197
 31
0.0
  0
LINE
  5
1022
330
C06
100
AcDbEntity
  8
0
100
AcDbLine
 10
23.65953596
 20
2.5120369
 30
0.0
 11
24.81590608
 21
3.66840703
 31
0.0
  0
LINE
  5
1023
330
C06
100
AcDbEntity
  8
0
100
AcDbLine
 10
23.65301104
 20
2.48928197
 30
0.0
 11
24.4777986
 21
2.48928197
 31
0.0
  0
LINE
  5
1024
330
C06
100
AcDbEntity
  8
0
100
AcDbLine
 10
23.90298128
 20
1.93613804
 30
0.0
 11
24.2717439
 21
2.30490066
 31
0.0
  0
LINE
  5
1025
330
C06
100
AcDbEntity
  8
0
100
AcDbLine
 10
25.13199759
 20
1.93613804
 30
0.0
 11
25.5007602
 21
2.30490066
 31
0.0
  0
LINE
  5
1026
330
C06
100
AcDbEntity
  8
0
100
AcDbLine
 10
24.72232548
 20
1.93613804
 30
0.0
 11
25.09108811
 21
2.30490066
 31
0.0
  0
LINE
  5
1027
330
C06
100
AcDbEntity
  8
0
100
AcDbLine
 10
24.31265339
 20
1.93613804
 30
0.0
 11
24.681416
 21
2.30490066
 31
0.0
  0
LINE
  5
1028
330
C06
100
AcDbEntity
  8
0
100
AcDbLine
 10
23.08363708
 20
1.93613804
 30
0.0
 11
23.4523997
 21
2.30490066
 31
0.0
  0
LINE
  5
1029
330
C06
100
AcDbEntity
  8
0
100
AcDbLine
 10
22.67396499
 20
1.93613804
 30
0.0
 11
23.04272761
 21
2.30490066
 31
0.0
  0
LINE
  5
102A
330
C06
100
AcDbEntity
  8
0
100
AcDbLine
 10
22.26429289
 20
1.93613804
 30
0.0
 11
22.6330555
 21
2.30490066
 31
0.0
  0
LINE
  5
102B
330
C06
100
AcDbEntity
  8
0
100
AcDbLine
 10
21.85462079
 20
1.93613804
 30
0.0
 11
22.22338341
 21
2.30490066
 31
0.0
  0
LINE
  5
102C
330
C06
100
AcDbEntity
  8
0
100
AcDbLine
 10
21.44494869
 20
1.93613804
 30
0.0
 11
21.8137113
 21
2.30490066
 31
0.0
  0
LINE
  5
102D
330
C06
100
AcDbEntity
  8
0
100
AcDbLine
 10
23.49330919
 20
1.93613804
 30
0.0
 11
23.86207181
 21
2.30490066
 31
0.0
  0
ARC
  5
102E
330
C06
100
AcDbEntity
  8
0
100
AcDbCircle
 10
22.53632353
 20
3.41117504
 30
0.0
 40
0.9218926406250002
100
AcDbArc
 50
270.0
 51
40.32984065
  0
LINE
  5
102F
330
C06
100
AcDbEntity
  8
0
100
AcDbLine
 10
29.83486053
 20
4.18096839
 30
0.0
 11
30.13581178
 21
4.48191964
 31
0.0
  0
LINE
  5
1030
330
C06
100
AcDbEntity
  8
0
100
AcDbLine
 10
26.72690536
 20
3.17539417
 30
0.0
 11
26.96370252
 21
4.00119802
 31
0.0
  0
LINE
  5
1031
330
C06
100
AcDbEntity
  8
0
100
AcDbLine
 10
26.76254535
 20
4.36996066
 30
0.0
 11
27.83668761
 21
4.36996066
 31
0.0
  0
LINE
  5
1032
330
C06
100
AcDbEntity
  8
0
100
AcDbLine
 10
26.68405783
 20
3.07852618
 30
0.0
 11
27.78088455
 21
4.17535291
 31
0.0
  0
LINE
  5
1033
330
C06
100
AcDbEntity
  8
0
100
AcDbLine
 10
26.86988727
 20
3.67402772
 30
0.0
 11
27.56582021
 21
4.36996066
 31
0.0
  0
LINE
  5
1034
330
C06
100
AcDbEntity
  8
0
100
AcDbLine
 10
26.78738548
 20
4.00119802
 30
0.0
 11
27.1561481
 21
4.36996066
 31
0.0
  0
LINE
  5
1035
330
C06
100
AcDbEntity
  8
0
100
AcDbLine
 10
27.08109178
 20
2.70558614
 30
0.0
 11
27.29740986
 21
2.48928197
 31
0.0
  0
LINE
  5
1036
330
C06
100
AcDbEntity
  8
0
100
AcDbLine
 10
27.29740986
 20
2.48928197
 30
0.0
 11
27.83668761
 21
4.36996066
 31
0.0
  0
LINE
  5
1037
330
C06
100
AcDbEntity
  8
0
100
AcDbLine
 10
27.10577768
 20
2.68090183
 30
0.0
 11
27.45148707
 21
3.02661122
 31
0.0
  0
LINE
  5
1038
330
C06
100
AcDbEntity
  8
0
100
AcDbLine
 10
26.77068599
 20
1.93613804
 30
0.0
 11
27.1394486
 21
2.30490066
 31
0.0
  0
LINE
  5
1039
330
C06
100
AcDbEntity
  8
0
100
AcDbLine
 10
27.99970229
 20
1.93613804
 30
0.0
 11
28.37010831
 21
2.30654406
 31
0.0
  0
LINE
  5
103A
330
C06
100
AcDbEntity
  8
0
100
AcDbLine
 10
27.59003018
 20
1.93613804
 30
0.0
 11
27.9587928
 21
2.30490066
 31
0.0
  0
LINE
  5
103B
330
C06
100
AcDbEntity
  8
0
100
AcDbLine
 10
27.18035809
 20
1.93613804
 30
0.0
 11
27.54912071
 21
2.30490066
 31
0.0
  0
LINE
  5
103C
330
C06
100
AcDbEntity
  8
0
100
AcDbLine
 10
28.41275735
 20
1.93952099
 30
0.0
 11
28.89695474
 21
2.4237184
 31
0.0
  0
LINE
  5
103D
330
C06
100
AcDbEntity
  8
0
100
AcDbLine
 10
28.92236719
 20
2.03945874
 30
0.0
 11
30.13103442
 21
3.24812596
 31
0.0
  0
LINE
  5
103E
330
C06
100
AcDbEntity
  8
0
100
AcDbLine
 10
25.8275832
 20
2.63172367
 30
0.0
 11
26.14957773
 21
2.95371818
 31
0.0
  0
LINE
  5
103F
330
C06
100
AcDbEntity
  8
0
100
AcDbLine
 10
26.12536375
 20
2.5198321
 30
0.0
 11
26.55829711
 21
2.95276545
 31
0.0
  0
LINE
  5
1040
330
C06
100
AcDbEntity
  8
0
100
AcDbLine
 10
25.95134179
 20
1.93613804
 30
0.0
 11
26.3201044
 21
2.30490066
 31
0.0
  0
LINE
  5
1041
330
C06
100
AcDbEntity
  8
0
100
AcDbLine
 10
26.65680871
 20
4.00119802
 30
0.0
 11
26.96370252
 21
4.00119802
 31
0.0
  0
LINE
  5
1042
330
C06
100
AcDbEntity
  8
0
100
AcDbLine
 10
26.51007785
 20
2.49487411
 30
0.0
 11
27.61618581
 21
3.60098207
 31
0.0
  0
LINE
  5
1043
330
C06
100
AcDbEntity
  8
0
100
AcDbLine
 10
26.65680871
 20
4.00119802
 30
0.0
 11
26.76254535
 21
4.36996066
 31
0.0
  0
ARC
  5
1044
330
C06
100
AcDbEntity
  8
0
100
AcDbCircle
 10
26.35470402
 20
3.28211926
 30
0.0
 40
0.3872002994384767
100
AcDbArc
 50
164.00027306
 51
344.00027306
  0
LINE
  5
1045
330
C06
100
AcDbEntity
  8
0
100
AcDbLine
 10
26.36101389
 20
1.93613804
 30
0.0
 11
26.72977651
 21
2.30490066
 31
0.0
  0
LINE
  5
1046
330
C06
100
AcDbEntity
  8
0
100
AcDbLine
 10
25.39084282
 20
4.65301587
 30
0.0
 11
26.54006607
 21
5.80223912
 31
0.0
  0
ARC
  5
1047
330
C06
100
AcDbEntity
  8
0
100
AcDbCircle
 10
26.65864639
 20
4.60965358
 30
0.0
 40
1.198466349609373
100
AcDbArc
 50
53.4440122
 51
164.00018439
  0
LINE
  5
1048
330
C06
100
AcDbEntity
  8
0
100
AcDbLine
 10
24.35408882
 20
5.40249043
 30
0.0
 11
24.4883653
 21
5.40249043
 31
0.0
  0
LINE
  5
1049
330
C06
100
AcDbEntity
  8
0
100
AcDbLine
 10
24.35408882
 20
5.40249043
 30
0.0
 11
24.47040609
 21
5.80811819
 31
0.0
  0
LINE
  5
104A
330
C06
100
AcDbEntity
  8
0
100
AcDbLine
 10
24.47040609
 20
5.80811819
 30
0.0
 11
25.42945621
 21
5.80811819
 31
0.0
  0
LINE
  5
104B
330
C06
100
AcDbEntity
  8
0
100
AcDbLine
 10
24.47040609
 20
5.80811819
 30
0.0
 11
24.35408882
 21
5.40249043
 31
0.0
1001
HATCH_DISTANCE
1040
1.0
1001
HATCH_DISPLAY
1070
     0
1001
HATCH_TYPE
1070
     7
  0
LINE
  5
104C
330
C06
100
AcDbEntity
  8
0
100
AcDbLine
 10
24.35408882
 20
5.40249043
 30
0.0
 11
24.4883653
 21
5.40249043
 31
0.0
1001
HATCH_DISTANCE
1040
1.0
1001
HATCH_DISPLAY
1070
     0
1001
HATCH_TYPE
1070
     7
  0
LINE
  5
104D
330
C06
100
AcDbEntity
  8
0
100
AcDbLine
 10
25.42945621
 20
5.80811819
 30
0.0
 11
24.47040609
 21
5.80811819
 31
0.0
1001
HATCH_DISTANCE
1040
1.0
1001
HATCH_DISPLAY
1070
     0
1001
HATCH_TYPE
1070
     7
  0
LINE
  5
104E
330
C06
100
AcDbEntity
  8
0
100
AcDbLine
 10
24.47040609
 20
5.80811819
 30
0.0
 11
24.35408882
 21
5.40249043
 31
0.0
  0
LINE
  5
104F
330
C06
100
AcDbEntity
  8
0
100
AcDbLine
 10
24.35408882
 20
5.40249043
 30
0.0
 11
24.4883653
 21
5.40249043
 31
0.0
  0
LINE
  5
1050
330
C06
100
AcDbEntity
  8
0
100
AcDbLine
 10
25.42945621
 20
5.80811819
 30
0.0
 11
24.47040609
 21
5.80811819
 31
0.0
  0
LINE
  5
1051
330
C06
100
AcDbEntity
  8
0
100
AcDbLine
 10
24.31833354
 20
4.8095229
 30
0.0
 11
25.31692884
 21
5.80811819
 31
0.0
  0
LINE
  5
1052
330
C06
100
AcDbEntity
  8
0
100
AcDbLine
 10
24.48303294
 20
5.38389439
 30
0.0
 11
24.90725673
 21
5.80811819
 31
0.0
  0
LINE
  5
1053
330
C06
100
AcDbEntity
  8
0
100
AcDbLine
 10
24.45947896
 20
5.7700125
 30
0.0
 11
24.49758464
 21
5.80811819
 31
0.0
  0
LINE
  5
1054
330
C06
100
AcDbEntity
  8
0
100
AcDbLine
 10
21.26111731
 20
5.43935557
 30
0.0
 11
21.55163628
 21
5.72987453
 31
0.0
  0
LINE
  5
1055
330
C06
100
AcDbEntity
  8
0
100
AcDbLine
 10
22.848102
 20
5.38765185
 30
0.0
 11
23.22841708
 21
5.76796693
 31
0.0
  0
LINE
  5
1056
330
C06
100
AcDbEntity
  8
0
100
AcDbLine
 10
21.57407137
 20
5.80811819
 30
0.0
 11
21.46833472
 21
5.43935557
 31
0.0
  0
LINE
  5
1057
330
C06
100
AcDbEntity
  8
0
100
AcDbLine
 10
21.6601364
 20
5.43935557
 30
0.0
 11
21.85195199
 21
5.43935557
 31
0.0
  0
LINE
  5
1058
330
C06
100
AcDbEntity
  8
0
100
AcDbLine
 10
21.76587304
 20
5.80811819
 30
0.0
 11
21.6601364
 21
5.43935557
 31
0.0
  0
LINE
  5
1059
330
C06
100
AcDbEntity
  8
0
100
AcDbLine
 10
21.76008557
 20
5.11897961
 30
0.0
 11
22.44922413
 21
5.80811819
 31
0.0
  0
LINE
  5
105A
330
C06
100
AcDbEntity
  8
0
100
AcDbLine
 10
21.67078941
 20
5.43935557
 30
0.0
 11
22.03955203
 21
5.80811819
 31
0.0
  0
LINE
  5
105B
330
C06
100
AcDbEntity
  8
0
100
AcDbLine
 10
21.76587304
 20
5.80811819
 30
0.0
 11
22.95548416
 21
5.80811819
 31
0.0
  0
LINE
  5
105C
330
C06
100
AcDbEntity
  8
0
100
AcDbLine
 10
23.04193285
 20
5.1718106
 30
0.0
 11
23.5017526
 21
5.63163035
 31
0.0
  0
LINE
  5
105D
330
C06
100
AcDbEntity
  8
0
100
AcDbLine
 10
23.08919775
 20
4.8094034
 30
0.0
 11
23.7062864
 21
5.42649206
 31
0.0
  0
LINE
  5
105E
330
C06
100
AcDbEntity
  8
0
100
AcDbLine
 10
29.59175012
 20
4.75720217
 30
0.0
 11
29.85616335
 21
5.02161541
 31
0.0
  0
LINE
  5
105F
330
C06
100
AcDbEntity
  8
0
100
AcDbLine
 10
27.88050764
 20
5.50399229
 30
0.0
 11
28.18107748
 21
5.80456213
 31
0.0
  0
LINE
  5
1060
330
C06
100
AcDbEntity
  8
0
100
AcDbLine
 10
27.91583348
 20
5.3919655
 30
0.0
 11
27.80477869
 21
5.74414717
 31
0.0
  0
ARC
  5
1061
330
C06
100
AcDbEntity
  8
0
100
AcDbCircle
 10
28.29836484
 20
3.87212833
 30
0.0
 40
1.935990729492184
100
AcDbArc
 50
110.22964506
 51
118.57168892
  0
ARC
  5
1062
330
C06
100
AcDbEntity
  8
0
100
AcDbCircle
 10
28.29836484
 20
3.87212833
 30
0.0
 40
1.567231584960933
100
AcDbArc
 50
110.8721834
 51
132.54194894
  0
LINE
  5
1063
330
C06
100
AcDbEntity
  8
0
100
AcDbLine
 10
27.73998627
 20
5.33651467
 30
0.0
 11
27.62893148
 21
5.68869634
 31
0.0
  0
LINE
  5
1064
330
C06
100
AcDbEntity
  8
0
100
AcDbLine
 10
27.69512993
 20
5.31861458
 30
0.0
 11
27.73352387
 21
5.35700852
 31
0.0
  0
LINE
  5
1065
330
C06
100
AcDbEntity
  8
0
100
AcDbLine
 10
27.18281684
 20
5.2159736
 30
0.0
 11
27.63531041
 21
5.66846717
 31
0.0
  0
LINE
  5
1066
330
C06
100
AcDbEntity
  8
0
100
AcDbLine
 10
26.94758868
 20
5.39041753
 30
0.0
 11
27.22371562
 21
5.66654447
 31
0.0
  0
LINE
  5
1067
330
C06
100
AcDbEntity
  8
0
100
AcDbLine
 10
27.91583348
 20
5.3919655
 30
0.0
 11
27.80477869
 21
5.74414717
 31
0.0
1001
HATCH_DISTANCE
1040
1.0
1001
HATCH_DISPLAY
1070
     0
1001
HATCH_TYPE
1070
     7
  0
LINE
  5
1068
330
C06
100
AcDbEntity
  8
0
100
AcDbLine
 10
27.80477869
 20
5.74414717
 30
0.0
 11
27.80477869
 21
5.74414717
 31
0.0
1001
HATCH_DISTANCE
1040
1.0
1001
HATCH_DISPLAY
1070
     0
1001
HATCH_TYPE
1070
     7
  0
LINE
  5
1069
330
C06
100
AcDbEntity
  8
0
100
AcDbLine
 10
27.80477869
 20
5.74414717
 30
0.0
 11
27.91583348
 21
5.3919655
 31
0.0
1001
HATCH_DISTANCE
1040
1.0
1001
HATCH_DISPLAY
1070
     0
1001
HATCH_TYPE
1070
     7
  0
LINE
  5
106A
330
C06
100
AcDbEntity
  8
0
100
AcDbLine
 10
27.91583348
 20
5.3919655
 30
0.0
 11
27.91583348
 21
5.3919655
 31
0.0
1001
HATCH_DISTANCE
1040
1.0
1001
HATCH_DISPLAY
1070
     0
1001
HATCH_TYPE
1070
     7
  0
LINE
  5
106B
330
C06
100
AcDbEntity
  8
0
100
AcDbLine
 10
27.91583348
 20
5.3919655
 30
0.0
 11
27.80477869
 21
5.74414717
 31
0.0
  0
LINE
  5
106C
330
C06
100
AcDbEntity
  8
0
100
AcDbLine
 10
27.80477869
 20
5.74414717
 30
0.0
 11
27.80477869
 21
5.74414717
 31
0.0
  0
LINE
  5
106D
330
C06
100
AcDbEntity
  8
0
100
AcDbLine
 10
27.80477869
 20
5.74414717
 30
0.0
 11
27.91583348
 21
5.3919655
 31
0.0
  0
LINE
  5
106E
330
C06
100
AcDbEntity
  8
0
100
AcDbLine
 10
27.91583348
 20
5.3919655
 30
0.0
 11
27.91583348
 21
5.3919655
 31
0.0
  0
LINE
  5
106F
330
C06
100
AcDbEntity
  8
0
100
AcDbLine
 10
27.91583348
 20
5.3919655
 30
0.0
 11
27.80477869
 21
5.74414717
 31
0.0
1001
HATCH_DISTANCE
1040
1.0
1001
HATCH_DISPLAY
1070
     0
1001
HATCH_TYPE
1070
     7
  0
LINE
  5
1070
330
C06
100
AcDbEntity
  8
0
100
AcDbLine
 10
27.80477869
 20
5.74414717
 30
0.0
 11
27.80477869
 21
5.74414717
 31
0.0
1001
HATCH_DISTANCE
1040
1.0
1001
HATCH_DISPLAY
1070
     0
1001
HATCH_TYPE
1070
     7
  0
LINE
  5
1071
330
C06
100
AcDbEntity
  8
0
100
AcDbLine
 10
27.80477869
 20
5.74414717
 30
0.0
 11
27.91583348
 21
5.3919655
 31
0.0
1001
HATCH_DISTANCE
1040
1.0
1001
HATCH_DISPLAY
1070
     0
1001
HATCH_TYPE
1070
     7
  0
LINE
  5
1072
330
C06
100
AcDbEntity
  8
0
100
AcDbLine
 10
27.91583348
 20
5.3919655
 30
0.0
 11
27.91583348
 21
5.3919655
 31
0.0
1001
HATCH_DISTANCE
1040
1.0
1001
HATCH_DISPLAY
1070
     0
1001
HATCH_TYPE
1070
     7
  0
LINE
  5
1073
330
C06
100
AcDbEntity
  8
0
100
AcDbLine
 10
27.91583348
 20
5.3919655
 30
0.0
 11
27.80477869
 21
5.74414717
 31
0.0
  0
LINE
  5
1074
330
C06
100
AcDbEntity
  8
0
100
AcDbLine
 10
27.80477869
 20
5.74414717
 30
0.0
 11
27.80477869
 21
5.74414717
 31
0.0
  0
LINE
  5
1075
330
C06
100
AcDbEntity
  8
0
100
AcDbLine
 10
27.80477869
 20
5.74414717
 30
0.0
 11
27.91583348
 21
5.3919655
 31
0.0
  0
LINE
  5
1076
330
C06
100
AcDbEntity
  8
0
100
AcDbLine
 10
27.91583348
 20
5.3919655
 30
0.0
 11
27.91583348
 21
5.3919655
 31
0.0
  0
LINE
  5
1077
330
C06
100
AcDbEntity
  8
0
100
AcDbLine
 10
28.91743529
 20
5.31190365
 30
0.0
 11
29.19401365
 21
5.58848201
 31
0.0
  0
LINE
  5
1078
330
C06
100
AcDbEntity
  8
0
100
AcDbLine
 10
28.60493757
 20
5.40907802
 30
0.0
 11
28.90611196
 21
5.71025241
 31
0.0
  0
LINE
  5
1079
330
C06
100
AcDbEntity
  8
0
100
AcDbLine
 10
28.22376661
 20
5.43757915
 30
0.0
 11
28.57451006
 21
5.78832262
 31
0.0
  0
LINE
  5
107A
330
C06
100
AcDbEntity
  8
0
100
AcDbLine
 10
29.18182211
 20
5.16661836
 30
0.0
 11
29.44628533
 21
5.43108158
 31
0.0
  0
LINE
  5
107B
330
C06
100
AcDbEntity
  8
0
100
AcDbLine
 10
29.4058813
 20
4.98100545
 30
0.0
 11
29.6666359
 21
5.24176004
 31
0.0
  0
ARC
  5
107C
330
C06
100
AcDbEntity
  8
0
100
AcDbCircle
 10
26.85168712
 20
5.01528132
 30
0.0
 40
0.3872005713500977
100
AcDbArc
 50
1.71012138
 51
163.99839835
  0
LINE
  5
107D
330
C06
100
AcDbEntity
  8
241
100
AcDbLine
 10
84.2
 20
-8.0
 30
0.0
 11
84.2
 21
0.0
 31
0.0
  0
LINE
  5
107E
330
C06
100
AcDbEntity
  8
241
100
AcDbLine
 10
81.0
 20
-6.2
 30
0.0
 11
81.0
 21
0.0
 31
0.0
  0
LINE
  5
107F
330
C06
100
AcDbEntity
  8
241
100
AcDbLine
 10
80.0
 20
-6.2
 30
0.0
 11
80.0
 21
0.0
 31
0.0
  0
LINE
  5
1080
330
C06
100
AcDbEntity
  8
240
100
AcDbLine
 10
100.0
 20
-7.0
 30
0.0
 11
100.0
 21
0.0
 31
0.0
  0
LINE
  5
1081
330
C06
100
AcDbEntity
  8
241
100
AcDbLine
 10
83.0
 20
-8.15
 30
0.0
 11
83.0
 21
0.0
 31
0.0
  0
LINE
  5
1082
330
C06
100
AcDbEntity
  8
240
100
AcDbLine
 10
83.15
 20
-8.0
 30
0.0
 11
99.0
 21
-8.0
 31
0.0
  0
LINE
  5
1083
330
C06
100
AcDbEntity
  8
240
100
AcDbLine
 10
81.0
 20
-6.2
 30
0.0
 11
81.0
 21
-8.15
 31
0.0
  0
LINE
  5
1084
330
C06
100
AcDbEntity
  8
240
100
AcDbLine
 10
80.0
 20
-6.2
 30
0.0
 11
80.0
 21
-8.0
 31
0.0
  0
LINE
  5
1085
330
C06
100
AcDbEntity
  8
240
100
AcDbLine
 10
83.15
 20
-8.0
 30
0.0
 11
83.0
 21
-8.15
 31
0.0
  0
LINE
  5
1086
330
C06
100
AcDbEntity
  8
240
100
AcDbLine
 10
81.0
 20
-8.15
 30
0.0
 11
83.0
 21
-8.15
 31
0.0
  0
LINE
  5
1087
330
C06
100
AcDbEntity
  8
240
100
AcDbLine
 10
81.0
 20
-6.2
 30
0.0
 11
80.0
 21
-6.2
 31
0.0
  0
ARC
  5
1088
330
C06
100
AcDbEntity
  8
240
100
AcDbCircle
 10
99.0
 20
-7.0
 30
0.0
 40
1.0
100
AcDbArc
 50
270.0
 51
0.0
1001
GENIUS_GENODEF_13
1002
{
1000
HIER
1070
     0
1002
}
1002
{
1000
MANEDIT
1070
     0
1002
}
1002
{
1000
NOSEL
1070
     0
1002
}
1002
{
1000
BEHIND
1070
     0
1002
}
1002
{
1000
OTHER
1070
     0
1002
}
1002
{
1000
REACTOR
1002
}
1001
GENIUS_GENOBJ-N-FIL_13
1002
{
1000
OWNER
1000
GEN
1002
}
  0
LINE
  5
1089
330
C06
100
AcDbEntity
  8
240
100
AcDbLine
 10
83.15
 20
8.0
 30
0.0
 11
99.0
 21
8.0
 31
0.0
  0
LINE
  5
108A
330
C06
100
AcDbEntity
  8
241
  6
HIDDEN2
100
AcDbLine
 10
90.0
 20
1.5
 30
0.0
 11
100.0
 21
1.5
 31
0.0
  0
LINE
  5
108B
330
C06
100
AcDbEntity
  8
242
  6
HIDDEN2
100
AcDbLine
 10
80.0
 20
0.0
 30
0.0
 11
86.0
 21
1.83847763
 31
0.0
  0
LINE
  5
108C
330
C06
100
AcDbEntity
  8
242
  6
HIDDEN2
100
AcDbLine
 10
80.0
 20
1.83847763
 30
0.0
 11
86.0
 21
0.0
 31
0.0
  0
LINE
  5
108D
330
C06
100
AcDbEntity
  8
241
  6
HIDDEN2
100
AcDbLine
 10
80.0
 20
1.83847763
 30
0.0
 11
86.0
 21
1.83847763
 31
0.0
  0
LINE
  5
108E
330
C06
100
AcDbEntity
  8
241
100
AcDbLine
 10
80.0
 20
6.2
 30
0.0
 11
80.0
 21
0.0
 31
0.0
  0
LINE
  5
108F
330
C06
100
AcDbEntity
  8
241
100
AcDbLine
 10
81.0
 20
6.2
 30
0.0
 11
81.0
 21
0.0
 31
0.0
  0
LINE
  5
1090
330
C06
100
AcDbEntity
  8
241
100
AcDbLine
 10
83.0
 20
8.15
 30
0.0
 11
83.0
 21
0.0
 31
0.0
  0
LINE
  5
1091
330
C06
100
AcDbEntity
  8
241
100
AcDbLine
 10
84.2
 20
8.0
 30
0.0
 11
84.2
 21
0.0
 31
0.0
  0
LINE
  5
1092
330
C06
100
AcDbEntity
  8
241
  6
HIDDEN2
100
AcDbLine
 10
80.0
 20
1.83847763
 30
0.0
 11
80.0
 21
0.0
 31
0.0
  0
LINE
  5
1093
330
C06
100
AcDbEntity
  8
240
100
AcDbLine
 10
81.0
 20
6.2
 30
0.0
 11
80.0
 21
6.2
 31
0.0
  0
LINE
  5
1094
330
C06
100
AcDbEntity
  8
240
100
AcDbLine
 10
80.0
 20
6.2
 30
0.0
 11
80.0
 21
8.0
 31
0.0
  0
LINE
  5
1095
330
C06
100
AcDbEntity
  8
240
100
AcDbLine
 10
81.0
 20
8.15
 30
0.0
 11
83.0
 21
8.15
 31
0.0
  0
LINE
  5
1096
330
C06
100
AcDbEntity
  8
240
100
AcDbLine
 10
81.0
 20
6.2
 30
0.0
 11
81.0
 21
8.15
 31
0.0
  0
LINE
  5
1097
330
C06
100
AcDbEntity
  8
240
100
AcDbLine
 10
83.15
 20
8.0
 30
0.0
 11
83.0
 21
8.15
 31
0.0
  0
LINE
  5
1098
330
C06
100
AcDbEntity
  8
241
  6
HIDDEN2
100
AcDbLine
 10
86.0
 20
1.8
 30
0.0
 11
90.0
 21
1.8
 31
0.0
1001
GRPNAME
1000
0000002S
  0
LINE
  5
1099
330
C06
100
AcDbEntity
  8
241
  6
HIDDEN2
100
AcDbLine
 10
86.0
 20
1.83847763
 30
0.0
 11
86.0
 21
0.0
 31
0.0
  0
LINE
  5
109A
330
C06
100
AcDbEntity
  8
241
  6
HIDDEN2
100
AcDbLine
 10
90.0
 20
1.8
 30
0.0
 11
90.0
 21
0.0
 31
0.0
  0
LINE
  5
109B
330
C06
100
AcDbEntity
  8
240
100
AcDbLine
 10
100.0
 20
7.0
 30
0.0
 11
100.0
 21
0.0
 31
0.0
  0
ARC
  5
109C
330
C06
100
AcDbEntity
  8
240
100
AcDbCircle
 10
99.0
 20
7.0
 30
0.0
 40
1.0
100
AcDbArc
 50
359.9999824
 51
90.0
1001
GENIUS_GENODEF_13
1002
{
1000
HIER
1070
     0
1002
}
1002
{
1000
MANEDIT
1070
     0
1002
}
1002
{
1000
NOSEL
1070
     0
1002
}
1002
{
1000
BEHIND
1070
     0
1002
}
1002
{
1000
OTHER
1070
     0
1002
}
1002
{
1000
REACTOR
1002
}
1001
GENIUS_GENOBJ-N-FIL_13
1002
{
1000
OWNER
1000
GEN
1002
}
  0
ENDBLK
  5
C08
330
C06
100
AcDbEntity
  8
0
100
AcDbBlockEnd
  0
ENDSEC
  0
SECTION
  2
ENTITIES
  0
INSERT
  5
6E6
330
1A
100
AcDbEntity
  8
245
100
AcDbBlockReference
  2
矢印なし
 10
175.62382697
 20
90.55123572
 30
0.0
  0
DIMENSION
  5
BB8
330
1A
100
AcDbEntity
  8
250
  6
CONTINUOUS
100
AcDbDimension
  2
*D2
 10
100.0
 20
21.0
 30
0.0
 11
49.8160488
 21
21.0
 31
0.0
 70
   160
  3
BIGT
100
AcDbAlignedDimension
 13
0.0
 23
10.64125603
 33
0.0
 14
100.0
 24
7.0
 34
0.0
100
AcDbRotatedDimension
  0
TEXT
  5
BB9
330
1A
100
AcDbEntity
  8
241
100
AcDbText
 10
-47.5
 20
35.0
 30
0.0
 40
5.0
  1
MGT6-M2-100
  7
YOKO
 11
-47.5
 21
35.0
 31
0.0
100
AcDbText
 73
     1
  0
MTEXT
  5
BBA
330
1A
100
AcDbEntity
  8
251
  6
CONTINUOUS
100
AcDbMText
 10
86.55
 20
14.99914563
 30
0.0
 40
2.8
 41
0.0
 71
     7
 72
     1
  1
□2.5
  7
YOKO
1001
ITEMNAME
1000
LNSP3
1001
ACAD
1000
MTEXTBEGIN
1070
    73
1070
     1
1070
    44
1040
1.0
1070
    74
1070
     0
1000
MTEXTEND
1000
MTEXTBEGIN
1070
    73
1070
     1
1070
    44
1040
1.0
1070
    74
1070
     0
1000
MTEXTEND
1000
MTEXTBEGIN
1070
    73
1070
     1
1070
    44
1040
1.0
1070
    74
1070
     0
1000
MTEXTEND
1000
MTEXTBEGIN
1070
    73
1070
     1
1070
    44
1040
1.0
1070
    74
1070
     0
1000
MTEXTEND
1000
MTEXTBEGIN
1070
    73
1070
     1
1070
    44
1040
1.0
1070
    74
1070
     0
1000
MTEXTEND
1000
MTEXTBEGIN
1070
    73
1070
     1
1070
    44
1040
1.0
1070
    74
1070
     0
1000
MTEXTEND
  0
LINE
  5
BBB
330
1A
100
AcDbEntity
  8
250
  6
CONTINUOUS
100
AcDbLine
 10
83.75
 20
13.99914563
 30
0.0
 11
98.60333333
 21
13.99914563
 31
0.0
1001
ITEMNAME
1000
LNSP2
  0
LEADER
  5
BBC
330
1A
100
AcDbEntity
  8
250
  6
CONTINUOUS
100
AcDbLeader
  3
BIGT
 76
     2
 10
81.85276585
 20
1.83847763
 30
0.0
 10
83.75
 20
13.99914563
 30
0.0
1001
ACAD
1000
DSTYLE
1002
{
1070
     6
1000
OPEN
1070
   343
1005
594
1002
}
  0
DIMENSION
  5
BC5
330
1A
100
AcDbEntity
  8
250
  6
CONTINUOUS
100
AcDbDimension
  2
*D3
 10
118.75
 20
8.0
 30
0.0
 11
118.75
 21
0.0
 31
0.0
 70
   160
  1
{\H2.8;\U+2205}<>
  3
BIGT
100
AcDbAlignedDimension
 13
99.0
 23
-8.0
 33
0.0
 14
99.0
 24
8.0
 34
0.0
 50
90.0
100
AcDbRotatedDimension
  0
LINE
  5
BC6
330
1A
100
AcDbEntity
  8
250
  6
CONTINUOUS
100
AcDbLine
 10
100.5
 20
1.5
 30
0.0
 11
112.75
 21
1.5
 31
0.0
  0
LINE
  5
BC7
330
1A
100
AcDbEntity
  8
250
  6
CONTINUOUS
100
AcDbLine
 10
111.75
 20
1.5
 30
0.0
 11
111.75
 21
-4.68283229
 31
0.0
  0
MTEXT
  5
BC8
330
1A
100
AcDbEntity
  8
250
  6
CONTINUOUS
 62
    40
100
AcDbMText
 10
109.35
 20
-1.72211461
 30
0.0
 40
2.8
 41
0.0
 71
     5
 72
     1
  1
\A1;{\H2.8;\U+2205}3
 11
0.0
 21
1.0
 31
0.0
1001
ACAD
1000
MTEXTBEGIN
1070
    73
1070
     1
1070
    44
1040
1.0
1070
    74
1070
     0
1000
MTEXTEND
1000
MTEXTBEGIN
1070
    73
1070
     1
1070
    44
1040
1.0
1070
    74
1070
     0
1000
MTEXTEND
1000
MTEXTBEGIN
1070
    73
1070
     1
1070
    44
1040
1.0
1070
    74
1070
     0
1000
MTEXTEND
1000
MTEXTBEGIN
1070
    73
1070
     1
1070
    44
1040
1.0
1070
    74
1070
     0
1000
MTEXTEND
1000
MTEXTBEGIN
1070
    73
1070
     1
1070
    44
1040
1.0
1070
    74
1070
     0
1000
MTEXTEND
1000
MTEXTBEGIN
1070
    73
1070
     1
1070
    44
1040
1.0
1070
    74
1070
     0
1000
MTEXTEND
  0
INSERT
  5
BC9
330
1A
100
AcDbEntity
  8
250
  6
CONTINUOUS
100
AcDbBlockReference
  2
_OPEN
 10
111.75
 20
1.5
 30
0.0
 41
2.23
 42
2.23
 43
2.23
 50
90.0
  0
INSERT
  5
109D
330
1A
100
AcDbEntity
  8
245
100
AcDbBlockReference
  2
1
 10
0.0
 20
0.0
 30
0.0
  0
VIEWPORT
  5
22
330
17
100
AcDbEntity
 67
     1
  8
0
100
AcDbViewport
 10
261.51769912
 20
148.5
 30
0.0
 40
523.03539823
 41
297.0
 68
     1
 69
     1
1001
ACAD
1000
MVIEW
1002
{
1070
    16
1010
0.0
1020
0.0
1030
0.0
1010
0.0
1020
0.0
1030
1.0
1040
0.0
1040
297.0
1040
261.51769912
1040
148.5
1040
50.0
1040
0.0
1040
0.0
1070
     0
1070
   100
1070
     1
1070
     1
1070
     0
1070
     0
1070
     0
1070
     0
1040
0.0
1040
0.0
1040
0.0
1040
1.0
1040
1.0
1040
10.0
1040
10.0
1070
     0
1002
{
1002
}
1002
}
  0
ENDSEC
  0
SECTION
  2
OBJECTS
  0
DICTIONARY
  5
C
330
0
100
AcDbDictionary
  3
ACAD_GROUP
350
D
  3
ACAD_LAYOUT
350
565
  3
ACAD_MLINESTYLE
350
E
  3
ACAD_PLOTSETTINGS
350
566
  3
ACAD_PLOTSTYLENAME
350
563
  3
ACDBHEADERROUNDTRIPXREC
350
10C4
  3
GRADE_DWG
350
540
  0
DICTIONARY
  5
D91
330
1A
100
AcDbDictionary
280
     1
  3
ACAD_LAYOUTSELFREF
360
10E6
  0
DICTIONARY
  5
D8F
330
17
100
AcDbDictionary
280
     1
  3
ACAD_LAYOUTSELFREF
360
10E5
  0
DICTIONARY
  5
D
102
{ACAD_REACTORS
330
C
102
}
330
C
100
AcDbDictionary
  3
*A1
350
6C7
  3
*A2
350
6C8
  3
*A3
350
6D4
  3
*A4
350
6D5
  3
DREC-1
350
5FC
  3
DREC-2
350
654
  3
DREC-3
350
673
  0
DICTIONARY
  5
565
102
{ACAD_REACTORS
330
C
102
}
330
C
100
AcDbDictionary
  0
DICTIONARY
  5
E
102
{ACAD_REACTORS
330
C
102
}
330
C
100
AcDbDictionary
  3
STANDARD
350
13
  0
DICTIONARY
  5
566
102
{ACAD_REACTORS
330
C
102
}
330
C
100
AcDbDictionary
  3
A3_0_5倍_
350
758
  3
A3_1倍_
350
757
  3
A3_1倍__2000_
350
707
  3
A3_2倍_
350
759
  3
A4_0_5倍_
350
755
  3
A4_1倍_
350
754
  3
A4_1倍__2000_
350
708
  3
A4_2倍_
350
756
  0
ACDBDICTIONARYWDFLT
  5
563
102
{ACAD_REACTORS
330
C
102
}
330
C
100
AcDbDictionary
281
     1
  3
Normal
350
564
100
AcDbDictionaryWithDefault
340
564
  0
DICTIONARY
  5
10C4
102
{ACAD_REACTORS
330
C
102
}
330
C
100
AcDbDictionary
  3
CEPSNTYPE
350
10CE
  3
DIMSTYLEDATA
350
10D2
  3
FINGERPRINTGUID
350
10CF
  3
HYPERLINKBASE
350
10C7
  3
INSUNITS
350
10CD
  3
LAYOUTDICT
350
10C9
  3
LWETCUNION
350
10CC
  3
PLOTSETDICT
350
10CA
  3
PLOTSTYLNAMDICT
350
10CB
  3
PSVPSCALE
350
10D1
  3
PUCSBASE
350
10D5
  3
PUCSORGBACK
350
10DB
  3
PUCSORGBOTTOM
350
10D7
  3
PUCSORGFRONT
350
10DA
  3
PUCSORGLEFT
350
10D8
  3
PUCSORGRIGHT
350
10D9
  3
PUCSORGTOP
350
10D6
  3
PUCSORTHOREF
350
10D3
  3
PUCSORTHOVIEW
350
10D4
  3
STYLESHEET
350
10C8
  3
TSTACKALIGN
350
10C5
  3
TSTACKSIZE
350
10C6
  3
UCSBASE
350
10DE
  3
UCSORGBACK
350
10E4
  3
UCSORGBOTTOM
350
10E0
  3
UCSORGFRONT
350
10E3
  3
UCSORGLEFT
350
10E1
  3
UCSORGRIGHT
350
10E2
  3
UCSORGTOP
350
10DF
  3
UCSORTHOREF
350
10DC
  3
UCSORTHOVIEW
350
10DD
  3
VERSIONGUID
350
10D0
  0
DICTIONARY
  5
540
102
{ACAD_REACTORS
330
C
102
}
330
C
100
AcDbDictionary
  3
VERSION
350
560
  0
XRECORD
  5
10E6
102
{ACAD_REACTORS
330
D91
102
}
330
D91
100
AcDbXrecord
340
1A
  0
XRECORD
  5
10E5
102
{ACAD_REACTORS
330
D8F
102
}
330
D8F
100
AcDbXrecord
340
17
  0
GROUP
  5
6C7
102
{ACAD_REACTORS
330
D
102
}
330
D
100
AcDbGroup
300

 70
     0
 71
     1
1001
GRPNAME
1000
DMA00
  0
GROUP
  5
6C8
102
{ACAD_REACTORS
330
D
102
}
330
D
100
AcDbGroup
300

 70
     0
 71
     1
1001
GRPNAME
1000
DMA00
  0
GROUP
  5
6D4
102
{ACAD_REACTORS
330
D
102
}
330
D
100
AcDbGroup
300

 70
     0
 71
     1
1001
GRPNAME
1000
DMA00
  0
GROUP
  5
6D5
102
{ACAD_REACTORS
330
D
102
}
330
D
100
AcDbGroup
300

 70
     0
 71
     1
1001
GRPNAME
1000
DMA00
  0
GROUP
  5
5FC
102
{ACAD_REACTORS
330
D
102
}
330
D
100
AcDbGroup
300

 70
     0
 71
     1
1001
GRPNAME
1000
DREC-
1001
GPARA
1000
xsiz
1000
44.182
1000
ysiz
1000
40.677
1000
angl
1000
0
1000
ctyp
1000
0
1000
csiz
1000
5
1000
lfnt
1000
cont
1000
hcnt
1000
hoff
1000
vcnt
1000
voff
1000
opnt
1000
4
1000
dxpt
1000
0
1000
dypt
1000
0
  0
GROUP
  5
654
102
{ACAD_REACTORS
330
D
102
}
330
D
100
AcDbGroup
300

 70
     0
 71
     1
1001
GRPNAME
1000
DREC-
1001
GPARA
1000
xsiz
1000
54.592
1000
ysiz
1000
53.036
1000
angl
1000
0
1000
ctyp
1000
0
1000
csiz
1000
5
1000
lfnt
1000
cont
1000
hcnt
1000
hoff
1000
vcnt
1000
voff
1000
opnt
1000
4
1000
dxpt
1000
0
1000
dypt
1000
0
  0
GROUP
  5
673
102
{ACAD_REACTORS
330
D
102
}
330
D
100
AcDbGroup
300

 70
     0
 71
     1
1001
GRPNAME
1000
DREC-
1001
GPARA
1000
xsiz
1000
30.363
1000
ysiz
1000
36.175
1000
angl
1000
0
1000
ctyp
1000
0
1000
csiz
1000
5
1000
lfnt
1000
cont
1000
hcnt
1000
hoff
1000
vcnt
1000
voff
1000
opnt
1000
4
1000
dxpt
1000
0
1000
dypt
1000
0
  0
MLINESTYLE
  5
13
102
{ACAD_REACTORS
330
E
102
}
330
E
100
AcDbMlineStyle
  2
STANDARD
 70
     0
  3

 62
     0
 51
90.0
 52
90.0
 71
     2
 49
0.5
 62
   256
  6
BYLAYER
 49
-0.5
 62
   256
  6
BYLAYER
  0
PLOTSETTINGS
  5
758
102
{ACAD_REACTORS
330
566
102
}
330
566
100
AcDbPlotSettings
  1
A3(0.5倍)
  2
\\AWTECPC05\HP DeskJet 1120C
  4
A3
  6

 40
5.95841646
 41
13.49375153
 42
6.04309082
 43
3.67242432
 44
296.92599487
 45
419.94665527
 46
89.96
 47
127.14
 48
0.0
 49
0.0
140
0.0
141
0.0
142
1.0
143
2.0
 70
  1716
 72
     1
 73
     1
 74
     2
  7
big.ctb
 75
    17
147
0.5
148
0.0
149
0.0
  0
PLOTSETTINGS
  5
757
102
{ACAD_REACTORS
330
566
102
}
330
566
100
AcDbPlotSettings
  1
A3(1倍)
  2
\\AWTECPC05\HP DeskJet 1120C
  4
A3
  6

 40
5.95841646
 41
13.49375153
 42
6.04309082
 43
3.67242432
 44
296.92599487
 45
419.94665527
 46
37.46
 47
52.89
 48
0.0
 49
0.0
140
0.0
141
0.0
142
1.0
143
1.0
 70
  1716
 72
     1
 73
     1
 74
     2
  7
big.ctb
 75
    16
147
1.0
148
0.0
149
0.0
  0
PLOTSETTINGS
  5
707
102
{ACAD_REACTORS
330
566
102
}
330
566
100
AcDbPlotSettings
  1
A3(1倍)(2000)
  2
SII LS-1300 (D-SCAN)
  4
User258
  6

 40
3.17499995
 41
3.17499995
 42
3.17498779
 43
3.17498779
 44
419.98898315
 45
296.98950195
 46
58.32
 47
40.32
 48
0.0
 49
0.0
140
0.0
141
0.0
142
1.0
143
1.0
 70
  1716
 72
     1
 73
     0
 74
     2
  7
big.ctb
 75
    16
147
1.0
148
0.0
149
0.0
  0
PLOTSETTINGS
  5
759
102
{ACAD_REACTORS
330
566
102
}
330
566
100
AcDbPlotSettings
  1
A3(2倍)
  2
\\AWTECPC05\HP DeskJet 1120C
  4
A3
  6

 40
5.95841646
 41
13.49375153
 42
6.04309082
 43
3.67242432
 44
296.92599487
 45
419.94665527
 46
-67.54
 47
-95.61
 48
0.0
 49
0.0
140
0.0
141
0.0
142
1.0
143
0.5
 70
  1716
 72
     1
 73
     1
 74
     2
  7
big.ctb
 75
    27
147
2.0
148
0.0
149
0.0
  0
PLOTSETTINGS
  5
755
102
{ACAD_REACTORS
330
566
102
}
330
566
100
AcDbPlotSettings
  1
A4(0.5倍)
  2
\\AWTECPC05\HP DeskJet 1120C
  4
A4
  6

 40
4.18041658
 41
13.49374962
 42
4.18040466
 43
3.92642212
 44
209.97332764
 45
296.92599487
 46
48.31
 47
65.5
 48
0.0
 49
0.0
140
0.0
141
0.0
142
1.0
143
2.0
 70
  1716
 72
     1
 73
     1
 74
     2
  7
big.ctb
 75
    17
147
0.5
148
0.0
149
0.0
  0
PLOTSETTINGS
  5
754
102
{ACAD_REACTORS
330
566
102
}
330
566
100
AcDbPlotSettings
  1
A4(1倍)
  2
\\AWTECPC05\HP DeskJet 1120C
  4
A4
  6

 40
4.18041658
 41
13.49374962
 42
4.18040466
 43
3.92642212
 44
209.97332764
 45
296.92599487
 46
-4.19
 47
-8.75
 48
0.0
 49
0.0
140
0.0
141
0.0
142
1.0
143
1.0
 70
  1716
 72
     1
 73
     1
 74
     2
  7
big.ctb
 75
    16
147
1.0
148
0.0
149
0.0
  0
PLOTSETTINGS
  5
708
102
{ACAD_REACTORS
330
566
102
}
330
566
100
AcDbPlotSettings
  1
A4(1倍)(2000)
  2
SII LS-1300 (D-SCAN)
  4
User259
  6

 40
3.17499995
 41
3.17499995
 42
3.17498779
 43
3.17500305
 44
296.98950195
 45
209.99449158
 46
-3.18
 47
-3.18
 48
0.0
 49
0.0
140
0.0
141
0.0
142
1.0
143
1.0
 70
  1716
 72
     1
 73
     0
 74
     2
  7
big.ctb
 75
    16
147
1.0
148
0.0
149
0.0
  0
PLOTSETTINGS
  5
756
102
{ACAD_REACTORS
330
566
102
}
330
566
100
AcDbPlotSettings
  1
A4(2倍)
  2
\\AWTECPC05\HP DeskJet 1120C
  4
A4
  6

 40
4.18041658
 41
13.49374962
 42
4.18040466
 43
3.92642212
 44
209.97332764
 45
296.92599487
 46
-109.19
 47
-157.25
 48
0.0
 49
0.0
140
0.0
141
0.0
142
1.0
143
0.5
 70
  1716
 72
     1
 73
     1
 74
     2
  7
big.ctb
 75
    27
147
2.0
148
0.0
149
0.0
  0
ACDBPLACEHOLDER
  5
564
102
{ACAD_REACTORS
330
563
102
}
330
563
100
AcDbPlaceHolder
280
     0
  0
XRECORD
  5
10CE
102
{ACAD_REACTORS
330
10C4
102
}
330
10C4
100
AcDbXrecord
 90
        0
  0
XRECORD
  5
10D2
102
{ACAD_REACTORS
330
10C4
102
}
330
10C4
100
AcDbXrecord
1000
DSTYLE
1002
{
1070
    79
 70
     2
1070
   179
 70
     3
1070
   341
340
594
1070
   343
340
594
1070
   344
340
594
1070
   371
 70
    -1
1070
   372
 70
    -1
1002
}
  0
XRECORD
  5
10CF
102
{ACAD_REACTORS
330
10C4
102
}
330
10C4
100
AcDbXrecord
  1
{51294030-9CB4-11D3-8E18-00A0C925D94D}
  0
XRECORD
  5
10C7
102
{ACAD_REACTORS
330
10C4
102
}
330
10C4
100
AcDbXrecord
  1

  0
XRECORD
  5
10CD
102
{ACAD_REACTORS
330
10C4
102
}
330
10C4
100
AcDbXrecord
 90
        0
  0
XRECORD
  5
10C9
102
{ACAD_REACTORS
330
10C4
102
}
330
10C4
100
AcDbXrecord
340
565
  0
XRECORD
  5
10CC
102
{ACAD_REACTORS
330
10C4
102
}
330
10C4
100
AcDbXrecord
 90
    10781
  0
XRECORD
  5
10CA
102
{ACAD_REACTORS
330
10C4
102
}
330
10C4
100
AcDbXrecord
340
566
  0
XRECORD
  5
10CB
102
{ACAD_REACTORS
330
10C4
102
}
330
10C4
100
AcDbXrecord
340
563
  0
XRECORD
  5
10D1
102
{ACAD_REACTORS
330
10C4
102
}
330
10C4
100
AcDbXrecord
 40
0.0
  0
XRECORD
  5
10D5
102
{ACAD_REACTORS
330
10C4
102
}
330
10C4
100
AcDbXrecord
340
0
  0
XRECORD
  5
10DB
102
{ACAD_REACTORS
330
10C4
102
}
330
10C4
100
AcDbXrecord
 10
0.0
 20
0.0
 30
0.0
  0
XRECORD
  5
10D7
102
{ACAD_REACTORS
330
10C4
102
}
330
10C4
100
AcDbXrecord
 10
0.0
 20
0.0
 30
0.0
  0
XRECORD
  5
10DA
102
{ACAD_REACTORS
330
10C4
102
}
330
10C4
100
AcDbXrecord
 10
0.0
 20
0.0
 30
0.0
  0
XRECORD
  5
10D8
102
{ACAD_REACTORS
330
10C4
102
}
330
10C4
100
AcDbXrecord
 10
0.0
 20
0.0
 30
0.0
  0
XRECORD
  5
10D9
102
{ACAD_REACTORS
330
10C4
102
}
330
10C4
100
AcDbXrecord
 10
0.0
 20
0.0
 30
0.0
  0
XRECORD
  5
10D6
102
{ACAD_REACTORS
330
10C4
102
}
330
10C4
100
AcDbXrecord
 10
0.0
 20
0.0
 30
0.0
  0
XRECORD
  5
10D3
102
{ACAD_REACTORS
330
10C4
102
}
330
10C4
100
AcDbXrecord
340
0
  0
XRECORD
  5
10D4
102
{ACAD_REACTORS
330
10C4
102
}
330
10C4
100
AcDbXrecord
 70
     0
  0
XRECORD
  5
10C8
102
{ACAD_REACTORS
330
10C4
102
}
330
10C4
100
AcDbXrecord
  1
big.ctb
  0
XRECORD
  5
10C5
102
{ACAD_REACTORS
330
10C4
102
}
330
10C4
100
AcDbXrecord
 90
        1
  0
XRECORD
  5
10C6
102
{ACAD_REACTORS
330
10C4
102
}
330
10C4
100
AcDbXrecord
 90
       70
  0
XRECORD
  5
10DE
102
{ACAD_REACTORS
330
10C4
102
}
330
10C4
100
AcDbXrecord
340
0
  0
XRECORD
  5
10E4
102
{ACAD_REACTORS
330
10C4
102
}
330
10C4
100
AcDbXrecord
 10
0.0
 20
0.0
 30
0.0
  0
XRECORD
  5
10E0
102
{ACAD_REACTORS
330
10C4
102
}
330
10C4
100
AcDbXrecord
 10
0.0
 20
0.0
 30
0.0
  0
XRECORD
  5
10E3
102
{ACAD_REACTORS
330
10C4
102
}
330
10C4
100
AcDbXrecord
 10
0.0
 20
0.0
 30
0.0
  0
XRECORD
  5
10E1
102
{ACAD_REACTORS
330
10C4
102
}
330
10C4
100
AcDbXrecord
 10
0.0
 20
0.0
 30
0.0
  0
XRECORD
  5
10E2
102
{ACAD_REACTORS
330
10C4
102
}
330
10C4
100
AcDbXrecord
 10
0.0
 20
0.0
 30
0.0
  0
XRECORD
  5
10DF
102
{ACAD_REACTORS
330
10C4
102
}
330
10C4
100
AcDbXrecord
 10
0.0
 20
0.0
 30
0.0
  0
XRECORD
  5
10DC
102
{ACAD_REACTORS
330
10C4
102
}
330
10C4
100
AcDbXrecord
340
0
  0
XRECORD
  5
10DD
102
{ACAD_REACTORS
330
10C4
102
}
330
10C4
100
AcDbXrecord
 70
     0
  0
XRECORD
  5
10D0
102
{ACAD_REACTORS
330
10C4
102
}
330
10C4
100
AcDbXrecord
  1
{D3B2AB30-5811-4904-98E5-6F3FD3207464}
  0
XRECORD
  5
560
102
{ACAD_REACTORS
330
540
102
}
330
540
100
AcDbXrecord
  1
2.0.0
  0
ENDSEC
  0
EOF
