  0
SECTION
  2
HEADER
  9
$ACADVER
  1
AC1014
  9
$ACADMAINTVER
 70
     9
  9
$DWGCODEPAGE
  3
ANSI_932
  9
$INSBASE
 10
0.0
 20
0.0
 30
0.0
  9
$EXTMIN
 10
-48.51429639
 20
-11.07006072
 30
-0.00152582
  9
$EXTMAX
 10
48.279679
 20
40.00231253
 30
0.00000003
  9
$LIMMIN
 10
0.0
 20
0.0
  9
$LIMMAX
 10
420.0
 20
297.0
  9
$ORTHOMODE
 70
     1
  9
$REGENMODE
 70
     1
  9
$FILLMODE
 70
     1
  9
$QTEXTMODE
 70
     0
  9
$MIRRTEXT
 70
     1
  9
$DRAGMODE
 70
     2
  9
$LTSCALE
 40
10.0
  9
$OSMODE
 70
   549
  9
$ATTMODE
 70
     1
  9
$TEXTSIZE
 40
3.0
  9
$TRACEWID
 40
1.0
  9
$TEXTSTYLE
  7
YOKO
  9
$CLAYER
  8
245
  9
$CELTYPE
  6
BYLAYER
  9
$CECOLOR
 62
   256
  9
$CELTSCALE
 40
1.0
  9
$DELOBJ
 70
     1
  9
$DISPSILH
 70
     0
  9
$DIMSCALE
 40
1.0
  9
$DIMASZ
 40
2.23
  9
$DIMEXO
 40
0.5
  9
$DIMDLI
 40
2.5
  9
$DIMRND
 40
0.0
  9
$DIMDLE
 40
0.0
  9
$DIMEXE
 40
1.0
  9
$DIMTP
 40
0.0
  9
$DIMTM
 40
0.0
  9
$DIMTXT
 40
2.8
  9
$DIMCEN
 40
0.0
  9
$DIMTSZ
 40
0.0
  9
$DIMTOL
 70
     0
  9
$DIMLIM
 70
     0
  9
$DIMTIH
 70
     0
  9
$DIMTOH
 70
     0
  9
$DIMSE1
 70
     0
  9
$DIMSE2
 70
     0
  9
$DIMTAD
 70
     3
  9
$DIMZIN
 70
     8
  9
$DIMBLK
  1

  9
$DIMASO
 70
     1
  9
$DIMSHO
 70
     1
  9
$DIMPOST
  1

  9
$DIMAPOST
  1

  9
$DIMALT
 70
     0
  9
$DIMALTD
 70
     2
  9
$DIMALTF
 40
25.4
  9
$DIMLFAC
 40
1.0
  9
$DIMTOFL
 70
     1
  9
$DIMTVP
 40
0.0
  9
$DIMTIX
 70
     1
  9
$DIMSOXD
 70
     0
  9
$DIMSAH
 70
     1
  9
$DIMBLK1
  1
OPEN
  9
$DIMBLK2
  1
OPEN
  9
$DIMSTYLE
  2
BIGT
  9
$DIMCLRD
 70
   256
  9
$DIMCLRE
 70
   256
  9
$DIMCLRT
 70
    40
  9
$DIMTFAC
 40
1.0
  9
$DIMGAP
 40
1.0
  9
$DIMJUST
 70
     0
  9
$DIMSD1
 70
     0
  9
$DIMSD2
 70
     0
  9
$DIMTOLJ
 70
     1
  9
$DIMTZIN
 70
     8
  9
$DIMALTZ
 70
     0
  9
$DIMALTTZ
 70
     0
  9
$DIMFIT
 70
     3
  9
$DIMUPT
 70
     0
  9
$DIMUNIT
 70
     2
  9
$DIMDEC
 70
     3
  9
$DIMTDEC
 70
     3
  9
$DIMALTU
 70
     2
  9
$DIMALTTD
 70
     2
  9
$DIMTXSTY
  7
STANDARD
  9
$DIMAUNIT
 70
     0
  9
$LUNITS
 70
     2
  9
$LUPREC
 70
     3
  9
$SKETCHINC
 40
1.0
  9
$FILLETRAD
 40
0.0
  9
$AUNITS
 70
     0
  9
$AUPREC
 70
     3
  9
$MENU
  1
.
  9
$ELEVATION
 40
0.0
  9
$PELEVATION
 40
0.0
  9
$THICKNESS
 40
0.0
  9
$LIMCHECK
 70
     0
  9
$BLIPMODE
 70
     0
  9
$CHAMFERA
 40
10.0
  9
$CHAMFERB
 40
10.0
  9
$CHAMFERC
 40
0.0
  9
$CHAMFERD
 40
0.0
  9
$SKPOLY
 70
     0
  9
$TDCREATE
 40
2455316.645715416
  9
$TDUPDATE
 40
2455316.696124664
  9
$TDINDWG
 40
0.0312610069
  9
$TDUSRTIMER
 40
0.0312601157
  9
$USRTIMER
 70
     1
  9
$ANGBASE
 50
0.0
  9
$ANGDIR
 70
     0
  9
$PDMODE
 70
     1
  9
$PDSIZE
 40
-5.0
  9
$PLINEWID
 40
0.0
  9
$COORDS
 70
     2
  9
$SPLFRAME
 70
     0
  9
$SPLINETYPE
 70
     6
  9
$SPLINESEGS
 70
     8
  9
$ATTDIA
 70
     0
  9
$ATTREQ
 70
     1
  9
$HANDLING
 70
-16383
  9
$HANDSEED
  5
5A54
  9
$SURFTAB1
 70
     6
  9
$SURFTAB2
 70
     6
  9
$SURFTYPE
 70
     6
  9
$SURFU
 70
     6
  9
$SURFV
 70
     6
  9
$UCSNAME
  2

  9
$UCSORG
 10
0.0
 20
0.0
 30
0.0
  9
$UCSXDIR
 10
1.0
 20
0.0
 30
0.0
  9
$UCSYDIR
 10
0.0
 20
1.0
 30
0.0
  9
$PUCSNAME
  2

  9
$PUCSORG
 10
0.0
 20
0.0
 30
0.0
  9
$PUCSXDIR
 10
1.0
 20
0.0
 30
0.0
  9
$PUCSYDIR
 10
0.0
 20
1.0
 30
0.0
  9
$USERI1
 70
     1
  9
$USERI2
 70
     0
  9
$USERI3
 70
     0
  9
$USERI4
 70
     0
  9
$USERI5
 70
     0
  9
$USERR1
 40
0.0
  9
$USERR2
 40
0.0
  9
$USERR3
 40
0.0
  9
$USERR4
 40
0.0
  9
$USERR5
 40
0.0
  9
$WORLDVIEW
 70
     1
  9
$SHADEDGE
 70
     3
  9
$SHADEDIF
 70
    70
  9
$TILEMODE
 70
     1
  9
$MAXACTVP
 70
    16
  9
$PINSBASE
 10
0.0
 20
0.0
 30
0.0
  9
$PLIMCHECK
 70
     0
  9
$PEXTMIN
 10
1.00000000E+20
 20
1.00000000E+20
 30
1.00000000E+20
  9
$PEXTMAX
 10
-1.00000000E+20
 20
-1.00000000E+20
 30
-1.00000000E+20
  9
$PLIMMIN
 10
0.0
 20
0.0
  9
$PLIMMAX
 10
420.0
 20
297.0
  9
$UNITMODE
 70
     0
  9
$VISRETAIN
 70
     0
  9
$PLINEGEN
 70
     0
  9
$PSLTSCALE
 70
     1
  9
$TREEDEPTH
 70
  3020
  9
$PICKSTYLE
 70
     0
  9
$CMLSTYLE
  2
STANDARD
  9
$CMLJUST
 70
     0
  9
$CMLSCALE
 40
1.0
  9
$PROXYGRAPHICS
 70
     1
  9
$MEASUREMENT
 70
     1
  0
ENDSEC
  0
SECTION
  2
CLASSES
  0
CLASS
  1
XRECORD
  2
AcDbXrecord
  3
AutoCAD 2000
 90
        0
280
     0
281
     0
  0
CLASS
  1
ACDBDICTIONARYWDFLT
  2
AcDbDictionaryWithDefault
  3
AutoCAD 2000
 90
        0
280
     0
281
     0
  0
CLASS
  1
ACDBPLACEHOLDER
  2
AcDbPlaceHolder
  3
AutoCAD 2000
 90
        0
280
     0
281
     0
  0
CLASS
  1
LAYOUT
  2
AcDbLayout
  3
AutoCAD 2000
 90
        0
280
     0
281
     0
  0
CLASS
  1
PLOTSETTINGS
  2
AcDbPlotSettings
  3
AutoCAD 2000
 90
        0
280
     0
281
     0
  0
CLASS
  1
LONG_TRANSACTION
  2
AcDbLongTransaction
  3
AutoCAD 2000
 90
        0
280
     0
281
     0
  0
CLASS
  1
LWPOLYLINE
  2
AcDbPolyline
  3
AutoCAD 2000
 90
        0
280
     0
281
     1
  0
CLASS
  1
HATCH
  2
AcDbHatch
  3
AutoCAD 2000
 90
        0
280
     0
281
     1
  0
CLASS
  1
XRECORD
  2
AcDbXrecord
  3
AutoCAD 2000
 90
        0
280
     0
281
     0
  0
CLASS
  1
LONG_TRANSACTION
  2
AcDbLongTransaction
  3
AutoCAD 2000
 90
        0
280
     0
281
     0
  0
CLASS
  1
LWPOLYLINE
  2
AcDbPolyline
  3
AutoCAD 2000
 90
        0
280
     0
281
     1
  0
CLASS
  1
HATCH
  2
AcDbHatch
  3
AutoCAD 2000
 90
        0
280
     0
281
     1
  0
CLASS
  1
XRECORD
  2
AcDbXrecord
  3
AutoCAD 2000
 90
        0
280
     0
281
     0
  0
CLASS
  1
LONG_TRANSACTION
  2
AcDbLongTransaction
  3
AutoCAD 2000
 90
        0
280
     0
281
     0
  0
CLASS
  1
LWPOLYLINE
  2
AcDbPolyline
  3
AutoCAD 2000
 90
        0
280
     0
281
     1
  0
CLASS
  1
HATCH
  2
AcDbHatch
  3
AutoCAD 2000
 90
        0
280
     0
281
     1
  0
CLASS
  1
XRECORD
  2
AcDbXrecord
  3
AutoCAD 2000
 90
        0
280
     0
281
     0
  0
CLASS
  1
LONG_TRANSACTION
  2
AcDbLongTransaction
  3
AutoCAD 2000
 90
        0
280
     0
281
     0
  0
CLASS
  1
LWPOLYLINE
  2
AcDbPolyline
  3
AutoCAD 2000
 90
        0
280
     0
281
     1
  0
CLASS
  1
HATCH
  2
AcDbHatch
  3
AutoCAD 2000
 90
        0
280
     0
281
     1
  0
CLASS
  1
XRECORD
  2
AcDbXrecord
  3
AutoCAD 2000
 90
        0
280
     0
281
     0
  0
CLASS
  1
LONG_TRANSACTION
  2
AcDbLongTransaction
  3
AutoCAD 2000
 90
        0
280
     0
281
     0
  0
CLASS
  1
LWPOLYLINE
  2
AcDbPolyline
  3
AutoCAD 2000
 90
        0
280
     0
281
     1
  0
CLASS
  1
HATCH
  2
AcDbHatch
  3
AutoCAD 2000
 90
        0
280
     0
281
     1
  0
CLASS
  1
XRECORD
  2
AcDbXrecord
  3
AutoCAD 2000
 90
        0
280
     0
281
     0
  0
CLASS
  1
LONG_TRANSACTION
  2
AcDbLongTransaction
  3
AutoCAD 2000
 90
        0
280
     0
281
     0
  0
CLASS
  1
LWPOLYLINE
  2
AcDbPolyline
  3
AutoCAD 2000
 90
        0
280
     0
281
     1
  0
CLASS
  1
HATCH
  2
AcDbHatch
  3
AutoCAD 2000
 90
        0
280
     0
281
     1
  0
CLASS
  1
XRECORD
  2
AcDbXrecord
  3
AutoCAD 2000
 90
        0
280
     0
281
     0
  0
CLASS
  1
LONG_TRANSACTION
  2
AcDbLongTransaction
  3
AutoCAD 2000
 90
        0
280
     0
281
     0
  0
CLASS
  1
LWPOLYLINE
  2
AcDbPolyline
  3
AutoCAD 2000
 90
        0
280
     0
281
     1
  0
CLASS
  1
HATCH
  2
AcDbHatch
  3
AutoCAD 2000
 90
        0
280
     0
281
     1
  0
CLASS
  1
XRECORD
  2
AcDbXrecord
  3
AutoCAD 2000
 90
        0
280
     0
281
     0
  0
CLASS
  1
LONG_TRANSACTION
  2
AcDbLongTransaction
  3
AutoCAD 2000
 90
        0
280
     0
281
     0
  0
CLASS
  1
LWPOLYLINE
  2
AcDbPolyline
  3
AutoCAD 2000
 90
        0
280
     0
281
     1
  0
CLASS
  1
HATCH
  2
AcDbHatch
  3
AutoCAD 2000
 90
        0
280
     0
281
     1
  0
CLASS
  1
XRECORD
  2
AcDbXrecord
  3
AutoCAD 2000
 90
        0
280
     0
281
     0
  0
CLASS
  1
LONG_TRANSACTION
  2
AcDbLongTransaction
  3
AutoCAD 2000
 90
        0
280
     0
281
     0
  0
CLASS
  1
LWPOLYLINE
  2
AcDbPolyline
  3
AutoCAD 2000
 90
        0
280
     0
281
     1
  0
CLASS
  1
HATCH
  2
AcDbHatch
  3
AutoCAD 2000
 90
        0
280
     0
281
     1
  0
CLASS
  1
XRECORD
  2
AcDbXrecord
  3
AutoCAD 2000
 90
        0
280
     0
281
     0
  0
CLASS
  1
LONG_TRANSACTION
  2
AcDbLongTransaction
  3
AutoCAD 2000
 90
        0
280
     0
281
     0
  0
CLASS
  1
LWPOLYLINE
  2
AcDbPolyline
  3
AutoCAD 2000
 90
        0
280
     0
281
     1
  0
CLASS
  1
HATCH
  2
AcDbHatch
  3
AutoCAD 2000
 90
        0
280
     0
281
     1
  0
CLASS
  1
XRECORD
  2
AcDbXrecord
  3
AutoCAD 2000
 90
        0
280
     0
281
     0
  0
CLASS
  1
LONG_TRANSACTION
  2
AcDbLongTransaction
  3
AutoCAD 2000
 90
        0
280
     0
281
     0
  0
CLASS
  1
LWPOLYLINE
  2
AcDbPolyline
  3
AutoCAD 2000
 90
        0
280
     0
281
     1
  0
CLASS
  1
HATCH
  2
AcDbHatch
  3
AutoCAD 2000
 90
        0
280
     0
281
     1
  0
CLASS
  1
XRECORD
  2
AcDbXrecord
  3
AutoCAD 2000
 90
        0
280
     0
281
     0
  0
CLASS
  1
LONG_TRANSACTION
  2
AcDbLongTransaction
  3
AutoCAD 2000
 90
        0
280
     0
281
     0
  0
CLASS
  1
LWPOLYLINE
  2
AcDbPolyline
  3
AutoCAD 2000
 90
        0
280
     0
281
     1
  0
CLASS
  1
HATCH
  2
AcDbHatch
  3
AutoCAD 2000
 90
        0
280
     0
281
     1
  0
CLASS
  1
XRECORD
  2
AcDbXrecord
  3
AutoCAD 2000
 90
        0
280
     0
281
     0
  0
CLASS
  1
LONG_TRANSACTION
  2
AcDbLongTransaction
  3
AutoCAD 2000
 90
        0
280
     0
281
     0
  0
CLASS
  1
LWPOLYLINE
  2
AcDbPolyline
  3
AutoCAD 2000
 90
        0
280
     0
281
     1
  0
CLASS
  1
HATCH
  2
AcDbHatch
  3
AutoCAD 2000
 90
        0
280
     0
281
     1
  0
CLASS
  1
XRECORD
  2
AcDbXrecord
  3
AutoCAD 2000
 90
        0
280
     0
281
     0
  0
CLASS
  1
LONG_TRANSACTION
  2
AcDbLongTransaction
  3
AutoCAD 2000
 90
        0
280
     0
281
     0
  0
CLASS
  1
LWPOLYLINE
  2
AcDbPolyline
  3
AutoCAD 2000
 90
        0
280
     0
281
     1
  0
CLASS
  1
HATCH
  2
AcDbHatch
  3
AutoCAD 2000
 90
        0
280
     0
281
     1
  0
CLASS
  1
XRECORD
  2
AcDbXrecord
  3
AutoCAD 2000
 90
        0
280
     0
281
     0
  0
CLASS
  1
LONG_TRANSACTION
  2
AcDbLongTransaction
  3
AutoCAD 2000
 90
        0
280
     0
281
     0
  0
CLASS
  1
LWPOLYLINE
  2
AcDbPolyline
  3
AutoCAD 2000
 90
        0
280
     0
281
     1
  0
CLASS
  1
HATCH
  2
AcDbHatch
  3
AutoCAD 2000
 90
        0
280
     0
281
     1
  0
CLASS
  1
XRECORD
  2
AcDbXrecord
  3
AutoCAD 2000
 90
        0
280
     0
281
     0
  0
CLASS
  1
LONG_TRANSACTION
  2
AcDbLongTransaction
  3
AutoCAD 2000
 90
        0
280
     0
281
     0
  0
CLASS
  1
LWPOLYLINE
  2
AcDbPolyline
  3
AutoCAD 2000
 90
        0
280
     0
281
     1
  0
CLASS
  1
HATCH
  2
AcDbHatch
  3
AutoCAD 2000
 90
        0
280
     0
281
     1
  0
CLASS
  1
XRECORD
  2
AcDbXrecord
  3
AutoCAD 2000
 90
        0
280
     0
281
     0
  0
CLASS
  1
LONG_TRANSACTION
  2
AcDbLongTransaction
  3
AutoCAD 2000
 90
        0
280
     0
281
     0
  0
CLASS
  1
LWPOLYLINE
  2
AcDbPolyline
  3
AutoCAD 2000
 90
        0
280
     0
281
     1
  0
CLASS
  1
HATCH
  2
AcDbHatch
  3
AutoCAD 2000
 90
        0
280
     0
281
     1
  0
CLASS
  1
XRECORD
  2
AcDbXrecord
  3
AutoCAD 2000
 90
        0
280
     0
281
     0
  0
CLASS
  1
LONG_TRANSACTION
  2
AcDbLongTransaction
  3
AutoCAD 2000
 90
        0
280
     0
281
     0
  0
CLASS
  1
LWPOLYLINE
  2
AcDbPolyline
  3
AutoCAD 2000
 90
        0
280
     0
281
     1
  0
CLASS
  1
HATCH
  2
AcDbHatch
  3
AutoCAD 2000
 90
        0
280
     0
281
     1
  0
CLASS
  1
XRECORD
  2
AcDbXrecord
  3
AutoCAD 2000
 90
        0
280
     0
281
     0
  0
CLASS
  1
LONG_TRANSACTION
  2
AcDbLongTransaction
  3
AutoCAD 2000
 90
        0
280
     0
281
     0
  0
CLASS
  1
LWPOLYLINE
  2
AcDbPolyline
  3
AutoCAD 2000
 90
        0
280
     0
281
     1
  0
CLASS
  1
HATCH
  2
AcDbHatch
  3
AutoCAD 2000
 90
        0
280
     0
281
     1
  0
CLASS
  1
XRECORD
  2
AcDbXrecord
  3
AutoCAD 2000
 90
        0
280
     0
281
     0
  0
CLASS
  1
LONG_TRANSACTION
  2
AcDbLongTransaction
  3
AutoCAD 2000
 90
        0
280
     0
281
     0
  0
CLASS
  1
LWPOLYLINE
  2
AcDbPolyline
  3
AutoCAD 2000
 90
        0
280
     0
281
     1
  0
CLASS
  1
HATCH
  2
AcDbHatch
  3
AutoCAD 2000
 90
        0
280
     0
281
     1
  0
CLASS
  1
XRECORD
  2
AcDbXrecord
  3
AutoCAD 2000
 90
        0
280
     0
281
     0
  0
CLASS
  1
LONG_TRANSACTION
  2
AcDbLongTransaction
  3
AutoCAD 2000
 90
        0
280
     0
281
     0
  0
CLASS
  1
LWPOLYLINE
  2
AcDbPolyline
  3
AutoCAD 2000
 90
        0
280
     0
281
     1
  0
CLASS
  1
HATCH
  2
AcDbHatch
  3
AutoCAD 2000
 90
        0
280
     0
281
     1
  0
CLASS
  1
XRECORD
  2
AcDbXrecord
  3
AutoCAD 2000
 90
        0
280
     0
281
     0
  0
CLASS
  1
LONG_TRANSACTION
  2
AcDbLongTransaction
  3
AutoCAD 2000
 90
        0
280
     0
281
     0
  0
CLASS
  1
LWPOLYLINE
  2
AcDbPolyline
  3
AutoCAD 2000
 90
        0
280
     0
281
     1
  0
CLASS
  1
HATCH
  2
AcDbHatch
  3
AutoCAD 2000
 90
        0
280
     0
281
     1
  0
CLASS
  1
XRECORD
  2
AcDbXrecord
  3
AutoCAD 2000
 90
        0
280
     0
281
     0
  0
CLASS
  1
LONG_TRANSACTION
  2
AcDbLongTransaction
  3
AutoCAD 2000
 90
        0
280
     0
281
     0
  0
CLASS
  1
LWPOLYLINE
  2
AcDbPolyline
  3
AutoCAD 2000
 90
        0
280
     0
281
     1
  0
CLASS
  1
HATCH
  2
AcDbHatch
  3
AutoCAD 2000
 90
        0
280
     0
281
     1
  0
CLASS
  1
XRECORD
  2
AcDbXrecord
  3
AutoCAD 2000
 90
        0
280
     0
281
     0
  0
CLASS
  1
LONG_TRANSACTION
  2
AcDbLongTransaction
  3
AutoCAD 2000
 90
        0
280
     0
281
     0
  0
CLASS
  1
LWPOLYLINE
  2
AcDbPolyline
  3
AutoCAD 2000
 90
        0
280
     0
281
     1
  0
CLASS
  1
HATCH
  2
AcDbHatch
  3
AutoCAD 2000
 90
        0
280
     0
281
     1
  0
CLASS
  1
XRECORD
  2
AcDbXrecord
  3
AutoCAD 2000
 90
        0
280
     0
281
     0
  0
CLASS
  1
LONG_TRANSACTION
  2
AcDbLongTransaction
  3
AutoCAD 2000
 90
        0
280
     0
281
     0
  0
CLASS
  1
LWPOLYLINE
  2
AcDbPolyline
  3
AutoCAD 2000
 90
        0
280
     0
281
     1
  0
CLASS
  1
HATCH
  2
AcDbHatch
  3
AutoCAD 2000
 90
        0
280
     0
281
     1
  0
CLASS
  1
XRECORD
  2
AcDbXrecord
  3
AutoCAD 2000
 90
        0
280
     0
281
     0
  0
CLASS
  1
LONG_TRANSACTION
  2
AcDbLongTransaction
  3
AutoCAD 2000
 90
        0
280
     0
281
     0
  0
CLASS
  1
LWPOLYLINE
  2
AcDbPolyline
  3
AutoCAD 2000
 90
        0
280
     0
281
     1
  0
CLASS
  1
HATCH
  2
AcDbHatch
  3
AutoCAD 2000
 90
        0
280
     0
281
     1
  0
CLASS
  1
XRECORD
  2
AcDbXrecord
  3
AutoCAD 2000
 90
        0
280
     0
281
     0
  0
ENDSEC
  0
SECTION
  2
TABLES
  0
TABLE
  2
VPORT
  5
8
330
0
100
AcDbSymbolTable
 70
     3
  0
VPORT
  5
5A2F
330
8
100
AcDbSymbolTableRecord
100
AcDbViewportTableRecord
  2
*ACTIVE
 70
     0
 10
0.0
 20
0.0
 11
1.0
 21
1.0
 12
-0.1173087
 22
14.4661259
 13
0.0
 23
0.0
 14
7.0
 24
7.0
 15
7.0
 25
7.0
 16
0.0
 26
0.0
 36
1.0
 17
0.0
 27
0.0
 37
0.0
 40
67.96117375
 41
1.43184713
 42
50.0
 43
0.0
 44
0.0
 50
0.0
 51
0.0
 71
     0
 72
  2000
 73
     1
 74
     0
 75
     0
 76
     0
 77
     0
 78
     0
  0
ENDTAB
  0
TABLE
  2
LTYPE
  5
5
330
0
100
AcDbSymbolTable
 70
     3
  0
LTYPE
  5
14
330
5
100
AcDbSymbolTableRecord
100
AcDbLinetypeTableRecord
  2
BYBLOCK
 70
     0
  3

 72
    65
 73
     0
 40
0.0
  0
LTYPE
  5
15
330
5
100
AcDbSymbolTableRecord
100
AcDbLinetypeTableRecord
  2
BYLAYER
 70
     0
  3

 72
    65
 73
     0
 40
0.0
  0
LTYPE
  5
16
330
5
100
AcDbSymbolTableRecord
100
AcDbLinetypeTableRecord
  2
CONTINUOUS
 70
     0
  3
Solid line
 72
    65
 73
     0
 40
0.0
  0
LTYPE
  5
258
330
5
100
AcDbSymbolTableRecord
100
AcDbLinetypeTableRecord
  2
CENTER2
 70
     0
  3
___ _ ___ _ ___ _ ___ _ ___ _ ___ _ ___ _ ___ _
 72
    65
 73
     4
 40
1.125
 49
0.75
 74
     0
 49
-0.125
 74
     0
 49
0.125
 74
     0
 49
-0.125
 74
     0
  0
LTYPE
  5
25C
330
5
100
AcDbSymbolTableRecord
100
AcDbLinetypeTableRecord
  2
HIDDEN2
 70
     0
  3
_ _ _ _ _ _ _ _ _ _ _ _ _ _ _ _ _ _ _ _ _ _ _ _
 72
    65
 73
     2
 40
0.1875
 49
0.125
 74
     0
 49
-0.0625
 74
     0
  0
ENDTAB
  0
TABLE
  2
LAYER
  5
2
330
0
100
AcDbSymbolTable
 70
    12
  0
LAYER
  5
F
330
2
100
AcDbSymbolTableRecord
100
AcDbLayerTableRecord
  2
0
 70
     0
 62
     7
  6
CONTINUOUS
  0
LAYER
  5
1AA
330
2
100
AcDbSymbolTableRecord
100
AcDbLayerTableRecord
  2
240
 70
     0
 62
     4
  6
CONTINUOUS
  0
LAYER
  5
1AB
330
2
100
AcDbSymbolTableRecord
100
AcDbLayerTableRecord
  2
241
 70
     0
 62
   211
  6
CONTINUOUS
  0
LAYER
  5
1AC
330
2
100
AcDbSymbolTableRecord
100
AcDbLayerTableRecord
  2
242
 70
     0
 62
     3
  6
CONTINUOUS
  0
LAYER
  5
1AD
330
2
100
AcDbSymbolTableRecord
100
AcDbLayerTableRecord
  2
243
 70
     0
 62
   211
  6
HIDDEN2
  0
LAYER
  5
1AF
330
2
100
AcDbSymbolTableRecord
100
AcDbLayerTableRecord
  2
245
 70
     0
 62
     2
  6
CENTER2
  0
LAYER
  5
21E
330
2
100
AcDbSymbolTableRecord
100
AcDbLayerTableRecord
  2
250
 70
     0
 62
     3
  6
CONTINUOUS
  0
LAYER
  5
21F
330
2
100
AcDbSymbolTableRecord
100
AcDbLayerTableRecord
  2
251
 70
     0
 62
    40
  6
CONTINUOUS
  0
LAYER
  5
5C4
330
2
100
AcDbSymbolTableRecord
100
AcDbLayerTableRecord
  2
DEFPOINTS
 70
     0
 62
     7
  6
CONTINUOUS
  0
LAYER
  5
76E
330
2
100
AcDbSymbolTableRecord
100
AcDbLayerTableRecord
  2
AM_7
 70
     0
 62
     2
  6
CENTER2
  0
ENDTAB
  0
TABLE
  2
STYLE
  5
3
330
0
100
AcDbSymbolTable
 70
     2
  0
STYLE
  5
10
330
3
100
AcDbSymbolTableRecord
100
AcDbTextStyleTableRecord
  2
STANDARD
 70
     0
 40
0.0
 41
1.0
 50
0.0
 71
     0
 42
3.0
  3
romans.shx
  4
BIGFONT.SHX
  0
STYLE
  5
339
330
3
100
AcDbSymbolTableRecord
100
AcDbTextStyleTableRecord
  2
YOKO
 70
     0
 40
0.0
 41
1.0
 50
0.0
 71
     0
 42
3.0
  3
romans.shx
  4
extfont.shx
  0
ENDTAB
  0
TABLE
  2
VIEW
  5
6
330
0
100
AcDbSymbolTable
 70
     0
  0
ENDTAB
  0
TABLE
  2
UCS
  5
7
330
0
100
AcDbSymbolTable
 70
     0
  0
ENDTAB
  0
TABLE
  2
APPID
  5
9
330
0
100
AcDbSymbolTable
 70
    15
  0
APPID
  5
11
330
9
100
AcDbSymbolTableRecord
100
AcDbRegAppTableRecord
  2
ACAD
 70
     0
  0
APPID
  5
1B1
330
9
100
AcDbSymbolTableRecord
100
AcDbRegAppTableRecord
  2
GLOBAL
 70
     0
  0
APPID
  5
2A4
330
9
100
AcDbSymbolTableRecord
100
AcDbRegAppTableRecord
  2
DETAIL
 70
     0
  0
APPID
  5
5FD
330
9
100
AcDbSymbolTableRecord
100
AcDbRegAppTableRecord
  2
GRPNAME
 70
     0
  0
APPID
  5
5FE
330
9
100
AcDbSymbolTableRecord
100
AcDbRegAppTableRecord
  2
GPARA
 70
     0
  0
APPID
  5
6C4
330
9
100
AcDbSymbolTableRecord
100
AcDbRegAppTableRecord
  2
DCO15
 70
     0
  0
APPID
  5
6C5
330
9
100
AcDbSymbolTableRecord
100
AcDbRegAppTableRecord
  2
ITEMNAME
 70
     0
  0
APPID
  5
6C6
330
9
100
AcDbSymbolTableRecord
100
AcDbRegAppTableRecord
  2
GRADE_0
 70
     0
  0
APPID
  5
76F
330
9
100
AcDbSymbolTableRecord
100
AcDbRegAppTableRecord
  2
HATCH_TYPE
 70
     0
  0
APPID
  5
770
330
9
100
AcDbSymbolTableRecord
100
AcDbRegAppTableRecord
  2
HATCH_DISPLAY
 70
     0
  0
APPID
  5
771
330
9
100
AcDbSymbolTableRecord
100
AcDbRegAppTableRecord
  2
HATCH_DISTANCE
 70
     0
  0
APPID
  5
772
330
9
100
AcDbSymbolTableRecord
100
AcDbRegAppTableRecord
  2
GENIUS_GENODEF_13
 70
     0
  0
APPID
  5
773
330
9
100
AcDbSymbolTableRecord
100
AcDbRegAppTableRecord
  2
GENIUS_GENOREF_13
 70
     0
  0
APPID
  5
774
330
9
100
AcDbSymbolTableRecord
100
AcDbRegAppTableRecord
  2
GENIUS_GENOBJ-N-FIL_13
 70
     0
  0
APPID
  5
BC8
330
9
100
AcDbSymbolTableRecord
100
AcDbRegAppTableRecord
  2
CONTENTBLOCKICON
 70
     0
  0
ENDTAB
  0
TABLE
  2
DIMSTYLE
  5
A
330
0
100
AcDbSymbolTable
 70
     1
  0
DIMSTYLE
105
725
102
{ACAD_REACTORS
330
87C
330
162C
102
}
330
A
100
AcDbSymbolTableRecord
100
AcDbDimStyleTableRecord
  2
BIGT
 70
     0
  3

  4

  5

  6
OPEN
  7
OPEN
 40
1.0
 41
2.23
 42
0.5
 43
2.5
 44
1.0
 45
0.0
 46
0.0
 47
0.0
 48
0.0
140
2.8
141
0.0
142
0.0
143
25.4
144
1.0
145
0.0
146
1.0
147
1.0
 71
     0
 72
     0
 73
     0
 74
     0
 75
     0
 76
     0
 77
     3
 78
     8
170
     0
171
     2
172
     1
173
     1
174
     1
175
     0
176
   256
177
   256
178
    40
270
     2
271
     3
272
     3
273
     2
274
     2
340
10
275
     0
280
     0
281
     0
282
     0
283
     1
284
     8
285
     0
286
     0
287
     3
288
     0
  0
ENDTAB
  0
TABLE
  2
BLOCK_RECORD
  5
1
330
0
100
AcDbSymbolTable
 70
     7
  0
BLOCK_RECORD
  5
1A
102
{ACAD_XDICTIONARY
360
BC6
102
}
330
1
100
AcDbSymbolTableRecord
100
AcDbBlockTableRecord
  2
*MODEL_SPACE
  0
BLOCK_RECORD
  5
17
102
{ACAD_XDICTIONARY
360
BC4
102
}
330
1
100
AcDbSymbolTableRecord
100
AcDbBlockTableRecord
  2
*PAPER_SPACE
  0
BLOCK_RECORD
  5
594
330
1
100
AcDbSymbolTableRecord
100
AcDbBlockTableRecord
  2
_OPEN
  0
BLOCK_RECORD
  5
6E3
330
1
100
AcDbSymbolTableRecord
100
AcDbBlockTableRecord
  2
矢印なし
  0
BLOCK_RECORD
  5
979
330
1
100
AcDbSymbolTableRecord
100
AcDbBlockTableRecord
  2
*D2
  0
BLOCK_RECORD
  5
1654
330
1
100
AcDbSymbolTableRecord
100
AcDbBlockTableRecord
  2
*D3
  0
BLOCK_RECORD
  5
58E8
330
1
100
AcDbSymbolTableRecord
100
AcDbBlockTableRecord
  2
1
1001
CONTENTBLOCKICON
1071
        0
1004
2800000020000000200000000100080000000000000400000000000000000000000000000000000000000000000080000080000000808000800000008000800080800000C0C0C000C0DCC000F0CAA6000020400000206000002080000020A0000020C0000020E00000400000004020000040400000406000004080000040A0
1004
000040C0000040E00000600000006020000060400000606000006080000060A0000060C0000060E00000800000008020000080400000806000008080000080A0000080C0000080E00000A0000000A0200000A0400000A0600000A0800000A0A00000A0C00000A0E00000C0000000C0200000C0400000C0600000C0800000C0
1004
A00000C0C00000C0E00000E0000000E0200000E0400000E0600000E0800000E0A00000E0C00000E0E00040000000400020004000400040006000400080004000A0004000C0004000E00040200000402020004020400040206000402080004020A0004020C0004020E000404000004040200040404000404060004040800040
1004
40A0004040C0004040E00040600000406020004060400040606000406080004060A0004060C0004060E00040800000408020004080400040806000408080004080A0004080C0004080E00040A0000040A0200040A0400040A0600040A0800040A0A00040A0C00040A0E00040C0000040C0200040C0400040C0600040C08000
1004
40C0A00040C0C00040C0E00040E0000040E0200040E0400040E0600040E0800040E0A00040E0C00040E0E00080000000800020008000400080006000800080008000A0008000C0008000E00080200000802020008020400080206000802080008020A0008020C0008020E00080400000804020008040400080406000804080
1004
008040A0008040C0008040E00080600000806020008060400080606000806080008060A0008060C0008060E00080800000808020008080400080806000808080008080A0008080C0008080E00080A0000080A0200080A0400080A0600080A0800080A0A00080A0C00080A0E00080C0000080C0200080C0400080C0600080C0
1004
800080C0A00080C0C00080C0E00080E0000080E0200080E0400080E0600080E0800080E0A00080E0C00080E0E000C0000000C0002000C0004000C0006000C0008000C000A000C000C000C000E000C0200000C0202000C0204000C0206000C0208000C020A000C020C000C020E000C0400000C0402000C0404000C0406000C0
1004
408000C040A000C040C000C040E000C0600000C0602000C0604000C0606000C0608000C060A000C060C000C060E000C0800000C0802000C0804000C0806000C0808000C080A000C080C000C080E000C0A00000C0A02000C0A04000C0A06000C0A08000C0A0A000C0A0C000C0A0E000C0C00000C0C02000C0C04000C0C06000
1004
C0C08000C0C0A000F0FBFF00A4A0A000808080000000FF0000FF000000FFFF00FF000000FF00FF00FFFF0000FFFFFF0000000000000000000000000000000000000000000000000000000000000000000000000000000000000000000000000000000000000000000000000000000000000000000000000000000000000000
1004
00000000000000000000000000000000000000000000000000000000000000000000000000000000000000000000000000000000000000000000000000000000000000000000000000000000000000000000000000000000000000000000000000000000000000000000000000000000000000000000000000000000000000
1004
00000000000000000000000000000000000000000000000000000000000000000000000000000000000000000000000000000000000000000000000000000000000000000000000000000000000000000000000000000000000000000000000000000000000000000000000000000000000000000000000000000000000000
1004
000000000000000000000000000000000000000000000000000000000000000000000000000000000000000000000000000000000000000000000000000000000000FEFEFEFEFE0000000000000000000000000000FEFEFEFEFEE7FEFEFEFEFEFEFEFEE7E7E7FEFEFEFEFEFEFEFEFEFEFE00000000FE000000E7E70000E7E7
1004
E7E700E7E7E7E7E7FFFFE7E7E700000000FE00000000FE000000E7E70000E7FBFBE700E7E7E7E7FFFFFFE7E7E700000000FE000000FBFEFBFBFBE7E7FBFBE7FBFBE7FBE7E7E7E7FFFFE7E7E7E7E7FBFBFBFEFB000000FE000000E7E70000E70000E700E7E7E7E7E7FFE7E7E7E7E7E7E7E7FE00000000FEFEFEFEFEE7FEFEFE
1004
FEFEFEFEFEE7E7E7FEFEFEFEFEE7FEFEFEFEFE0000000000000000000000000000000000FEFEFEFEFE0000000000000000000000000000000000000000000000000000000000000000000000000000000000000000000000000000000000000000000000000000000000000000000000000000000000000000000000000000
1004
00000000000000000000000000000000000000000000000000000000000000000000000000000000000000000000000000000000000000000000000000000000000000000000000000000000000000000000000000000000000000000000000000000000000000000000000000000000000000000000000000000000000000
1004
00000000000000000000000000000000000000000000000000000000000000000000000000000000000000000000000000000000000000000000000000000000000000000000000000000000000000000000000000000000000000000000000000000000000000000000000000000000000000000000000000000000000000
1004
0000000000000000000000000000000000000000000000000000000000000000000000000000000000000000000000000000000000000000
  0
ENDTAB
  0
ENDSEC
  0
SECTION
  2
BLOCKS
  0
BLOCK
  5
1B
330
1A
100
AcDbEntity
  8
0
100
AcDbBlockBegin
  2
*MODEL_SPACE
 70
     0
 10
0.0
 20
0.0
 30
0.0
  3
*MODEL_SPACE
  1

  0
ENDBLK
  5
1C
330
1A
100
AcDbEntity
  8
0
100
AcDbBlockEnd
  0
BLOCK
  5
18
330
17
100
AcDbEntity
 67
     1
  8
0
100
AcDbBlockBegin
  2
*PAPER_SPACE
 70
     0
 10
0.0
 20
0.0
 30
0.0
  3
*PAPER_SPACE
  1

  0
ENDBLK
  5
19
330
17
100
AcDbEntity
 67
     1
  8
0
100
AcDbBlockEnd
  0
BLOCK
  5
598
330
594
100
AcDbEntity
  8
0
100
AcDbBlockBegin
  2
_OPEN
 70
     0
 10
0.0
 20
0.0
 30
0.0
  3
_OPEN
  1

  0
LINE
  5
595
330
594
100
AcDbEntity
  8
0
  6
BYBLOCK
 62
     0
100
AcDbLine
 10
-1.0
 20
0.16666667
 30
0.0
 11
0.0
 21
0.0
 31
0.0
  0
LINE
  5
596
330
594
100
AcDbEntity
  8
0
  6
BYBLOCK
 62
     0
100
AcDbLine
 10
-1.0
 20
-0.16666667
 30
0.0
 11
0.0
 21
0.0
 31
0.0
  0
LINE
  5
597
330
594
100
AcDbEntity
  8
0
  6
BYBLOCK
 62
     0
100
AcDbLine
 10
0.0
 20
0.0
 30
0.0
 11
-1.0
 21
0.0
 31
0.0
  0
ENDBLK
  5
599
330
594
100
AcDbEntity
  8
0
100
AcDbBlockEnd
  0
BLOCK
  5
6E4
330
6E3
100
AcDbEntity
  8
0
100
AcDbBlockBegin
  2
矢印なし
 70
     0
 10
0.0
 20
0.0
 30
0.0
  3
矢印なし
  1

  0
ENDBLK
  5
6E5
330
6E3
100
AcDbEntity
  8
0
100
AcDbBlockEnd
  0
BLOCK
  5
983
330
979
100
AcDbEntity
  8
0
100
AcDbBlockBegin
  2
*D2
 70
     1
 10
0.0
 20
0.0
 30
0.0
  3
*D2
  1

  0
LINE
  5
57A1
330
979
100
AcDbEntity
  8
250
  6
CONTINUOUS
100
AcDbLine
 10
0.0
 20
11.14125603
 30
0.0
 11
0.0
 21
22.0
 31
0.0
  0
LINE
  5
57A2
330
979
100
AcDbEntity
  8
250
  6
CONTINUOUS
100
AcDbLine
 10
30.0
 20
7.49999969
 30
0.0
 11
30.0
 21
22.0
 31
0.0
  0
LINE
  5
57A3
330
979
100
AcDbEntity
  8
250
  6
CONTINUOUS
100
AcDbLine
 10
2.23
 20
21.0
 30
0.0
 11
27.77
 21
21.0
 31
0.0
  0
INSERT
  5
57A4
330
979
100
AcDbEntity
  8
250
  6
CONTINUOUS
100
AcDbBlockReference
  2
_OPEN
 10
0.0
 20
21.0
 30
0.0
 41
2.23
 42
2.23
 43
2.23
 50
180.0
  0
INSERT
  5
57A5
330
979
100
AcDbEntity
  8
250
  6
CONTINUOUS
100
AcDbBlockReference
  2
_OPEN
 10
30.0
 20
21.0
 30
0.0
 41
2.23
 42
2.23
 43
2.23
  0
MTEXT
  5
57A6
330
979
100
AcDbEntity
  8
250
  6
CONTINUOUS
 62
    40
100
AcDbMText
 10
14.76469445
 20
23.4
 30
0.0
 40
2.8
 41
0.0
 71
     5
 72
     1
  1
\A1;30
1001
ACAD
1000
MTEXTBEGIN
1070
    73
1070
     1
1070
    44
1040
1.0
1070
    74
1070
     0
1000
MTEXTEND
  0
POINT
  5
57A7
330
979
100
AcDbEntity
  8
DEFPOINTS
  6
CONTINUOUS
 62
     0
100
AcDbPoint
 10
0.0
 20
10.64125603
 30
0.0
  0
POINT
  5
57A8
330
979
100
AcDbEntity
  8
DEFPOINTS
  6
CONTINUOUS
 62
     0
100
AcDbPoint
 10
30.0
 20
6.99999969
 30
0.0
  0
POINT
  5
57A9
330
979
100
AcDbEntity
  8
DEFPOINTS
  6
CONTINUOUS
 62
     0
100
AcDbPoint
 10
30.0
 20
21.0
 30
0.0
  0
ENDBLK
  5
984
330
979
100
AcDbEntity
  8
0
100
AcDbBlockEnd
  0
BLOCK
  5
165E
330
1654
100
AcDbEntity
  8
0
100
AcDbBlockBegin
  2
*D3
 70
     1
 10
0.0
 20
0.0
 30
0.0
  3
*D3
  1

  0
LINE
  5
5798
330
1654
100
AcDbEntity
  8
250
  6
CONTINUOUS
100
AcDbLine
 10
29.5
 20
-8.0
 30
0.0
 11
48.25
 21
-8.0
 31
0.0
  0
LINE
  5
5799
330
1654
100
AcDbEntity
  8
250
  6
CONTINUOUS
100
AcDbLine
 10
29.5
 20
8.0
 30
0.0
 11
48.25
 21
8.0
 31
0.0
  0
LINE
  5
579A
330
1654
100
AcDbEntity
  8
250
  6
CONTINUOUS
100
AcDbLine
 10
47.25
 20
-5.77
 30
0.0
 11
47.25
 21
5.77
 31
0.0
  0
INSERT
  5
579B
330
1654
100
AcDbEntity
  8
250
  6
CONTINUOUS
100
AcDbBlockReference
  2
_OPEN
 10
47.25
 20
-8.0
 30
0.0
 41
2.23
 42
2.23
 43
2.23
 50
270.0
  0
INSERT
  5
579C
330
1654
100
AcDbEntity
  8
250
  6
CONTINUOUS
100
AcDbBlockReference
  2
_OPEN
 10
47.25
 20
8.0
 30
0.0
 41
2.23
 42
2.23
 43
2.23
 50
90.0
  0
MTEXT
  5
579D
330
1654
100
AcDbEntity
  8
250
  6
CONTINUOUS
 62
    40
100
AcDbMText
 10
44.85
 20
0.0
 30
0.0
 40
2.8
 41
0.0
 71
     5
 72
     1
  1
\A1;{\H2.8;\U+2205}16
 11
0.0
 21
1.0
 31
0.0
1001
ACAD
1000
MTEXTBEGIN
1070
    73
1070
     1
1070
    44
1040
1.0
1070
    74
1070
     0
1000
MTEXTEND
  0
POINT
  5
579E
330
1654
100
AcDbEntity
  8
DEFPOINTS
  6
CONTINUOUS
 62
     0
100
AcDbPoint
 10
29.0
 20
-8.0
 30
0.0
  0
POINT
  5
579F
330
1654
100
AcDbEntity
  8
DEFPOINTS
  6
CONTINUOUS
 62
     0
100
AcDbPoint
 10
29.0
 20
8.0
 30
0.0
  0
POINT
  5
57A0
330
1654
100
AcDbEntity
  8
DEFPOINTS
  6
CONTINUOUS
 62
     0
100
AcDbPoint
 10
47.25
 20
8.0
 30
0.0
  0
ENDBLK
  5
165F
330
1654
100
AcDbEntity
  8
0
100
AcDbBlockEnd
  0
BLOCK
  5
58E9
330
58E8
100
AcDbEntity
  8
0
100
AcDbBlockBegin
  2
1
 70
     0
 10
0.0
 20
0.0
 30
0.0
  3
1
  1

  0
LINE
  5
58EB
330
58E8
100
AcDbEntity
  8
AM_7
100
AcDbLine
 10
-48.5
 20
0.0
 30
0.0
 11
31.0
 21
0.0
 31
0.0
1001
GENIUS_GENOREF_13
1005
0
  0
LINE
  5
58EC
330
58E8
100
AcDbEntity
  8
240
100
AcDbLine
 10
-34.0
 20
6.0
 30
0.0
 11
-29.0
 21
6.0
 31
0.0
  0
LINE
  5
58ED
330
58E8
100
AcDbEntity
  8
240
100
AcDbLine
 10
-34.0
 20
-6.0
 30
0.0
 11
-29.0
 21
-6.0
 31
0.0
  0
LINE
  5
58EE
330
58E8
100
AcDbEntity
  8
243
100
AcDbLine
 10
-36.5
 20
6.0
 30
0.0
 11
-36.5
 21
-6.0
 31
0.0
  0
LINE
  5
58EF
330
58E8
100
AcDbEntity
  8
240
100
AcDbLine
 10
-47.5
 20
-7.0
 30
0.0
 11
-47.5
 21
0.0
 31
0.0
  0
LINE
  5
58F0
330
58E8
100
AcDbEntity
  8
AM_7
100
AcDbLine
 10
-34.0
 20
-8.0
 30
0.0
 11
-34.0
 21
8.0
 31
0.0
  0
LINE
  5
58F1
330
58E8
100
AcDbEntity
  8
240
100
AcDbLine
 10
-46.5
 20
-8.0
 30
0.0
 11
-41.0
 21
-8.0
 31
0.0
  0
ARC
  5
58F2
330
58E8
100
AcDbEntity
  8
240
100
AcDbCircle
 10
-46.5
 20
-7.0
 30
0.0
 40
1.0
100
AcDbArc
 50
180.0
 51
270.0
  0
LINE
  5
58F3
330
58E8
100
AcDbEntity
  8
240
100
AcDbLine
 10
-39.0
 20
-6.0
 30
0.0
 11
-41.0
 21
-8.0
 31
0.0
  0
LINE
  5
58F4
330
58E8
100
AcDbEntity
  8
240
100
AcDbLine
 10
-39.0
 20
-6.0
 30
0.0
 11
-34.0
 21
-6.0
 31
0.0
  0
LINE
  5
58F5
330
58E8
100
AcDbEntity
  8
240
100
AcDbLine
 10
-46.5
 20
8.0
 30
0.0
 11
-41.0
 21
8.0
 31
0.0
  0
LINE
  5
58F6
330
58E8
100
AcDbEntity
  8
240
100
AcDbLine
 10
-47.5
 20
7.0
 30
0.0
 11
-47.5
 21
0.0
 31
0.0
  0
ARC
  5
58F7
330
58E8
100
AcDbEntity
  8
240
100
AcDbCircle
 10
-46.5
 20
7.0
 30
0.0
 40
1.0
100
AcDbArc
 50
90.0
 51
180.0
  0
LINE
  5
58F8
330
58E8
100
AcDbEntity
  8
240
100
AcDbLine
 10
-39.0
 20
6.0
 30
0.0
 11
-34.0
 21
6.0
 31
0.0
  0
LINE
  5
58F9
330
58E8
100
AcDbEntity
  8
240
100
AcDbLine
 10
-39.0
 20
6.0
 30
0.0
 11
-41.0
 21
8.0
 31
0.0
  0
TEXT
  5
58FA
330
58E8
100
AcDbEntity
  8
0
100
AcDbText
 10
5.696558
 20
-6.95673226
 30
0.0
 40
0.99
  1
MGT6-060049-30
 50
90.0
  7
YOKO
100
AcDbText
  0
LINE
  5
58FB
330
58E8
100
AcDbEntity
  8
0
100
AcDbLine
 10
1.44513129
 20
-1.76447583
 30
0.0
 11
1.44513129
 21
-1.42017404
 31
0.0
  0
LINE
  5
58FC
330
58E8
100
AcDbEntity
  8
0
100
AcDbLine
 10
2.27605905
 20
-1.48499892
 30
0.0
 11
1.69246244
 21
-0.90140232
 31
0.0
  0
LINE
  5
58FD
330
58E8
100
AcDbEntity
  8
0
100
AcDbLine
 10
2.94561786
 20
-1.67699205
 30
0.0
 11
1.6118534
 21
-1.29454079
 31
0.0
  0
LINE
  5
58FE
330
58E8
100
AcDbEntity
  8
0
100
AcDbLine
 10
3.19570102
 20
-1.76447583
 30
0.0
 11
3.19570102
 21
1.61996153
 31
0.0
  0
LINE
  5
58FF
330
58E8
100
AcDbEntity
  8
0
100
AcDbLine
 10
3.02897892
 20
-1.76447583
 30
0.0
 11
3.02897892
 21
1.61996153
 31
0.0
  0
LINE
  5
5900
330
58E8
100
AcDbEntity
  8
0
100
AcDbLine
 10
2.79541879
 20
-1.6339231
 30
0.0
 11
2.09000009
 21
-0.9285044
 31
0.0
  0
LINE
  5
5901
330
58E8
100
AcDbEntity
  8
0
100
AcDbLine
 10
2.53573892
 20
-1.55946101
 30
0.0
 11
1.95213986
 21
-0.97586195
 31
0.0
  0
LINE
  5
5902
330
58E8
100
AcDbEntity
  8
0
100
AcDbLine
 10
3.19570102
 20
-1.47855198
 30
0.0
 11
3.02897892
 21
-1.31182988
 31
0.0
  0
LINE
  5
5903
330
58E8
100
AcDbEntity
  8
0
100
AcDbLine
 10
2.94561786
 20
-1.67699205
 30
0.0
 11
2.94561786
 21
-0.98512803
 31
0.0
  0
LINE
  5
5904
330
58E8
100
AcDbEntity
  8
0
100
AcDbLine
 10
2.94561786
 20
-1.59890439
 30
0.0
 11
2.47150004
 21
-1.12478657
 31
0.0
  0
LINE
  5
5905
330
58E8
100
AcDbEntity
  8
0
100
AcDbLine
 10
1.6118534
 20
-1.56166441
 30
0.0
 11
1.4805062
 21
-1.43031721
 31
0.0
  0
LINE
  5
5906
330
58E8
100
AcDbEntity
  8
0
100
AcDbLine
 10
1.44513129
 20
-1.42017404
 30
0.0
 11
1.6118534
 21
-1.46797887
 31
0.0
  0
LINE
  5
5907
330
58E8
100
AcDbEntity
  8
240
100
AcDbLine
 10
30.0
 20
-7.0
 30
0.0
 11
30.0
 21
0.0
 31
0.0
  0
LINE
  5
5908
330
58E8
100
AcDbEntity
  8
241
100
AcDbLine
 10
13.0
 20
-8.15
 30
0.0
 11
13.0
 21
0.0
 31
0.0
  0
LINE
  5
5909
330
58E8
100
AcDbEntity
  8
241
100
AcDbLine
 10
14.2
 20
-8.0
 30
0.0
 11
14.2
 21
0.0
 31
0.0
  0
LINE
  5
590A
330
58E8
100
AcDbEntity
  8
241
100
AcDbLine
 10
10.0
 20
-6.2
 30
0.0
 11
10.0
 21
0.0
 31
0.0
  0
LINE
  5
590B
330
58E8
100
AcDbEntity
  8
241
100
AcDbLine
 10
11.0
 20
-6.2
 30
0.0
 11
11.0
 21
0.0
 31
0.0
  0
LINE
  5
590C
330
58E8
100
AcDbEntity
  8
243
100
AcDbLine
 10
-31.5
 20
6.0
 30
0.0
 11
-31.5
 21
-6.0
 31
0.0
  0
LINE
  5
590D
330
58E8
100
AcDbEntity
  8
241
100
AcDbLine
 10
-16.5
 20
-7.0
 30
0.0
 11
-16.5
 21
0.0
 31
0.0
  0
LINE
  5
590E
330
58E8
100
AcDbEntity
  8
241
100
AcDbLine
 10
-14.5
 20
-7.0
 30
0.0
 11
-14.5
 21
0.0
 31
0.0
  0
LINE
  5
590F
330
58E8
100
AcDbEntity
  8
AM_7
100
AcDbLine
 10
-20.0
 20
-0.7698914
 30
0.0
 11
-20.0
 21
-4.52866188
 31
0.0
  0
LINE
  5
5910
330
58E8
100
AcDbEntity
  8
241
100
AcDbLine
 10
-25.5
 20
-7.0
 30
0.0
 11
-25.5
 21
0.0
 31
0.0
  0
LINE
  5
5911
330
58E8
100
AcDbEntity
  8
241
100
AcDbLine
 10
-23.5
 20
-7.0
 30
0.0
 11
-23.5
 21
0.0
 31
0.0
  0
ELLIPSE
  5
5912
330
58E8
100
AcDbEntity
  8
241
100
AcDbEllipse
 10
-20.0
 20
-2.64927664
 30
0.0
 11
-2.000000000000023
 21
0.0
 31
0.0
210
0.0
220
0.0
230
1.0
 40
0.93969262
 41
0.0
 42
6.283185307179584
  0
LINE
  5
5913
330
58E8
100
AcDbEntity
  8
241
100
AcDbLine
 10
-4.0
 20
-10.0
 30
0.0
 11
-4.0
 21
0.0
 31
0.0
  0
LINE
  5
5914
330
58E8
100
AcDbEntity
  8
241
100
AcDbLine
 10
-2.0
 20
-10.0
 30
0.0
 11
-2.0
 21
0.0
 31
0.0
  0
LINE
  5
5915
330
58E8
100
AcDbEntity
  8
241
100
AcDbLine
 10
0.0
 20
-10.64125603
 30
0.0
 11
0.0
 21
0.0
 31
0.0
  0
LINE
  5
5916
330
58E8
100
AcDbEntity
  8
241
  6
CONTINUOUS
100
AcDbLine
 10
-6.5
 20
-10.50000001
 30
0.0
 11
-6.5
 21
0.0
 31
0.0
  0
LINE
  5
5917
330
58E8
100
AcDbEntity
  8
241
100
AcDbLine
 10
-5.12626129
 20
-11.0
 30
0.0
 11
-5.12626129
 21
0.0
 31
0.0
  0
LINE
  5
5918
330
58E8
100
AcDbEntity
  8
241
100
AcDbLine
 10
-11.0
 20
-8.0
 30
0.0
 11
-11.0
 21
0.0
 31
0.0
  0
LINE
  5
5919
330
58E8
100
AcDbEntity
  8
241
100
AcDbLine
 10
0.80384758
 20
-8.35874397
 30
0.0
 11
0.80384758
 21
0.0
 31
0.0
  0
LINE
  5
591A
330
58E8
100
AcDbEntity
  8
0
100
AcDbLine
 10
2.75795891
 20
-2.52255214
 30
0.0
 11
2.63485461
 21
-2.39944784
 31
0.0
  0
ARC
  5
591B
330
58E8
100
AcDbEntity
  8
0
100
AcDbCircle
 10
2.32041606
 20
-1.76447583
 30
0.0
 40
0.7085626602172834
100
AcDbArc
 50
180.0
 51
0.0
  0
ARC
  5
591C
330
58E8
100
AcDbEntity
  8
0
100
AcDbCircle
 10
2.32041606
 20
-1.76447583
 30
0.0
 40
0.8752847671508787
100
AcDbArc
 50
180.0
 51
0.0
  0
LINE
  5
591D
330
58E8
100
AcDbEntity
  8
240
100
AcDbLine
 10
1.57117457
 20
-8.0
 30
0.0
 11
10.0
 21
-8.0
 31
0.0
  0
ARC
  5
591E
330
58E8
100
AcDbEntity
  8
240
100
AcDbCircle
 10
-15.5
 20
-7.0
 30
0.0
 40
1.000000000003004
100
AcDbArc
 50
180.0
 51
0.0
  0
ARC
  5
591F
330
58E8
100
AcDbEntity
  8
240
100
AcDbCircle
 10
-24.5
 20
-7.0
 30
0.0
 40
1.000000000003004
100
AcDbArc
 50
180.0
 51
0.0
  0
LINE
  5
5920
330
58E8
100
AcDbEntity
  8
240
100
AcDbLine
 10
-29.0
 20
-6.0
 30
0.0
 11
-27.0
 21
-8.0
 31
0.0
  0
LINE
  5
5921
330
58E8
100
AcDbEntity
  8
240
100
AcDbLine
 10
-25.5
 20
-7.0
 30
0.0
 11
-25.5
 21
-8.0
 31
0.0
  0
LINE
  5
5922
330
58E8
100
AcDbEntity
  8
240
100
AcDbLine
 10
-27.0
 20
-8.0
 30
0.0
 11
-25.5
 21
-8.0
 31
0.0
  0
LINE
  5
5923
330
58E8
100
AcDbEntity
  8
240
100
AcDbLine
 10
-23.5
 20
-7.0
 30
0.0
 11
-23.5
 21
-8.0
 31
0.0
  0
LINE
  5
5924
330
58E8
100
AcDbEntity
  8
240
100
AcDbLine
 10
-16.5
 20
-7.0
 30
0.0
 11
-16.5
 21
-8.0
 31
0.0
  0
LINE
  5
5925
330
58E8
100
AcDbEntity
  8
240
100
AcDbLine
 10
-23.5
 20
-8.0
 30
0.0
 11
-16.5
 21
-8.0
 31
0.0
  0
LINE
  5
5926
330
58E8
100
AcDbEntity
  8
AM_7
100
AcDbLine
 10
-21.99786162
 20
-2.73616115
 30
0.0
 11
-18.00213838
 21
-2.73616115
 31
0.0
  0
LINE
  5
5927
330
58E8
100
AcDbEntity
  8
240
100
AcDbLine
 10
-6.5
 20
-10.50000001
 30
0.0
 11
-5.12626128
 21
-11.0
 31
0.0
  0
LINE
  5
5928
330
58E8
100
AcDbEntity
  8
240
100
AcDbLine
 10
-14.5
 20
-7.0
 30
0.0
 11
-14.5
 21
-8.0
 31
0.0
  0
LINE
  5
5929
330
58E8
100
AcDbEntity
  8
240
100
AcDbLine
 10
-10.7
 20
-7.7
 30
0.0
 11
-11.0
 21
-8.0
 31
0.0
  0
LINE
  5
592A
330
58E8
100
AcDbEntity
  8
240
100
AcDbLine
 10
-14.5
 20
-8.0
 30
0.0
 11
-11.0
 21
-8.0
 31
0.0
  0
LINE
  5
592B
330
58E8
100
AcDbEntity
  8
240
100
AcDbLine
 10
-10.0
 20
-10.5
 30
0.0
 11
-10.0
 21
-9.0
 31
0.0
  0
LINE
  5
592C
330
58E8
100
AcDbEntity
  8
240
100
AcDbLine
 10
-6.50000001
 20
-10.5
 30
0.0
 11
-10.0
 21
-10.5
 31
0.0
  0
LINE
  5
592D
330
58E8
100
AcDbEntity
  8
241
100
AcDbLine
 10
-6.5
 20
-8.2
 30
0.0
 11
-9.5
 21
-8.2
 31
0.0
  0
LINE
  5
592E
330
58E8
100
AcDbEntity
  8
240
100
AcDbLine
 10
-9.5
 20
-8.5
 30
0.0
 11
-10.0
 21
-9.0
 31
0.0
  0
LINE
  5
592F
330
58E8
100
AcDbEntity
  8
240
100
AcDbLine
 10
-10.7
 20
-7.7
 30
0.0
 11
-9.5
 21
-7.7
 31
0.0
  0
LINE
  5
5930
330
58E8
100
AcDbEntity
  8
240
100
AcDbLine
 10
-9.5
 20
-8.5
 30
0.0
 11
-9.5
 21
-7.7
 31
0.0
  0
LINE
  5
5931
330
58E8
100
AcDbEntity
  8
240
100
AcDbLine
 10
-0.63567449
 20
-11.0
 30
0.0
 11
-2.0
 21
-11.0
 31
0.0
  0
ARC
  5
5932
330
58E8
100
AcDbEntity
  8
240
100
AcDbCircle
 10
-3.0
 20
-10.0
 30
0.0
 40
1.000000000000075
100
AcDbArc
 50
180.0
 51
0.0
  0
LINE
  5
5933
330
58E8
100
AcDbEntity
  8
240
100
AcDbLine
 10
-4.0
 20
-11.0
 30
0.0
 11
-5.12626129
 21
-11.0
 31
0.0
  0
LINE
  5
5934
330
58E8
100
AcDbEntity
  8
240
100
AcDbLine
 10
-4.0
 20
-10.0
 30
0.0
 11
-4.0
 21
-11.0
 31
0.0
  0
LINE
  5
5935
330
58E8
100
AcDbEntity
  8
240
100
AcDbLine
 10
-2.0
 20
-10.0
 30
0.0
 11
-2.0
 21
-11.0
 31
0.0
  0
LINE
  5
5936
330
58E8
100
AcDbEntity
  8
240
100
AcDbLine
 10
0.19859884
 20
-10.25881905
 30
0.0
 11
0.60524874
 21
-8.74118096
 31
0.0
  0
LINE
  5
5937
330
58E8
100
AcDbEntity
  8
240
100
AcDbLine
 10
-0.50850794
 20
-10.96592583
 30
0.0
 11
-0.63567449
 21
-11.0
 31
0.0
  0
ARC
  5
5938
330
58E8
100
AcDbEntity
  8
240
100
AcDbCircle
 10
-0.76732699
 20
-10.0
 30
0.0
 40
1.0
100
AcDbArc
 50
285.0
 51
345.0
1001
GENIUS_GENOBJ-N-FIL_13
1002
{
1000
OWNER
1000
GEN
1002
}
1001
GENIUS_GENODEF_13
1002
{
1000
HIER
1070
     0
1002
}
1002
{
1000
MANEDIT
1070
     0
1002
}
1002
{
1000
NOSEL
1070
     0
1002
}
1002
{
1000
BEHIND
1070
     0
1002
}
1002
{
1000
OTHER
1070
     0
1002
}
1002
{
1000
REACTOR
1002
}
  0
ARC
  5
5939
330
58E8
100
AcDbEntity
  8
240
100
AcDbCircle
 10
1.57117457
 20
-9.0
 30
0.0
 40
1.0
100
AcDbArc
 50
90.0
 51
165.00000002
  0
LINE
  5
593A
330
58E8
100
AcDbEntity
  8
0
100
AcDbLine
 10
1.6118534
 20
-1.76447583
 30
0.0
 11
1.6118534
 21
-1.46797887
 31
0.0
  0
LINE
  5
593B
330
58E8
100
AcDbEntity
  8
0
100
AcDbLine
 10
2.31951356
 20
-2.63976013
 30
0.0
 11
2.12543724
 21
-2.44568381
 31
0.0
  0
LINE
  5
593C
330
58E8
100
AcDbEntity
  8
0
100
AcDbLine
 10
2.48845094
 20
-2.62347973
 30
0.0
 11
2.3377965
 21
-2.4728253
 31
0.0
  0
LINE
  5
593D
330
58E8
100
AcDbEntity
  8
0
100
AcDbLine
 10
2.63244365
 20
-2.58225466
 30
0.0
 11
2.50007304
 21
-2.44988405
 31
0.0
  0
LINE
  5
593E
330
58E8
100
AcDbEntity
  8
0
100
AcDbLine
 10
1.6118534
 20
-1.74688219
 30
0.0
 11
1.44513129
 21
-1.58016008
 31
0.0
  0
LINE
  5
593F
330
58E8
100
AcDbEntity
  8
0
100
AcDbLine
 10
2.1081738
 20
-2.61363815
 30
0.0
 11
1.47125374
 21
-1.97671809
 31
0.0
  0
LINE
  5
5940
330
58E8
100
AcDbEntity
  8
0
100
AcDbLine
 10
1.63920809
 20
-1.95945466
 30
0.0
 11
1.44513175
 21
-1.76537834
 31
0.0
  0
LINE
  5
5941
330
58E8
100
AcDbEntity
  8
240
100
AcDbLine
 10
13.15
 20
-8.0
 30
0.0
 11
29.0
 21
-8.0
 31
0.0
  0
LINE
  5
5942
330
58E8
100
AcDbEntity
  8
240
100
AcDbLine
 10
11.0
 20
-8.15
 30
0.0
 11
13.0
 21
-8.15
 31
0.0
  0
LINE
  5
5943
330
58E8
100
AcDbEntity
  8
240
100
AcDbLine
 10
11.0
 20
-6.2
 30
0.0
 11
11.0
 21
-8.15
 31
0.0
  0
LINE
  5
5944
330
58E8
100
AcDbEntity
  8
240
100
AcDbLine
 10
10.0
 20
-6.2
 30
0.0
 11
10.0
 21
-8.0
 31
0.0
  0
LINE
  5
5945
330
58E8
100
AcDbEntity
  8
0
100
AcDbLine
 10
3.19570102
 20
-1.66376976
 30
0.0
 11
3.02897892
 21
-1.49704767
 31
0.0
  0
LINE
  5
5946
330
58E8
100
AcDbEntity
  8
0
100
AcDbLine
 10
3.16299687
 20
-2.00150118
 30
0.0
 11
3.02238819
 21
-1.8608925
 31
0.0
  0
LINE
  5
5947
330
58E8
100
AcDbEntity
  8
0
100
AcDbLine
 10
2.86796886
 20
-2.4473443
 30
0.0
 11
2.74919849
 21
-2.32857394
 31
0.0
  0
LINE
  5
5948
330
58E8
100
AcDbEntity
  8
0
100
AcDbLine
 10
2.96378377
 20
-2.35794143
 30
0.0
 11
2.84577492
 21
-2.23993258
 31
0.0
  0
LINE
  5
5949
330
58E8
100
AcDbEntity
  8
0
100
AcDbLine
 10
3.04562835
 20
-2.25456822
 30
0.0
 11
2.92501828
 21
-2.13395816
 31
0.0
  0
LINE
  5
594A
330
58E8
100
AcDbEntity
  8
0
100
AcDbLine
 10
3.11272816
 20
-2.13645025
 30
0.0
 11
2.98540308
 21
-2.00912518
 31
0.0
  0
LINE
  5
594B
330
58E8
100
AcDbEntity
  8
0
100
AcDbLine
 10
3.19196561
 20
-1.84525214
 30
0.0
 11
3.02897892
 21
-1.68226545
 31
0.0
  0
LINE
  5
594C
330
58E8
100
AcDbEntity
  8
240
100
AcDbLine
 10
11.0
 20
-6.2
 30
0.0
 11
10.0
 21
-6.2
 31
0.0
  0
LINE
  5
594D
330
58E8
100
AcDbEntity
  8
240
100
AcDbLine
 10
13.15
 20
-8.0
 30
0.0
 11
13.0
 21
-8.15
 31
0.0
  0
ARC
  5
594E
330
58E8
100
AcDbEntity
  8
240
100
AcDbCircle
 10
29.0
 20
-7.0
 30
0.0
 40
1.0
100
AcDbArc
 50
270.0
 51
0.0
1001
GENIUS_GENODEF_13
1002
{
1000
HIER
1070
     0
1002
}
1002
{
1000
MANEDIT
1070
     0
1002
}
1002
{
1000
NOSEL
1070
     0
1002
}
1002
{
1000
BEHIND
1070
     0
1002
}
1002
{
1000
OTHER
1070
     0
1002
}
1002
{
1000
REACTOR
1002
}
1001
GENIUS_GENOBJ-N-FIL_13
1002
{
1000
OWNER
1000
GEN
1002
}
  0
LINE
  5
594F
330
58E8
100
AcDbEntity
  8
0
100
AcDbLine
 10
2.93533008
 20
-0.47730992
 30
0.0
 11
2.41252096
 21
0.04549921
 31
0.0
  0
LINE
  5
5950
330
58E8
100
AcDbEntity
  8
0
100
AcDbLine
 10
2.94561786
 20
-0.30237992
 30
0.0
 11
2.67220034
 21
-0.02896239
 31
0.0
  0
LINE
  5
5951
330
58E8
100
AcDbEntity
  8
0
100
AcDbLine
 10
2.94561786
 20
-0.48025991
 30
0.0
 11
1.62852057
 21
-0.102586
 31
0.0
  0
LINE
  5
5952
330
58E8
100
AcDbEntity
  8
0
100
AcDbLine
 10
1.62852057
 20
-0.102586
 30
0.0
 11
2.94561786
 21
-0.48025991
 31
0.0
  0
LINE
  5
5953
330
58E8
100
AcDbEntity
  8
0
100
AcDbLine
 10
1.62852057
 20
-0.102586
 30
0.0
 11
2.94561786
 21
-0.48025991
 31
0.0
1001
HATCH_DISTANCE
1040
1.0
1001
HATCH_DISPLAY
1070
     0
1001
HATCH_TYPE
1070
     7
  0
ARC
  5
5954
330
58E8
100
AcDbEntity
  8
0
100
AcDbCircle
 10
2.40377711
 20
0.75910949
 30
0.0
 40
0.5418468475341799
100
AcDbArc
 50
253.9997507
 51
34.96387329
  0
LINE
  5
5955
330
58E8
100
AcDbEntity
  8
0
100
AcDbLine
 10
2.94561786
 20
1.16741752
 30
0.0
 11
2.09533996
 21
1.41123161
 31
0.0
  0
LINE
  5
5956
330
58E8
100
AcDbEntity
  8
0
100
AcDbLine
 10
2.88121823
 20
0.50289085
 30
0.0
 11
2.73564055
 21
0.64846852
 31
0.0
  0
LINE
  5
5957
330
58E8
100
AcDbEntity
  8
0
100
AcDbLine
 10
2.93180578
 20
0.63752109
 30
0.0
 11
2.73607129
 21
0.83325557
 31
0.0
  0
LINE
  5
5958
330
58E8
100
AcDbEntity
  8
0
100
AcDbLine
 10
2.85898417
 20
1.08077825
 30
0.0
 11
2.70268472
 21
1.23707771
 31
0.0
  0
LINE
  5
5959
330
58E8
100
AcDbEntity
  8
0
100
AcDbLine
 10
3.14898846
 20
1.90208066
 30
0.0
 11
2.60253518
 21
2.44853394
 31
0.0
  0
LINE
  5
595A
330
58E8
100
AcDbEntity
  8
0
100
AcDbLine
 10
2.80449988
 20
0.39439142
 30
0.0
 11
2.62792876
 21
0.57096254
 31
0.0
  0
LINE
  5
595B
330
58E8
100
AcDbEntity
  8
0
100
AcDbLine
 10
2.94308959
 20
0.81145506
 30
0.0
 11
2.44300461
 21
1.31154004
 31
0.0
  0
ARC
  5
595C
330
58E8
100
AcDbEntity
  8
0
100
AcDbCircle
 10
2.58716639
 20
0.74120864
 30
0.0
 40
0.1750580057501793
100
AcDbArc
 50
254.00027306
 51
74.00027306
  0
ARC
  5
595D
330
58E8
100
AcDbEntity
  8
0
100
AcDbCircle
 10
2.32041606
 20
1.61996153
 30
0.0
 40
0.7085626602172834
100
AcDbArc
 50
0.0
 51
194.1274365
  0
LINE
  5
595E
330
58E8
100
AcDbEntity
  8
0
100
AcDbLine
 10
2.94561786
 20
-1.04325105
 30
0.0
 11
2.47427956
 21
-0.57191275
 31
0.0
  0
LINE
  5
595F
330
58E8
100
AcDbEntity
  8
0
100
AcDbLine
 10
2.94561786
 20
-1.22846883
 30
0.0
 11
2.33387654
 21
-0.61672751
 31
0.0
  0
ARC
  5
5960
330
58E8
100
AcDbEntity
  8
0
100
AcDbCircle
 10
2.51214523
 20
-1.17112943
 30
0.0
 40
0.2500833325088025
100
AcDbArc
 50
351.66285421
 51
156.33819216
  0
ARC
  5
5961
330
58E8
100
AcDbEntity
  8
0
100
AcDbCircle
 10
2.5288187
 20
-0.98512803
 30
0.0
 40
0.4167989730834963
100
AcDbArc
 50
0.0
 51
130.32984065
  0
LINE
  5
5962
330
58E8
100
AcDbEntity
  8
0
100
AcDbLine
 10
2.94561786
 20
-1.41368661
 30
0.0
 11
2.73117607
 21
-1.19924482
 31
0.0
  0
LINE
  5
5963
330
58E8
100
AcDbEntity
  8
0
100
AcDbLine
 10
2.28308629
 20
-1.07076172
 30
0.0
 11
2.75958568
 21
-1.20739086
 31
0.0
  0
LINE
  5
5964
330
58E8
100
AcDbEntity
  8
0
100
AcDbLine
 10
2.9143682
 20
-0.8267836
 30
0.0
 11
2.68716311
 21
-0.59957851
 31
0.0
  0
LINE
  5
5965
330
58E8
100
AcDbEntity
  8
0
100
AcDbLine
 10
2.94561786
 20
-0.10736333
 30
0.0
 11
1.44513129
 21
0.32289275
 31
0.0
  0
LINE
  5
5966
330
58E8
100
AcDbEntity
  8
0
100
AcDbLine
 10
2.94561786
 20
-0.10736333
 30
0.0
 11
1.44513129
 21
0.32289275
 31
0.0
1001
HATCH_DISTANCE
1040
1.0
1001
HATCH_DISPLAY
1070
     0
1001
HATCH_TYPE
1070
     7
  0
LINE
  5
5967
330
58E8
100
AcDbEntity
  8
0
100
AcDbLine
 10
2.94561786
 20
-0.10736333
 30
0.0
 11
1.44513129
 21
0.32289275
 31
0.0
  0
ARC
  5
5968
330
58E8
100
AcDbEntity
  8
0
100
AcDbCircle
 10
2.32041606
 20
1.61996153
 30
0.0
 40
0.8752847671508787
100
AcDbArc
 50
0.0
 51
194.77079397
  0
LINE
  5
5969
330
58E8
100
AcDbEntity
  8
240
100
AcDbLine
 10
1.57117457
 20
8.0
 30
0.0
 11
10.0
 21
8.0
 31
0.0
  0
ARC
  5
596A
330
58E8
100
AcDbEntity
  8
240
100
AcDbCircle
 10
-15.5
 20
7.0
 30
0.0
 40
1.000000000003004
100
AcDbArc
 50
0.0
 51
180.0
  0
ARC
  5
596B
330
58E8
100
AcDbEntity
  8
240
100
AcDbCircle
 10
-24.5
 20
7.0
 30
0.0
 40
1.000000000003004
100
AcDbArc
 50
0.0
 51
180.0
  0
LINE
  5
596C
330
58E8
100
AcDbEntity
  8
241
100
AcDbLine
 10
-25.5
 20
7.0
 30
0.0
 11
-25.5
 21
0.0
 31
0.0
  0
LINE
  5
596D
330
58E8
100
AcDbEntity
  8
240
100
AcDbLine
 10
-29.0
 20
6.0
 30
0.0
 11
-27.0
 21
8.0
 31
0.0
  0
LINE
  5
596E
330
58E8
100
AcDbEntity
  8
240
100
AcDbLine
 10
-27.0
 20
8.0
 30
0.0
 11
-25.5
 21
8.0
 31
0.0
  0
LINE
  5
596F
330
58E8
100
AcDbEntity
  8
240
100
AcDbLine
 10
-25.5
 20
7.0
 30
0.0
 11
-25.5
 21
8.0
 31
0.0
  0
LINE
  5
5970
330
58E8
100
AcDbEntity
  8
241
100
AcDbLine
 10
-16.5
 20
7.0
 30
0.0
 11
-16.5
 21
0.0
 31
0.0
  0
LINE
  5
5971
330
58E8
100
AcDbEntity
  8
241
100
AcDbLine
 10
-23.5
 20
7.0
 30
0.0
 11
-23.5
 21
0.0
 31
0.0
  0
LINE
  5
5972
330
58E8
100
AcDbEntity
  8
240
100
AcDbLine
 10
-23.5
 20
8.0
 30
0.0
 11
-16.5
 21
8.0
 31
0.0
  0
LINE
  5
5973
330
58E8
100
AcDbEntity
  8
240
100
AcDbLine
 10
-23.5
 20
7.0
 30
0.0
 11
-23.5
 21
8.0
 31
0.0
  0
LINE
  5
5974
330
58E8
100
AcDbEntity
  8
240
100
AcDbLine
 10
-16.5
 20
7.0
 30
0.0
 11
-16.5
 21
8.0
 31
0.0
  0
LINE
  5
5975
330
58E8
100
AcDbEntity
  8
241
100
AcDbLine
 10
-5.12626129
 20
11.0
 30
0.0
 11
-5.12626129
 21
0.0
 31
0.0
  0
LINE
  5
5976
330
58E8
100
AcDbEntity
  8
241
100
AcDbLine
 10
0.0
 20
10.64125603
 30
0.0
 11
0.0
 21
0.0
 31
0.0
  0
ARC
  5
5977
330
58E8
100
AcDbEntity
  8
240
100
AcDbCircle
 10
-3.0
 20
10.0
 30
0.0
 40
1.000000000000075
100
AcDbArc
 50
0.0
 51
180.0
  0
LINE
  5
5978
330
58E8
100
AcDbEntity
  8
240
100
AcDbLine
 10
-4.0
 20
10.0
 30
0.0
 11
-4.0
 21
11.0
 31
0.0
  0
LINE
  5
5979
330
58E8
100
AcDbEntity
  8
240
100
AcDbLine
 10
-6.50000001
 20
10.5
 30
0.0
 11
-5.12626128
 21
11.0
 31
0.0
  0
LINE
  5
597A
330
58E8
100
AcDbEntity
  8
240
100
AcDbLine
 10
-2.0
 20
10.0
 30
0.0
 11
-2.0
 21
11.0
 31
0.0
  0
ARC
  5
597B
330
58E8
100
AcDbEntity
  8
240
100
AcDbCircle
 10
-0.76732699
 20
10.0
 30
0.0
 40
1.0
100
AcDbArc
 50
15.0
 51
75.0
1001
GENIUS_GENOBJ-N-FIL_13
1002
{
1000
OWNER
1000
GEN
1002
}
1001
GENIUS_GENODEF_13
1002
{
1000
HIER
1070
     0
1002
}
1002
{
1000
MANEDIT
1070
     0
1002
}
1002
{
1000
NOSEL
1070
     0
1002
}
1002
{
1000
BEHIND
1070
     0
1002
}
1002
{
1000
OTHER
1070
     0
1002
}
1002
{
1000
REACTOR
1002
}
  0
LINE
  5
597C
330
58E8
100
AcDbEntity
  8
241
100
AcDbLine
 10
-14.5
 20
7.0
 30
0.0
 11
-14.5
 21
0.0
 31
0.0
  0
LINE
  5
597D
330
58E8
100
AcDbEntity
  8
241
100
AcDbLine
 10
-11.0
 20
8.0
 30
0.0
 11
-11.0
 21
0.0
 31
0.0
  0
LINE
  5
597E
330
58E8
100
AcDbEntity
  8
241
  6
CONTINUOUS
100
AcDbLine
 10
-6.5
 20
10.50000001
 30
0.0
 11
-6.5
 21
0.0
 31
0.0
  0
LINE
  5
597F
330
58E8
100
AcDbEntity
  8
240
100
AcDbLine
 10
-10.7
 20
7.7
 30
0.0
 11
-11.0
 21
8.0
 31
0.0
  0
LINE
  5
5980
330
58E8
100
AcDbEntity
  8
240
100
AcDbLine
 10
-14.5
 20
8.0
 30
0.0
 11
-11.0
 21
8.0
 31
0.0
  0
LINE
  5
5981
330
58E8
100
AcDbEntity
  8
240
100
AcDbLine
 10
-14.5
 20
7.0
 30
0.0
 11
-14.5
 21
8.0
 31
0.0
  0
LINE
  5
5982
330
58E8
100
AcDbEntity
  8
240
100
AcDbLine
 10
-6.50000001
 20
10.5
 30
0.0
 11
-10.0
 21
10.5
 31
0.0
  0
LINE
  5
5983
330
58E8
100
AcDbEntity
  8
241
100
AcDbLine
 10
-6.5
 20
8.2
 30
0.0
 11
-9.5
 21
8.2
 31
0.0
  0
LINE
  5
5984
330
58E8
100
AcDbEntity
  8
240
100
AcDbLine
 10
-9.5
 20
8.5
 30
0.0
 11
-9.5
 21
7.7
 31
0.0
  0
LINE
  5
5985
330
58E8
100
AcDbEntity
  8
240
100
AcDbLine
 10
-10.7
 20
7.7
 30
0.0
 11
-9.5
 21
7.7
 31
0.0
  0
LINE
  5
5986
330
58E8
100
AcDbEntity
  8
240
100
AcDbLine
 10
-9.5
 20
8.5
 30
0.0
 11
-10.0
 21
9.0
 31
0.0
  0
LINE
  5
5987
330
58E8
100
AcDbEntity
  8
240
100
AcDbLine
 10
-10.0
 20
10.5
 30
0.0
 11
-10.0
 21
9.0
 31
0.0
  0
LINE
  5
5988
330
58E8
100
AcDbEntity
  8
241
100
AcDbLine
 10
0.80384758
 20
8.35874397
 30
0.0
 11
0.80384758
 21
0.0
 31
0.0
  0
LINE
  5
5989
330
58E8
100
AcDbEntity
  8
241
100
AcDbLine
 10
-2.0
 20
10.0
 30
0.0
 11
-2.0
 21
0.0
 31
0.0
  0
LINE
  5
598A
330
58E8
100
AcDbEntity
  8
241
100
AcDbLine
 10
-4.0
 20
10.0
 30
0.0
 11
-4.0
 21
0.0
 31
0.0
  0
LINE
  5
598B
330
58E8
100
AcDbEntity
  8
0
100
AcDbLine
 10
1.6118534
 20
-1.38126298
 30
0.0
 11
1.6118534
 21
-1.29454079
 31
0.0
  0
LINE
  5
598C
330
58E8
100
AcDbEntity
  8
0
100
AcDbLine
 10
1.62852057
 20
-0.16329404
 30
0.0
 11
1.62852057
 21
-0.102586
 31
0.0
  0
LINE
  5
598D
330
58E8
100
AcDbEntity
  8
0
100
AcDbLine
 10
1.62852057
 20
-0.16329404
 30
0.0
 11
1.62852057
 21
-0.102586
 31
0.0
1001
HATCH_DISTANCE
1040
1.0
1001
HATCH_DISPLAY
1070
     0
1001
HATCH_TYPE
1070
     7
  0
LINE
  5
598E
330
58E8
100
AcDbEntity
  8
0
100
AcDbLine
 10
1.62852057
 20
-0.16329404
 30
0.0
 11
1.62852057
 21
-0.102586
 31
0.0
  0
LINE
  5
598F
330
58E8
100
AcDbEntity
  8
0
100
AcDbLine
 10
1.8966625
 20
-0.73516681
 30
0.0
 11
1.61766915
 21
-0.45617346
 31
0.0
  0
LINE
  5
5990
330
58E8
100
AcDbEntity
  8
0
100
AcDbLine
 10
1.73281375
 20
-0.75653585
 30
0.0
 11
1.52492361
 21
-0.54864571
 31
0.0
  0
LINE
  5
5991
330
58E8
100
AcDbEntity
  8
0
100
AcDbLine
 10
2.33818139
 20
-0.99146792
 30
0.0
 11
1.74156987
 21
-0.3948564
 31
0.0
  0
LINE
  5
5992
330
58E8
100
AcDbEntity
  8
0
100
AcDbLine
 10
2.4587451
 20
-0.92681385
 30
0.0
 11
1.91205629
 21
-0.38012503
 31
0.0
  0
ARC
  5
5993
330
58E8
100
AcDbEntity
  8
0
100
AcDbCircle
 10
1.84526309
 20
-0.9799038
 30
0.0
 40
0.2500761777162554
100
AcDbArc
 50
351.66260169
 51
156.3381551
  0
LINE
  5
5994
330
58E8
100
AcDbEntity
  8
0
100
AcDbLine
 10
1.61621109
 20
-0.87953808
 30
0.0
 11
2.09269636
 21
-1.01616498
 31
0.0
  0
LINE
  5
5995
330
58E8
100
AcDbEntity
  8
0
100
AcDbLine
 10
2.15628887
 20
-0.25392206
 30
0.0
 11
1.63348281
 21
0.26888402
 31
0.0
  0
LINE
  5
5996
330
58E8
100
AcDbEntity
  8
0
100
AcDbLine
 10
2.41596928
 20
-0.32838468
 30
0.0
 11
1.89316218
 21
0.19442241
 31
0.0
  0
LINE
  5
5997
330
58E8
100
AcDbEntity
  8
0
100
AcDbLine
 10
2.58129056
 20
0.24716518
 30
0.0
 11
2.14159309
 21
0.68686264
 31
0.0
  0
LINE
  5
5998
330
58E8
100
AcDbEntity
  8
0
100
AcDbLine
 10
2.26206206
 20
0.93682923
 30
0.0
 11
2.09533996
 21
1.10355134
 31
0.0
  0
LINE
  5
5999
330
58E8
100
AcDbEntity
  8
0
100
AcDbLine
 10
2.40997978
 20
0.9741293
 30
0.0
 11
2.09533996
 21
1.28876912
 31
0.0
  0
LINE
  5
599A
330
58E8
100
AcDbEntity
  8
0
100
AcDbLine
 10
2.67921333
 20
0.89011354
 30
0.0
 11
2.1833245
 21
1.38600236
 31
0.0
  0
LINE
  5
599B
330
58E8
100
AcDbEntity
  8
0
100
AcDbLine
 10
2.26206206
 20
0.87779388
 30
0.0
 11
2.09533996
 21
0.92559871
 31
0.0
  0
LINE
  5
599C
330
58E8
100
AcDbEntity
  8
0
100
AcDbLine
 10
2.35285217
 20
2.32778139
 30
0.0
 11
2.19449264
 21
2.48614091
 31
0.0
  0
LINE
  5
599D
330
58E8
100
AcDbEntity
  8
0
100
AcDbLine
 10
2.09533996
 20
0.92559871
 30
0.0
 11
2.09533996
 21
1.41123161
 31
0.0
  0
LINE
  5
599E
330
58E8
100
AcDbEntity
  8
0
100
AcDbLine
 10
2.18078568
 20
2.31463009
 30
0.0
 11
2.04472193
 21
2.45069384
 31
0.0
  0
LINE
  5
599F
330
58E8
100
AcDbEntity
  8
0
100
AcDbLine
 10
2.26206206
 20
0.87779388
 30
0.0
 11
2.26206206
 21
1.01654434
 31
0.0
  0
LINE
  5
59A0
330
58E8
100
AcDbEntity
  8
0
100
AcDbLine
 10
2.63541812
 20
0.90948543
 30
0.0
 11
2.26206206
 21
1.01654434
 31
0.0
  0
LINE
  5
59A1
330
58E8
100
AcDbEntity
  8
0
100
AcDbLine
 10
2.5910459
 20
2.27480544
 30
0.0
 11
2.37213431
 21
2.49371702
 31
0.0
  0
LINE
  5
59A2
330
58E8
100
AcDbEntity
  8
0
100
AcDbLine
 10
2.70498019
 20
0.30869332
 30
0.0
 11
2.40127344
 21
0.61240007
 31
0.0
  0
LINE
  5
59A3
330
58E8
100
AcDbEntity
  8
0
100
AcDbLine
 10
1.63327903
 20
1.44701442
 30
0.0
 11
1.63327903
 21
1.44701442
 31
0.0
  0
LINE
  5
59A4
330
58E8
100
AcDbEntity
  8
0
100
AcDbLine
 10
1.63327903
 20
1.44701442
 30
0.0
 11
1.63327903
 21
1.44701442
 31
0.0
1001
HATCH_DISTANCE
1040
1.0
1001
HATCH_DISPLAY
1070
     0
1001
HATCH_TYPE
1070
     7
  0
LINE
  5
59A5
330
58E8
100
AcDbEntity
  8
0
100
AcDbLine
 10
1.63327903
 20
1.44701442
 30
0.0
 11
1.63327903
 21
1.44701442
 31
0.0
  0
LINE
  5
59A6
330
58E8
100
AcDbEntity
  8
0
100
AcDbLine
 10
1.63327903
 20
1.44701442
 30
0.0
 11
1.63327903
 21
1.44701442
 31
0.0
1001
HATCH_DISTANCE
1040
1.0
1001
HATCH_DISPLAY
1070
     0
1001
HATCH_TYPE
1070
     7
  0
LINE
  5
59A7
330
58E8
100
AcDbEntity
  8
0
100
AcDbLine
 10
1.63397888
 20
1.00925907
 30
0.0
 11
1.50913851
 21
1.13409944
 31
0.0
  0
LINE
  5
59A8
330
58E8
100
AcDbEntity
  8
0
100
AcDbLine
 10
1.71284712
 20
1.11560861
 30
0.0
 11
1.50826923
 21
1.3201865
 31
0.0
  0
LINE
  5
59A9
330
58E8
100
AcDbEntity
  8
0
100
AcDbLine
 10
1.66644187
 20
1.34723164
 30
0.0
 11
1.6490835
 21
1.36459001
 31
0.0
  0
ARC
  5
59AA
330
58E8
100
AcDbEntity
  8
0
100
AcDbCircle
 10
2.32041606
 20
1.61996153
 30
0.0
 40
0.7085646271705615
100
AcDbArc
 50
200.8721834
 51
222.54194894
  0
ARC
  5
59AB
330
58E8
100
AcDbEntity
  8
0
100
AcDbCircle
 10
1.80358256
 20
0.9659008
 30
0.0
 40
0.1750581286847591
100
AcDbArc
 50
91.71012138
 51
253.99839835
  0
LINE
  5
59AC
330
58E8
100
AcDbEntity
  8
0
100
AcDbLine
 10
1.66947597
 20
1.89985089
 30
0.0
 11
1.5444315
 21
2.02489535
 31
0.0
  0
LINE
  5
59AD
330
58E8
100
AcDbEntity
  8
0
100
AcDbLine
 10
1.73516123
 20
2.01938341
 30
0.0
 11
1.61559417
 21
2.13895048
 31
0.0
  0
LINE
  5
59AE
330
58E8
100
AcDbEntity
  8
0
100
AcDbLine
 10
1.81907911
 20
2.12068332
 30
0.0
 11
1.70118875
 21
2.23857367
 31
0.0
  0
LINE
  5
59AF
330
58E8
100
AcDbEntity
  8
0
100
AcDbLine
 10
1.92026331
 20
2.20471689
 30
0.0
 11
1.80071885
 21
2.32426136
 31
0.0
  0
LINE
  5
59B0
330
58E8
100
AcDbEntity
  8
0
100
AcDbLine
 10
2.42553816
 20
0.21769978
 30
0.0
 11
1.88191273
 21
0.76132522
 31
0.0
  0
ARC
  5
59B1
330
58E8
100
AcDbEntity
  8
0
100
AcDbCircle
 10
2.43226489
 20
1.64500006
 30
0.0
 40
1.417943572998046
100
AcDbArc
 50
245.20517737
 51
262.79482596
  0
LINE
  5
59B2
330
58E8
100
AcDbEntity
  8
0
100
AcDbLine
 10
2.53891467
 20
0.57293185
 30
0.0
 11
1.75532455
 21
0.79762401
 31
0.0
  0
LINE
  5
59B3
330
58E8
100
AcDbEntity
  8
0
100
AcDbLine
 10
2.03966678
 20
2.2705312
 30
0.0
 11
1.91467413
 21
2.39552386
 31
0.0
  0
LINE
  5
59B4
330
58E8
100
AcDbEntity
  8
0
100
AcDbLine
 10
2.67564968
 20
-0.4028473
 30
0.0
 11
2.15284157
 21
0.11996081
 31
0.0
  0
LINE
  5
59B5
330
58E8
100
AcDbEntity
  8
0
100
AcDbLine
 10
1.44513129
 20
0.32289275
 30
0.0
 11
1.44513129
 21
-0.11070558
 31
0.0
  0
LINE
  5
59B6
330
58E8
100
AcDbEntity
  8
0
100
AcDbLine
 10
1.44513129
 20
0.32289275
 30
0.0
 11
1.44513129
 21
-0.11070558
 31
0.0
1001
HATCH_DISTANCE
1040
1.0
1001
HATCH_DISPLAY
1070
     0
1001
HATCH_TYPE
1070
     7
  0
LINE
  5
59B7
330
58E8
100
AcDbEntity
  8
0
100
AcDbLine
 10
1.44513129
 20
-0.11070558
 30
0.0
 11
1.44513129
 21
0.32289275
 31
0.0
  0
LINE
  5
59B8
330
58E8
100
AcDbEntity
  8
0
100
AcDbLine
 10
1.47405337
 20
1.39680518
 30
0.0
 11
1.47405337
 21
1.39680518
 31
0.0
  0
LINE
  5
59B9
330
58E8
100
AcDbEntity
  8
0
100
AcDbLine
 10
1.47405337
 20
1.39680518
 30
0.0
 11
1.47405337
 21
1.39680518
 31
0.0
1001
HATCH_DISTANCE
1040
1.0
1001
HATCH_DISPLAY
1070
     0
1001
HATCH_TYPE
1070
     7
  0
LINE
  5
59BA
330
58E8
100
AcDbEntity
  8
0
100
AcDbLine
 10
1.47405337
 20
1.39680518
 30
0.0
 11
1.47405337
 21
1.39680518
 31
0.0
  0
LINE
  5
59BB
330
58E8
100
AcDbEntity
  8
0
100
AcDbLine
 10
1.47405337
 20
1.39680518
 30
0.0
 11
1.47405337
 21
1.39680518
 31
0.0
1001
HATCH_DISTANCE
1040
1.0
1001
HATCH_DISPLAY
1070
     0
1001
HATCH_TYPE
1070
     7
  0
LINE
  5
59BC
330
58E8
100
AcDbEntity
  8
0
100
AcDbLine
 10
1.44513129
 20
-1.33345814
 30
0.0
 11
1.44513129
 21
-0.79562037
 31
0.0
  0
LINE
  5
59BD
330
58E8
100
AcDbEntity
  8
0
100
AcDbLine
 10
1.46235934
 20
-0.11564587
 30
0.0
 11
1.44513129
 21
-0.09841782
 31
0.0
  0
LINE
  5
59BE
330
58E8
100
AcDbEntity
  8
0
100
AcDbLine
 10
1.89660847
 20
-0.17945944
 30
0.0
 11
1.44513129
 21
0.27201774
 31
0.0
  0
ARC
  5
59BF
330
58E8
100
AcDbEntity
  8
0
100
AcDbCircle
 10
1.98697184
 20
0.87862472
 30
0.0
 40
0.5418413400650026
100
AcDbArc
 50
143.4440122
 51
254.00018439
  0
LINE
  5
59C0
330
58E8
100
AcDbEntity
  8
0
100
AcDbLine
 10
1.58263034
 20
1.43104317
 30
0.0
 11
1.44673903
 21
1.56693448
 31
0.0
  0
LINE
  5
59C1
330
58E8
100
AcDbEntity
  8
0
100
AcDbLine
 10
1.47405337
 20
1.39680518
 30
0.0
 11
1.63327903
 21
1.44701442
 31
0.0
  0
LINE
  5
59C2
330
58E8
100
AcDbEntity
  8
0
100
AcDbLine
 10
1.63327903
 20
1.44701442
 30
0.0
 11
1.47405337
 21
1.39680518
 31
0.0
  0
LINE
  5
59C3
330
58E8
100
AcDbEntity
  8
0
100
AcDbLine
 10
1.47405337
 20
1.39680518
 30
0.0
 11
1.63327903
 21
1.44701442
 31
0.0
1001
HATCH_DISTANCE
1040
1.0
1001
HATCH_DISPLAY
1070
     0
1001
HATCH_TYPE
1070
     7
  0
LINE
  5
59C4
330
58E8
100
AcDbEntity
  8
0
100
AcDbLine
 10
1.63327903
 20
1.44701442
 30
0.0
 11
1.47405337
 21
1.39680518
 31
0.0
1001
HATCH_DISTANCE
1040
1.0
1001
HATCH_DISPLAY
1070
     0
1001
HATCH_TYPE
1070
     7
  0
LINE
  5
59C5
330
58E8
100
AcDbEntity
  8
0
100
AcDbLine
 10
1.47405337
 20
1.39680518
 30
0.0
 11
1.63327903
 21
1.44701442
 31
0.0
  0
LINE
  5
59C6
330
58E8
100
AcDbEntity
  8
0
100
AcDbLine
 10
1.63327903
 20
1.44701442
 30
0.0
 11
1.47405337
 21
1.39680518
 31
0.0
  0
LINE
  5
59C7
330
58E8
100
AcDbEntity
  8
0
100
AcDbLine
 10
1.47405337
 20
1.39680518
 30
0.0
 11
1.63327903
 21
1.44701442
 31
0.0
1001
HATCH_DISTANCE
1040
1.0
1001
HATCH_DISPLAY
1070
     0
1001
HATCH_TYPE
1070
     7
  0
LINE
  5
59C8
330
58E8
100
AcDbEntity
  8
0
100
AcDbLine
 10
1.63327903
 20
1.44701442
 30
0.0
 11
1.47405337
 21
1.39680518
 31
0.0
1001
HATCH_DISTANCE
1040
1.0
1001
HATCH_DISPLAY
1070
     0
1001
HATCH_TYPE
1070
     7
  0
LINE
  5
59C9
330
58E8
100
AcDbEntity
  8
0
100
AcDbLine
 10
1.65834903
 20
1.36751174
 30
0.0
 11
1.49912337
 21
1.31730251
 31
0.0
  0
ARC
  5
59CA
330
58E8
100
AcDbEntity
  8
0
100
AcDbCircle
 10
2.32041606
 20
1.61996153
 30
0.0
 40
0.875285160541533
100
AcDbArc
 50
200.22964506
 51
208.57168892
  0
LINE
  5
59CB
330
58E8
100
AcDbEntity
  8
0
100
AcDbLine
 10
1.63327903
 20
1.44701442
 30
0.0
 11
1.47405337
 21
1.39680518
 31
0.0
  0
LINE
  5
59CC
330
58E8
100
AcDbEntity
  8
0
100
AcDbLine
 10
1.62554225
 20
1.75856683
 30
0.0
 11
1.4893776
 21
1.89473147
 31
0.0
  0
LINE
  5
59CD
330
58E8
100
AcDbEntity
  8
0
100
AcDbLine
 10
1.61265653
 20
1.58623476
 30
0.0
 11
1.45408111
 21
1.74481018
 31
0.0
  0
LINE
  5
59CE
330
58E8
100
AcDbEntity
  8
0
100
AcDbLine
 10
2.21407597
 20
0.24394419
 30
0.0
 11
1.45873583
 21
0.99928433
 31
0.0
  0
LINE
  5
59CF
330
58E8
100
AcDbEntity
  8
0
100
AcDbLine
 10
1.96736722
 20
0.30543517
 30
0.0
 11
1.44778929
 21
0.82501309
 31
0.0
  0
LINE
  5
59D0
330
58E8
100
AcDbEntity
  8
0
100
AcDbLine
 10
1.6118534
 20
-1.37644663
 30
0.0
 11
1.44513129
 21
-1.20972452
 31
0.0
  0
LINE
  5
59D1
330
58E8
100
AcDbEntity
  8
0
100
AcDbLine
 10
1.75669929
 20
-1.33607474
 30
0.0
 11
1.44513129
 21
-1.02450673
 31
0.0
  0
LINE
  5
59D2
330
58E8
100
AcDbEntity
  8
0
100
AcDbLine
 10
1.44513129
 20
-1.33345814
 30
0.0
 11
1.6118534
 21
-1.38126298
 31
0.0
  0
LINE
  5
59D3
330
58E8
100
AcDbEntity
  8
0
100
AcDbLine
 10
1.63692807
 20
-0.10499682
 30
0.0
 11
1.44513129
 21
0.08679996
 31
0.0
  0
LINE
  5
59D4
330
58E8
100
AcDbEntity
  8
0
100
AcDbLine
 10
1.44513129
 20
-0.11070558
 30
0.0
 11
1.62852057
 21
-0.16329404
 31
0.0
  0
LINE
  5
59D5
330
58E8
100
AcDbEntity
  8
0
100
AcDbLine
 10
1.44513129
 20
-0.11070558
 30
0.0
 11
1.62852057
 21
-0.16329404
 31
0.0
1001
HATCH_DISTANCE
1040
1.0
1001
HATCH_DISPLAY
1070
     0
1001
HATCH_TYPE
1070
     7
  0
LINE
  5
59D6
330
58E8
100
AcDbEntity
  8
0
100
AcDbLine
 10
1.62852057
 20
-0.16329404
 30
0.0
 11
1.44513129
 21
-0.11070558
 31
0.0
  0
LINE
  5
59D7
330
58E8
100
AcDbEntity
  8
0
100
AcDbLine
 10
1.63522929
 20
-0.84416916
 30
0.0
 11
1.46328417
 21
-0.67222404
 31
0.0
  0
ARC
  5
59D8
330
58E8
100
AcDbEntity
  8
0
100
AcDbCircle
 10
1.86193027
 20
-0.79390241
 30
0.0
 40
0.4168025135993958
100
AcDbArc
 50
17.66957755
 51
180.23615984
  0
LINE
  5
59D9
330
58E8
100
AcDbEntity
  8
0
100
AcDbLine
 10
2.01637917
 20
-1.41053683
 30
0.0
 11
1.44513129
 21
-0.83928895
 31
0.0
  0
ARC
  5
59DA
330
58E8
100
AcDbEntity
  8
240
100
AcDbCircle
 10
1.57117457
 20
9.0
 30
0.0
 40
1.0
100
AcDbArc
 50
194.99999998
 51
270.0
  0
LINE
  5
59DB
330
58E8
100
AcDbEntity
  8
240
100
AcDbLine
 10
0.19859884
 20
10.25881905
 30
0.0
 11
0.60524874
 21
8.74118096
 31
0.0
  0
LINE
  5
59DC
330
58E8
100
AcDbEntity
  8
240
100
AcDbLine
 10
-0.63567449
 20
11.0
 30
0.0
 11
-2.0
 21
11.0
 31
0.0
  0
LINE
  5
59DD
330
58E8
100
AcDbEntity
  8
240
100
AcDbLine
 10
-4.0
 20
11.0
 30
0.0
 11
-5.12626129
 21
11.0
 31
0.0
  0
LINE
  5
59DE
330
58E8
100
AcDbEntity
  8
240
100
AcDbLine
 10
-0.50850794
 20
10.96592583
 30
0.0
 11
-0.63567449
 21
11.0
 31
0.0
  0
LINE
  5
59DF
330
58E8
100
AcDbEntity
  8
240
100
AcDbLine
 10
13.15
 20
8.0
 30
0.0
 11
29.0
 21
8.0
 31
0.0
  0
LINE
  5
59E0
330
58E8
100
AcDbEntity
  8
241
  6
HIDDEN2
100
AcDbLine
 10
17.0
 20
2.99999989
 30
0.0
 11
30.0
 21
2.99999989
 31
0.0
  0
LINE
  5
59E1
330
58E8
100
AcDbEntity
  8
240
100
AcDbLine
 10
11.0
 20
8.15
 30
0.0
 11
13.0
 21
8.15
 31
0.0
  0
LINE
  5
59E2
330
58E8
100
AcDbEntity
  8
241
  6
HIDDEN2
100
AcDbLine
 10
7.0
 20
3.53553379
 30
0.0
 11
12.0
 21
3.53553379
 31
0.0
  0
LINE
  5
59E3
330
58E8
100
AcDbEntity
  8
242
100
AcDbLine
 10
7.0
 20
-0.00000011
 30
0.0
 11
12.0
 21
3.53553379
 31
0.0
  0
LINE
  5
59E4
330
58E8
100
AcDbEntity
  8
242
100
AcDbLine
 10
12.0
 20
-0.00000011
 30
0.0
 11
7.0
 21
3.53553379
 31
0.0
  0
LINE
  5
59E5
330
58E8
100
AcDbEntity
  8
241
100
AcDbLine
 10
11.0
 20
6.2
 30
0.0
 11
11.0
 21
0.0
 31
0.0
  0
LINE
  5
59E6
330
58E8
100
AcDbEntity
  8
241
100
AcDbLine
 10
10.0
 20
6.2
 30
0.0
 11
10.0
 21
0.0
 31
0.0
  0
LINE
  5
59E7
330
58E8
100
AcDbEntity
  8
0
100
AcDbLine
 10
3.19570102
 20
-0.18202751
 30
0.0
 11
3.02897892
 21
-0.01530541
 31
0.0
  0
LINE
  5
59E8
330
58E8
100
AcDbEntity
  8
0
100
AcDbLine
 10
2.94561786
 20
-0.11716213
 30
0.0
 11
2.93187973
 21
-0.103424
 31
0.0
  0
LINE
  5
59E9
330
58E8
100
AcDbEntity
  8
0
100
AcDbLine
 10
2.94561786
 20
-0.48025991
 30
0.0
 11
2.94561786
 21
-0.10736333
 31
0.0
  0
LINE
  5
59EA
330
58E8
100
AcDbEntity
  8
0
100
AcDbLine
 10
2.94561786
 20
-0.48025991
 30
0.0
 11
2.94561786
 21
-0.10736333
 31
0.0
1001
HATCH_DISTANCE
1040
1.0
1001
HATCH_DISPLAY
1070
     0
1001
HATCH_TYPE
1070
     7
  0
LINE
  5
59EB
330
58E8
100
AcDbEntity
  8
0
100
AcDbLine
 10
3.19570102
 20
-0.92289863
 30
0.0
 11
3.02897892
 21
-0.75617654
 31
0.0
  0
LINE
  5
59EC
330
58E8
100
AcDbEntity
  8
0
100
AcDbLine
 10
3.19570102
 20
0.00319028
 30
0.0
 11
3.02897892
 21
0.16991237
 31
0.0
  0
LINE
  5
59ED
330
58E8
100
AcDbEntity
  8
0
100
AcDbLine
 10
3.19570102
 20
0.18840806
 30
0.0
 11
3.02897892
 21
0.35513016
 31
0.0
  0
LINE
  5
59EE
330
58E8
100
AcDbEntity
  8
0
100
AcDbLine
 10
3.19570102
 20
0.37362584
 30
0.0
 11
3.02897892
 21
0.54034794
 31
0.0
  0
LINE
  5
59EF
330
58E8
100
AcDbEntity
  8
0
100
AcDbLine
 10
3.19570102
 20
0.55884362
 30
0.0
 11
3.02897892
 21
0.72556572
 31
0.0
  0
LINE
  5
59F0
330
58E8
100
AcDbEntity
  8
0
100
AcDbLine
 10
3.19570102
 20
0.74406141
 30
0.0
 11
3.02897892
 21
0.9107835
 31
0.0
  0
LINE
  5
59F1
330
58E8
100
AcDbEntity
  8
0
100
AcDbLine
 10
3.19570102
 20
0.92927919
 30
0.0
 11
3.02897892
 21
1.0960013
 31
0.0
  0
LINE
  5
59F2
330
58E8
100
AcDbEntity
  8
0
100
AcDbLine
 10
3.19570102
 20
1.11449697
 30
0.0
 11
3.02897892
 21
1.28121908
 31
0.0
  0
LINE
  5
59F3
330
58E8
100
AcDbEntity
  8
0
100
AcDbLine
 10
3.19570102
 20
1.29971475
 30
0.0
 11
3.02897892
 21
1.46643686
 31
0.0
  0
LINE
  5
59F4
330
58E8
100
AcDbEntity
  8
0
100
AcDbLine
 10
3.19570102
 20
1.48493253
 30
0.0
 11
3.02823591
 21
1.65239764
 31
0.0
  0
LINE
  5
59F5
330
58E8
100
AcDbEntity
  8
0
100
AcDbLine
 10
2.8478241
 20
1.06961745
 30
0.0
 11
2.94561786
 21
1.16741752
 31
0.0
  0
LINE
  5
59F6
330
58E8
100
AcDbEntity
  8
0
100
AcDbLine
 10
3.19417154
 20
1.67167979
 30
0.0
 11
2.97525996
 21
1.89059138
 31
0.0
  0
LINE
  5
59F7
330
58E8
100
AcDbEntity
  8
0
100
AcDbLine
 10
3.19570102
 20
-1.10811642
 30
0.0
 11
3.02897892
 21
-0.94139432
 31
0.0
  0
LINE
  5
59F8
330
58E8
100
AcDbEntity
  8
0
100
AcDbLine
 10
3.19570102
 20
-1.2933342
 30
0.0
 11
3.02897892
 21
-1.1266121
 31
0.0
  0
LINE
  5
59F9
330
58E8
100
AcDbEntity
  8
0
100
AcDbLine
 10
2.94561786
 20
-0.48025991
 30
0.0
 11
2.94561786
 21
-0.10736333
 31
0.0
  0
LINE
  5
59FA
330
58E8
100
AcDbEntity
  8
0
100
AcDbLine
 10
3.19570102
 20
-0.73768085
 30
0.0
 11
3.02897892
 21
-0.57095875
 31
0.0
  0
LINE
  5
59FB
330
58E8
100
AcDbEntity
  8
0
100
AcDbLine
 10
3.19570102
 20
-0.55246307
 30
0.0
 11
3.02897892
 21
-0.38574097
 31
0.0
  0
LINE
  5
59FC
330
58E8
100
AcDbEntity
  8
0
100
AcDbLine
 10
3.19570102
 20
-0.36724529
 30
0.0
 11
3.02897892
 21
-0.20052319
 31
0.0
  0
LINE
  5
59FD
330
58E8
100
AcDbEntity
  8
241
  6
HIDDEN2
100
AcDbLine
 10
7.0
 20
3.53553379
 30
0.0
 11
7.0
 21
-0.00000011
 31
0.0
  0
LINE
  5
59FE
330
58E8
100
AcDbEntity
  8
240
100
AcDbLine
 10
11.0
 20
6.2
 30
0.0
 11
11.0
 21
8.15
 31
0.0
  0
LINE
  5
59FF
330
58E8
100
AcDbEntity
  8
240
100
AcDbLine
 10
10.0
 20
6.2
 30
0.0
 11
10.0
 21
8.0
 31
0.0
  0
LINE
  5
5A00
330
58E8
100
AcDbEntity
  8
240
100
AcDbLine
 10
11.0
 20
6.2
 30
0.0
 11
10.0
 21
6.2
 31
0.0
  0
LINE
  5
5A01
330
58E8
100
AcDbEntity
  8
241
100
AcDbLine
 10
14.2
 20
8.0
 30
0.0
 11
14.2
 21
0.0
 31
0.0
  0
LINE
  5
5A02
330
58E8
100
AcDbEntity
  8
241
100
AcDbLine
 10
13.0
 20
8.15
 30
0.0
 11
13.0
 21
0.0
 31
0.0
  0
LINE
  5
5A03
330
58E8
100
AcDbEntity
  8
241
  6
HIDDEN2
100
AcDbLine
 10
12.0
 20
3.29999989
 30
0.0
 11
17.0
 21
3.29999989
 31
0.0
1001
GRPNAME
1000
0000002S
  0
LINE
  5
5A04
330
58E8
100
AcDbEntity
  8
241
  6
HIDDEN2
100
AcDbLine
 10
12.0
 20
3.53553379
 30
0.0
 11
12.0
 21
-0.00000011
 31
0.0
  0
LINE
  5
5A05
330
58E8
100
AcDbEntity
  8
241
  6
HIDDEN2
100
AcDbLine
 10
17.0
 20
3.29999989
 30
0.0
 11
17.0
 21
0.0
 31
0.0
  0
LINE
  5
5A06
330
58E8
100
AcDbEntity
  8
240
100
AcDbLine
 10
13.15
 20
8.0
 30
0.0
 11
13.0
 21
8.15
 31
0.0
  0
ARC
  5
5A07
330
58E8
100
AcDbEntity
  8
240
100
AcDbCircle
 10
29.0
 20
7.0
 30
0.0
 40
1.0
100
AcDbArc
 50
359.9999824
 51
90.0
1001
GENIUS_GENODEF_13
1002
{
1000
HIER
1070
     0
1002
}
1002
{
1000
MANEDIT
1070
     0
1002
}
1002
{
1000
NOSEL
1070
     0
1002
}
1002
{
1000
BEHIND
1070
     0
1002
}
1002
{
1000
OTHER
1070
     0
1002
}
1002
{
1000
REACTOR
1002
}
1001
GENIUS_GENOBJ-N-FIL_13
1002
{
1000
OWNER
1000
GEN
1002
}
  0
LINE
  5
5A08
330
58E8
100
AcDbEntity
  8
240
100
AcDbLine
 10
30.0
 20
7.0
 30
0.0
 11
30.0
 21
0.0
 31
0.0
  0
ENDBLK
  5
58EA
330
58E8
100
AcDbEntity
  8
0
100
AcDbBlockEnd
  0
ENDSEC
  0
SECTION
  2
ENTITIES
  0
INSERT
  5
6E6
330
1A
100
AcDbEntity
  8
245
100
AcDbBlockReference
  2
矢印なし
 10
175.62382697
 20
90.55123572
 30
0.0
  0
DIMENSION
  5
87C
330
1A
100
AcDbEntity
  8
250
  6
CONTINUOUS
100
AcDbDimension
  2
*D2
 10
30.0
 20
21.0
 30
0.0
 11
14.76469445
 21
21.0
 31
0.0
 70
   160
  3
BIGT
100
AcDbAlignedDimension
 13
0.0
 23
10.64125603
 33
0.0
 14
30.0
 24
6.99999969
 34
0.0
100
AcDbRotatedDimension
  0
TEXT
  5
87D
330
1A
100
AcDbEntity
  8
241
100
AcDbText
 10
-47.5
 20
35.0
 30
0.0
 40
5.0
  1
MGT6-060049-30
  7
YOKO
 11
-47.5
 21
35.0
 31
0.0
100
AcDbText
 73
     1
  0
DIMENSION
  5
162C
330
1A
100
AcDbEntity
  8
250
  6
CONTINUOUS
100
AcDbDimension
  2
*D3
 10
47.25
 20
8.0
 30
0.0
 11
44.85
 21
0.0
 31
0.0
 70
    32
  1
{\H2.8;\U+2205}<>
  3
BIGT
100
AcDbAlignedDimension
 13
29.0
 23
-8.0
 33
0.0
 14
29.0
 24
8.0
 34
0.0
 50
90.0
100
AcDbRotatedDimension
  0
MTEXT
  5
1651
102
{ACAD_REACTORS
330
23F4
102
}
330
1A
100
AcDbEntity
  8
251
  6
CONTINUOUS
100
AcDbMText
 10
15.82854714
 20
15.00290368
 30
0.0
 40
2.8
 41
0.0
 71
     7
 72
     1
  1
\U+25A14.9
  7
YOKO
1001
ITEMNAME
1000
DI010
1001
ACAD
1000
MTEXTBEGIN
1070
    73
1070
     1
1070
    44
1040
1.0
1070
    74
1070
     0
1000
MTEXTEND
1000
MTEXTBEGIN
1070
    73
1070
     1
1070
    44
1040
1.0
1070
    74
1070
     0
1000
MTEXTEND
1000
MTEXTBEGIN
1070
    73
1070
     1
1070
    44
1040
1.0
1070
    74
1070
     0
1000
MTEXTEND
1000
MTEXTBEGIN
1070
    73
1070
     1
1070
    44
1040
1.0
1070
    74
1070
     0
1000
MTEXTEND
1000
MTEXTBEGIN
1070
    73
1070
     1
1070
    44
1040
1.0
1070
    74
1070
     0
1000
MTEXTEND
1000
MTEXTBEGIN
1070
    73
1070
     1
1070
    44
1040
1.0
1070
    74
1070
     0
1000
MTEXTEND
1000
MTEXTBEGIN
1070
    73
1070
     1
1070
    44
1040
1.0
1070
    74
1070
     0
1000
MTEXTEND
1000
MTEXTBEGIN
1070
    73
1070
     1
1070
    44
1040
1.0
1070
    74
1070
     0
1000
MTEXTEND
1000
MTEXTBEGIN
1070
    73
1070
     1
1070
    44
1040
1.0
1070
    74
1070
     0
1000
MTEXTEND
1000
MTEXTBEGIN
1070
    73
1070
     1
1070
    44
1040
1.0
1070
    74
1070
     0
1000
MTEXTEND
1000
MTEXTBEGIN
1070
    73
1070
     1
1070
    44
1040
1.0
1070
    74
1070
     0
1000
MTEXTEND
1000
MTEXTBEGIN
1070
    73
1070
     1
1070
    44
1040
1.0
1070
    74
1070
     0
1000
MTEXTEND
1000
MTEXTBEGIN
1070
    73
1070
     1
1070
    44
1040
1.0
1070
    74
1070
     0
1000
MTEXTEND
1000
MTEXTBEGIN
1070
    73
1070
     1
1070
    44
1040
1.0
1070
    74
1070
     0
1000
MTEXTEND
1000
MTEXTBEGIN
1070
    73
1070
     1
1070
    44
1040
1.0
1070
    74
1070
     0
1000
MTEXTEND
1000
MTEXTBEGIN
1070
    73
1070
     1
1070
    44
1040
1.0
1070
    74
1070
     0
1000
MTEXTEND
1000
MTEXTBEGIN
1070
    73
1070
     1
1070
    44
1040
1.0
1070
    74
1070
     0
1000
MTEXTEND
1000
MTEXTBEGIN
1070
    73
1070
     1
1070
    44
1040
1.0
1070
    74
1070
     0
1000
MTEXTEND
1000
MTEXTBEGIN
1070
    73
1070
     1
1070
    44
1040
1.0
1070
    74
1070
     0
1000
MTEXTEND
1000
MTEXTBEGIN
1070
    73
1070
     1
1070
    44
1040
1.0
1070
    74
1070
     0
1000
MTEXTEND
1000
MTEXTBEGIN
1070
    73
1070
     1
1070
    44
1040
1.0
1070
    74
1070
     0
1000
MTEXTEND
1000
MTEXTBEGIN
1070
    73
1070
     1
1070
    44
1040
1.0
1070
    74
1070
     0
1000
MTEXTEND
1000
MTEXTBEGIN
1070
    73
1070
     1
1070
    44
1040
1.0
1070
    74
1070
     0
1000
MTEXTEND
1000
MTEXTBEGIN
1070
    73
1070
     1
1070
    44
1040
1.0
1070
    74
1070
     0
1000
MTEXTEND
1000
MTEXTBEGIN
1070
    73
1070
     1
1070
    44
1040
1.0
1070
    74
1070
     0
1000
MTEXTEND
1000
MTEXTBEGIN
1070
    73
1070
     1
1070
    44
1040
1.0
1070
    74
1070
     0
1000
MTEXTEND
  0
LINE
  5
1652
330
1A
100
AcDbEntity
  8
250
  6
CONTINUOUS
100
AcDbLine
 10
14.05362311
 20
14.00290368
 30
0.0
 11
27.97846133
 21
14.00290368
 31
0.0
1001
ITEMNAME
1000
LNSP2
  0
LEADER
  5
1653
330
1A
100
AcDbEntity
  8
250
  6
CONTINUOUS
100
AcDbLeader
  3
BIGT
 76
     2
 10
7.72879936
 20
3.53553379
 30
0.0
 10
14.05362311
 20
14.00290368
 30
0.0
1001
ACAD
1000
DSTYLE
1002
{
1070
     6
1000
OPEN
1070
   343
1005
594
1002
}
  0
LINE
  5
4C19
330
1A
100
AcDbEntity
  8
250
  6
CONTINUOUS
100
AcDbLine
 10
30.5
 20
2.99999989
 30
0.0
 11
41.25
 21
2.99999989
 31
0.0
  0
LINE
  5
4C1C
330
1A
100
AcDbEntity
  8
250
  6
CONTINUOUS
100
AcDbLine
 10
40.25
 20
-2.99999989
 30
0.0
 11
40.25
 21
2.99999989
 31
0.0
  0
INSERT
  5
4C1D
330
1A
100
AcDbEntity
  8
250
  6
CONTINUOUS
100
AcDbBlockReference
  2
_OPEN
 10
40.25
 20
2.99999989
 30
0.0
 41
2.23
 42
2.23
 43
2.23
 50
90.0
  0
MTEXT
  5
4C1F
330
1A
100
AcDbEntity
  8
250
  6
CONTINUOUS
 62
    40
100
AcDbMText
 10
37.85
 20
0.0
 30
0.0
 40
2.8
 41
0.0
 71
     5
 72
     1
  1
\A1;{\H2.8;\U+2205}6
 11
0.0
 21
1.0
 31
0.0
1001
ACAD
1000
MTEXTBEGIN
1070
    73
1070
     1
1070
    44
1040
1.0
1070
    74
1070
     0
1000
MTEXTEND
1000
MTEXTBEGIN
1070
    73
1070
     1
1070
    44
1040
1.0
1070
    74
1070
     0
1000
MTEXTEND
1000
MTEXTBEGIN
1070
    73
1070
     1
1070
    44
1040
1.0
1070
    74
1070
     0
1000
MTEXTEND
1000
MTEXTBEGIN
1070
    73
1070
     1
1070
    44
1040
1.0
1070
    74
1070
     0
1000
MTEXTEND
1000
MTEXTBEGIN
1070
    73
1070
     1
1070
    44
1040
1.0
1070
    74
1070
     0
1000
MTEXTEND
  0
INSERT
  5
5A09
330
1A
100
AcDbEntity
  8
245
100
AcDbBlockReference
  2
1
 10
0.0
 20
0.0
 30
0.0
  0
VIEWPORT
  5
22
330
17
100
AcDbEntity
 67
     1
  8
0
100
AcDbViewport
 10
261.51769912
 20
148.5
 30
0.0
 40
523.03539823
 41
297.0
 68
     1
 69
     1
1001
ACAD
1000
MVIEW
1002
{
1070
    16
1010
0.0
1020
0.0
1030
0.0
1010
0.0
1020
0.0
1030
1.0
1040
0.0
1040
297.0
1040
261.51769912
1040
148.5
1040
50.0
1040
0.0
1040
0.0
1070
     0
1070
   100
1070
     1
1070
     1
1070
     0
1070
     0
1070
     0
1070
     0
1040
0.0
1040
0.0
1040
0.0
1040
1.0
1040
1.0
1040
10.0
1040
10.0
1070
     0
1002
{
1002
}
1002
}
  0
ENDSEC
  0
SECTION
  2
OBJECTS
  0
DICTIONARY
  5
C
330
0
100
AcDbDictionary
  3
ACAD_GROUP
350
D
  3
ACAD_LAYOUT
350
565
  3
ACAD_MLINESTYLE
350
E
  3
ACAD_PLOTSETTINGS
350
566
  3
ACAD_PLOTSTYLENAME
350
563
  3
ACDBHEADERROUNDTRIPXREC
350
5A30
  3
GRADE_DWG
350
540
  0
DICTIONARY
  5
BC6
330
1A
100
AcDbDictionary
280
     1
  3
ACAD_LAYOUTSELFREF
360
5A52
  0
DICTIONARY
  5
BC4
330
17
100
AcDbDictionary
280
     1
  3
ACAD_LAYOUTSELFREF
360
5A51
  0
DICTIONARY
  5
D
102
{ACAD_REACTORS
330
C
102
}
330
C
100
AcDbDictionary
  3
*A1
350
6C7
  3
*A2
350
6C8
  3
*A3
350
6D4
  3
*A4
350
6D5
  3
DM800-1
350
23F4
  3
DREC-1
350
5FC
  3
DREC-2
350
654
  3
DREC-3
350
673
  0
DICTIONARY
  5
565
102
{ACAD_REACTORS
330
C
102
}
330
C
100
AcDbDictionary
  0
DICTIONARY
  5
E
102
{ACAD_REACTORS
330
C
102
}
330
C
100
AcDbDictionary
  3
STANDARD
350
13
  0
DICTIONARY
  5
566
102
{ACAD_REACTORS
330
C
102
}
330
C
100
AcDbDictionary
  3
A3_0_5倍_
350
758
  3
A3_1倍_
350
757
  3
A3_1倍__2000_
350
707
  3
A3_2倍_
350
759
  3
A4_0_5倍_
350
755
  3
A4_1倍_
350
754
  3
A4_1倍__2000_
350
708
  3
A4_2倍_
350
756
  0
ACDBDICTIONARYWDFLT
  5
563
102
{ACAD_REACTORS
330
C
102
}
330
C
100
AcDbDictionary
281
     1
  3
Normal
350
564
100
AcDbDictionaryWithDefault
340
564
  0
DICTIONARY
  5
5A30
102
{ACAD_REACTORS
330
C
102
}
330
C
100
AcDbDictionary
  3
CEPSNTYPE
350
5A3A
  3
DIMSTYLEDATA
350
5A3E
  3
FINGERPRINTGUID
350
5A3B
  3
HYPERLINKBASE
350
5A33
  3
INSUNITS
350
5A39
  3
LAYOUTDICT
350
5A35
  3
LWETCUNION
350
5A38
  3
PLOTSETDICT
350
5A36
  3
PLOTSTYLNAMDICT
350
5A37
  3
PSVPSCALE
350
5A3D
  3
PUCSBASE
350
5A41
  3
PUCSORGBACK
350
5A47
  3
PUCSORGBOTTOM
350
5A43
  3
PUCSORGFRONT
350
5A46
  3
PUCSORGLEFT
350
5A44
  3
PUCSORGRIGHT
350
5A45
  3
PUCSORGTOP
350
5A42
  3
PUCSORTHOREF
350
5A3F
  3
PUCSORTHOVIEW
350
5A40
  3
STYLESHEET
350
5A34
  3
TSTACKALIGN
350
5A31
  3
TSTACKSIZE
350
5A32
  3
UCSBASE
350
5A4A
  3
UCSORGBACK
350
5A50
  3
UCSORGBOTTOM
350
5A4C
  3
UCSORGFRONT
350
5A4F
  3
UCSORGLEFT
350
5A4D
  3
UCSORGRIGHT
350
5A4E
  3
UCSORGTOP
350
5A4B
  3
UCSORTHOREF
350
5A48
  3
UCSORTHOVIEW
350
5A49
  3
VERSIONGUID
350
5A3C
  0
DICTIONARY
  5
540
102
{ACAD_REACTORS
330
C
102
}
330
C
100
AcDbDictionary
  3
VERSION
350
560
  0
XRECORD
  5
5A52
102
{ACAD_REACTORS
330
BC6
102
}
330
BC6
100
AcDbXrecord
340
1A
  0
XRECORD
  5
5A51
102
{ACAD_REACTORS
330
BC4
102
}
330
BC4
100
AcDbXrecord
340
17
  0
GROUP
  5
6C7
102
{ACAD_REACTORS
330
D
102
}
330
D
100
AcDbGroup
300

 70
     0
 71
     1
1001
GRPNAME
1000
DMA00
  0
GROUP
  5
6C8
102
{ACAD_REACTORS
330
D
102
}
330
D
100
AcDbGroup
300

 70
     0
 71
     1
1001
GRPNAME
1000
DMA00
  0
GROUP
  5
6D4
102
{ACAD_REACTORS
330
D
102
}
330
D
100
AcDbGroup
300

 70
     0
 71
     1
1001
GRPNAME
1000
DMA00
  0
GROUP
  5
6D5
102
{ACAD_REACTORS
330
D
102
}
330
D
100
AcDbGroup
300

 70
     0
 71
     1
1001
GRPNAME
1000
DMA00
  0
GROUP
  5
23F4
102
{ACAD_REACTORS
330
D
102
}
330
D
100
AcDbGroup
300

 70
     0
 71
     1
340
1651
1001
GRPNAME
1000
DM800
  0
GROUP
  5
5FC
102
{ACAD_REACTORS
330
D
102
}
330
D
100
AcDbGroup
300

 70
     0
 71
     1
1001
GRPNAME
1000
DREC-
1001
GPARA
1000
xsiz
1000
44.182
1000
ysiz
1000
40.677
1000
angl
1000
0
1000
ctyp
1000
0
1000
csiz
1000
5
1000
lfnt
1000
cont
1000
hcnt
1000
hoff
1000
vcnt
1000
voff
1000
opnt
1000
4
1000
dxpt
1000
0
1000
dypt
1000
0
  0
GROUP
  5
654
102
{ACAD_REACTORS
330
D
102
}
330
D
100
AcDbGroup
300

 70
     0
 71
     1
1001
GRPNAME
1000
DREC-
1001
GPARA
1000
xsiz
1000
54.592
1000
ysiz
1000
53.036
1000
angl
1000
0
1000
ctyp
1000
0
1000
csiz
1000
5
1000
lfnt
1000
cont
1000
hcnt
1000
hoff
1000
vcnt
1000
voff
1000
opnt
1000
4
1000
dxpt
1000
0
1000
dypt
1000
0
  0
GROUP
  5
673
102
{ACAD_REACTORS
330
D
102
}
330
D
100
AcDbGroup
300

 70
     0
 71
     1
1001
GRPNAME
1000
DREC-
1001
GPARA
1000
xsiz
1000
30.363
1000
ysiz
1000
36.175
1000
angl
1000
0
1000
ctyp
1000
0
1000
csiz
1000
5
1000
lfnt
1000
cont
1000
hcnt
1000
hoff
1000
vcnt
1000
voff
1000
opnt
1000
4
1000
dxpt
1000
0
1000
dypt
1000
0
  0
MLINESTYLE
  5
13
102
{ACAD_REACTORS
330
E
102
}
330
E
100
AcDbMlineStyle
  2
STANDARD
 70
     0
  3

 62
     0
 51
90.0
 52
90.0
 71
     2
 49
0.5
 62
   256
  6
BYLAYER
 49
-0.5
 62
   256
  6
BYLAYER
  0
PLOTSETTINGS
  5
758
102
{ACAD_REACTORS
330
566
102
}
330
566
100
AcDbPlotSettings
  1
A3(0.5倍)
  2
\\AWTECPC05\HP DeskJet 1120C
  4
A3
  6

 40
5.95841646
 41
13.49375153
 42
6.04309082
 43
3.67242432
 44
296.92599487
 45
419.94665527
 46
89.96
 47
127.14
 48
0.0
 49
0.0
140
0.0
141
0.0
142
1.0
143
2.0
 70
  1716
 72
     1
 73
     1
 74
     2
  7
big.ctb
 75
    17
147
0.5
148
0.0
149
0.0
  0
PLOTSETTINGS
  5
757
102
{ACAD_REACTORS
330
566
102
}
330
566
100
AcDbPlotSettings
  1
A3(1倍)
  2
\\AWTECPC05\HP DeskJet 1120C
  4
A3
  6

 40
5.95841646
 41
13.49375153
 42
6.04309082
 43
3.67242432
 44
296.92599487
 45
419.94665527
 46
37.46
 47
52.89
 48
0.0
 49
0.0
140
0.0
141
0.0
142
1.0
143
1.0
 70
  1716
 72
     1
 73
     1
 74
     2
  7
big.ctb
 75
    16
147
1.0
148
0.0
149
0.0
  0
PLOTSETTINGS
  5
707
102
{ACAD_REACTORS
330
566
102
}
330
566
100
AcDbPlotSettings
  1
A3(1倍)(2000)
  2
SII LS-1300 (D-SCAN)
  4
User258
  6

 40
3.17499995
 41
3.17499995
 42
3.17498779
 43
3.17498779
 44
419.98898315
 45
296.98950195
 46
58.32
 47
40.32
 48
0.0
 49
0.0
140
0.0
141
0.0
142
1.0
143
1.0
 70
  1716
 72
     1
 73
     0
 74
     2
  7
big.ctb
 75
    16
147
1.0
148
0.0
149
0.0
  0
PLOTSETTINGS
  5
759
102
{ACAD_REACTORS
330
566
102
}
330
566
100
AcDbPlotSettings
  1
A3(2倍)
  2
\\AWTECPC05\HP DeskJet 1120C
  4
A3
  6

 40
5.95841646
 41
13.49375153
 42
6.04309082
 43
3.67242432
 44
296.92599487
 45
419.94665527
 46
-67.54
 47
-95.61
 48
0.0
 49
0.0
140
0.0
141
0.0
142
1.0
143
0.5
 70
  1716
 72
     1
 73
     1
 74
     2
  7
big.ctb
 75
    27
147
2.0
148
0.0
149
0.0
  0
PLOTSETTINGS
  5
755
102
{ACAD_REACTORS
330
566
102
}
330
566
100
AcDbPlotSettings
  1
A4(0.5倍)
  2
\\AWTECPC05\HP DeskJet 1120C
  4
A4
  6

 40
4.18041658
 41
13.49374962
 42
4.18040466
 43
3.92642212
 44
209.97332764
 45
296.92599487
 46
48.31
 47
65.5
 48
0.0
 49
0.0
140
0.0
141
0.0
142
1.0
143
2.0
 70
  1716
 72
     1
 73
     1
 74
     2
  7
big.ctb
 75
    17
147
0.5
148
0.0
149
0.0
  0
PLOTSETTINGS
  5
754
102
{ACAD_REACTORS
330
566
102
}
330
566
100
AcDbPlotSettings
  1
A4(1倍)
  2
\\AWTECPC05\HP DeskJet 1120C
  4
A4
  6

 40
4.18041658
 41
13.49374962
 42
4.18040466
 43
3.92642212
 44
209.97332764
 45
296.92599487
 46
-4.19
 47
-8.75
 48
0.0
 49
0.0
140
0.0
141
0.0
142
1.0
143
1.0
 70
  1716
 72
     1
 73
     1
 74
     2
  7
big.ctb
 75
    16
147
1.0
148
0.0
149
0.0
  0
PLOTSETTINGS
  5
708
102
{ACAD_REACTORS
330
566
102
}
330
566
100
AcDbPlotSettings
  1
A4(1倍)(2000)
  2
SII LS-1300 (D-SCAN)
  4
User259
  6

 40
3.17499995
 41
3.17499995
 42
3.17498779
 43
3.17500305
 44
296.98950195
 45
209.99449158
 46
-3.18
 47
-3.18
 48
0.0
 49
0.0
140
0.0
141
0.0
142
1.0
143
1.0
 70
  1716
 72
     1
 73
     0
 74
     2
  7
big.ctb
 75
    16
147
1.0
148
0.0
149
0.0
  0
PLOTSETTINGS
  5
756
102
{ACAD_REACTORS
330
566
102
}
330
566
100
AcDbPlotSettings
  1
A4(2倍)
  2
\\AWTECPC05\HP DeskJet 1120C
  4
A4
  6

 40
4.18041658
 41
13.49374962
 42
4.18040466
 43
3.92642212
 44
209.97332764
 45
296.92599487
 46
-109.19
 47
-157.25
 48
0.0
 49
0.0
140
0.0
141
0.0
142
1.0
143
0.5
 70
  1716
 72
     1
 73
     1
 74
     2
  7
big.ctb
 75
    27
147
2.0
148
0.0
149
0.0
  0
ACDBPLACEHOLDER
  5
564
102
{ACAD_REACTORS
330
563
102
}
330
563
100
AcDbPlaceHolder
280
     0
  0
XRECORD
  5
5A3A
102
{ACAD_REACTORS
330
5A30
102
}
330
5A30
100
AcDbXrecord
 90
        0
  0
XRECORD
  5
5A3E
102
{ACAD_REACTORS
330
5A30
102
}
330
5A30
100
AcDbXrecord
1000
DSTYLE
1002
{
1070
    79
 70
     2
1070
   179
 70
     3
1070
   341
340
594
1070
   343
340
594
1070
   344
340
594
1070
   371
 70
    -1
1070
   372
 70
    -1
1002
}
  0
XRECORD
  5
5A3B
102
{ACAD_REACTORS
330
5A30
102
}
330
5A30
100
AcDbXrecord
  1
{51294030-9CB4-11D3-8E18-00A0C925D94D}
  0
XRECORD
  5
5A33
102
{ACAD_REACTORS
330
5A30
102
}
330
5A30
100
AcDbXrecord
  1

  0
XRECORD
  5
5A39
102
{ACAD_REACTORS
330
5A30
102
}
330
5A30
100
AcDbXrecord
 90
        0
  0
XRECORD
  5
5A35
102
{ACAD_REACTORS
330
5A30
102
}
330
5A30
100
AcDbXrecord
340
565
  0
XRECORD
  5
5A38
102
{ACAD_REACTORS
330
5A30
102
}
330
5A30
100
AcDbXrecord
 90
    10781
  0
XRECORD
  5
5A36
102
{ACAD_REACTORS
330
5A30
102
}
330
5A30
100
AcDbXrecord
340
566
  0
XRECORD
  5
5A37
102
{ACAD_REACTORS
330
5A30
102
}
330
5A30
100
AcDbXrecord
340
563
  0
XRECORD
  5
5A3D
102
{ACAD_REACTORS
330
5A30
102
}
330
5A30
100
AcDbXrecord
 40
0.0
  0
XRECORD
  5
5A41
102
{ACAD_REACTORS
330
5A30
102
}
330
5A30
100
AcDbXrecord
340
0
  0
XRECORD
  5
5A47
102
{ACAD_REACTORS
330
5A30
102
}
330
5A30
100
AcDbXrecord
 10
0.0
 20
0.0
 30
0.0
  0
XRECORD
  5
5A43
102
{ACAD_REACTORS
330
5A30
102
}
330
5A30
100
AcDbXrecord
 10
0.0
 20
0.0
 30
0.0
  0
XRECORD
  5
5A46
102
{ACAD_REACTORS
330
5A30
102
}
330
5A30
100
AcDbXrecord
 10
0.0
 20
0.0
 30
0.0
  0
XRECORD
  5
5A44
102
{ACAD_REACTORS
330
5A30
102
}
330
5A30
100
AcDbXrecord
 10
0.0
 20
0.0
 30
0.0
  0
XRECORD
  5
5A45
102
{ACAD_REACTORS
330
5A30
102
}
330
5A30
100
AcDbXrecord
 10
0.0
 20
0.0
 30
0.0
  0
XRECORD
  5
5A42
102
{ACAD_REACTORS
330
5A30
102
}
330
5A30
100
AcDbXrecord
 10
0.0
 20
0.0
 30
0.0
  0
XRECORD
  5
5A3F
102
{ACAD_REACTORS
330
5A30
102
}
330
5A30
100
AcDbXrecord
340
0
  0
XRECORD
  5
5A40
102
{ACAD_REACTORS
330
5A30
102
}
330
5A30
100
AcDbXrecord
 70
     0
  0
XRECORD
  5
5A34
102
{ACAD_REACTORS
330
5A30
102
}
330
5A30
100
AcDbXrecord
  1
big.ctb
  0
XRECORD
  5
5A31
102
{ACAD_REACTORS
330
5A30
102
}
330
5A30
100
AcDbXrecord
 90
        1
  0
XRECORD
  5
5A32
102
{ACAD_REACTORS
330
5A30
102
}
330
5A30
100
AcDbXrecord
 90
       70
  0
XRECORD
  5
5A4A
102
{ACAD_REACTORS
330
5A30
102
}
330
5A30
100
AcDbXrecord
340
0
  0
XRECORD
  5
5A50
102
{ACAD_REACTORS
330
5A30
102
}
330
5A30
100
AcDbXrecord
 10
0.0
 20
0.0
 30
0.0
  0
XRECORD
  5
5A4C
102
{ACAD_REACTORS
330
5A30
102
}
330
5A30
100
AcDbXrecord
 10
0.0
 20
0.0
 30
0.0
  0
XRECORD
  5
5A4F
102
{ACAD_REACTORS
330
5A30
102
}
330
5A30
100
AcDbXrecord
 10
0.0
 20
0.0
 30
0.0
  0
XRECORD
  5
5A4D
102
{ACAD_REACTORS
330
5A30
102
}
330
5A30
100
AcDbXrecord
 10
0.0
 20
0.0
 30
0.0
  0
XRECORD
  5
5A4E
102
{ACAD_REACTORS
330
5A30
102
}
330
5A30
100
AcDbXrecord
 10
0.0
 20
0.0
 30
0.0
  0
XRECORD
  5
5A4B
102
{ACAD_REACTORS
330
5A30
102
}
330
5A30
100
AcDbXrecord
 10
0.0
 20
0.0
 30
0.0
  0
XRECORD
  5
5A48
102
{ACAD_REACTORS
330
5A30
102
}
330
5A30
100
AcDbXrecord
340
0
  0
XRECORD
  5
5A49
102
{ACAD_REACTORS
330
5A30
102
}
330
5A30
100
AcDbXrecord
 70
     0
  0
XRECORD
  5
5A3C
102
{ACAD_REACTORS
330
5A30
102
}
330
5A30
100
AcDbXrecord
  1
{401D46EC-B5D7-4247-B2FD-ACB90D7A96EF}
  0
XRECORD
  5
560
102
{ACAD_REACTORS
330
540
102
}
330
540
100
AcDbXrecord
  1
2.0.0
  0
ENDSEC
  0
EOF
