  0
SECTION
  2
HEADER
  9
$ACADVER
  1
AC1015
  9
$ACADMAINTVER
 70
    20
  9
$DWGCODEPAGE
  3
ANSI_932
  9
$INSBASE
 10
0.0
 20
0.0
 30
0.0
  9
$EXTMIN
 10
-49.57704426527937
 20
-11.00439340223022
 30
-0.0000000349181948
  9
$EXTMAX
 10
118.2706476893462
 20
40.01190360405854
 30
0.0000000814935746
  9
$LIMMIN
 10
0.0
 20
0.0
  9
$LIMMAX
 10
297.0
 20
210.0
  9
$ORTHOMODE
 70
     0
  9
$REGENMODE
 70
     1
  9
$FILLMODE
 70
     1
  9
$QTEXTMODE
 70
     0
  9
$MIRRTEXT
 70
     1
  9
$LTSCALE
 40
10.0
  9
$ATTMODE
 70
     1
  9
$TEXTSIZE
 40
3.0
  9
$TRACEWID
 40
1.0
  9
$TEXTSTYLE
  7
YOKO
  9
$CLAYER
  8
245
  9
$CELTYPE
  6
BYLAYER
  9
$CECOLOR
 62
   256
  9
$CELTSCALE
 40
1.0
  9
$DISPSILH
 70
     0
  9
$DIMSCALE
 40
1.0
  9
$DIMASZ
 40
2.0
  9
$DIMEXO
 40
0.5
  9
$DIMDLI
 40
2.5
  9
$DIMRND
 40
0.0
  9
$DIMDLE
 40
0.0
  9
$DIMEXE
 40
1.0
  9
$DIMTP
 40
0.0
  9
$DIMTM
 40
0.0
  9
$DIMTXT
 40
2.799999999999999
  9
$DIMCEN
 40
0.0
  9
$DIMTSZ
 40
0.0
  9
$DIMTOL
 70
     0
  9
$DIMLIM
 70
     0
  9
$DIMTIH
 70
     0
  9
$DIMTOH
 70
     0
  9
$DIMSE1
 70
     0
  9
$DIMSE2
 70
     0
  9
$DIMTAD
 70
     3
  9
$DIMZIN
 70
     8
  9
$DIMBLK
  1

  9
$DIMASO
 70
     1
  9
$DIMSHO
 70
     1
  9
$DIMPOST
  1

  9
$DIMAPOST
  1

  9
$DIMALT
 70
     0
  9
$DIMALTD
 70
     2
  9
$DIMALTF
 40
25.4
  9
$DIMLFAC
 40
1.0
  9
$DIMTOFL
 70
     1
  9
$DIMTVP
 40
0.0
  9
$DIMTIX
 70
     1
  9
$DIMSOXD
 70
     0
  9
$DIMSAH
 70
     1
  9
$DIMBLK1
  1
Open
  9
$DIMBLK2
  1
Open
  9
$DIMSTYLE
  2
BIGT
  9
$DIMCLRD
 70
   256
  9
$DIMCLRE
 70
   256
  9
$DIMCLRT
 70
    40
  9
$DIMTFAC
 40
1.0
  9
$DIMGAP
 40
1.0
  9
$DIMJUST
 70
     0
  9
$DIMSD1
 70
     0
  9
$DIMSD2
 70
     0
  9
$DIMTOLJ
 70
     1
  9
$DIMTZIN
 70
     8
  9
$DIMALTZ
 70
     0
  9
$DIMALTTZ
 70
     0
  9
$DIMUPT
 70
     0
  9
$DIMDEC
 70
     3
  9
$DIMTDEC
 70
     3
  9
$DIMALTU
 70
     2
  9
$DIMALTTD
 70
     2
  9
$DIMTXSTY
  7
STANDARD
  9
$DIMAUNIT
 70
     0
  9
$DIMADEC
 70
     3
  9
$DIMALTRND
 40
0.0
  9
$DIMAZIN
 70
     2
  9
$DIMDSEP
 70
    46
  9
$DIMATFIT
 70
     2
  9
$DIMFRAC
 70
     0
  9
$DIMLDRBLK
  1
Open
  9
$DIMLUNIT
 70
     2
  9
$DIMLWD
 70
    -1
  9
$DIMLWE
 70
    -1
  9
$DIMTMOVE
 70
     0
  9
$LUNITS
 70
     2
  9
$LUPREC
 70
     3
  9
$SKETCHINC
 40
1.0
  9
$FILLETRAD
 40
1.0
  9
$AUNITS
 70
     0
  9
$AUPREC
 70
     3
  9
$MENU
  1
.
  9
$ELEVATION
 40
0.0
  9
$PELEVATION
 40
0.0
  9
$THICKNESS
 40
0.0
  9
$LIMCHECK
 70
     0
  9
$CHAMFERA
 40
10.0
  9
$CHAMFERB
 40
10.0
  9
$CHAMFERC
 40
0.0
  9
$CHAMFERD
 40
0.0
  9
$SKPOLY
 70
     0
  9
$TDCREATE
 40
2455554.424402848
  9
$TDUCREATE
 40
2455554.049402847
  9
$TDUPDATE
 40
2455554.657491678
  9
$TDUUPDATE
 40
2455554.282491679
  9
$TDINDWG
 40
0.2330904514
  9
$TDUSRTIMER
 40
0.2330904514
  9
$USRTIMER
 70
     1
  9
$ANGBASE
 50
0.0
  9
$ANGDIR
 70
     0
  9
$PDMODE
 70
     1
  9
$PDSIZE
 40
-5.0
  9
$PLINEWID
 40
0.0
  9
$SPLFRAME
 70
     0
  9
$SPLINETYPE
 70
     6
  9
$SPLINESEGS
 70
     8
  9
$HANDSEED
  5
14CC
  9
$SURFTAB1
 70
     6
  9
$SURFTAB2
 70
     6
  9
$SURFTYPE
 70
     6
  9
$SURFU
 70
     6
  9
$SURFV
 70
     6
  9
$UCSBASE
  2

  9
$UCSNAME
  2

  9
$UCSORG
 10
0.0
 20
0.0
 30
0.0
  9
$UCSXDIR
 10
1.0
 20
0.0
 30
0.0
  9
$UCSYDIR
 10
0.0
 20
1.0
 30
0.0
  9
$UCSORTHOREF
  2

  9
$UCSORTHOVIEW
 70
     0
  9
$UCSORGTOP
 10
0.0
 20
0.0
 30
0.0
  9
$UCSORGBOTTOM
 10
0.0
 20
0.0
 30
0.0
  9
$UCSORGLEFT
 10
0.0
 20
0.0
 30
0.0
  9
$UCSORGRIGHT
 10
0.0
 20
0.0
 30
0.0
  9
$UCSORGFRONT
 10
0.0
 20
0.0
 30
0.0
  9
$UCSORGBACK
 10
0.0
 20
0.0
 30
0.0
  9
$PUCSBASE
  2

  9
$PUCSNAME
  2

  9
$PUCSORG
 10
0.0
 20
0.0
 30
0.0
  9
$PUCSXDIR
 10
1.0
 20
0.0
 30
0.0
  9
$PUCSYDIR
 10
0.0
 20
1.0
 30
0.0
  9
$PUCSORTHOREF
  2

  9
$PUCSORTHOVIEW
 70
     0
  9
$PUCSORGTOP
 10
0.0
 20
0.0
 30
0.0
  9
$PUCSORGBOTTOM
 10
0.0
 20
0.0
 30
0.0
  9
$PUCSORGLEFT
 10
0.0
 20
0.0
 30
0.0
  9
$PUCSORGRIGHT
 10
0.0
 20
0.0
 30
0.0
  9
$PUCSORGFRONT
 10
0.0
 20
0.0
 30
0.0
  9
$PUCSORGBACK
 10
0.0
 20
0.0
 30
0.0
  9
$USERI1
 70
     1
  9
$USERI2
 70
     0
  9
$USERI3
 70
     0
  9
$USERI4
 70
     0
  9
$USERI5
 70
     0
  9
$USERR1
 40
0.0
  9
$USERR2
 40
0.0
  9
$USERR3
 40
0.0
  9
$USERR4
 40
0.0
  9
$USERR5
 40
0.0
  9
$WORLDVIEW
 70
     1
  9
$SHADEDGE
 70
     3
  9
$SHADEDIF
 70
    70
  9
$TILEMODE
 70
     1
  9
$MAXACTVP
 70
    16
  9
$PINSBASE
 10
0.0
 20
0.0
 30
0.0
  9
$PLIMCHECK
 70
     0
  9
$PEXTMIN
 10
1.000000000000000E+20
 20
1.000000000000000E+20
 30
1.000000000000000E+20
  9
$PEXTMAX
 10
-1.000000000000000E+20
 20
-1.000000000000000E+20
 30
-1.000000000000000E+20
  9
$PLIMMIN
 10
0.0
 20
0.0
  9
$PLIMMAX
 10
420.0
 20
297.0
  9
$UNITMODE
 70
     0
  9
$VISRETAIN
 70
     0
  9
$PLINEGEN
 70
     0
  9
$PSLTSCALE
 70
     1
  9
$TREEDEPTH
 70
  3020
  9
$CMLSTYLE
  2
STANDARD
  9
$CMLJUST
 70
     0
  9
$CMLSCALE
 40
1.0
  9
$PROXYGRAPHICS
 70
     1
  9
$MEASUREMENT
 70
     1
  9
$CELWEIGHT
370
    -1
  9
$ENDCAPS
280
     0
  9
$JOINSTYLE
280
     0
  9
$LWDISPLAY
290
     0
  9
$INSUNITS
 70
     0
  9
$HYPERLINKBASE
  1

  9
$STYLESHEET
  1
big.ctb
  9
$XEDIT
290
     1
  9
$CEPSNTYPE
380
     0
  9
$PSTYLEMODE
290
     1
  9
$FINGERPRINTGUID
  2
{6040B1EB-33C8-4428-9067-67BC43D63A36}
  9
$VERSIONGUID
  2
{F94EC31E-B005-4B01-89F8-7654E5E9C791}
  9
$EXTNAMES
290
     1
  9
$PSVPSCALE
 40
0.0
  9
$OLESTARTUP
290
     0
  0
ENDSEC
  0
SECTION
  2
CLASSES
  0
CLASS
  1
ACDBDICTIONARYWDFLT
  2
AcDbDictionaryWithDefault
  3
ObjectDBX Classes
 90
        0
280
     0
281
     0
  0
CLASS
  1
ACDBPLACEHOLDER
  2
AcDbPlaceHolder
  3
ObjectDBX Classes
 90
        0
280
     0
281
     0
  0
CLASS
  1
LAYOUT
  2
AcDbLayout
  3
ObjectDBX Classes
 90
        0
280
     0
281
     0
  0
CLASS
  1
PLOTSETTINGS
  2
AcDbPlotSettings
  3
ObjectDBX Classes
 90
        0
280
     0
281
     0
  0
CLASS
  1
MATERIAL
  2
AcDbMaterial
  3
ObjectDBX Classes
 90
     1153
280
     0
281
     0
  0
CLASS
  1
VISUALSTYLE
  2
AcDbVisualStyle
  3
ObjectDBX Classes
 90
     4095
280
     0
281
     0
  0
CLASS
  1
TABLESTYLE
  2
AcDbTableStyle
  3
ObjectDBX Classes
 90
     4095
280
     0
281
     0
  0
CLASS
  1
SCALE
  2
AcDbScale
  3
ObjectDBX Classes
 90
     1153
280
     0
281
     0
  0
CLASS
  1
MLEADERSTYLE
  2
AcDbMLeaderStyle
  3
ACDB_MLEADERSTYLE_CLASS
 90
     4095
280
     0
281
     0
  0
CLASS
  1
SORTENTSTABLE
  2
AcDbSortentsTable
  3
ObjectDBX Classes
 90
        0
280
     0
281
     0
  0
CLASS
  1
CELLSTYLEMAP
  2
AcDbCellStyleMap
  3
ObjectDBX Classes
 90
     1152
280
     0
281
     0
  0
CLASS
  1
DICTIONARYVAR
  2
AcDbDictionaryVar
  3
ObjectDBX Classes
 90
        0
280
     0
281
     0
  0
ENDSEC
  0
SECTION
  2
TABLES
  0
TABLE
  2
VPORT
  5
8
330
0
100
AcDbSymbolTable
 70
     1
  0
VPORT
  5
77A
330
8
100
AcDbSymbolTableRecord
100
AcDbViewportTableRecord
  2
*Active
 70
     0
 10
0.0
 20
0.0
 11
1.0
 21
1.0
 12
34.34680171203343
 22
14.50375510091416
 13
0.0
 23
0.0
 14
7.0
 24
7.0
 15
7.0
 25
7.0
 16
0.0
 26
0.0
 36
1.0
 17
0.0
 27
0.0
 37
0.0
 40
104.6248596880487
 41
1.612676056338028
 42
50.0
 43
0.0
 44
0.0
 50
0.0
 51
0.0
 71
     0
 72
 20000
 73
     1
 74
     0
 75
     0
 76
     0
 77
     0
 78
     0
281
     0
 65
     1
110
0.0
120
0.0
130
0.0
111
1.0
121
0.0
131
0.0
112
0.0
122
1.0
132
0.0
 79
     0
146
0.0
  0
ENDTAB
  0
TABLE
  2
LTYPE
  5
5
330
0
100
AcDbSymbolTable
 70
    39
  0
LTYPE
  5
14
330
5
100
AcDbSymbolTableRecord
100
AcDbLinetypeTableRecord
  2
BYBLOCK
 70
     0
  3

 72
    65
 73
     0
 40
0.0
  0
LTYPE
  5
15
330
5
100
AcDbSymbolTableRecord
100
AcDbLinetypeTableRecord
  2
BYLAYER
 70
     0
  3

 72
    65
 73
     0
 40
0.0
  0
LTYPE
  5
16
330
5
100
AcDbSymbolTableRecord
100
AcDbLinetypeTableRecord
  2
CONTINUOUS
 70
     0
  3
Solid line
 72
    65
 73
     0
 40
0.0
  0
LTYPE
  5
258
330
5
100
AcDbSymbolTableRecord
100
AcDbLinetypeTableRecord
  2
CENTER2
 70
     0
  3
___ _ ___ _ ___ _ ___ _ ___ _ ___ _ ___ _ ___ _
 72
    65
 73
     4
 40
1.125
 49
0.75
 74
     0
 49
-0.125
 74
     0
 49
0.125
 74
     0
 49
-0.125
 74
     0
  0
LTYPE
  5
25C
330
5
100
AcDbSymbolTableRecord
100
AcDbLinetypeTableRecord
  2
HIDDEN2
 70
     0
  3
_ _ _ _ _ _ _ _ _ _ _ _ _ _ _ _ _ _ _ _ _ _ _ _
 72
    65
 73
     2
 40
0.1875
 49
0.125
 74
     0
 49
-0.0625
 74
     0
  0
ENDTAB
  0
TABLE
  2
LAYER
  5
2
330
0
100
AcDbSymbolTable
 70
    33
  0
LAYER
  5
F
102
{ACAD_XDICTIONARY
360
1195
102
}
330
2
100
AcDbSymbolTableRecord
100
AcDbLayerTableRecord
  2
0
 70
     0
 62
     7
  6
CONTINUOUS
370
    -3
390
564
  0
LAYER
  5
1AA
102
{ACAD_XDICTIONARY
360
11A5
102
}
330
2
100
AcDbSymbolTableRecord
100
AcDbLayerTableRecord
  2
240
 70
     0
 62
     4
  6
CONTINUOUS
370
    -3
390
564
  0
LAYER
  5
1AB
102
{ACAD_XDICTIONARY
360
11A7
102
}
330
2
100
AcDbSymbolTableRecord
100
AcDbLayerTableRecord
  2
241
 70
     0
 62
   211
  6
CONTINUOUS
370
    -3
390
564
  0
LAYER
  5
1AC
102
{ACAD_XDICTIONARY
360
11A9
102
}
330
2
100
AcDbSymbolTableRecord
100
AcDbLayerTableRecord
  2
242
 70
     0
 62
     3
  6
CONTINUOUS
370
    -3
390
564
  0
LAYER
  5
1AF
102
{ACAD_XDICTIONARY
360
11AF
102
}
330
2
100
AcDbSymbolTableRecord
100
AcDbLayerTableRecord
  2
245
 70
     0
 62
     2
  6
CENTER2
370
    -3
390
564
  0
LAYER
  5
21E
102
{ACAD_XDICTIONARY
360
11B7
102
}
330
2
100
AcDbSymbolTableRecord
100
AcDbLayerTableRecord
  2
250
 70
     0
 62
     3
  6
CONTINUOUS
370
    -3
390
564
  0
LAYER
  5
21F
102
{ACAD_XDICTIONARY
360
11B9
102
}
330
2
100
AcDbSymbolTableRecord
100
AcDbLayerTableRecord
  2
251
 70
     0
 62
    40
  6
CONTINUOUS
370
    -3
390
564
  0
LAYER
  5
5C4
330
2
100
AcDbSymbolTableRecord
100
AcDbLayerTableRecord
  2
Defpoints
 70
     0
 62
     7
  6
CONTINUOUS
290
     0
370
    -3
390
564
  0
LAYER
  5
7E8
102
{ACAD_XDICTIONARY
360
7E9
102
}
330
2
100
AcDbSymbolTableRecord
100
AcDbLayerTableRecord
  2
AM_7
 70
     0
 62
     2
  6
CENTER2
370
    35
390
564
  0
ENDTAB
  0
TABLE
  2
STYLE
  5
3
330
0
100
AcDbSymbolTable
 70
     5
  0
STYLE
  5
10
330
3
100
AcDbSymbolTableRecord
100
AcDbTextStyleTableRecord
  2
STANDARD
 70
     0
 40
0.0
 41
1.0
 50
0.0
 71
     0
 42
2.799999999999999
  3
romans.shx
  4
BIGFONT.SHX
  0
STYLE
  5
339
330
3
100
AcDbSymbolTableRecord
100
AcDbTextStyleTableRecord
  2
YOKO
 70
     0
 40
0.0
 41
1.0
 50
0.0
 71
     0
 42
3.0
  3
romans.shx
  4
extfont.shx
  0
ENDTAB
  0
TABLE
  2
VIEW
  5
6
330
0
100
AcDbSymbolTable
 70
     0
  0
ENDTAB
  0
TABLE
  2
UCS
  5
7
330
0
100
AcDbSymbolTable
 70
     0
  0
ENDTAB
  0
TABLE
  2
APPID
  5
9
330
0
100
AcDbSymbolTable
 70
    19
  0
APPID
  5
11
330
9
100
AcDbSymbolTableRecord
100
AcDbRegAppTableRecord
  2
ACAD
 70
     0
  0
APPID
  5
1B1
330
9
100
AcDbSymbolTableRecord
100
AcDbRegAppTableRecord
  2
GLOBAL
 70
     0
  0
APPID
  5
2A4
330
9
100
AcDbSymbolTableRecord
100
AcDbRegAppTableRecord
  2
DETAIL
 70
     0
  0
APPID
  5
5FD
330
9
100
AcDbSymbolTableRecord
100
AcDbRegAppTableRecord
  2
GRPNAME
 70
     0
  0
APPID
  5
5FE
330
9
100
AcDbSymbolTableRecord
100
AcDbRegAppTableRecord
  2
GPARA
 70
     0
  0
APPID
  5
6C4
330
9
100
AcDbSymbolTableRecord
100
AcDbRegAppTableRecord
  2
DCO15
 70
     0
  0
APPID
  5
6C5
330
9
100
AcDbSymbolTableRecord
100
AcDbRegAppTableRecord
  2
ITEMNAME
 70
     0
  0
APPID
  5
6C6
330
9
100
AcDbSymbolTableRecord
100
AcDbRegAppTableRecord
  2
GRADE_0
 70
     0
  0
APPID
  5
7CD
330
9
100
AcDbSymbolTableRecord
100
AcDbRegAppTableRecord
  2
ACAD_MLEADERVER
 70
     0
  0
APPID
  5
7EE
330
9
100
AcDbSymbolTableRecord
100
AcDbRegAppTableRecord
  2
GENIUS_GENODEF_13
 70
     0
  0
APPID
  5
7EF
330
9
100
AcDbSymbolTableRecord
100
AcDbRegAppTableRecord
  2
GENIUS_GENOREF_13
 70
     0
  0
APPID
  5
7F0
330
9
100
AcDbSymbolTableRecord
100
AcDbRegAppTableRecord
  2
GENIUS_GENOBJ-N-FIL_13
 70
     0
  0
APPID
  5
7F1
330
9
100
AcDbSymbolTableRecord
100
AcDbRegAppTableRecord
  2
GENIUS_GENFIL_13
 70
     0
  0
APPID
  5
7F2
330
9
100
AcDbSymbolTableRecord
100
AcDbRegAppTableRecord
  2
GENIUS_GENOBJ-N-CHA_13
 70
     0
  0
APPID
  5
C89
330
9
100
AcDbSymbolTableRecord
100
AcDbRegAppTableRecord
  2
HATCH_TYPE
 70
     0
  0
APPID
  5
C8A
330
9
100
AcDbSymbolTableRecord
100
AcDbRegAppTableRecord
  2
HATCH_DISPLAY
 70
     0
  0
APPID
  5
C8B
330
9
100
AcDbSymbolTableRecord
100
AcDbRegAppTableRecord
  2
HATCH_DISTANCE
 70
     0
  0
APPID
  5
FB0
330
9
100
AcDbSymbolTableRecord
100
AcDbRegAppTableRecord
  2
GENIUS_GENOBJ-N-CEN_13
 70
     0
  0
APPID
  5
1190
330
9
100
AcDbSymbolTableRecord
100
AcDbRegAppTableRecord
  2
ACAD_PSEXT
 70
     0
  0
ENDTAB
  0
TABLE
  2
DIMSTYLE
  5
A
330
0
100
AcDbSymbolTable
 70
    17
100
AcDbDimStyleTable
 71
     1
340
725
  0
DIMSTYLE
105
725
102
{ACAD_REACTORS
330
EA2
330
EA3
102
}
330
A
100
AcDbSymbolTableRecord
100
AcDbDimStyleTableRecord
  2
BIGT
 70
     0
 41
2.229999999999999
 42
0.5
 43
2.5
 44
1.0
 73
     0
 74
     0
 77
     3
 78
     8
 79
     2
140
2.799999999999999
141
0.0
147
1.0
172
     1
173
     1
174
     1
176
   256
177
   256
178
    40
179
     3
271
     3
272
     3
284
     8
289
     2
340
10
341
594
343
594
344
594
371
    -1
372
    -1
  0
ENDTAB
  0
TABLE
  2
BLOCK_RECORD
  5
1
330
0
100
AcDbSymbolTable
 70
    39
  0
BLOCK_RECORD
  5
1A
102
{ACAD_XDICTIONARY
360
D0C
102
}
330
1
100
AcDbSymbolTableRecord
100
AcDbBlockTableRecord
  2
*MODEL_SPACE
340
567
  0
BLOCK_RECORD
  5
17
330
1
100
AcDbSymbolTableRecord
100
AcDbBlockTableRecord
  2
*PAPER_SPACE
340
568
  0
BLOCK_RECORD
  5
594
330
1
100
AcDbSymbolTableRecord
100
AcDbBlockTableRecord
  2
_Open
340
0
102
{BLKREFS
331
B55
331
B56
331
C82
331
C83
331
C95
331
CC2
331
CC3
331
CCB
331
CCC
331
E4D
331
E4E
331
E60
331
E61
331
E6C
331
E6D
331
E7B
331
EA9
331
1178
331
1179
331
1181
331
1182
331
1252
331
1253
331
125E
331
125F
331
12AC
331
1358
331
1359
331
1361
331
1362
102
}
  0
BLOCK_RECORD
  5
6E3
330
1
100
AcDbSymbolTableRecord
100
AcDbBlockTableRecord
  2
矢印なし
340
0
102
{BLKREFS
331
6E6
102
}
  0
BLOCK_RECORD
  5
B5C
330
1
100
AcDbSymbolTableRecord
100
AcDbBlockTableRecord
  2
1
340
0
310
2800000020000000200000000100080000000000000400000000000000000000000000000000000000000000000080000080000000808000800000008000800080800000C0C0C000C0DCC000F0CAA6000020400000206000002080000020A0000020C0000020E00000400000004020000040400000406000004080000040A0
310
000040C0000040E00000600000006020000060400000606000006080000060A0000060C0000060E00000800000008020000080400000806000008080000080A0000080C0000080E00000A0000000A0200000A0400000A0600000A0800000A0A00000A0C00000A0E00000C0000000C0200000C0400000C0600000C0800000C0
310
A00000C0C00000C0E00000E0000000E0200000E0400000E0600000E0800000E0A00000E0C00000E0E00040000000400020004000400040006000400080004000A0004000C0004000E00040200000402020004020400040206000402080004020A0004020C0004020E000404000004040200040404000404060004040800040
310
40A0004040C0004040E00040600000406020004060400040606000406080004060A0004060C0004060E00040800000408020004080400040806000408080004080A0004080C0004080E00040A0000040A0200040A0400040A0600040A0800040A0A00040A0C00040A0E00040C0000040C0200040C0400040C0600040C08000
310
40C0A00040C0C00040C0E00040E0000040E0200040E0400040E0600040E0800040E0A00040E0C00040E0E00080000000800020008000400080006000800080008000A0008000C0008000E00080200000802020008020400080206000802080008020A0008020C0008020E00080400000804020008040400080406000804080
310
008040A0008040C0008040E00080600000806020008060400080606000806080008060A0008060C0008060E00080800000808020008080400080806000808080008080A0008080C0008080E00080A0000080A0200080A0400080A0600080A0800080A0A00080A0C00080A0E00080C0000080C0200080C0400080C0600080C0
310
800080C0A00080C0C00080C0E00080E0000080E0200080E0400080E0600080E0800080E0A00080E0C00080E0E000C0000000C0002000C0004000C0006000C0008000C000A000C000C000C000E000C0200000C0202000C0204000C0206000C0208000C020A000C020C000C020E000C0400000C0402000C0404000C0406000C0
310
408000C040A000C040C000C040E000C0600000C0602000C0604000C0606000C0608000C060A000C060C000C060E000C0800000C0802000C0804000C0806000C0808000C080A000C080C000C080E000C0A00000C0A02000C0A04000C0A06000C0A08000C0A0A000C0A0C000C0A0E000C0C00000C0C02000C0C04000C0C06000
310
C0C08000C0C0A000F0FBFF00A4A0A000808080000000FF0000FF000000FFFF00FF000000FF00FF00FFFF0000FFFFFF0000000000000000000000000000000000000000000000000000000000000000000000000000000000000000000000000000000000000000000000000000000000000000000000000000000000000000
310
00000000000000000000000000000000000000000000000000000000000000000000000000000000000000000000000000000000000000000000000000000000000000000000000000000000000000000000000000000000000000000000000000000000000000000000000000000000000000000000000000000000000000
310
00000000000000000000000000000000000000000000000000000000000000000000000000000000000000000000000000000000000000000000000000000000000000000000000000000000000000000000000000000000000000000000000000000000000000000000000000000000000000000000000000000000000000
310
000000000000000000000000000000000000000000FEFEFEFEFEFEFEE7FEE7FEFEFEFEFEFEFEFEFEFEFEFEFEFEE7FEFEFE00000000E7E7E7E7E700E7E7E7E70000000000000000000000000000E70000FE000000FBE7E7E7E7E7FBE7E7E7E7FBFFFFFFFFFFFFFFFFFFFFFFFBE7E7E7E7FEFB000000E7E7E7E7FBFBE7E7E7E7
310
FEFFFFFFFFFFFFFFFFFFFFFFFEFEFEFEFEFE0000000000000000000000FEFEE70000000000000000000000000000000000000000000000000000000000000000000000000000000000000000000000000000000000000000000000000000000000000000000000000000000000000000000000000000000000000000000000
310
0000000000000000000000000000000000000000000000E7E7E7E700E7E7E7E7E7E7E7E7E7000000000000000000000000000000000000E7E7E7E7E7E7E7E7E7E7E7E7E7E7E7000000000000000000000000000000000000000000000000000000000000000000000000000000000000000000000000000000000000000000
310
00000000000000000000000000000000000000000000000000000000000000000000000000000000000000000000000000000000000000000000000000000000000000000000000000000000000000000000000000000000000000000000000000000000000000000000000000000000000000000000000000000000000000
310
00000000000000000000000000000000000000000000000000000000000000000000000000000000000000000000000000000000000000000000000000000000000000000000000000000000000000000000000000000000000000000000000000000000000000000000000000000000000000000000000000000000000000
310
0000000000000000000000000000000000000000000000000000000000000000000000000000000000000000000000000000000000000000
102
{BLKREFS
331
C97
331
1492
102
}
  0
BLOCK_RECORD
  5
ECB
330
1
100
AcDbSymbolTableRecord
100
AcDbBlockTableRecord
  2
*D26
340
0
  0
BLOCK_RECORD
  5
ED7
330
1
100
AcDbSymbolTableRecord
100
AcDbBlockTableRecord
  2
*D27
340
0
  0
ENDTAB
  0
ENDSEC
  0
SECTION
  2
BLOCKS
  0
BLOCK
  5
1B
330
1A
100
AcDbEntity
  8
0
100
AcDbBlockBegin
  2
*MODEL_SPACE
 70
     0
 10
0.0
 20
0.0
 30
0.0
  3
*MODEL_SPACE
  1

  0
ENDBLK
  5
1C
330
1A
100
AcDbEntity
  8
0
100
AcDbBlockEnd
  0
BLOCK
  5
18
330
17
100
AcDbEntity
 67
     1
  8
0
100
AcDbBlockBegin
  2
*PAPER_SPACE
 70
     0
 10
0.0
 20
0.0
 30
0.0
  3
*PAPER_SPACE
  1

  0
ENDBLK
  5
19
330
17
100
AcDbEntity
 67
     1
  8
0
100
AcDbBlockEnd
  0
BLOCK
  5
598
330
594
100
AcDbEntity
  8
0
100
AcDbBlockBegin
  2
_Open
 70
     0
 10
0.0
 20
0.0
 30
0.0
  3
_Open
  1

  0
LINE
  5
595
330
594
100
AcDbEntity
  8
0
  6
ByBlock
 62
     0
370
    -2
100
AcDbLine
 10
-1.0
 20
0.1666666666666666
 30
0.0
 11
0.0
 21
0.0
 31
0.0
  0
LINE
  5
596
330
594
100
AcDbEntity
  8
0
  6
ByBlock
 62
     0
370
    -2
100
AcDbLine
 10
-1.0
 20
-0.1666666666666666
 30
0.0
 11
0.0
 21
0.0
 31
0.0
  0
LINE
  5
597
330
594
100
AcDbEntity
  8
0
  6
ByBlock
 62
     0
370
    -2
100
AcDbLine
 10
0.0
 20
0.0
 30
0.0
 11
-1.0
 21
0.0
 31
0.0
  0
ENDBLK
  5
599
330
594
100
AcDbEntity
  8
0
100
AcDbBlockEnd
  0
BLOCK
  5
6E4
330
6E3
100
AcDbEntity
  8
0
100
AcDbBlockBegin
  2
矢印なし
 70
     0
 10
0.0
 20
0.0
 30
0.0
  3
矢印なし
  1

  0
ENDBLK
  5
6E5
330
6E3
100
AcDbEntity
  8
0
100
AcDbBlockEnd
  0
BLOCK
  5
B5D
330
B5C
100
AcDbEntity
  8
0
100
AcDbBlockBegin
  2
1
 70
     0
 10
0.0
 20
0.0
 30
0.0
  3
1
  1

  0
LINE
  5
139D
330
B5C
100
AcDbEntity
  8
AM_7
100
AcDbLine
 10
-20.00000000000347
 20
8.633167169022897
 30
0.0
 11
-20.00000000000347
 21
5.941353813724504
 31
0.0
  0
LINE
  5
139E
330
B5C
100
AcDbEntity
  8
AM_7
100
AcDbLine
 10
-33.99999999999983
 20
-6.999999999999886
 30
0.0
 11
-33.99999999999983
 21
6.999999999999715
 31
0.0
  0
LINE
  5
139F
330
B5C
100
AcDbEntity
  8
240
100
AcDbLine
 10
-47.50000000000703
 20
-6.999999999999325
 30
0.0
 11
-47.5000000000071
 21
0.0000000000001137
 31
0.0
  0
ARC
  5
13A0
330
B5C
100
AcDbEntity
  8
240
100
AcDbCircle
 10
-46.50000000000703
 20
-6.999999999999316
 30
0.0
 40
1.0
100
AcDbArc
 50
180.0000000000005
 51
269.9999999999984
  0
LINE
  5
13A1
330
B5C
100
AcDbEntity
  8
240
100
AcDbLine
 10
-47.50000000000704
 20
6.999999999999552
 30
0.0
 11
-47.5000000000071
 21
0.0000000000001137
 31
0.0
  0
ARC
  5
13A2
330
B5C
100
AcDbEntity
  8
240
100
AcDbCircle
 10
-46.50000000000704
 20
6.999999999999543
 30
0.0
 40
1.0
100
AcDbArc
 50
90.00000000000156
 51
179.9999999999995
  0
LINE
  5
13A3
330
B5C
100
AcDbEntity
  8
240
100
AcDbLine
 10
-46.50000000000707
 20
7.999999999999543
 30
0.0
 11
-6.500000000001065
 21
8.000000000000639
 31
0.0
  0
LINE
  5
13A4
330
B5C
100
AcDbEntity
  8
AM_7
100
AcDbLine
 10
-49.57659589909207
 20
0.0000000000001137
 30
0.0
 11
101.9398840019136
 21
0.0000000000000853
 31
0.0
1001
GENIUS_GENOREF_13
1005
0
  0
LINE
  5
13A5
330
B5C
100
AcDbEntity
  8
241
100
AcDbLine
 10
-38.99999999999256
 20
5.291502622129257
 30
0.0
 11
-38.99999999999256
 21
-5.29150262212903
 31
0.0
  0
LINE
  5
13A6
330
B5C
100
AcDbEntity
  8
241
100
AcDbLine
 10
-38.99999999999256
 20
-5.29150262212903
 30
0.0
 11
-29.00000000000711
 21
-5.29150262212903
 31
0.0
  0
LINE
  5
13A7
330
B5C
100
AcDbEntity
  8
241
100
AcDbLine
 10
-29.00000000000711
 20
-5.29150262212903
 30
0.0
 11
-29.00000000000711
 21
5.291502622129257
 31
0.0
  0
LINE
  5
13A8
330
B5C
100
AcDbEntity
  8
241
100
AcDbLine
 10
-29.00000000000711
 20
5.291502622129257
 30
0.0
 11
-38.99999999999256
 21
5.291502622129257
 31
0.0
  0
ARC
  5
13A9
330
B5C
100
AcDbEntity
  8
241
100
AcDbCircle
 10
-32.9999999999913
 20
0.0000000000001137
 30
0.0
 40
8.000000000000996
100
AcDbArc
 50
138.5903778907359
 51
169.6188960988396
  0
ARC
  5
13AA
330
B5C
100
AcDbEntity
  8
241
100
AcDbCircle
 10
-35.00000000000847
 20
0.0000000000001137
 30
0.0
 40
8.000000000000996
100
AcDbArc
 50
318.5903778907359
 51
41.40962210926407
  0
CIRCLE
  5
13AB
330
B5C
100
AcDbEntity
  8
241
100
AcDbCircle
 10
-33.99999999999983
 20
-0.0000000000000568
 30
0.0
 40
4.499999999992724
  0
LINE
  5
13AC
330
B5C
100
AcDbEntity
  8
241
100
AcDbLine
 10
-45.70000000000677
 20
7.999999999999587
 30
0.0
 11
-45.70000000000693
 21
1.441558035307522
 31
0.0
  0
LINE
  5
13AD
330
B5C
100
AcDbEntity
  8
241
100
AcDbLine
 10
-43.63890360638635
 20
7.999999999999317
 30
0.0
 11
-43.63890360638635
 21
1.441558035307537
 31
0.0
  0
LINE
  5
13AE
330
B5C
100
AcDbEntity
  8
241
100
AcDbLine
 10
-40.86904761904003
 20
1.441558035307537
 30
0.0
 11
-47.50000000000716
 21
1.441558035307267
 31
0.0
  0
LINE
  5
13AF
330
B5C
100
AcDbEntity
  8
241
100
AcDbLine
 10
-40.86904761904003
 20
-1.441558035307309
 30
0.0
 11
-47.50000000000713
 21
-1.441558035307281
 31
0.0
  0
ARC
  5
13B0
330
B5C
100
AcDbEntity
  8
241
100
AcDbCircle
 10
-43.49999999999198
 20
0.0000000000001137
 30
0.0
 40
2.999999999999344
100
AcDbArc
 50
331.2806732462336
 51
28.71932675376641
  0
ARC
  5
13B1
330
B5C
100
AcDbEntity
  8
241
100
AcDbCircle
 10
-32.9999999999913
 20
0.0000000000001137
 30
0.0
 40
8.000000000000996
100
AcDbArc
 50
190.3811039011604
 51
221.4096221092641
  0
LINE
  5
13B2
330
B5C
100
AcDbEntity
  8
241
100
AcDbLine
 10
-43.63890360638635
 20
-7.99999999999909
 30
0.0
 11
-43.63890360638635
 21
-1.441558035307252
 31
0.0
  0
LINE
  5
13B3
330
B5C
100
AcDbEntity
  8
241
100
AcDbLine
 10
-45.70000000000677
 20
-7.999999999999303
 30
0.0
 11
-45.70000000000688
 21
-1.441558035307238
 31
0.0
  0
LINE
  5
13B4
330
B5C
100
AcDbEntity
  8
241
100
AcDbLine
 10
-25.50000000000711
 20
8.000000000000099
 30
0.0
 11
-25.50000000000711
 21
-7.999999999999913
 31
0.0
  0
LINE
  5
13B5
330
B5C
100
AcDbEntity
  8
241
100
AcDbLine
 10
-23.50000000000139
 20
8.000000000000156
 30
0.0
 11
-23.50000000000122
 21
-7.99999999999997
 31
0.0
  0
LINE
  5
13B6
330
B5C
100
AcDbEntity
  8
241
100
AcDbLine
 10
-16.4999999999997
 20
8.000000000000355
 30
0.0
 11
-16.50000000000018
 21
-8.00000000000017
 31
0.0
  0
LINE
  5
13B7
330
B5C
100
AcDbEntity
  8
241
100
AcDbLine
 10
-14.49999999999983
 20
8.000000000000412
 30
0.0
 11
-14.49999999999983
 21
-8.000000000000227
 31
0.0
  0
LINE
  5
13B8
330
B5C
100
AcDbEntity
  8
241
100
AcDbLine
 10
-10.99999999999983
 20
8.000000000000113
 30
0.0
 11
-10.99999999999983
 21
-8.000000000000326
 31
0.0
  0
ELLIPSE
  5
13B9
330
B5C
100
AcDbEntity
  8
241
100
AcDbEllipse
 10
-20.00000000000347
 20
7.278827741715929
 30
0.0
 11
-2.0
 21
0.0
 31
0.0
210
0.0
220
0.0
230
1.0
 40
0.3420201433256835
 41
0.0
 42
6.283185307179586
  0
LINE
  5
13BA
330
B5C
100
AcDbEntity
  8
AM_7
100
AcDbLine
 10
-22.56252757919646
 20
7.278827741715929
 30
0.0
 11
-17.32979991812334
 21
7.278827741715929
 31
0.0
  0
LINE
  5
13BB
330
B5C
100
AcDbEntity
  8
241
100
AcDbLine
 10
-10.0000000000003
 20
3.399999999999804
 30
0.0
 11
-6.50000000000017
 21
3.399999999999835
 31
0.0
  0
LINE
  5
13BC
330
B5C
100
AcDbEntity
  8
241
  6
Continuous
100
AcDbLine
 10
-10.0000000000003
 20
3.399999999999804
 30
0.0
 11
-9.999999999999809
 21
-3.400000000000266
 31
0.0
  0
LINE
  5
13BD
330
B5C
100
AcDbEntity
  8
241
100
AcDbLine
 10
-9.500000000000284
 20
3.399999999999806
 30
0.0
 11
-9.500000000000284
 21
8.000000000000568
 31
0.0
  0
LINE
  5
13BE
330
B5C
100
AcDbEntity
  8
241
100
AcDbLine
 10
-9.500000000000966
 20
-3.400000000000375
 30
0.0
 11
-9.500000000001037
 21
-8.000000000000369
 31
0.0
  0
LINE
  5
13BF
330
B5C
100
AcDbEntity
  8
241
100
AcDbLine
 10
-9.999999999999809
 20
-3.400000000000266
 30
0.0
 11
-6.499999999998848
 21
-3.40000000000154
 31
0.0
  0
LINE
  5
13C0
330
B5C
100
AcDbEntity
  8
240
100
AcDbLine
 10
-6.500000000001591
 20
-10.50313367013348
 30
0.0
 11
-6.500000000001118
 21
-8.000000000000454
 31
0.0
  0
LINE
  5
13C1
330
B5C
100
AcDbEntity
  8
241
  6
Continuous
100
AcDbLine
 10
-2.000000000000156
 20
10.99999999999987
 30
0.0
 11
-1.999999999999957
 21
-11.00000000000005
 31
0.0
  0
LINE
  5
13C2
330
B5C
100
AcDbEntity
  8
241
  6
Continuous
100
AcDbLine
 10
-4.000000000000255
 20
10.99999999999986
 30
0.0
 11
-4.000000000003041
 21
-11.00000000000065
 31
0.0
  0
LINE
  5
13C3
330
B5C
100
AcDbEntity
  8
241
100
AcDbLine
 10
-5.126261290273077
 20
10.98433164933084
 30
0.0
 11
-5.126261290273077
 21
-11.00000000000099
 31
0.0
  0
ARC
  5
13C4
330
B5C
100
AcDbEntity
  8
240
100
AcDbCircle
 10
-6.535265396141824
 20
10.7000000000001
 30
0.0
 40
0.2
100
AcDbArc
 50
280.1558894338579
 51
290.0000000000071
1001
GENIUS_GENODEF_13
1002
{
1000
HIER
1070
     0
1002
}
1002
{
1000
MANEDIT
1070
     0
1002
}
1002
{
1000
NOSEL
1070
     0
1002
}
1002
{
1000
BEHIND
1070
     0
1002
}
1002
{
1000
OTHER
1070
     0
1002
}
1002
{
1000
REACTOR
1002
}
1001
GENIUS_GENOBJ-N-FIL_13
1002
{
1000
OWNER
1000
GEN
1002
}
  0
LINE
  5
13C5
330
B5C
100
AcDbEntity
  8
240
100
AcDbLine
 10
-6.466861367476667
 20
10.51206147584304
 30
0.0
 11
-5.291954452890308
 21
10.93969262078593
 31
0.0
  0
ARC
  5
13C6
330
B5C
100
AcDbEntity
  8
240
100
AcDbCircle
 10
-4.949934309564639
 20
10.00000000000005
 30
0.0
 40
1.0
100
AcDbArc
 50
90.0
 51
110.0000000000001
1001
GENIUS_GENODEF_13
1002
{
1000
HIER
1070
     0
1002
}
1002
{
1000
MANEDIT
1070
     0
1002
}
1002
{
1000
NOSEL
1070
     0
1002
}
1002
{
1000
BEHIND
1070
     0
1002
}
1002
{
1000
OTHER
1070
     0
1002
}
1002
{
1000
REACTOR
1002
}
1001
GENIUS_GENOBJ-N-FIL_13
1002
{
1000
OWNER
1000
GEN
1002
}
  0
LINE
  5
13C7
330
B5C
100
AcDbEntity
  8
240
100
AcDbLine
 10
-4.949934309564639
 20
11.00000000000005
 30
0.0
 11
-0.7673269879792031
 21
11.00000000000008
 31
0.0
  0
ARC
  5
13C8
330
B5C
100
AcDbEntity
  8
240
100
AcDbCircle
 10
-0.7673269879791889
 20
10.00000000000008
 30
0.0
 40
1.0
100
AcDbArc
 50
14.99999999998852
 51
90.00000000000081
  0
LINE
  5
13C9
330
B5C
100
AcDbEntity
  8
240
100
AcDbLine
 10
79.99999999999241
 20
-8.000000000003524
 30
0.0
 11
1.571174565271093
 21
-8.000000000002486
 31
0.0
  0
LINE
  5
13CA
330
B5C
100
AcDbEntity
  8
240
100
AcDbLine
 10
79.99999999999443
 20
8.000000000003652
 30
0.0
 11
1.571174565271121
 21
8.000000000002586
 31
0.0
  0
LINE
  5
13CB
330
B5C
100
AcDbEntity
  8
240
100
AcDbLine
 10
0.198598838309934
 20
10.25881904510241
 30
0.0
 11
0.6052487389819845
 21
8.741180954900258
 31
0.0
  0
ARC
  5
13CC
330
B5C
100
AcDbEntity
  8
240
100
AcDbCircle
 10
1.571174565271107
 20
9.000000000002586
 30
0.0
 40
1.0
100
AcDbArc
 50
194.9999999999885
 51
270.0000000000008
  0
LINE
  5
13CD
330
B5C
100
AcDbEntity
  8
240
100
AcDbLine
 10
0.1985988383099624
 20
-10.25881904510204
 30
0.0
 11
0.6052487389819703
 21
-8.74118095490013
 31
0.0
  0
ARC
  5
13CE
330
B5C
100
AcDbEntity
  8
240
100
AcDbCircle
 10
-0.7673269879791463
 20
-9.999999999999687
 30
0.0
 40
1.0
100
AcDbArc
 50
270.0000000000301
 51
345.0000000000096
  0
ARC
  5
13CF
330
B5C
100
AcDbEntity
  8
240
100
AcDbCircle
 10
1.571174565271078
 20
-9.000000000002486
 30
0.0
 40
1.0
100
AcDbArc
 50
89.9999999999992
 51
165.0000000000097
  0
LINE
  5
13D0
330
B5C
100
AcDbEntity
  8
241
100
AcDbLine
 10
0.0
 20
10.64125602805632
 30
0.0
 11
0.0
 21
-10.64125602805622
 31
0.0
  0
LINE
  5
13D1
330
B5C
100
AcDbEntity
  8
241
100
AcDbLine
 10
0.8306424965358019
 20
7.90000000000009
 30
0.0
 11
0.8306424965358019
 21
-8.3279789771359
 31
0.0
  0
LINE
  5
13D2
330
B5C
100
AcDbEntity
  8
240
100
AcDbLine
 10
-46.50000000000706
 20
-7.999999999999316
 30
0.0
 11
-6.499999999997953
 21
-8.000000000000454
 31
0.0
  0
LINE
  5
13D3
330
B5C
100
AcDbEntity
  8
240
100
AcDbLine
 10
-0.7673269879786205
 20
-10.99999999999969
 30
0.0
 11
-5.126261290270036
 21
-11.00000000000099
 31
0.0
  0
ARC
  5
13D4
330
B5C
100
AcDbEntity
  8
240
100
AcDbCircle
 10
-6.535265396141838
 20
-10.69999999999989
 30
0.0
 40
0.2
100
AcDbArc
 50
69.99999999999295
 51
79.84411056614208
1001
GENIUS_GENODEF_13
1002
{
1000
HIER
1070
     0
1002
}
1002
{
1000
MANEDIT
1070
     0
1002
}
1002
{
1000
NOSEL
1070
     0
1002
}
1002
{
1000
BEHIND
1070
     0
1002
}
1002
{
1000
OTHER
1070
     0
1002
}
1002
{
1000
REACTOR
1002
}
1001
GENIUS_GENOBJ-N-FIL_13
1002
{
1000
OWNER
1000
GEN
1002
}
  0
LINE
  5
13D5
330
B5C
100
AcDbEntity
  8
240
100
AcDbLine
 10
-6.466861367476681
 20
-10.51206147584283
 30
0.0
 11
-5.126261290270036
 21
-11.00000000000099
 31
0.0
  0
LINE
  5
13D6
330
B5C
100
AcDbEntity
  8
240
100
AcDbLine
 10
99.99999999999284
 20
-6.999999999999914
 30
0.0
 11
99.99999999999284
 21
0.0000000000000853
 31
0.0
  0
LINE
  5
13D7
330
B5C
100
AcDbEntity
  8
240
100
AcDbLine
 10
83.14999999999285
 20
-7.999999999999914
 30
0.0
 11
98.99999999999284
 21
-7.999999999999914
 31
0.0
  0
LINE
  5
13D8
330
B5C
100
AcDbEntity
  8
240
100
AcDbLine
 10
80.99999999999283
 20
-6.199999999999917
 30
0.0
 11
80.99999999999283
 21
-8.14999999999992
 31
0.0
  0
LINE
  5
13D9
330
B5C
100
AcDbEntity
  8
240
100
AcDbLine
 10
79.99999999999284
 20
-6.199999999999917
 30
0.0
 11
79.99999999999241
 21
-8.000000000003524
 31
0.0
  0
LINE
  5
13DA
330
B5C
100
AcDbEntity
  8
240
100
AcDbLine
 10
83.14999999999285
 20
-7.999999999999914
 30
0.0
 11
82.99999999999284
 21
-8.14999999999992
 31
0.0
  0
LINE
  5
13DB
330
B5C
100
AcDbEntity
  8
240
100
AcDbLine
 10
80.99999999999283
 20
-8.14999999999992
 30
0.0
 11
82.99999999999284
 21
-8.14999999999992
 31
0.0
  0
LINE
  5
13DC
330
B5C
100
AcDbEntity
  8
240
100
AcDbLine
 10
80.99999999999283
 20
-6.199999999999917
 30
0.0
 11
79.99999999999284
 21
-6.199999999999917
 31
0.0
  0
ARC
  5
13DD
330
B5C
100
AcDbEntity
  8
240
100
AcDbCircle
 10
98.99999999999284
 20
-6.999999999999914
 30
0.0
 40
1.0
100
AcDbArc
 50
270.0
 51
0.0
1001
GENIUS_GENODEF_13
1002
{
1000
HIER
1070
     0
1002
}
1002
{
1000
MANEDIT
1070
     0
1002
}
1002
{
1000
NOSEL
1070
     0
1002
}
1002
{
1000
BEHIND
1070
     0
1002
}
1002
{
1000
OTHER
1070
     0
1002
}
1002
{
1000
REACTOR
1002
}
1001
GENIUS_GENOBJ-N-FIL_13
1002
{
1000
OWNER
1000
GEN
1002
}
  0
LINE
  5
13DE
330
B5C
100
AcDbEntity
  8
240
100
AcDbLine
 10
83.14999999999285
 20
8.000000000000085
 30
0.0
 11
98.99999999999284
 21
8.000000000000085
 31
0.0
  0
LINE
  5
13DF
330
B5C
100
AcDbEntity
  8
241
  6
HIDDEN2
100
AcDbLine
 10
86.99999999999283
 20
2.999999890000083
 30
0.0
 11
99.99999999999284
 21
2.999999890000083
 31
0.0
  0
LINE
  5
13E0
330
B5C
100
AcDbEntity
  8
241
  6
HIDDEN2
100
AcDbLine
 10
81.99999999999283
 20
3.29999989000008
 30
0.0
 11
86.99999999999283
 21
3.29999989000008
 31
0.0
1001
GRPNAME
1000
0000002S
  0
LINE
  5
13E1
330
B5C
100
AcDbEntity
  8
241
100
AcDbLine
 10
84.19999999999282
 20
8.000000000000085
 30
0.0
 11
84.19999999999282
 21
-7.999999999999913
 31
0.0
  0
LINE
  5
13E2
330
B5C
100
AcDbEntity
  8
241
100
AcDbLine
 10
82.99999999999284
 20
8.15000000000009
 30
0.0
 11
82.99999999999284
 21
-8.14999999999992
 31
0.0
  0
LINE
  5
13E3
330
B5C
100
AcDbEntity
  8
241
100
AcDbLine
 10
80.99999999999283
 20
6.200000000000088
 30
0.0
 11
80.99999999999285
 21
-6.199999999999931
 31
0.0
  0
LINE
  5
13E4
330
B5C
100
AcDbEntity
  8
241
100
AcDbLine
 10
79.99999999999284
 20
6.200000000000088
 30
0.0
 11
79.99999999999285
 21
-6.199999999999931
 31
0.0
  0
LINE
  5
13E5
330
B5C
100
AcDbEntity
  8
241
  6
HIDDEN2
100
AcDbLine
 10
76.99999999999284
 20
3.535533790000087
 30
0.0
 11
81.99999999999283
 21
3.535533790000087
 31
0.0
  0
LINE
  5
13E6
330
B5C
100
AcDbEntity
  8
242
100
AcDbLine
 10
76.99999999999284
 20
-0.0000001099999167
 30
0.0
 11
81.99999999999283
 21
3.535533790000087
 31
0.0
  0
LINE
  5
13E7
330
B5C
100
AcDbEntity
  8
242
100
AcDbLine
 10
81.99999999999283
 20
-0.0000001099999167
 30
0.0
 11
76.99999999999284
 21
3.535533790000087
 31
0.0
  0
LINE
  5
13E8
330
B5C
100
AcDbEntity
  8
241
  6
HIDDEN2
100
AcDbLine
 10
76.99999999999284
 20
3.535533790000087
 30
0.0
 11
76.99999999999284
 21
-0.0000001099999167
 31
0.0
  0
LINE
  5
13E9
330
B5C
100
AcDbEntity
  8
241
  6
HIDDEN2
100
AcDbLine
 10
81.99999999999283
 20
3.535533790000087
 30
0.0
 11
81.99999999999283
 21
-0.0000001099999167
 31
0.0
  0
LINE
  5
13EA
330
B5C
100
AcDbEntity
  8
240
100
AcDbLine
 10
80.99999999999283
 20
6.200000000000088
 30
0.0
 11
79.99999999999284
 21
6.200000000000088
 31
0.0
  0
LINE
  5
13EB
330
B5C
100
AcDbEntity
  8
240
100
AcDbLine
 10
79.99999999999284
 20
6.200000000000088
 30
0.0
 11
79.99999999999443
 21
8.000000000003652
 31
0.0
  0
LINE
  5
13EC
330
B5C
100
AcDbEntity
  8
240
100
AcDbLine
 10
83.14999999999285
 20
8.000000000000085
 30
0.0
 11
82.99999999999284
 21
8.15000000000009
 31
0.0
  0
LINE
  5
13ED
330
B5C
100
AcDbEntity
  8
240
100
AcDbLine
 10
80.99999999999283
 20
6.200000000000088
 30
0.0
 11
80.99999999999283
 21
8.15000000000009
 31
0.0
  0
LINE
  5
13EE
330
B5C
100
AcDbEntity
  8
240
100
AcDbLine
 10
80.99999999999283
 20
8.15000000000009
 30
0.0
 11
82.99999999999284
 21
8.15000000000009
 31
0.0
  0
LINE
  5
13EF
330
B5C
100
AcDbEntity
  8
241
  6
HIDDEN2
100
AcDbLine
 10
86.99999999999283
 20
3.29999989000008
 30
0.0
 11
86.99999999999283
 21
0.0000000000000853
 31
0.0
  0
LINE
  5
13F0
330
B5C
100
AcDbEntity
  8
240
100
AcDbLine
 10
99.99999999999284
 20
7.000000000000085
 30
0.0
 11
99.99999999999284
 21
0.0000000000000853
 31
0.0
  0
ARC
  5
13F1
330
B5C
100
AcDbEntity
  8
240
100
AcDbCircle
 10
98.99999999999284
 20
7.000000000000085
 30
0.0
 40
1.0
100
AcDbArc
 50
359.9999823999996
 51
90.0
1001
GENIUS_GENODEF_13
1002
{
1000
HIER
1070
     0
1002
}
1002
{
1000
MANEDIT
1070
     0
1002
}
1002
{
1000
NOSEL
1070
     0
1002
}
1002
{
1000
BEHIND
1070
     0
1002
}
1002
{
1000
OTHER
1070
     0
1002
}
1002
{
1000
REACTOR
1002
}
1001
GENIUS_GENOBJ-N-FIL_13
1002
{
1000
OWNER
1000
GEN
1002
}
  0
TEXT
  5
13F2
330
B5C
100
AcDbEntity
  8
241
100
AcDbText
 10
-47.5000000000071
 20
35.00000000000011
 30
0.0
 40
5.0
  1
MGT6-060049-100
  7
YOKO
 11
-47.5000000000071
 21
35.00000000000011
 31
0.0
100
AcDbText
 73
     1
  0
TEXT
  5
13F3
330
B5C
100
AcDbEntity
  8
0
100
AcDbText
 10
23.32416857653581
 20
2.568449940000107
 30
0.0
 40
2.879999999999999
  1
MGT6-060049-100
  7
YOKO
100
AcDbText
  0
LINE
  5
13F4
330
B5C
100
AcDbEntity
  8
0
100
AcDbLine
 10
21.05105299653581
 20
5.425554020000106
 30
0.0
 11
21.32763135653582
 21
5.702132380000108
 31
0.0
  0
LINE
  5
13F5
330
B5C
100
AcDbEntity
  8
0
100
AcDbLine
 10
21.05598489653582
 20
2.153109110000102
 30
0.0
 11
22.26465212653582
 21
3.361776330000097
 31
0.0
  0
ARC
  5
13F6
330
B5C
100
AcDbEntity
  8
0
100
AcDbCircle
 10
20.43198254653581
 20
3.985778700000096
 30
0.0
 40
1.935989859374998
100
AcDbArc
 50
270.0
 51
104.7707939699996
  0
ARC
  5
13F7
330
B5C
100
AcDbEntity
  8
0
100
AcDbCircle
 10
20.43198254653581
 20
3.985778700000096
 30
0.0
 40
1.567227234374995
100
AcDbArc
 50
270.0
 51
104.1274364999995
  0
LINE
  5
13F8
330
B5C
100
AcDbEntity
  8
0
100
AcDbLine
 10
11.86214262653581
 20
2.381725140000099
 30
0.0
 11
12.12891279653581
 21
2.6484953100001
 31
0.0
  0
ARC
  5
13F9
330
B5C
100
AcDbEntity
  8
0
100
AcDbCircle
 10
12.9461485865358
 20
3.985778700000096
 30
0.0
 40
1.567227234374995
100
AcDbArc
 50
90.0
 51
270.0
  0
ARC
  5
13FA
330
B5C
100
AcDbEntity
  8
0
100
AcDbCircle
 10
12.9461485865358
 20
3.985778700000096
 30
0.0
 40
1.935989859374998
100
AcDbArc
 50
90.0
 51
270.0
  0
LINE
  5
13FB
330
B5C
100
AcDbEntity
  8
0
100
AcDbLine
 10
11.06793739653579
 20
4.455224620000109
 30
0.0
 11
12.4767026665358
 21
5.863989880000104
 31
0.0
  0
LINE
  5
13FC
330
B5C
100
AcDbEntity
  8
0
100
AcDbLine
 10
11.4357527865358
 20
2.774679510000098
 30
0.0
 11
11.69845384653581
 21
3.037380560000102
 31
0.0
  0
LINE
  5
13FD
330
B5C
100
AcDbEntity
  8
0
100
AcDbLine
 10
11.6334976465358
 20
2.562752260000095
 30
0.0
 11
11.8945143465358
 21
2.823768960000094
 31
0.0
  0
LINE
  5
13FE
330
B5C
100
AcDbEntity
  8
0
100
AcDbLine
 10
11.2694051065358
 20
3.018003920000097
 30
0.0
 11
11.54169212653582
 21
3.29029094000009
 31
0.0
  0
LINE
  5
13FF
330
B5C
100
AcDbEntity
  8
0
100
AcDbLine
 10
11.01015975653581
 20
3.987774870000095
 30
0.0
 11
11.43942555653581
 21
4.417040670000091
 31
0.0
  0
LINE
  5
1400
330
B5C
100
AcDbEntity
  8
0
100
AcDbLine
 10
11.1373526665358
 20
3.295623590000104
 30
0.0
 11
11.43013529653581
 21
3.588406210000101
 31
0.0
  0
LINE
  5
1401
330
B5C
100
AcDbEntity
  8
0
100
AcDbLine
 10
11.04616940653579
 20
3.614112420000097
 30
0.0
 11
11.3793929165358
 21
3.947335930000093
 31
0.0
  0
LINE
  5
1402
330
B5C
100
AcDbEntity
  8
0
100
AcDbLine
 10
17.3304039165358
 20
3.753265430000098
 30
0.0
 11
18.53281638653581
 21
4.955677900000097
 31
0.0
  0
LINE
  5
1403
330
B5C
100
AcDbEntity
  8
0
100
AcDbLine
 10
16.1225524565358
 20
3.774430270000095
 30
0.0
 11
17.27891808653581
 21
4.930795900000106
 31
0.0
  0
ARC
  5
1404
330
B5C
100
AcDbEntity
  8
0
100
AcDbCircle
 10
20.48736375653581
 20
3.7383869800001
 30
0.0
 40
3.136264312499998
100
AcDbArc
 50
155.2051773700003
 51
172.7948259599995
  0
LINE
  5
1405
330
B5C
100
AcDbEntity
  8
0
100
AcDbLine
 10
14.7989228665358
 20
3.679816990000091
 30
0.0
 11
16.0081110665358
 21
4.889005180000097
 31
0.0
  0
LINE
  5
1406
330
B5C
100
AcDbEntity
  8
0
100
AcDbLine
 10
18.1161204065358
 20
3.502494730000094
 30
0.0
 11
18.61310349653581
 21
5.235670710000107
 31
0.0
  0
LINE
  5
1407
330
B5C
100
AcDbEntity
  8
0
100
AcDbLine
 10
14.6559184165358
 20
3.946484630000099
 30
0.0
 11
15.9755276165358
 21
5.266093840000095
 31
0.0
  0
LINE
  5
1408
330
B5C
100
AcDbEntity
  8
0
100
AcDbLine
 10
15.7866287465358
 20
2.602932340000094
 30
0.0
 11
16.6219830065358
 21
5.516140800000101
 31
0.0
  0
LINE
  5
1409
330
B5C
100
AcDbEntity
  8
0
100
AcDbLine
 10
16.6114163065358
 20
2.602932340000094
 30
0.0
 11
17.56307391653581
 21
5.921768560000103
 31
0.0
  0
LINE
  5
140A
330
B5C
100
AcDbEntity
  8
0
100
AcDbLine
 10
16.6219830065358
 20
5.516140800000101
 30
0.0
 11
15.7866287465358
 21
2.602932340000094
 31
0.0
1001
HATCH_DISTANCE
1040
1.0
1001
HATCH_DISPLAY
1070
     0
1001
HATCH_TYPE
1070
     7
  0
LINE
  5
140B
330
B5C
100
AcDbEntity
  8
0
100
AcDbLine
 10
16.6114163065358
 20
2.602932340000094
 30
0.0
 11
17.56307391653581
 21
5.921768560000103
 31
0.0
1001
HATCH_DISTANCE
1040
1.0
1001
HATCH_DISPLAY
1070
     0
1001
HATCH_TYPE
1070
     7
  0
LINE
  5
140C
330
B5C
100
AcDbEntity
  8
0
100
AcDbLine
 10
16.6219830065358
 20
5.516140800000101
 30
0.0
 11
15.7866287465358
 21
2.602932340000094
 31
0.0
  0
LINE
  5
140D
330
B5C
100
AcDbEntity
  8
0
100
AcDbLine
 10
16.6114163065358
 20
2.602932340000094
 30
0.0
 11
17.56307391653581
 21
5.921768560000103
 31
0.0
  0
LINE
  5
140E
330
B5C
100
AcDbEntity
  8
0
100
AcDbLine
 10
17.3884523265358
 20
4.220985940000105
 30
0.0
 11
19.05914388653579
 21
5.891677500000099
 31
0.0
  0
LINE
  5
140F
330
B5C
100
AcDbEntity
  8
0
100
AcDbLine
 10
16.28725185653582
 20
4.3488017600001
 30
0.0
 11
17.4436152365358
 21
5.505165150000095
 31
0.0
  0
ARC
  5
1410
330
B5C
100
AcDbEntity
  8
0
100
AcDbCircle
 10
15.0929017165358
 20
4.999875910000099
 30
0.0
 40
0.9219004716796876
100
AcDbArc
 50
287.66957755
 51
90.23615984000015
  0
LINE
  5
1411
330
B5C
100
AcDbEntity
  8
0
100
AcDbLine
 10
14.90348929653581
 20
5.543367400000107
 30
0.0
 11
14.6012924765358
 21
4.489458240000089
 31
0.0
  0
ARC
  5
1412
330
B5C
100
AcDbEntity
  8
0
100
AcDbCircle
 10
14.6814963865358
 20
5.036741040000094
 30
0.0
 40
0.5531284929199223
100
AcDbArc
 50
261.6626016899999
 51
66.33815510000005
  0
LINE
  5
1413
330
B5C
100
AcDbEntity
  8
0
100
AcDbLine
 10
13.1396487365358
 20
2.602932340000094
 30
0.0
 11
13.9855696965358
 21
5.553005940000105
 31
0.0
  0
LINE
  5
1414
330
B5C
100
AcDbEntity
  8
0
100
AcDbLine
 10
13.39960856653582
 20
3.509518980000095
 30
0.0
 11
14.6904363265358
 21
4.800346740000094
 31
0.0
  0
LINE
  5
1415
330
B5C
100
AcDbEntity
  8
0
100
AcDbLine
 10
13.56430679653582
 20
4.083889320000096
 30
0.0
 11
14.85512911653581
 21
5.3747116400001
 31
0.0
  0
LINE
  5
1416
330
B5C
100
AcDbEntity
  8
0
100
AcDbLine
 10
16.44627109653581
 20
2.049788410000104
 30
0.0
 11
16.81503370653581
 21
2.418551030000102
 31
0.0
  0
LINE
  5
1417
330
B5C
100
AcDbEntity
  8
0
100
AcDbLine
 10
15.95785305653581
 20
3.200058780000091
 30
0.0
 11
17.11422093653581
 21
4.356426650000102
 31
0.0
  0
LINE
  5
1418
330
B5C
100
AcDbEntity
  8
0
100
AcDbLine
 10
16.18007082653579
 20
2.602932340000094
 30
0.0
 11
16.78482662653582
 21
3.207688140000101
 31
0.0
  0
LINE
  5
1419
330
B5C
100
AcDbEntity
  8
0
100
AcDbLine
 10
15.7931536665358
 20
2.625687270000099
 30
0.0
 11
16.94952378653582
 21
3.782057400000098
 31
0.0
  0
LINE
  5
141A
330
B5C
100
AcDbEntity
  8
0
100
AcDbLine
 10
15.7866287465358
 20
2.602932340000094
 30
0.0
 11
16.6114163065358
 21
2.602932340000094
 31
0.0
  0
LINE
  5
141B
330
B5C
100
AcDbEntity
  8
0
100
AcDbLine
 10
15.7866287465358
 20
2.602932340000094
 30
0.0
 11
16.6114163065358
 21
2.602932340000094
 31
0.0
1001
HATCH_DISTANCE
1040
1.0
1001
HATCH_DISPLAY
1070
     0
1001
HATCH_TYPE
1070
     7
  0
LINE
  5
141C
330
B5C
100
AcDbEntity
  8
0
100
AcDbLine
 10
15.7866287465358
 20
2.602932340000094
 30
0.0
 11
16.6114163065358
 21
2.602932340000094
 31
0.0
  0
LINE
  5
141D
330
B5C
100
AcDbEntity
  8
0
100
AcDbLine
 10
12.9461485865358
 20
2.418551030000102
 30
0.0
 11
20.43198254653581
 21
2.418551030000102
 31
0.0
  0
LINE
  5
141E
330
B5C
100
AcDbEntity
  8
0
100
AcDbLine
 10
12.9461485865358
 20
2.049788410000104
 30
0.0
 11
20.43198254653581
 21
2.049788410000104
 31
0.0
  0
LINE
  5
141F
330
B5C
100
AcDbEntity
  8
0
100
AcDbLine
 10
16.03659898653581
 20
2.049788410000104
 30
0.0
 11
16.40536160653582
 21
2.418551030000102
 31
0.0
  0
LINE
  5
1420
330
B5C
100
AcDbEntity
  8
0
100
AcDbLine
 10
14.39791059653581
 20
2.049788410000104
 30
0.0
 11
14.76667320653581
 21
2.418551030000102
 31
0.0
  0
LINE
  5
1421
330
B5C
100
AcDbEntity
  8
0
100
AcDbLine
 10
14.54138242653582
 20
2.602932340000094
 30
0.0
 11
15.5839073165358
 21
3.64545723000009
 31
0.0
  0
LINE
  5
1422
330
B5C
100
AcDbEntity
  8
0
100
AcDbLine
 10
15.0201737665358
 20
2.672051570000093
 30
0.0
 11
15.52271506653579
 21
3.174592890000099
 31
0.0
  0
LINE
  5
1423
330
B5C
100
AcDbEntity
  8
0
100
AcDbLine
 10
15.21725478653582
 20
2.049788410000104
 30
0.0
 11
15.5860174065358
 21
2.418551030000102
 31
0.0
  0
LINE
  5
1424
330
B5C
100
AcDbEntity
  8
0
100
AcDbLine
 10
14.8075826965358
 20
2.049788410000104
 30
0.0
 11
15.17634531653581
 21
2.418551030000102
 31
0.0
  0
ARC
  5
1425
330
B5C
100
AcDbEntity
  8
0
100
AcDbCircle
 10
14.6699412365358
 20
3.52482541000009
 30
0.0
 40
0.9218926406250002
100
AcDbArc
 50
270.0
 51
40.32984065000039
  0
LINE
  5
1426
330
B5C
100
AcDbEntity
  8
0
100
AcDbLine
 10
15.62692689653582
 20
2.049788410000104
 30
0.0
 11
15.9956895165358
 21
2.418551030000102
 31
0.0
  0
LINE
  5
1427
330
B5C
100
AcDbEntity
  8
0
100
AcDbLine
 10
13.57856639653582
 20
2.049788410000104
 30
0.0
 11
13.94732900653579
 21
2.418551030000102
 31
0.0
  0
LINE
  5
1428
330
B5C
100
AcDbEntity
  8
0
100
AcDbLine
 10
13.7220382265358
 20
2.602932340000094
 30
0.0
 11
14.19634914653579
 21
3.077243250000094
 31
0.0
  0
LINE
  5
1429
330
B5C
100
AcDbEntity
  8
0
100
AcDbLine
 10
12.7674843365358
 20
2.058050550000103
 30
0.0
 11
13.12798480653581
 21
2.418551030000102
 31
0.0
  0
LINE
  5
142A
330
B5C
100
AcDbEntity
  8
0
100
AcDbLine
 10
12.42188645653582
 20
2.122124770000098
 30
0.0
 11
12.73289034653581
 21
2.433128660000107
 31
0.0
  0
LINE
  5
142B
330
B5C
100
AcDbEntity
  8
0
100
AcDbLine
 10
12.12340069653581
 20
2.233311110000101
 30
0.0
 11
12.40502337653581
 21
2.5149337900001
 31
0.0
  0
LINE
  5
142C
330
B5C
100
AcDbEntity
  8
0
100
AcDbLine
 10
13.1688942965358
 20
2.049788410000104
 30
0.0
 11
13.53765691653581
 21
2.418551030000102
 31
0.0
  0
LINE
  5
142D
330
B5C
100
AcDbEntity
  8
0
100
AcDbLine
 10
13.1396487365358
 20
2.602932340000094
 30
0.0
 11
14.6699412365358
 21
2.602932340000094
 31
0.0
  0
LINE
  5
142E
330
B5C
100
AcDbEntity
  8
0
100
AcDbLine
 10
13.31236612653581
 20
2.602932340000094
 30
0.0
 11
14.36103888653579
 21
3.651605100000097
 31
0.0
  0
LINE
  5
142F
330
B5C
100
AcDbEntity
  8
0
100
AcDbLine
 10
13.23491033653582
 20
2.935148650000101
 30
0.0
 11
14.7951836465358
 21
4.495421970000109
 31
0.0
  0
LINE
  5
1430
330
B5C
100
AcDbEntity
  8
0
100
AcDbLine
 10
14.4805332165358
 20
4.068346180000105
 30
0.0
 11
14.1783314265358
 21
3.014405750000094
 31
0.0
  0
ARC
  5
1431
330
B5C
100
AcDbEntity
  8
0
100
AcDbCircle
 10
14.2585359065358
 20
3.5617044600001
 30
0.0
 40
0.5531443181762698
100
AcDbArc
 50
261.6628542100001
 51
66.33819215999977
  0
LINE
  5
1432
330
B5C
100
AcDbEntity
  8
0
100
AcDbLine
 10
14.13171031653581
 20
2.602932340000094
 30
0.0
 11
15.4847842365358
 21
3.956006260000094
 31
0.0
  0
LINE
  5
1433
330
B5C
100
AcDbEntity
  8
0
100
AcDbLine
 10
13.98823849653581
 20
2.049788410000104
 30
0.0
 11
14.3570011165358
 21
2.418551030000102
 31
0.0
  0
LINE
  5
1434
330
B5C
100
AcDbEntity
  8
0
100
AcDbLine
 10
20.54637505653579
 20
2.053171360000106
 30
0.0
 11
21.03057244653582
 21
2.537368770000099
 31
0.0
  0
LINE
  5
1435
330
B5C
100
AcDbEntity
  8
0
100
AcDbLine
 10
18.9043036965358
 20
2.049788410000104
 30
0.0
 11
19.27306630653581
 21
2.418551030000102
 31
0.0
  0
LINE
  5
1436
330
B5C
100
AcDbEntity
  8
0
100
AcDbLine
 10
18.92100318653581
 20
4.114848390000105
 30
0.0
 11
19.2897658065358
 21
4.483611030000105
 31
0.0
  0
LINE
  5
1437
330
B5C
100
AcDbEntity
  8
0
100
AcDbLine
 10
18.86052306653582
 20
3.289044540000105
 30
0.0
 11
19.0973202265358
 21
4.114848390000105
 31
0.0
  0
LINE
  5
1438
330
B5C
100
AcDbEntity
  8
0
100
AcDbLine
 10
19.43102756653582
 20
2.602932340000094
 30
0.0
 11
19.97030531653581
 21
4.483611030000105
 31
0.0
  0
LINE
  5
1439
330
B5C
100
AcDbEntity
  8
0
100
AcDbLine
 10
19.72364788653581
 20
2.049788410000104
 30
0.0
 11
20.0924105065358
 21
2.418551030000102
 31
0.0
  0
LINE
  5
143A
330
B5C
100
AcDbEntity
  8
0
100
AcDbLine
 10
19.3139757965358
 20
2.049788410000104
 30
0.0
 11
19.68273841653581
 21
2.418551030000102
 31
0.0
  0
LINE
  5
143B
330
B5C
100
AcDbEntity
  8
0
100
AcDbLine
 10
18.89616305653581
 20
4.483611030000105
 30
0.0
 11
19.97030531653581
 21
4.483611030000105
 31
0.0
  0
LINE
  5
143C
330
B5C
100
AcDbEntity
  8
0
100
AcDbLine
 10
19.21470948653581
 20
2.819236510000095
 30
0.0
 11
19.43102756653582
 21
2.602932340000094
 31
0.0
  0
LINE
  5
143D
330
B5C
100
AcDbEntity
  8
0
100
AcDbLine
 10
19.23939538653582
 20
2.794552200000097
 30
0.0
 11
19.58510477653581
 21
3.140261590000108
 31
0.0
  0
LINE
  5
143E
330
B5C
100
AcDbEntity
  8
0
100
AcDbLine
 10
19.00350497653579
 20
3.787678090000099
 30
0.0
 11
19.6994379165358
 21
4.483611030000105
 31
0.0
  0
LINE
  5
143F
330
B5C
100
AcDbEntity
  8
0
100
AcDbLine
 10
20.13331999653582
 20
2.049788410000104
 30
0.0
 11
20.50372601653581
 21
2.420194430000094
 31
0.0
  0
LINE
  5
1440
330
B5C
100
AcDbEntity
  8
0
100
AcDbLine
 10
18.25898145653579
 20
2.633482470000103
 30
0.0
 11
18.69191481653581
 21
3.066415820000102
 31
0.0
  0
LINE
  5
1441
330
B5C
100
AcDbEntity
  8
0
100
AcDbLine
 10
17.67528739653582
 20
2.049788410000104
 30
0.0
 11
18.0440500165358
 21
2.418551030000102
 31
0.0
  0
LINE
  5
1442
330
B5C
100
AcDbEntity
  8
0
100
AcDbLine
 10
17.39557662653581
 20
3.408766050000096
 30
0.0
 11
18.36811708653582
 21
4.381306500000107
 31
0.0
  0
LINE
  5
1443
330
B5C
100
AcDbEntity
  8
0
100
AcDbLine
 10
17.7212175165358
 20
2.915062740000095
 30
0.0
 11
18.1117645865358
 21
3.305609810000106
 31
0.0
  0
LINE
  5
1444
330
B5C
100
AcDbEntity
  8
0
100
AcDbLine
 10
17.53166706653582
 20
3.135184380000097
 30
0.0
 11
18.20341777653581
 21
3.806935090000109
 31
0.0
  0
LINE
  5
1445
330
B5C
100
AcDbEntity
  8
0
100
AcDbLine
 10
17.96120090653579
 20
2.7453740400001
 30
0.0
 11
18.2831954365358
 21
3.067368550000097
 31
0.0
  0
LINE
  5
1446
330
B5C
100
AcDbEntity
  8
0
100
AcDbLine
 10
18.08495949653582
 20
2.049788410000104
 30
0.0
 11
18.45372210653582
 21
2.418551030000102
 31
0.0
  0
LINE
  5
1447
330
B5C
100
AcDbEntity
  8
0
100
AcDbLine
 10
16.58974291653581
 20
2.602932340000094
 30
0.0
 11
16.62012947653579
 21
2.633318900000091
 31
0.0
  0
LINE
  5
1448
330
B5C
100
AcDbEntity
  8
0
100
AcDbLine
 10
16.8559431865358
 20
2.049788410000104
 30
0.0
 11
17.22470581653581
 21
2.418551030000102
 31
0.0
  0
LINE
  5
1449
330
B5C
100
AcDbEntity
  8
0
100
AcDbLine
 10
17.2656152965358
 20
2.049788410000104
 30
0.0
 11
17.6343779065358
 21
2.418551030000102
 31
0.0
  0
LINE
  5
144A
330
B5C
100
AcDbEntity
  8
0
100
AcDbLine
 10
18.79042641653581
 20
4.114848390000105
 30
0.0
 11
18.89616305653581
 21
4.483611030000105
 31
0.0
  0
LINE
  5
144B
330
B5C
100
AcDbEntity
  8
0
100
AcDbLine
 10
18.64369555653581
 20
2.608524480000099
 30
0.0
 11
19.74980351653582
 21
3.714632440000102
 31
0.0
  0
LINE
  5
144C
330
B5C
100
AcDbEntity
  8
0
100
AcDbLine
 10
18.8176755365358
 20
3.192176550000098
 30
0.0
 11
19.91450225653579
 21
4.289003280000102
 31
0.0
  0
ARC
  5
144D
330
B5C
100
AcDbEntity
  8
0
100
AcDbCircle
 10
18.48832172653581
 20
3.395769630000103
 30
0.0
 40
0.3872002994384767
100
AcDbArc
 50
164.0002730599996
 51
344.0002730599996
  0
ARC
  5
144E
330
B5C
100
AcDbEntity
  8
0
100
AcDbCircle
 10
18.52791554653581
 20
3.80139739000009
 30
0.0
 40
1.198478531249999
100
AcDbArc
 50
163.9997506999995
 51
304.9638732900006
  0
LINE
  5
144F
330
B5C
100
AcDbEntity
  8
0
100
AcDbLine
 10
18.49463159653581
 20
2.049788410000104
 30
0.0
 11
18.86339421653579
 21
2.418551030000102
 31
0.0
  0
LINE
  5
1450
330
B5C
100
AcDbEntity
  8
0
100
AcDbLine
 10
18.79042641653581
 20
4.114848390000105
 30
0.0
 11
19.0973202265358
 21
4.114848390000105
 31
0.0
  0
LINE
  5
1451
330
B5C
100
AcDbEntity
  8
0
100
AcDbLine
 10
16.48770652653581
 20
5.516140800000101
 30
0.0
 11
16.6219830065358
 21
5.516140800000101
 31
0.0
  0
LINE
  5
1452
330
B5C
100
AcDbEntity
  8
0
100
AcDbLine
 10
16.48770652653581
 20
5.516140800000101
 30
0.0
 11
16.60402379653581
 21
5.921768560000103
 31
0.0
  0
LINE
  5
1453
330
B5C
100
AcDbEntity
  8
0
100
AcDbLine
 10
16.60402379653581
 20
5.921768560000103
 30
0.0
 11
16.48770652653581
 21
5.516140800000101
 31
0.0
1001
HATCH_DISTANCE
1040
1.0
1001
HATCH_DISPLAY
1070
     0
1001
HATCH_TYPE
1070
     7
  0
LINE
  5
1454
330
B5C
100
AcDbEntity
  8
0
100
AcDbLine
 10
16.48770652653581
 20
5.516140800000101
 30
0.0
 11
16.6219830065358
 21
5.516140800000101
 31
0.0
1001
HATCH_DISTANCE
1040
1.0
1001
HATCH_DISPLAY
1070
     0
1001
HATCH_TYPE
1070
     7
  0
LINE
  5
1455
330
B5C
100
AcDbEntity
  8
0
100
AcDbLine
 10
16.60402379653581
 20
5.921768560000103
 30
0.0
 11
16.48770652653581
 21
5.516140800000101
 31
0.0
  0
LINE
  5
1456
330
B5C
100
AcDbEntity
  8
0
100
AcDbLine
 10
16.48770652653581
 20
5.516140800000101
 30
0.0
 11
16.6219830065358
 21
5.516140800000101
 31
0.0
  0
LINE
  5
1457
330
B5C
100
AcDbEntity
  8
0
100
AcDbLine
 10
16.4519512465358
 20
4.923173270000091
 30
0.0
 11
17.4505465465358
 21
5.921768560000103
 31
0.0
  0
LINE
  5
1458
330
B5C
100
AcDbEntity
  8
0
100
AcDbLine
 10
14.98171970653581
 20
5.501302220000098
 30
0.0
 11
15.36203478653581
 21
5.881617300000101
 31
0.0
  0
LINE
  5
1459
330
B5C
100
AcDbEntity
  8
0
100
AcDbLine
 10
15.17555055653579
 20
5.285460970000102
 30
0.0
 11
15.6353703065358
 21
5.745280720000096
 31
0.0
  0
LINE
  5
145A
330
B5C
100
AcDbEntity
  8
0
100
AcDbLine
 10
15.22281545653581
 20
4.923053770000109
 30
0.0
 11
15.83990410653581
 21
5.540142430000102
 31
0.0
  0
LINE
  5
145B
330
B5C
100
AcDbEntity
  8
0
100
AcDbLine
 10
13.70768907653581
 20
5.921768560000103
 30
0.0
 11
13.6019524265358
 21
5.553005940000105
 31
0.0
  0
LINE
  5
145C
330
B5C
100
AcDbEntity
  8
0
100
AcDbLine
 10
13.7937541065358
 20
5.553005940000105
 30
0.0
 11
13.9855696965358
 21
5.553005940000105
 31
0.0
  0
LINE
  5
145D
330
B5C
100
AcDbEntity
  8
0
100
AcDbLine
 10
13.8994907465358
 20
5.921768560000103
 30
0.0
 11
13.7937541065358
 21
5.553005940000105
 31
0.0
  0
LINE
  5
145E
330
B5C
100
AcDbEntity
  8
0
100
AcDbLine
 10
13.8044071165358
 20
5.553005940000105
 30
0.0
 11
14.17316973653581
 21
5.921768560000103
 31
0.0
  0
LINE
  5
145F
330
B5C
100
AcDbEntity
  8
0
100
AcDbLine
 10
13.3947350165358
 20
5.553005940000105
 30
0.0
 11
13.6852539865358
 21
5.84352490000009
 31
0.0
  0
LINE
  5
1460
330
B5C
100
AcDbEntity
  8
0
100
AcDbLine
 10
12.51488661653579
 20
5.492501740000108
 30
0.0
 11
12.9441524065358
 21
5.921767520000102
 31
0.0
  0
LINE
  5
1461
330
B5C
100
AcDbEntity
  8
0
100
AcDbLine
 10
12.9461485865358
 20
5.553005940000105
 30
0.0
 11
13.6019524265358
 21
5.553005940000105
 31
0.0
  0
LINE
  5
1462
330
B5C
100
AcDbEntity
  8
0
100
AcDbLine
 10
12.9461485865358
 20
5.921768560000103
 30
0.0
 11
13.70768907653581
 21
5.921768560000103
 31
0.0
  0
LINE
  5
1463
330
B5C
100
AcDbEntity
  8
0
100
AcDbLine
 10
12.98506291653581
 20
5.553005940000105
 30
0.0
 11
13.35382553653579
 21
5.921768560000103
 31
0.0
  0
LINE
  5
1464
330
B5C
100
AcDbEntity
  8
0
100
AcDbLine
 10
13.8937032765358
 20
5.232629980000098
 30
0.0
 11
14.5828418365358
 21
5.921768560000103
 31
0.0
  0
LINE
  5
1465
330
B5C
100
AcDbEntity
  8
0
100
AcDbLine
 10
13.72900503653579
 20
4.658259660000098
 30
0.0
 11
14.9925139365358
 21
5.921768560000103
 31
0.0
  0
LINE
  5
1466
330
B5C
100
AcDbEntity
  8
0
100
AcDbLine
 10
13.8994907465358
 20
5.921768560000103
 30
0.0
 11
15.0891018665358
 21
5.921768560000103
 31
0.0
  0
LINE
  5
1467
330
B5C
100
AcDbEntity
  8
0
100
AcDbLine
 10
20.73855527653581
 20
5.522728390000096
 30
0.0
 11
21.0397296665358
 21
5.823902780000096
 31
0.0
  0
LINE
  5
1468
330
B5C
100
AcDbEntity
  8
0
100
AcDbLine
 10
20.35738431653582
 20
5.551229520000106
 30
0.0
 11
20.7081277665358
 21
5.901972990000103
 31
0.0
  0
LINE
  5
1469
330
B5C
100
AcDbEntity
  8
0
100
AcDbLine
 10
19.93839639653581
 20
5.857797540000092
 30
0.0
 11
19.93839639653581
 21
5.857797540000092
 31
0.0
1001
HATCH_DISTANCE
1040
1.0
1001
HATCH_DISPLAY
1070
     0
1001
HATCH_TYPE
1070
     7
  0
LINE
  5
146A
330
B5C
100
AcDbEntity
  8
0
100
AcDbLine
 10
19.93839639653581
 20
5.857797540000092
 30
0.0
 11
20.0494511865358
 21
5.505615870000099
 31
0.0
1001
HATCH_DISTANCE
1040
1.0
1001
HATCH_DISPLAY
1070
     0
1001
HATCH_TYPE
1070
     7
  0
LINE
  5
146B
330
B5C
100
AcDbEntity
  8
0
100
AcDbLine
 10
20.0494511865358
 20
5.505615870000099
 30
0.0
 11
20.0494511865358
 21
5.505615870000099
 31
0.0
1001
HATCH_DISTANCE
1040
1.0
1001
HATCH_DISPLAY
1070
     0
1001
HATCH_TYPE
1070
     7
  0
LINE
  5
146C
330
B5C
100
AcDbEntity
  8
0
100
AcDbLine
 10
20.0494511865358
 20
5.505615870000099
 30
0.0
 11
19.93839639653581
 21
5.857797540000092
 31
0.0
  0
LINE
  5
146D
330
B5C
100
AcDbEntity
  8
0
100
AcDbLine
 10
19.93839639653581
 20
5.857797540000092
 30
0.0
 11
19.93839639653581
 21
5.857797540000092
 31
0.0
  0
LINE
  5
146E
330
B5C
100
AcDbEntity
  8
0
100
AcDbLine
 10
19.93839639653581
 20
5.857797540000092
 30
0.0
 11
20.0494511865358
 21
5.505615870000099
 31
0.0
  0
LINE
  5
146F
330
B5C
100
AcDbEntity
  8
0
100
AcDbLine
 10
20.0494511865358
 20
5.505615870000099
 30
0.0
 11
20.0494511865358
 21
5.505615870000099
 31
0.0
  0
LINE
  5
1470
330
B5C
100
AcDbEntity
  8
0
100
AcDbLine
 10
20.0494511865358
 20
5.505615870000099
 30
0.0
 11
19.93839639653581
 21
5.857797540000092
 31
0.0
1001
HATCH_DISTANCE
1040
1.0
1001
HATCH_DISPLAY
1070
     0
1001
HATCH_TYPE
1070
     7
  0
LINE
  5
1471
330
B5C
100
AcDbEntity
  8
0
100
AcDbLine
 10
19.93839639653581
 20
5.857797540000092
 30
0.0
 11
19.93839639653581
 21
5.857797540000092
 31
0.0
1001
HATCH_DISTANCE
1040
1.0
1001
HATCH_DISPLAY
1070
     0
1001
HATCH_TYPE
1070
     7
  0
LINE
  5
1472
330
B5C
100
AcDbEntity
  8
0
100
AcDbLine
 10
19.93839639653581
 20
5.857797540000092
 30
0.0
 11
20.0494511865358
 21
5.505615870000099
 31
0.0
1001
HATCH_DISTANCE
1040
1.0
1001
HATCH_DISPLAY
1070
     0
1001
HATCH_TYPE
1070
     7
  0
LINE
  5
1473
330
B5C
100
AcDbEntity
  8
0
100
AcDbLine
 10
20.0494511865358
 20
5.505615870000099
 30
0.0
 11
20.0494511865358
 21
5.505615870000099
 31
0.0
1001
HATCH_DISTANCE
1040
1.0
1001
HATCH_DISPLAY
1070
     0
1001
HATCH_TYPE
1070
     7
  0
LINE
  5
1474
330
B5C
100
AcDbEntity
  8
0
100
AcDbLine
 10
20.0494511865358
 20
5.505615870000099
 30
0.0
 11
19.93839639653581
 21
5.857797540000092
 31
0.0
  0
LINE
  5
1475
330
B5C
100
AcDbEntity
  8
0
100
AcDbLine
 10
19.93839639653581
 20
5.857797540000092
 30
0.0
 11
19.93839639653581
 21
5.857797540000092
 31
0.0
  0
LINE
  5
1476
330
B5C
100
AcDbEntity
  8
0
100
AcDbLine
 10
19.93839639653581
 20
5.857797540000092
 30
0.0
 11
20.0494511865358
 21
5.505615870000099
 31
0.0
  0
LINE
  5
1477
330
B5C
100
AcDbEntity
  8
0
100
AcDbLine
 10
20.0494511865358
 20
5.505615870000099
 30
0.0
 11
20.0494511865358
 21
5.505615870000099
 31
0.0
  0
LINE
  5
1478
330
B5C
100
AcDbEntity
  8
0
100
AcDbLine
 10
20.0494511865358
 20
5.505615870000099
 30
0.0
 11
19.93839639653581
 21
5.857797540000092
 31
0.0
  0
ARC
  5
1479
330
B5C
100
AcDbEntity
  8
0
100
AcDbCircle
 10
20.43198254653581
 20
3.985778700000096
 30
0.0
 40
1.935990729492184
100
AcDbArc
 50
110.2296450600001
 51
118.5716889199999
  0
LINE
  5
147A
330
B5C
100
AcDbEntity
  8
0
100
AcDbLine
 10
19.8736039765358
 20
5.450165040000101
 30
0.0
 11
19.7625491865358
 21
5.802346710000108
 31
0.0
  0
LINE
  5
147B
330
B5C
100
AcDbEntity
  8
0
100
AcDbLine
 10
19.82874763653581
 20
5.432264950000103
 30
0.0
 11
19.8671415765358
 21
5.470658890000095
 31
0.0
  0
LINE
  5
147C
330
B5C
100
AcDbEntity
  8
0
100
AcDbLine
 10
20.0494511865358
 20
5.505615870000099
 30
0.0
 11
19.93839639653581
 21
5.857797540000092
 31
0.0
1001
HATCH_DISTANCE
1040
1.0
1001
HATCH_DISPLAY
1070
     0
1001
HATCH_TYPE
1070
     7
  0
LINE
  5
147D
330
B5C
100
AcDbEntity
  8
0
100
AcDbLine
 10
19.0812063865358
 20
5.504067900000109
 30
0.0
 11
19.35733332653581
 21
5.780194840000092
 31
0.0
  0
LINE
  5
147E
330
B5C
100
AcDbEntity
  8
0
100
AcDbLine
 10
19.31643454653581
 20
5.329623970000099
 30
0.0
 11
19.76892811653582
 21
5.782117540000101
 31
0.0
  0
ARC
  5
147F
330
B5C
100
AcDbEntity
  8
0
100
AcDbCircle
 10
20.43198254653581
 20
3.985778700000096
 30
0.0
 40
1.567231584960933
100
AcDbArc
 50
110.8721833999998
 51
132.5419489400003
  0
LINE
  5
1480
330
B5C
100
AcDbEntity
  8
0
100
AcDbLine
 10
20.01412534653579
 20
5.6176426600001
 30
0.0
 11
20.3146951865358
 21
5.918212500000095
 31
0.0
  0
LINE
  5
1481
330
B5C
100
AcDbEntity
  8
0
100
AcDbLine
 10
16.60402379653581
 20
5.921768560000103
 30
0.0
 11
17.56307391653581
 21
5.921768560000103
 31
0.0
  0
LINE
  5
1482
330
B5C
100
AcDbEntity
  8
0
100
AcDbLine
 10
17.56307391653581
 20
5.921768560000103
 30
0.0
 11
16.60402379653581
 21
5.921768560000103
 31
0.0
1001
HATCH_DISTANCE
1040
1.0
1001
HATCH_DISPLAY
1070
     0
1001
HATCH_TYPE
1070
     7
  0
LINE
  5
1483
330
B5C
100
AcDbEntity
  8
0
100
AcDbLine
 10
17.56307391653581
 20
5.921768560000103
 30
0.0
 11
16.60402379653581
 21
5.921768560000103
 31
0.0
  0
LINE
  5
1484
330
B5C
100
AcDbEntity
  8
0
100
AcDbLine
 10
16.61665064653582
 20
5.497544760000096
 30
0.0
 11
17.0408744365358
 21
5.921768560000103
 31
0.0
  0
LINE
  5
1485
330
B5C
100
AcDbEntity
  8
0
100
AcDbLine
 10
16.59309666653581
 20
5.883662870000108
 30
0.0
 11
16.63120234653581
 21
5.921768560000103
 31
0.0
  0
LINE
  5
1486
330
B5C
100
AcDbEntity
  8
0
100
AcDbLine
 10
17.52446052653582
 20
4.766666240000091
 30
0.0
 11
18.67368377653579
 21
5.915889490000097
 31
0.0
  0
ARC
  5
1487
330
B5C
100
AcDbEntity
  8
0
100
AcDbCircle
 10
18.7922640965358
 20
4.723303950000101
 30
0.0
 40
1.198466349609373
100
AcDbArc
 50
53.44401220000015
 51
164.0001843900004
  0
ARC
  5
1488
330
B5C
100
AcDbEntity
  8
0
100
AcDbCircle
 10
18.98530482653581
 20
5.128931690000101
 30
0.0
 40
0.3872005713500977
100
AcDbArc
 50
1.710121380000218
 51
163.99839835
  0
LINE
  5
1489
330
B5C
100
AcDbEntity
  8
0
100
AcDbLine
 10
21.96847823653582
 20
4.294618760000105
 30
0.0
 11
22.26942948653581
 21
4.595570010000102
 31
0.0
  0
LINE
  5
148A
330
B5C
100
AcDbEntity
  8
0
100
AcDbLine
 10
21.88039247653581
 20
3.387188780000101
 30
0.0
 11
22.3645898765358
 21
3.871386190000094
 31
0.0
  0
LINE
  5
148B
330
B5C
100
AcDbEntity
  8
0
100
AcDbLine
 10
21.99756680653582
 20
3.914035220000101
 30
0.0
 11
22.34783273653582
 21
4.264301150000108
 31
0.0
  0
LINE
  5
148C
330
B5C
100
AcDbEntity
  8
0
100
AcDbLine
 10
21.31543981653582
 20
5.280268730000102
 30
0.0
 11
21.5799030365358
 21
5.544731950000098
 31
0.0
  0
LINE
  5
148D
330
B5C
100
AcDbEntity
  8
0
100
AcDbLine
 10
21.8709385465358
 20
4.606751160000101
 30
0.0
 11
22.1474022965358
 21
4.883214910000106
 31
0.0
  0
LINE
  5
148E
330
B5C
100
AcDbEntity
  8
0
100
AcDbLine
 10
21.7253678265358
 20
4.8708525400001
 30
0.0
 11
21.9897810565358
 21
5.135265780000096
 31
0.0
  0
LINE
  5
148F
330
B5C
100
AcDbEntity
  8
0
100
AcDbLine
 10
21.5394990065358
 20
5.094655820000099
 30
0.0
 11
21.80025360653579
 21
5.355410410000104
 31
0.0
  0
LINE
  5
1490
330
B5C
100
AcDbEntity
  8
240
100
AcDbLine
 10
-6.500000000001648
 20
10.50313367013376
 30
0.0
 11
-6.500000000001161
 21
8.000000000000639
 31
0.0
  0
LINE
  5
1491
330
B5C
100
AcDbEntity
  8
241
100
AcDbLine
 10
-6.500000000001159
 20
8.000000000000639
 30
0.0
 11
-6.499999999998044
 21
-8.000000000000454
 31
0.0
  0
ENDBLK
  5
C7C
330
B5C
100
AcDbEntity
  8
0
100
AcDbBlockEnd
  0
BLOCK
  5
ECC
330
ECB
100
AcDbEntity
  8
0
100
AcDbBlockBegin
  2
*D26
 70
     1
 10
0.0
 20
0.0
 30
0.0
  3
*D26
  1

  0
LINE
  5
1175
330
ECB
100
AcDbEntity
  8
250
  6
Continuous
100
AcDbLine
 10
-0.0000000000071622
 20
11.14125603000008
 30
0.0
 11
-0.0000000000071616
 21
22.00000000000009
 31
0.0
  0
LINE
  5
1176
330
ECB
100
AcDbEntity
  8
250
  6
Continuous
100
AcDbLine
 10
99.99999999999284
 20
7.49999969000008
 30
0.0
 11
99.99999999999284
 21
22.00000000000009
 31
0.0
  0
LINE
  5
1177
330
ECB
100
AcDbEntity
  8
250
  6
Continuous
100
AcDbLine
 10
2.229999999992838
 20
21.00000000000008
 30
0.0
 11
97.76999999999283
 21
21.00000000000008
 31
0.0
  0
INSERT
  5
1178
330
ECB
100
AcDbEntity
  8
250
  6
Continuous
100
AcDbBlockReference
  2
_Open
 10
-0.0000000000071616
 20
21.00000000000008
 30
0.0
 41
2.229999999999999
 42
2.229999999999999
 43
2.229999999999999
 50
180.0
  0
INSERT
  5
1179
330
ECB
100
AcDbEntity
  8
250
  6
Continuous
100
AcDbBlockReference
  2
_Open
 10
99.99999999999284
 20
21.00000000000008
 30
0.0
 41
2.229999999999999
 42
2.229999999999999
 43
2.229999999999999
  0
MTEXT
  5
117A
330
ECB
100
AcDbEntity
  8
250
  6
Continuous
 62
    40
100
AcDbMText
 10
51.35035949999283
 20
23.40000000000008
 30
0.0
 40
2.799999999999999
 41
0.0
 71
     5
 72
     1
  1
\A1;100
 73
     1
 44
1.0
1001
ACAD
1000
MTEXTBEGIN
1070
    73
1070
     1
1070
    44
1040
1.0
1070
    74
1070
     0
1000
MTEXTEND
  0
POINT
  5
117B
330
ECB
100
AcDbEntity
  8
Defpoints
  6
Continuous
 62
     0
100
AcDbPoint
 10
-0.0000000000071623
 20
10.64125603000008
 30
0.0
  0
POINT
  5
117C
330
ECB
100
AcDbEntity
  8
Defpoints
  6
Continuous
 62
     0
100
AcDbPoint
 10
99.99999999999284
 20
6.99999969000008
 30
0.0
  0
POINT
  5
117D
330
ECB
100
AcDbEntity
  8
Defpoints
  6
Continuous
 62
     0
100
AcDbPoint
 10
99.99999999999284
 20
21.00000000000008
 30
0.0
  0
ENDBLK
  5
ECD
330
ECB
100
AcDbEntity
  8
0
100
AcDbBlockEnd
  0
BLOCK
  5
ED8
330
ED7
100
AcDbEntity
  8
0
100
AcDbBlockBegin
  2
*D27
 70
     1
 10
0.0
 20
0.0
 30
0.0
  3
*D27
  1

  0
LINE
  5
117E
330
ED7
100
AcDbEntity
  8
250
  6
Continuous
100
AcDbLine
 10
99.49999999999285
 20
-7.999999999999914
 30
0.0
 11
118.2499999999928
 21
-7.99999999999992
 31
0.0
  0
LINE
  5
117F
330
ED7
100
AcDbEntity
  8
250
  6
Continuous
100
AcDbLine
 10
99.49999999999285
 20
8.000000000000085
 30
0.0
 11
118.2499999999928
 21
8.000000000000078
 31
0.0
  0
LINE
  5
1180
330
ED7
100
AcDbEntity
  8
250
  6
Continuous
100
AcDbLine
 10
117.2499999999928
 20
-5.769999999999918
 30
0.0
 11
117.2499999999928
 21
5.770000000000078
 31
0.0
  0
INSERT
  5
1181
330
ED7
100
AcDbEntity
  8
250
  6
Continuous
100
AcDbBlockReference
  2
_Open
 10
117.2499999999928
 20
-7.999999999999919
 30
0.0
 41
2.229999999999999
 42
2.229999999999999
 43
2.229999999999999
 50
270.0
  0
INSERT
  5
1182
330
ED7
100
AcDbEntity
  8
250
  6
Continuous
100
AcDbBlockReference
  2
_Open
 10
117.2499999999928
 20
8.000000000000078
 30
0.0
 41
2.229999999999999
 42
2.229999999999999
 43
2.229999999999999
 50
90.0
  0
MTEXT
  5
1183
102
{ACAD_XDICTIONARY
360
14C4
102
}
330
ED7
100
AcDbEntity
  8
250
  6
Continuous
 62
    40
100
AcDbMText
 10
114.8499999999928
 20
0.0000000000000988
 30
0.0
 40
2.799999999999999
 41
0.0
 71
     5
 72
     1
  1
\A1;{\H2.8;\U+2205}16
 11
0.0000000000000001
 21
1.0
 31
0.0
 73
     1
 44
1.0
1001
ACAD
1000
MTEXTBEGIN
1070
    73
1070
     1
1070
    44
1040
1.0
1070
    74
1070
     0
1000
MTEXTEND
  0
POINT
  5
1184
330
ED7
100
AcDbEntity
  8
Defpoints
  6
Continuous
 62
     0
100
AcDbPoint
 10
98.99999999999284
 20
-7.999999999999914
 30
0.0
  0
POINT
  5
1185
330
ED7
100
AcDbEntity
  8
Defpoints
  6
Continuous
 62
     0
100
AcDbPoint
 10
98.99999999999284
 20
8.000000000000085
 30
0.0
  0
POINT
  5
1186
330
ED7
100
AcDbEntity
  8
Defpoints
  6
Continuous
 62
     0
100
AcDbPoint
 10
117.2499999999928
 20
8.000000000000078
 30
0.0
  0
ENDBLK
  5
ED9
330
ED7
100
AcDbEntity
  8
0
100
AcDbBlockEnd
  0
ENDSEC
  0
SECTION
  2
ENTITIES
  0
INSERT
  5
6E6
330
1A
100
AcDbEntity
  8
245
100
AcDbBlockReference
  2
矢印なし
 10
175.6238269664377
 20
90.55123571690598
 30
0.0
  0
DIMENSION
  5
EA2
330
1A
100
AcDbEntity
  8
250
  6
Continuous
100
AcDbDimension
  2
*D26
 10
99.99999999999284
 20
21.00000000000008
 30
0.0
 11
51.35035949999283
 21
21.00000000000008
 31
0.0
 70
   160
 71
     5
 42
100.0
  3
BIGT
100
AcDbAlignedDimension
 13
-0.0000000000071623
 23
10.64125603000008
 33
0.0
 14
99.99999999999284
 24
6.99999969000008
 34
0.0
100
AcDbRotatedDimension
  0
DIMENSION
  5
EA3
330
1A
100
AcDbEntity
  8
250
  6
Continuous
100
AcDbDimension
  2
*D27
 10
117.2499999999928
 20
8.000000000000078
 30
0.0
 11
114.8499999999928
 21
0.0000000000000988
 31
0.0
 70
    32
  1
{\H2.8;\U+2205}<>
 71
     5
 42
16.0
  3
BIGT
100
AcDbAlignedDimension
 13
98.99999999999284
 23
-7.999999999999914
 33
0.0
 14
98.99999999999284
 24
8.000000000000085
 34
0.0
 50
90.0
100
AcDbRotatedDimension
  0
MTEXT
  5
EA4
330
1A
100
AcDbEntity
  8
251
  6
Continuous
100
AcDbMText
 10
85.82854713999285
 20
15.00290368000008
 30
0.0
 40
2.799999999999999
 41
0.0
 71
     7
 72
     1
  1
□4.9
  7
YOKO
 73
     1
 44
1.0
1001
ITEMNAME
1000
DI010
1001
ACAD
1000
MTEXTBEGIN
1070
    73
1070
     1
1070
    44
1040
1.0
1070
    74
1070
     0
1000
MTEXTEND
  0
LINE
  5
EA5
330
1A
100
AcDbEntity
  8
250
  6
Continuous
100
AcDbLine
 10
84.05362310999283
 20
14.00290368000009
 30
0.0
 11
97.97846132999286
 21
14.00290368000009
 31
0.0
1001
ITEMNAME
1000
LNSP2
  0
LEADER
  5
EA6
330
1A
100
AcDbEntity
  8
250
  6
Continuous
100
AcDbLeader
  3
BIGT
 76
     2
 10
77.72879935999282
 20
3.535533790000087
 30
0.0
 10
84.05362310999283
 20
14.00290368000009
 30
0.0
1001
ACAD
1000
DSTYLE
1002
{
1070
     6
1000
OPEN
1070
   343
1005
594
1002
}
  0
LINE
  5
EA7
330
1A
100
AcDbEntity
  8
250
  6
Continuous
100
AcDbLine
 10
100.4999999999928
 20
2.999999890000083
 30
0.0
 11
111.2499999999928
 21
2.999999890000083
 31
0.0
  0
LINE
  5
EA8
330
1A
100
AcDbEntity
  8
250
  6
Continuous
100
AcDbLine
 10
110.2499999999928
 20
-2.999999889999912
 30
0.0
 11
110.2499999999928
 21
2.999999890000083
 31
0.0
  0
INSERT
  5
EA9
330
1A
100
AcDbEntity
  8
250
  6
Continuous
100
AcDbBlockReference
  2
_Open
 10
110.2499999999928
 20
2.999999890000083
 30
0.0
 41
2.230000000000003
 42
2.230000000000003
 43
2.229999999999999
 50
90.0
  0
MTEXT
  5
EAA
102
{ACAD_XDICTIONARY
360
14C2
102
}
330
1A
100
AcDbEntity
  8
250
  6
Continuous
 62
    40
100
AcDbMText
 10
107.8499999999928
 20
0.0000000000000853
 30
0.0
 40
2.799999999999999
 41
0.0
 71
     5
 72
     1
  1
\A1;{\H2.8;\U+2205}6
 11
0.0
 21
1.0
 31
0.0
 73
     1
 44
1.0
1001
ACAD
1000
MTEXTBEGIN
1070
    73
1070
     1
1070
    44
1040
1.0
1070
    74
1070
     0
1000
MTEXTEND
  0
INSERT
  5
1492
330
1A
100
AcDbEntity
  8
245
100
AcDbBlockReference
  2
1
 10
0.0
 20
0.0
 30
0.0
  0
VIEWPORT
  5
22
102
{ACAD_XDICTIONARY
360
149E
102
}
330
17
100
AcDbEntity
 67
     1
  8
0
100
AcDbViewport
 10
261.5176991150442
 20
148.5
 30
0.0
 40
523.0353982300885
 41
297.0
 68
     1
 69
     1
 12
261.5176991150442
 22
148.5
 13
0.0
 23
0.0
 14
1.0
 24
1.0
 15
10.0
 25
10.0
 16
0.0
 26
0.0
 36
1.0
 17
0.0
 27
0.0
 37
0.0
 42
50.0
 43
0.0
 44
0.0
 45
297.0
 50
0.0
 51
0.0
 72
   100
 90
    32800
  1

281
     0
 71
     1
 74
     0
110
0.0
120
0.0
130
0.0
111
1.0
121
0.0
131
0.0
112
0.0
122
1.0
132
0.0
 79
     0
146
0.0
  0
ENDSEC
  0
SECTION
  2
OBJECTS
  0
DICTIONARY
  5
C
330
0
100
AcDbDictionary
281
     1
  3
ACAD_COLOR
350
7A6
  3
ACAD_GROUP
350
D
  3
ACAD_LAYOUT
350
565
  3
ACAD_MATERIAL
350
77C
  3
ACAD_MLEADERSTYLE
350
7CB
  3
ACAD_MLINESTYLE
350
E
  3
ACAD_PLOTSETTINGS
350
566
  3
ACAD_PLOTSTYLENAME
350
563
  3
ACAD_SCALELIST
350
7A9
  3
ACAD_TABLESTYLE
350
7A7
  3
ACAD_VISUALSTYLE
350
795
  3
ACDB_RECOMPOSE_DATA
350
149C
  3
AcDbVariableDictionary
350
1493
  3
DWGPROPS
350
149D
  3
GRADE_DWG
350
540
  0
DICTIONARY
  5
1195
330
F
100
AcDbDictionary
280
     1
281
     1
  3
ADSK_XREC_LAYER_RECONCILED
360
1196
  0
DICTIONARY
  5
11A5
330
1AA
100
AcDbDictionary
280
     1
281
     1
  3
ADSK_XREC_LAYER_RECONCILED
360
11A6
  0
DICTIONARY
  5
11A7
330
1AB
100
AcDbDictionary
280
     1
281
     1
  3
ADSK_XREC_LAYER_RECONCILED
360
11A8
  0
DICTIONARY
  5
11A9
330
1AC
100
AcDbDictionary
280
     1
281
     1
  3
ADSK_XREC_LAYER_RECONCILED
360
11AA
  0
DICTIONARY
  5
11AF
330
1AF
100
AcDbDictionary
280
     1
281
     1
  3
ADSK_XREC_LAYER_RECONCILED
360
11B0
  0
DICTIONARY
  5
11B7
330
21E
100
AcDbDictionary
280
     1
281
     1
  3
ADSK_XREC_LAYER_RECONCILED
360
11B8
  0
DICTIONARY
  5
11B9
330
21F
100
AcDbDictionary
280
     1
281
     1
  3
ADSK_XREC_LAYER_RECONCILED
360
11BA
  0
DICTIONARY
  5
7E9
330
7E8
100
AcDbDictionary
280
     1
281
     1
  3
ADSK_XREC_LAYER_RECONCILED
360
11D3
  0
DICTIONARY
  5
D0C
330
1A
100
AcDbDictionary
280
     1
281
     1
  3
ACAD_SORTENTS
360
D0D
  0
DICTIONARY
  5
14C4
330
1183
100
AcDbDictionary
280
     1
281
     1
  3
ACAD_MTEXT_RT
360
14C5
  0
DICTIONARY
  5
14C2
330
EAA
100
AcDbDictionary
280
     1
281
     1
  3
ACAD_MTEXT_RT
360
14C3
  0
DICTIONARY
  5
149E
330
22
100
AcDbDictionary
280
     1
281
     1
  3
ACAD_XREC_ROUNDTRIP
360
149F
  0
DICTIONARY
  5
7A6
102
{ACAD_REACTORS
330
C
102
}
330
C
100
AcDbDictionary
281
     1
  0
DICTIONARY
  5
D
102
{ACAD_REACTORS
330
C
102
}
330
C
100
AcDbDictionary
281
     1
  3
*A1
350
6C7
  3
*A2
350
6C8
  3
*A3
350
6D4
  3
*A4
350
6D5
  3
DREC-1
350
5FC
  3
DREC-2
350
654
  3
DREC-3
350
673
  0
DICTIONARY
  5
565
102
{ACAD_REACTORS
330
C
102
}
330
C
100
AcDbDictionary
281
     1
  3
Model
350
567
  3
ﾚｲｱｳﾄ1
350
568
  0
DICTIONARY
  5
77C
102
{ACAD_REACTORS
330
C
102
}
330
C
100
AcDbDictionary
281
     1
  3
ByBlock
350
785
  3
ByLayer
350
77D
  3
Global
350
78D
  0
DICTIONARY
  5
7CB
102
{ACAD_REACTORS
330
C
102
}
330
C
100
AcDbDictionary
281
     1
  3
Standard
350
7CC
  0
DICTIONARY
  5
E
102
{ACAD_REACTORS
330
C
102
}
330
C
100
AcDbDictionary
281
     1
  3
STANDARD
350
13
  0
DICTIONARY
  5
566
102
{ACAD_REACTORS
330
C
102
}
330
C
100
AcDbDictionary
281
     1
  3
A3(0.5倍)
350
772
  3
A3(1倍)
350
773
  3
A3(1倍)(2000)
350
774
  3
A3(2倍)
350
775
  3
A4(0.5倍)
350
776
  3
A4(1倍)
350
777
  3
A4(1倍)(2000)
350
778
  3
A4(2倍)
350
779
  0
ACDBDICTIONARYWDFLT
  5
563
102
{ACAD_REACTORS
330
C
102
}
330
C
100
AcDbDictionary
281
     1
  3
Normal
350
564
100
AcDbDictionaryWithDefault
340
564
  0
DICTIONARY
  5
7A9
102
{ACAD_REACTORS
330
C
102
}
330
C
100
AcDbDictionary
281
     1
  3
A0
350
7AA
  3
A1
350
7AB
  3
A2
350
7AC
  3
A3
350
7AD
  3
A4
350
7AE
  3
A5
350
7AF
  3
A6
350
7B0
  3
A7
350
7B1
  3
A8
350
7B2
  3
A9
350
7B3
  3
B0
350
7B4
  3
B1
350
7B5
  3
B2
350
7B6
  3
B3
350
7B7
  3
B4
350
7B8
  3
B5
350
7B9
  3
B6
350
7BA
  3
B7
350
7BB
  3
B8
350
7BC
  3
B9
350
7BD
  3
C0
350
7BE
  3
C1
350
7BF
  3
C2
350
7C0
  3
C3
350
7C1
  3
C4
350
7C2
  3
C5
350
7C3
  3
C6
350
7C4
  3
C7
350
7C5
  3
C8
350
7C6
  3
C9
350
7C7
  3
D0
350
7C8
  3
D1
350
7C9
  3
D2
350
7CA
  0
DICTIONARY
  5
7A7
102
{ACAD_REACTORS
330
C
102
}
330
C
100
AcDbDictionary
281
     1
  3
Standard
350
7A8
  0
DICTIONARY
  5
795
102
{ACAD_REACTORS
330
C
102
}
330
C
100
AcDbDictionary
281
     1
  3
2dWireframe
350
79B
  3
3D Hidden
350
79D
  3
3dWireframe
350
79C
  3
Basic
350
79A
  3
Brighten
350
7A1
  3
ColorChange
350
7A5
  3
Conceptual
350
79E
  3
Dim
350
7A0
  3
Facepattern
350
7A4
  3
Flat
350
796
  3
FlatWithEdges
350
797
  3
Gouraud
350
798
  3
GouraudWithEdges
350
799
  3
Linepattern
350
7A3
  3
Realistic
350
79F
  3
Thicken
350
7A2
  0
XRECORD
  5
149C
102
{ACAD_REACTORS
330
C
102
}
330
C
100
AcDbXrecord
280
     1
 90
        1
330
7A8
  0
DICTIONARY
  5
1493
102
{ACAD_REACTORS
330
C
102
}
330
C
100
AcDbDictionary
281
     1
  3
CANNOSCALE
350
1496
  3
CMLEADERSTYLE
350
1495
  3
CTABLESTYLE
350
1494
  3
DIMASSOC
350
1499
  3
INDEXCTL
350
1498
  3
SORTENTS
350
1497
  0
XRECORD
  5
149D
102
{ACAD_REACTORS
330
C
102
}
330
C
100
AcDbXrecord
280
     1
  1
DWGPROPS COOKIE
  2

  3

  4

  6

  7

  8
AWTEC
  9

300
=
301
=
302
=
303
=
304
=
305
=
306
=
307
=
308
=
309
=
 40
0.233089375
 41
2455554.424402848
 42
2455554.657491678
  1

 90
        0
  0
DICTIONARY
  5
540
102
{ACAD_REACTORS
330
C
102
}
330
C
100
AcDbDictionary
281
     1
  3
VERSION
350
560
  0
XRECORD
  5
1196
102
{ACAD_REACTORS
330
1195
102
}
330
1195
100
AcDbXrecord
280
     1
290
     1
  0
XRECORD
  5
11A6
102
{ACAD_REACTORS
330
11A5
102
}
330
11A5
100
AcDbXrecord
280
     1
290
     1
  0
XRECORD
  5
11A8
102
{ACAD_REACTORS
330
11A7
102
}
330
11A7
100
AcDbXrecord
280
     1
290
     1
  0
XRECORD
  5
11AA
102
{ACAD_REACTORS
330
11A9
102
}
330
11A9
100
AcDbXrecord
280
     1
290
     1
  0
XRECORD
  5
11B0
102
{ACAD_REACTORS
330
11AF
102
}
330
11AF
100
AcDbXrecord
280
     1
290
     1
  0
XRECORD
  5
11B8
102
{ACAD_REACTORS
330
11B7
102
}
330
11B7
100
AcDbXrecord
280
     1
290
     1
  0
XRECORD
  5
11BA
102
{ACAD_REACTORS
330
11B9
102
}
330
11B9
100
AcDbXrecord
280
     1
290
     1
  0
XRECORD
  5
11D3
102
{ACAD_REACTORS
330
7E9
102
}
330
7E9
100
AcDbXrecord
280
     1
290
     1
  0
SORTENTSTABLE
  5
D0D
102
{ACAD_REACTORS
330
D0C
102
}
330
D0C
100
AcDbSortentsTable
330
1A
331
EAA
  5
EAE
331
EA8
  5
EAC
331
EA6
  5
EAA
331
EA4
  5
EA8
331
EA2
  5
EA6
331
EA9
  5
EAD
331
EA7
  5
EAB
331
EA5
  5
EA9
331
EA3
  5
EA7
331
6E6
  5
6E6
  0
XRECORD
  5
14C5
102
{ACAD_REACTORS
330
14C4
102
}
330
14C4
100
AcDbXrecord
280
     1
 40
14919.0
  1
\A1;{\H2.8;\U+2205}16
  0
XRECORD
  5
14C3
102
{ACAD_REACTORS
330
14C2
102
}
330
14C2
100
AcDbXrecord
280
     1
 40
13885.0
  1
\A1;{\H2.8;\U+2205}6
  0
XRECORD
  5
149F
102
{ACAD_REACTORS
330
149E
102
}
330
149E
100
AcDbXrecord
280
     1
102
SHADEPLOT
 70
     0
  0
GROUP
  5
6C7
102
{ACAD_REACTORS
330
D
102
}
330
D
100
AcDbGroup
300

 70
     0
 71
     1
1001
GRPNAME
1000
DMA00
  0
GROUP
  5
6C8
102
{ACAD_REACTORS
330
D
102
}
330
D
100
AcDbGroup
300

 70
     0
 71
     1
1001
GRPNAME
1000
DMA00
  0
GROUP
  5
6D4
102
{ACAD_REACTORS
330
D
102
}
330
D
100
AcDbGroup
300

 70
     0
 71
     1
1001
GRPNAME
1000
DMA00
  0
GROUP
  5
6D5
102
{ACAD_REACTORS
330
D
102
}
330
D
100
AcDbGroup
300

 70
     0
 71
     1
1001
GRPNAME
1000
DMA00
  0
GROUP
  5
5FC
102
{ACAD_REACTORS
330
D
102
}
330
D
100
AcDbGroup
300

 70
     0
 71
     1
1001
GRPNAME
1000
DREC-
1001
GPARA
1000
xsiz
1000
44.182
1000
ysiz
1000
40.677
1000
angl
1000
0
1000
ctyp
1000
0
1000
csiz
1000
5
1000
lfnt
1000
cont
1000
hcnt
1000
hoff
1000
vcnt
1000
voff
1000
opnt
1000
4
1000
dxpt
1000
0
1000
dypt
1000
0
  0
GROUP
  5
654
102
{ACAD_REACTORS
330
D
102
}
330
D
100
AcDbGroup
300

 70
     0
 71
     1
1001
GRPNAME
1000
DREC-
1001
GPARA
1000
xsiz
1000
54.592
1000
ysiz
1000
53.036
1000
angl
1000
0
1000
ctyp
1000
0
1000
csiz
1000
5
1000
lfnt
1000
cont
1000
hcnt
1000
hoff
1000
vcnt
1000
voff
1000
opnt
1000
4
1000
dxpt
1000
0
1000
dypt
1000
0
  0
GROUP
  5
673
102
{ACAD_REACTORS
330
D
102
}
330
D
100
AcDbGroup
300

 70
     0
 71
     1
1001
GRPNAME
1000
DREC-
1001
GPARA
1000
xsiz
1000
30.363
1000
ysiz
1000
36.175
1000
angl
1000
0
1000
ctyp
1000
0
1000
csiz
1000
5
1000
lfnt
1000
cont
1000
hcnt
1000
hoff
1000
vcnt
1000
voff
1000
opnt
1000
4
1000
dxpt
1000
0
1000
dypt
1000
0
  0
LAYOUT
  5
567
102
{ACAD_XDICTIONARY
360
14A0
102
}
102
{ACAD_REACTORS
330
565
102
}
330
565
100
AcDbPlotSettings
  1

  2
Canon LBP5600
  4
A4
  6

 40
5.873749732971191
 41
5.873747825622558
 42
5.873748779296875
 43
5.873748779296875
 44
209.9733276367187
 45
296.9259948730469
 46
10.69512688957445
 47
0.0
 48
0.0
 49
0.0
140
0.0
141
0.0
142
1.0
143
0.5916505176277499
 70
 11956
 72
     1
 73
     1
 74
     0
  7
big.ctb
 75
     0
147
1.690186977287785
148
50.01620134628755
149
37.80867474311019
100
AcDbLayout
  1
Model
 70
     1
 71
     0
 10
0.0
 20
0.0
 11
12.0
 21
9.0
 12
0.0
 22
0.0
 32
0.0
 14
0.0
 24
0.0
 34
0.0
 15
0.0
 25
0.0
 35
0.0
146
0.0
 13
0.0
 23
0.0
 33
0.0
 16
1.0
 26
0.0
 36
0.0
 17
0.0
 27
1.0
 37
0.0
 76
     0
330
1A
331
77A
1001
ACAD_PSEXT
1000
Canon LBP5600
1000
Canon LBP5600
1000
192_168_120_150.
1000

1070
     0
  0
LAYOUT
  5
568
102
{ACAD_XDICTIONARY
360
14A2
102
}
102
{ACAD_REACTORS
330
565
102
}
330
565
100
AcDbPlotSettings
  1

  2
\\ICHIRO\FX Able Model-PRII ART4-ADV
  4

  6

 40
0.0
 41
0.0
 42
0.0
 43
0.0
 44
0.0
 45
0.0
 46
0.0
 47
0.0
 48
0.0
 49
0.0
140
0.0
141
0.0
142
1.0
143
1.0
 70
   688
 72
     0
 73
     0
 74
     5
  7
big.ctb
 75
    16
147
1.0
148
0.0
149
0.0
100
AcDbLayout
  1
ﾚｲｱｳﾄ1
 70
     1
 71
     1
 10
0.0
 20
0.0
 11
420.0
 21
297.0
 12
0.0
 22
0.0
 32
0.0
 14
1.000000000000000E+20
 24
1.000000000000000E+20
 34
1.000000000000000E+20
 15
-1.000000000000000E+20
 25
-1.000000000000000E+20
 35
-1.000000000000000E+20
146
0.0
 13
0.0
 23
0.0
 33
0.0
 16
1.0
 26
0.0
 36
0.0
 17
0.0
 27
1.0
 37
0.0
 76
     0
330
17
331
22
  0
MATERIAL
  5
785
102
{ACAD_XDICTIONARY
360
786
102
}
102
{ACAD_REACTORS
330
77C
102
}
330
77C
100
AcDbMaterial
  1
ByBlock
 72
     0
 43
0.0208333333333333
 43
0.0
 43
0.0
 43
0.0
 43
0.0
 43
0.0208333333333333
 43
0.0
 43
0.0
 43
0.0
 43
0.0
 43
1.0
 43
0.0
 43
0.0
 43
0.0
 43
0.0
 43
1.0
 77
     0
 47
0.0208333333333333
 47
0.0
 47
0.0
 47
0.0
 47
0.0
 47
0.0208333333333333
 47
0.0
 47
0.0
 47
0.0
 47
0.0
 47
1.0
 47
0.0
 47
0.0
 47
0.0
 47
0.0
 47
1.0
171
     0
 49
0.0208333333333333
 49
0.0
 49
0.0
 49
0.0
 49
0.0
 49
0.0208333333333333
 49
0.0
 49
0.0
 49
0.0
 49
0.0
 49
1.0
 49
0.0
 49
0.0
 49
0.0
 49
0.0
 49
1.0
175
     0
142
0.0208333333333333
142
0.0
142
0.0
142
0.0
142
0.0
142
0.0208333333333333
142
0.0
142
0.0
142
0.0
142
0.0
142
1.0
142
0.0
142
0.0
142
0.0
142
0.0
142
1.0
179
     0
144
0.0208333333333333
144
0.0
144
0.0
144
0.0
144
0.0
144
0.0208333333333333
144
0.0
144
0.0
144
0.0
144
0.0
144
1.0
144
0.0
144
0.0
144
0.0
144
0.0
144
1.0
147
0.0208333333333333
147
0.0
147
0.0
147
0.0
147
0.0
147
0.0208333333333333
147
0.0
147
0.0
147
0.0
147
0.0
147
1.0
147
0.0
147
0.0
147
0.0
147
0.0
147
1.0
  0
MATERIAL
  5
77D
102
{ACAD_XDICTIONARY
360
77E
102
}
102
{ACAD_REACTORS
330
77C
102
}
330
77C
100
AcDbMaterial
  1
ByLayer
 72
     0
 43
0.0208333333333333
 43
0.0
 43
0.0
 43
0.0
 43
0.0
 43
0.0208333333333333
 43
0.0
 43
0.0
 43
0.0
 43
0.0
 43
1.0
 43
0.0
 43
0.0
 43
0.0
 43
0.0
 43
1.0
 77
     0
 47
0.0208333333333333
 47
0.0
 47
0.0
 47
0.0
 47
0.0
 47
0.0208333333333333
 47
0.0
 47
0.0
 47
0.0
 47
0.0
 47
1.0
 47
0.0
 47
0.0
 47
0.0
 47
0.0
 47
1.0
171
     0
 49
0.0208333333333333
 49
0.0
 49
0.0
 49
0.0
 49
0.0
 49
0.0208333333333333
 49
0.0
 49
0.0
 49
0.0
 49
0.0
 49
1.0
 49
0.0
 49
0.0
 49
0.0
 49
0.0
 49
1.0
175
     0
142
0.0208333333333333
142
0.0
142
0.0
142
0.0
142
0.0
142
0.0208333333333333
142
0.0
142
0.0
142
0.0
142
0.0
142
1.0
142
0.0
142
0.0
142
0.0
142
0.0
142
1.0
179
     0
144
0.0208333333333333
144
0.0
144
0.0
144
0.0
144
0.0
144
0.0208333333333333
144
0.0
144
0.0
144
0.0
144
0.0
144
1.0
144
0.0
144
0.0
144
0.0
144
0.0
144
1.0
147
0.0208333333333333
147
0.0
147
0.0
147
0.0
147
0.0
147
0.0208333333333333
147
0.0
147
0.0
147
0.0
147
0.0
147
1.0
147
0.0
147
0.0
147
0.0
147
0.0
147
1.0
  0
MATERIAL
  5
78D
102
{ACAD_XDICTIONARY
360
78E
102
}
102
{ACAD_REACTORS
330
77C
102
}
330
77C
100
AcDbMaterial
  1
Global
 72
     0
 43
0.0208333333333333
 43
0.0
 43
0.0
 43
0.0
 43
0.0
 43
0.0208333333333333
 43
0.0
 43
0.0
 43
0.0
 43
0.0
 43
1.0
 43
0.0
 43
0.0
 43
0.0
 43
0.0
 43
1.0
 77
     0
 47
0.0208333333333333
 47
0.0
 47
0.0
 47
0.0
 47
0.0
 47
0.0208333333333333
 47
0.0
 47
0.0
 47
0.0
 47
0.0
 47
1.0
 47
0.0
 47
0.0
 47
0.0
 47
0.0
 47
1.0
171
     0
 49
0.0208333333333333
 49
0.0
 49
0.0
 49
0.0
 49
0.0
 49
0.0208333333333333
 49
0.0
 49
0.0
 49
0.0
 49
0.0
 49
1.0
 49
0.0
 49
0.0
 49
0.0
 49
0.0
 49
1.0
175
     0
142
0.0208333333333333
142
0.0
142
0.0
142
0.0
142
0.0
142
0.0208333333333333
142
0.0
142
0.0
142
0.0
142
0.0
142
1.0
142
0.0
142
0.0
142
0.0
142
0.0
142
1.0
179
     0
144
0.0208333333333333
144
0.0
144
0.0
144
0.0
144
0.0
144
0.0208333333333333
144
0.0
144
0.0
144
0.0
144
0.0
144
1.0
144
0.0
144
0.0
144
0.0
144
0.0
144
1.0
147
0.0208333333333333
147
0.0
147
0.0
147
0.0
147
0.0
147
0.0208333333333333
147
0.0
147
0.0
147
0.0
147
0.0
147
1.0
147
0.0
147
0.0
147
0.0
147
0.0
147
1.0
  0
MLEADERSTYLE
  5
7CC
102
{ACAD_REACTORS
330
7CB
102
}
330
7CB
100
AcDbMLeaderStyle
170
     2
171
     1
172
     0
 90
        2
 40
0.0
 41
0.0
173
     1
 91
-1056964608
340
14
 92
       -2
290
     1
 42
2.0
291
     1
 43
0.36
  3
Standard
 44
4.0
300

342
10
174
     1
178
     6
175
     1
176
     0
 93
-1056964608
 45
4.0
292
     0
297
     0
 46
4.0
 94
-1056964608
 47
1.0
 49
1.0
140
1.0
293
     1
141
0.0
294
     1
177
     0
142
1.0
295
     0
296
     0
143
0.125
1001
ACAD_MLEADERVER
1070
     2
  0
MLINESTYLE
  5
13
102
{ACAD_REACTORS
330
E
102
}
330
E
100
AcDbMlineStyle
  2
STANDARD
 70
     0
  3

 62
     0
 51
90.0
 52
90.0
 71
     2
 49
0.5
 62
   256
  6
BYLAYER
 49
-0.5
 62
   256
  6
BYLAYER
  0
PLOTSETTINGS
  5
772
102
{ACAD_XDICTIONARY
360
14A4
102
}
102
{ACAD_REACTORS
330
566
102
}
330
566
100
AcDbPlotSettings
  1
A3(0.5倍)
  2
Canon LBP5600.pc3
  4
A3
  6

 40
5.873749732971191
 41
5.873747825622558
 42
5.873748779296875
 43
5.873748779296875
 44
296.9259948730469
 45
419.9466552734374
 46
90.09
 47
129.85
 48
0.0
 49
0.0
140
0.0
141
0.0
142
1.0
143
2.0
 70
  1716
 72
     1
 73
     1
 74
     2
  7
big.ctb
 75
    17
147
0.5
148
0.0
149
0.0
  0
PLOTSETTINGS
  5
773
102
{ACAD_XDICTIONARY
360
14A6
102
}
102
{ACAD_REACTORS
330
566
102
}
330
566
100
AcDbPlotSettings
  1
A3(1倍)
  2
Canon LBP5600.pc3
  4
A3
  6

 40
5.873749732971191
 41
5.873747825622558
 42
5.873748779296875
 43
5.873748779296875
 44
296.9259948730469
 45
419.9466552734374
 46
37.59
 47
55.6
 48
0.0
 49
0.0
140
0.0
141
0.0
142
1.0
143
1.0
 70
  1716
 72
     1
 73
     1
 74
     2
  7
big.ctb
 75
    16
147
1.0
148
0.0
149
0.0
  0
PLOTSETTINGS
  5
774
102
{ACAD_XDICTIONARY
360
14A8
102
}
102
{ACAD_REACTORS
330
566
102
}
330
566
100
AcDbPlotSettings
  1
A3(1倍)(2000)
  2
Canon LBP5600.pc3
  4
A3
  6

 40
5.873749732971191
 41
5.873747825622558
 42
5.873748779296875
 43
5.873748779296875
 44
296.9259948730469
 45
419.9466552734374
 46
37.59
 47
55.6
 48
0.0
 49
0.0
140
0.0
141
0.0
142
1.0
143
1.0
 70
  1716
 72
     1
 73
     1
 74
     2
  7
big.ctb
 75
    16
147
1.0
148
0.0
149
0.0
  0
PLOTSETTINGS
  5
775
102
{ACAD_XDICTIONARY
360
14AA
102
}
102
{ACAD_REACTORS
330
566
102
}
330
566
100
AcDbPlotSettings
  1
A3(2倍)
  2
Canon LBP5600.pc3
  4
A3
  6

 40
5.873749732971191
 41
5.873747825622558
 42
5.873748779296875
 43
5.873748779296875
 44
296.9259948730469
 45
419.9466552734374
 46
-67.40999999999999
 47
-92.9
 48
0.0
 49
0.0
140
0.0
141
0.0
142
1.0
143
0.5
 70
  1716
 72
     1
 73
     1
 74
     2
  7
big.ctb
 75
    27
147
2.0
148
0.0
149
0.0
  0
PLOTSETTINGS
  5
776
102
{ACAD_XDICTIONARY
360
14AC
102
}
102
{ACAD_REACTORS
330
566
102
}
330
566
100
AcDbPlotSettings
  1
A4(0.5倍)
  2
Canon LBP5600.pc3
  4
A3
  6

 40
5.873749732971191
 41
5.873747825622558
 42
5.873748779296875
 43
5.873748779296875
 44
296.9259948730469
 45
419.9466552734374
 46
90.09
 47
129.85
 48
0.0
 49
0.0
140
0.0
141
0.0
142
1.0
143
2.0
 70
  1716
 72
     1
 73
     1
 74
     2
  7
big.ctb
 75
    17
147
0.5
148
0.0
149
0.0
  0
PLOTSETTINGS
  5
777
102
{ACAD_XDICTIONARY
360
14AE
102
}
102
{ACAD_REACTORS
330
566
102
}
330
566
100
AcDbPlotSettings
  1
A4(1倍)
  2
Canon LBP5600.pc3
  4
A3
  6

 40
5.873749732971191
 41
5.873747825622558
 42
5.873748779296875
 43
5.873748779296875
 44
296.9259948730469
 45
419.9466552734374
 46
37.59
 47
55.6
 48
0.0
 49
0.0
140
0.0
141
0.0
142
1.0
143
1.0
 70
  1716
 72
     1
 73
     1
 74
     2
  7
big.ctb
 75
    16
147
1.0
148
0.0
149
0.0
  0
PLOTSETTINGS
  5
778
102
{ACAD_XDICTIONARY
360
14B0
102
}
102
{ACAD_REACTORS
330
566
102
}
330
566
100
AcDbPlotSettings
  1
A4(1倍)(2000)
  2
Canon LBP5600.pc3
  4
A3
  6

 40
5.873749732971191
 41
5.873747825622558
 42
5.873748779296875
 43
5.873748779296875
 44
296.9259948730469
 45
419.9466552734374
 46
37.59
 47
55.6
 48
0.0
 49
0.0
140
0.0
141
0.0
142
1.0
143
1.0
 70
  1716
 72
     1
 73
     1
 74
     2
  7
big.ctb
 75
    16
147
1.0
148
0.0
149
0.0
  0
PLOTSETTINGS
  5
779
102
{ACAD_XDICTIONARY
360
14B2
102
}
102
{ACAD_REACTORS
330
566
102
}
330
566
100
AcDbPlotSettings
  1
A4(2倍)
  2
Canon LBP5600.pc3
  4
A3
  6

 40
5.873749732971191
 41
5.873747825622558
 42
5.873748779296875
 43
5.873748779296875
 44
296.9259948730469
 45
419.9466552734374
 46
-67.40999999999999
 47
-92.9
 48
0.0
 49
0.0
140
0.0
141
0.0
142
1.0
143
0.5
 70
  1716
 72
     1
 73
     1
 74
     2
  7
big.ctb
 75
    27
147
2.0
148
0.0
149
0.0
  0
ACDBPLACEHOLDER
  5
564
102
{ACAD_REACTORS
330
563
102
}
330
563
  0
SCALE
  5
7AA
102
{ACAD_REACTORS
330
7A9
102
}
330
7A9
100
AcDbScale
 70
     0
300
1:1
140
1.0
141
1.0
290
     1
  0
SCALE
  5
7AB
102
{ACAD_REACTORS
330
7A9
102
}
330
7A9
100
AcDbScale
 70
     0
300
1:2
140
1.0
141
2.0
290
     0
  0
SCALE
  5
7AC
102
{ACAD_REACTORS
330
7A9
102
}
330
7A9
100
AcDbScale
 70
     0
300
1:4
140
1.0
141
4.0
290
     0
  0
SCALE
  5
7AD
102
{ACAD_REACTORS
330
7A9
102
}
330
7A9
100
AcDbScale
 70
     0
300
1:5
140
1.0
141
5.0
290
     0
  0
SCALE
  5
7AE
102
{ACAD_REACTORS
330
7A9
102
}
330
7A9
100
AcDbScale
 70
     0
300
1:8
140
1.0
141
8.0
290
     0
  0
SCALE
  5
7AF
102
{ACAD_REACTORS
330
7A9
102
}
330
7A9
100
AcDbScale
 70
     0
300
1:10
140
1.0
141
10.0
290
     0
  0
SCALE
  5
7B0
102
{ACAD_REACTORS
330
7A9
102
}
330
7A9
100
AcDbScale
 70
     0
300
1:16
140
1.0
141
16.0
290
     0
  0
SCALE
  5
7B1
102
{ACAD_REACTORS
330
7A9
102
}
330
7A9
100
AcDbScale
 70
     0
300
1:20
140
1.0
141
20.0
290
     0
  0
SCALE
  5
7B2
102
{ACAD_REACTORS
330
7A9
102
}
330
7A9
100
AcDbScale
 70
     0
300
1:30
140
1.0
141
30.0
290
     0
  0
SCALE
  5
7B3
102
{ACAD_REACTORS
330
7A9
102
}
330
7A9
100
AcDbScale
 70
     0
300
1:40
140
1.0
141
40.0
290
     0
  0
SCALE
  5
7B4
102
{ACAD_REACTORS
330
7A9
102
}
330
7A9
100
AcDbScale
 70
     0
300
1:50
140
1.0
141
50.0
290
     0
  0
SCALE
  5
7B5
102
{ACAD_REACTORS
330
7A9
102
}
330
7A9
100
AcDbScale
 70
     0
300
1:100
140
1.0
141
100.0
290
     0
  0
SCALE
  5
7B6
102
{ACAD_REACTORS
330
7A9
102
}
330
7A9
100
AcDbScale
 70
     0
300
2:1
140
2.0
141
1.0
290
     0
  0
SCALE
  5
7B7
102
{ACAD_REACTORS
330
7A9
102
}
330
7A9
100
AcDbScale
 70
     0
300
4:1
140
4.0
141
1.0
290
     0
  0
SCALE
  5
7B8
102
{ACAD_REACTORS
330
7A9
102
}
330
7A9
100
AcDbScale
 70
     0
300
8:1
140
8.0
141
1.0
290
     0
  0
SCALE
  5
7B9
102
{ACAD_REACTORS
330
7A9
102
}
330
7A9
100
AcDbScale
 70
     0
300
10:1
140
10.0
141
1.0
290
     0
  0
SCALE
  5
7BA
102
{ACAD_REACTORS
330
7A9
102
}
330
7A9
100
AcDbScale
 70
     0
300
100:1
140
100.0
141
1.0
290
     0
  0
SCALE
  5
7BB
102
{ACAD_REACTORS
330
7A9
102
}
330
7A9
100
AcDbScale
 70
     0
300
1/128" = 1'-0"
140
0.0078125
141
12.0
290
     0
  0
SCALE
  5
7BC
102
{ACAD_REACTORS
330
7A9
102
}
330
7A9
100
AcDbScale
 70
     0
300
1/64" = 1'-0"
140
0.015625
141
12.0
290
     0
  0
SCALE
  5
7BD
102
{ACAD_REACTORS
330
7A9
102
}
330
7A9
100
AcDbScale
 70
     0
300
1/32" = 1'-0"
140
0.03125
141
12.0
290
     0
  0
SCALE
  5
7BE
102
{ACAD_REACTORS
330
7A9
102
}
330
7A9
100
AcDbScale
 70
     0
300
1/16" = 1'-0"
140
0.0625
141
12.0
290
     0
  0
SCALE
  5
7BF
102
{ACAD_REACTORS
330
7A9
102
}
330
7A9
100
AcDbScale
 70
     0
300
3/32" = 1'-0"
140
0.09375
141
12.0
290
     0
  0
SCALE
  5
7C0
102
{ACAD_REACTORS
330
7A9
102
}
330
7A9
100
AcDbScale
 70
     0
300
1/8" = 1'-0"
140
0.125
141
12.0
290
     0
  0
SCALE
  5
7C1
102
{ACAD_REACTORS
330
7A9
102
}
330
7A9
100
AcDbScale
 70
     0
300
3/16" = 1'-0"
140
0.1875
141
12.0
290
     0
  0
SCALE
  5
7C2
102
{ACAD_REACTORS
330
7A9
102
}
330
7A9
100
AcDbScale
 70
     0
300
1/4" = 1'-0"
140
0.25
141
12.0
290
     0
  0
SCALE
  5
7C3
102
{ACAD_REACTORS
330
7A9
102
}
330
7A9
100
AcDbScale
 70
     0
300
3/8" = 1'-0"
140
0.375
141
12.0
290
     0
  0
SCALE
  5
7C4
102
{ACAD_REACTORS
330
7A9
102
}
330
7A9
100
AcDbScale
 70
     0
300
1/2" = 1'-0"
140
0.5
141
12.0
290
     0
  0
SCALE
  5
7C5
102
{ACAD_REACTORS
330
7A9
102
}
330
7A9
100
AcDbScale
 70
     0
300
3/4" = 1'-0"
140
0.75
141
12.0
290
     0
  0
SCALE
  5
7C6
102
{ACAD_REACTORS
330
7A9
102
}
330
7A9
100
AcDbScale
 70
     0
300
1" = 1'-0"
140
1.0
141
12.0
290
     0
  0
SCALE
  5
7C7
102
{ACAD_REACTORS
330
7A9
102
}
330
7A9
100
AcDbScale
 70
     0
300
1-1/2" = 1'-0"
140
1.5
141
12.0
290
     0
  0
SCALE
  5
7C8
102
{ACAD_REACTORS
330
7A9
102
}
330
7A9
100
AcDbScale
 70
     0
300
3" = 1'-0"
140
3.0
141
12.0
290
     0
  0
SCALE
  5
7C9
102
{ACAD_REACTORS
330
7A9
102
}
330
7A9
100
AcDbScale
 70
     0
300
6" = 1'-0"
140
6.0
141
12.0
290
     0
  0
SCALE
  5
7CA
102
{ACAD_REACTORS
330
7A9
102
}
330
7A9
100
AcDbScale
 70
     0
300
1'-0" = 1'-0"
140
12.0
141
12.0
290
     0
  0
TABLESTYLE
  5
7A8
102
{ACAD_XDICTIONARY
360
149A
102
}
102
{ACAD_REACTORS
330
7A7
102
}
330
7A7
100
AcDbTableStyle
  3
Standard
 70
     0
 71
     0
 40
1.5
 41
1.5
280
     0
281
     0
  7
STANDARD
140
4.5
170
     2
 62
     0
 63
     7
283
     0
274
    -2
284
     1
 64
     0
275
    -2
285
     1
 65
     0
276
    -2
286
     1
 66
     0
277
    -2
287
     1
 67
     0
278
    -2
288
     1
 68
     0
279
    -2
289
     1
 69
     0
  7
STANDARD
140
6.0
170
     5
 62
     0
 63
     7
283
     0
274
    -2
284
     1
 64
     0
275
    -2
285
     1
 65
     0
276
    -2
286
     1
 66
     0
277
    -2
287
     1
 67
     0
278
    -2
288
     1
 68
     0
279
    -2
289
     1
 69
     0
  7
STANDARD
140
4.5
170
     5
 62
     0
 63
     7
283
     0
274
    -2
284
     1
 64
     0
275
    -2
285
     1
 65
     0
276
    -2
286
     1
 66
     0
277
    -2
287
     1
 67
     0
278
    -2
288
     1
 68
     0
279
    -2
289
     1
 69
     0
  0
VISUALSTYLE
  5
79B
102
{ACAD_REACTORS
330
795
102
}
330
795
100
AcDbVisualStyle
  2
2dWireframe
 70
     4
 71
     0
 72
     2
 73
     0
 90
        0
 40
-0.6
 41
-30.0
 62
     5
 63
     7
 74
     1
 91
        4
 64
     7
 65
   257
 75
     1
175
     1
 42
1.0
 92
        0
 66
   257
 43
1.0
 76
     1
 77
     6
 78
     2
 67
     7
 79
     5
170
     0
171
     0
290
     0
174
     0
 93
        1
 44
0.0
173
     0
291
     0
 45
0.0
1001
ACAD
1000
AcDbSavedByObjectVersion
1070
     0
  0
VISUALSTYLE
  5
79D
102
{ACAD_REACTORS
330
795
102
}
330
795
100
AcDbVisualStyle
  2
3D Hidden
 70
     6
 71
     1
 72
     2
 73
     2
 90
        0
 40
-0.6
 41
-30.0
 62
     5
 63
     7
 74
     2
 91
        2
 64
     7
 65
   257
 75
     2
175
     1
 42
40.0
 92
        0
 66
   257
 43
1.0
 76
     1
 77
     6
 78
     2
 67
     7
 79
     3
170
     0
171
     0
290
     0
174
     0
 93
        1
 44
0.0
173
     0
291
     0
 45
0.0
1001
ACAD
1000
AcDbSavedByObjectVersion
1070
     0
  0
VISUALSTYLE
  5
79C
102
{ACAD_REACTORS
330
795
102
}
330
795
100
AcDbVisualStyle
  2
3dWireframe
 70
     5
 71
     0
 72
     2
 73
     0
 90
        0
 40
-0.6
 41
-30.0
 62
     5
 63
     7
 74
     1
 91
        4
 64
     7
 65
   257
 75
     1
175
     1
 42
1.0
 92
        0
 66
   257
 43
1.0
 76
     1
 77
     6
 78
     2
 67
     7
 79
     5
170
     0
171
     0
290
     0
174
     0
 93
        1
 44
0.0
173
     0
291
     0
 45
0.0
1001
ACAD
1000
AcDbSavedByObjectVersion
1070
     0
  0
VISUALSTYLE
  5
79A
102
{ACAD_REACTORS
330
795
102
}
330
795
100
AcDbVisualStyle
  2
Basic
 70
     7
 71
     1
 72
     0
 73
     1
 90
        0
 40
-0.6
 41
-30.0
 62
     5
 63
     7
 74
     0
 91
        4
 64
     7
 65
   257
 75
     1
175
     1
 42
1.0
 92
        8
 66
     7
 43
1.0
 76
     1
 77
     6
 78
     2
 67
     7
 79
     5
170
     0
171
     0
290
     0
174
     0
 93
        1
 44
0.0
173
     0
291
     1
 45
0.0
1001
ACAD
1000
AcDbSavedByObjectVersion
1070
     0
  0
VISUALSTYLE
  5
7A1
102
{ACAD_REACTORS
330
795
102
}
330
795
100
AcDbVisualStyle
  2
Brighten
 70
    12
 71
     2
 72
     2
 73
     0
 90
        0
 40
-0.6
 41
-30.0
 62
     5
 63
     7
 74
     1
 91
        4
 64
     7
 65
   257
 75
     1
175
     1
 42
1.0
 92
        8
 66
     7
 43
1.0
 76
     1
 77
     6
 78
     2
 67
     7
 79
     5
170
     0
171
     0
290
     0
174
     0
 93
        1
 44
50.0
173
     0
291
     1
 45
0.0
1001
ACAD
1000
AcDbSavedByObjectVersion
1070
     0
  0
VISUALSTYLE
  5
7A5
102
{ACAD_REACTORS
330
795
102
}
330
795
100
AcDbVisualStyle
  2
ColorChange
 70
    16
 71
     2
 72
     2
 73
     3
 90
        0
 40
-0.6
 41
-30.0
 62
     5
 63
     8
 74
     1
 91
        4
 64
     7
 65
   257
 75
     1
175
     1
 42
1.0
 92
        8
 66
     8
 43
1.0
 76
     1
 77
     6
 78
     2
 67
     7
 79
     5
170
     0
171
     0
290
     0
174
     0
 93
        1
 44
0.0
173
     0
291
     1
 45
0.0
1001
ACAD
1000
AcDbSavedByObjectVersion
1070
     0
  0
VISUALSTYLE
  5
79E
102
{ACAD_REACTORS
330
795
102
}
330
795
100
AcDbVisualStyle
  2
Conceptual
 70
     9
 71
     3
 72
     2
 73
     0
 90
        0
 40
-0.6
 41
-30.0
 62
     5
 63
     7
 74
     2
 91
        2
 64
     7
 65
   257
 75
     1
175
     1
 42
40.0
 92
        8
 66
     7
 43
1.0
 76
     1
 77
     6
 78
     2
 67
     7
 79
     3
170
     0
171
     0
290
     0
174
     0
 93
        1
 44
0.0
173
     0
291
     0
 45
0.0
1001
ACAD
1000
AcDbSavedByObjectVersion
1070
     0
  0
VISUALSTYLE
  5
7A0
102
{ACAD_REACTORS
330
795
102
}
330
795
100
AcDbVisualStyle
  2
Dim
 70
    11
 71
     2
 72
     2
 73
     0
 90
        0
 40
-0.6
 41
-30.0
 62
     5
 63
     7
 74
     1
 91
        4
 64
     7
 65
   257
 75
     1
175
     1
 42
1.0
 92
        8
 66
     7
 43
1.0
 76
     1
 77
     6
 78
     2
 67
     7
 79
     5
170
     0
171
     0
290
     0
174
     0
 93
        1
 44
-50.0
173
     0
291
     1
 45
0.0
1001
ACAD
1000
AcDbSavedByObjectVersion
1070
     0
  0
VISUALSTYLE
  5
7A4
102
{ACAD_REACTORS
330
795
102
}
330
795
100
AcDbVisualStyle
  2
Facepattern
 70
    15
 71
     2
 72
     2
 73
     0
 90
        0
 40
-0.6
 41
-30.0
 62
     5
 63
     7
 74
     1
 91
        4
 64
     7
 65
   257
 75
     1
175
     1
 42
1.0
 92
        8
 66
     7
 43
1.0
 76
     1
 77
     6
 78
     2
 67
     7
 79
     5
170
     0
171
     0
290
     0
174
     0
 93
        1
 44
0.0
173
     0
291
     1
 45
0.0
1001
ACAD
1000
AcDbSavedByObjectVersion
1070
     0
  0
VISUALSTYLE
  5
796
102
{ACAD_REACTORS
330
795
102
}
330
795
100
AcDbVisualStyle
  2
Flat
 70
     0
 71
     2
 72
     1
 73
     1
 90
        2
 40
-0.6
 41
30.0
 62
     5
 63
     7
 74
     0
 91
        4
 64
     7
 65
   257
 75
     1
175
     1
 42
1.0
 92
        8
 66
     7
 43
1.0
 76
     1
 77
     6
 78
     2
 67
     7
 79
     5
170
     0
171
     0
290
     0
174
     0
 93
       13
 44
0.0
173
     0
291
     1
 45
0.0
1001
ACAD
1000
AcDbSavedByObjectVersion
1070
     0
  0
VISUALSTYLE
  5
797
102
{ACAD_REACTORS
330
795
102
}
330
795
100
AcDbVisualStyle
  2
FlatWithEdges
 70
     1
 71
     2
 72
     1
 73
     1
 90
        2
 40
-0.6
 41
30.0
 62
     5
 63
     7
 74
     1
 91
        4
 64
     7
 65
   257
 75
     1
175
     1
 42
1.0
 92
        0
 66
   257
 43
1.0
 76
     1
 77
     6
 78
     2
 67
     7
 79
     5
170
     0
171
     0
290
     0
174
     0
 93
       13
 44
0.0
173
     0
291
     1
 45
0.0
1001
ACAD
1000
AcDbSavedByObjectVersion
1070
     0
  0
VISUALSTYLE
  5
798
102
{ACAD_REACTORS
330
795
102
}
330
795
100
AcDbVisualStyle
  2
Gouraud
 70
     2
 71
     2
 72
     2
 73
     1
 90
        2
 40
-0.6
 41
30.0
 62
     5
 63
     7
 74
     0
 91
        4
 64
     7
 65
   257
 75
     1
175
     1
 42
1.0
 92
        0
 66
     7
 43
1.0
 76
     1
 77
     6
 78
     2
 67
     7
 79
     5
170
     0
171
     0
290
     0
174
     0
 93
       13
 44
0.0
173
     0
291
     1
 45
0.0
1001
ACAD
1000
AcDbSavedByObjectVersion
1070
     0
  0
VISUALSTYLE
  5
799
102
{ACAD_REACTORS
330
795
102
}
330
795
100
AcDbVisualStyle
  2
GouraudWithEdges
 70
     3
 71
     2
 72
     2
 73
     1
 90
        2
 40
-0.6
 41
30.0
 62
     5
 63
     7
 74
     1
 91
        4
 64
     7
 65
   257
 75
     1
175
     1
 42
1.0
 92
        0
 66
   257
 43
1.0
 76
     1
 77
     6
 78
     2
 67
     7
 79
     5
170
     0
171
     0
290
     0
174
     0
 93
       13
 44
0.0
173
     0
291
     1
 45
0.0
1001
ACAD
1000
AcDbSavedByObjectVersion
1070
     0
  0
VISUALSTYLE
  5
7A3
102
{ACAD_REACTORS
330
795
102
}
330
795
100
AcDbVisualStyle
  2
Linepattern
 70
    14
 71
     2
 72
     2
 73
     0
 90
        0
 40
-0.6
 41
-30.0
 62
     5
 63
     7
 74
     1
 91
        4
 64
     7
 65
   257
 75
     7
175
     7
 42
1.0
 92
        8
 66
     7
 43
1.0
 76
     1
 77
     6
 78
     2
 67
     7
 79
     5
170
     0
171
     0
290
     0
174
     0
 93
        1
 44
0.0
173
     0
291
     1
 45
0.0
1001
ACAD
1000
AcDbSavedByObjectVersion
1070
     0
  0
VISUALSTYLE
  5
79F
102
{ACAD_REACTORS
330
795
102
}
330
795
100
AcDbVisualStyle
  2
Realistic
 70
     8
 71
     2
 72
     2
 73
     0
 90
        0
 40
-0.6
 41
-30.0
 62
     5
 63
     7
 74
     1
 91
        0
 64
     7
 65
   257
 75
     1
175
     1
 42
1.0
 92
        8
 66
     8
 43
1.0
 76
     1
 77
     6
 78
     2
 67
     7
 79
     5
170
     0
171
     0
290
     0
174
     0
 93
       13
 44
0.0
173
     0
291
     0
 45
0.0
1001
ACAD
1000
AcDbSavedByObjectVersion
1070
     0
  0
VISUALSTYLE
  5
7A2
102
{ACAD_REACTORS
330
795
102
}
330
795
100
AcDbVisualStyle
  2
Thicken
 70
    13
 71
     2
 72
     2
 73
     0
 90
        0
 40
-0.6
 41
-30.0
 62
     5
 63
     7
 74
     1
 91
        4
 64
     7
 65
   257
 75
     1
175
     1
 42
1.0
 92
       12
 66
     7
 43
1.0
 76
     1
 77
     6
 78
     2
 67
     7
 79
     5
170
     0
171
     0
290
     0
174
     0
 93
        1
 44
0.0
173
     0
291
     1
 45
0.0
1001
ACAD
1000
AcDbSavedByObjectVersion
1070
     0
  0
DICTIONARYVAR
  5
1496
102
{ACAD_REACTORS
330
1493
102
}
330
1493
100
DictionaryVariables
280
     0
  1
1:1
  0
DICTIONARYVAR
  5
1495
102
{ACAD_REACTORS
330
1493
102
}
330
1493
100
DictionaryVariables
280
     0
  1
STANDARD
  0
DICTIONARYVAR
  5
1494
102
{ACAD_REACTORS
330
1493
102
}
330
1493
100
DictionaryVariables
280
     0
  1
STANDARD
  0
DICTIONARYVAR
  5
1499
102
{ACAD_REACTORS
330
1493
102
}
330
1493
100
DictionaryVariables
280
     0
  1
1
  0
DICTIONARYVAR
  5
1498
102
{ACAD_REACTORS
330
1493
102
}
330
1493
100
DictionaryVariables
280
     0
  1
0
  0
DICTIONARYVAR
  5
1497
102
{ACAD_REACTORS
330
1493
102
}
330
1493
100
DictionaryVariables
280
     0
  1
127
  0
XRECORD
  5
560
102
{ACAD_REACTORS
330
540
102
}
330
540
100
AcDbXrecord
280
     1
  1
2.0.0
  0
DICTIONARY
  5
14A0
330
567
100
AcDbDictionary
280
     1
281
     1
  3
ACAD_XREC_ROUNDTRIP
360
14A1
  0
DICTIONARY
  5
14A2
330
568
100
AcDbDictionary
280
     1
281
     1
  3
ACAD_XREC_ROUNDTRIP
360
14A3
  0
DICTIONARY
  5
786
330
785
100
AcDbDictionary
280
     1
281
     1
  3
ACAD_XREC_ROUNDTRIP
360
14B5
  3
BUMPTILE
360
788
  3
DIFFUSETILE
360
787
  3
OPACITYTILE
360
78B
  3
REFLECTIONTILE
360
78A
  3
REFRACTIONTILE
360
78C
  3
SPECULARTILE
360
789
  0
DICTIONARY
  5
77E
330
77D
100
AcDbDictionary
280
     1
281
     1
  3
ACAD_XREC_ROUNDTRIP
360
14B4
  3
BUMPTILE
360
780
  3
DIFFUSETILE
360
77F
  3
OPACITYTILE
360
783
  3
REFLECTIONTILE
360
782
  3
REFRACTIONTILE
360
784
  3
SPECULARTILE
360
781
  0
DICTIONARY
  5
78E
330
78D
100
AcDbDictionary
280
     1
281
     1
  3
ACAD_XREC_ROUNDTRIP
360
14B6
  3
BUMPTILE
360
790
  3
DIFFUSETILE
360
78F
  3
OPACITYTILE
360
793
  3
REFLECTIONTILE
360
792
  3
REFRACTIONTILE
360
794
  3
SPECULARTILE
360
791
  0
DICTIONARY
  5
14A4
330
772
100
AcDbDictionary
280
     1
281
     1
  3
ACAD_XREC_ROUNDTRIP
360
14A5
  0
DICTIONARY
  5
14A6
330
773
100
AcDbDictionary
280
     1
281
     1
  3
ACAD_XREC_ROUNDTRIP
360
14A7
  0
DICTIONARY
  5
14A8
330
774
100
AcDbDictionary
280
     1
281
     1
  3
ACAD_XREC_ROUNDTRIP
360
14A9
  0
DICTIONARY
  5
14AA
330
775
100
AcDbDictionary
280
     1
281
     1
  3
ACAD_XREC_ROUNDTRIP
360
14AB
  0
DICTIONARY
  5
14AC
330
776
100
AcDbDictionary
280
     1
281
     1
  3
ACAD_XREC_ROUNDTRIP
360
14AD
  0
DICTIONARY
  5
14AE
330
777
100
AcDbDictionary
280
     1
281
     1
  3
ACAD_XREC_ROUNDTRIP
360
14AF
  0
DICTIONARY
  5
14B0
330
778
100
AcDbDictionary
280
     1
281
     1
  3
ACAD_XREC_ROUNDTRIP
360
14B1
  0
DICTIONARY
  5
14B2
330
779
100
AcDbDictionary
280
     1
281
     1
  3
ACAD_XREC_ROUNDTRIP
360
14B3
  0
DICTIONARY
  5
149A
330
7A8
100
AcDbDictionary
280
     1
281
     1
  3
ACAD_ROUNDTRIP_2008_TABLESTYLE_CELLSTYLEMAP
360
149B
  3
ACAD_XREC_ROUNDTRIP
360
14B7
  0
XRECORD
  5
14A1
102
{ACAD_REACTORS
330
14A0
102
}
330
14A0
100
AcDbXrecord
280
     1
102
SHADEPLOT
 70
     0
102
SHADEPLOTRESLEVEL
 70
     2
102
SHADEPLOTCUSTOMDPI
 70
   300
  0
XRECORD
  5
14A3
102
{ACAD_REACTORS
330
14A2
102
}
330
14A2
100
AcDbXrecord
280
     1
102
SHADEPLOT
 70
     0
102
SHADEPLOTRESLEVEL
 70
     2
102
SHADEPLOTCUSTOMDPI
 70
   300
  0
XRECORD
  5
14B5
102
{ACAD_REACTORS
330
786
102
}
330
786
100
AcDbXrecord
280
     1
102
MATERIAL
148
0.0
149
0.0
149
0.0
 93
        0
 94
      127
282
     0
 72
     0
 77
     0
171
     0
175
     0
179
     0
273
     0
  0
XRECORD
  5
788
102
{ACAD_REACTORS
330
786
102
}
330
786
100
AcDbXrecord
280
     1
270
     1
271
     1
  0
XRECORD
  5
787
102
{ACAD_REACTORS
330
786
102
}
330
786
100
AcDbXrecord
280
     1
270
     1
271
     1
  0
XRECORD
  5
78B
102
{ACAD_REACTORS
330
786
102
}
330
786
100
AcDbXrecord
280
     1
270
     1
271
     1
  0
XRECORD
  5
78A
102
{ACAD_REACTORS
330
786
102
}
330
786
100
AcDbXrecord
280
     1
270
     1
271
     1
  0
XRECORD
  5
78C
102
{ACAD_REACTORS
330
786
102
}
330
786
100
AcDbXrecord
280
     1
270
     1
271
     1
  0
XRECORD
  5
789
102
{ACAD_REACTORS
330
786
102
}
330
786
100
AcDbXrecord
280
     1
270
     1
271
     1
  0
XRECORD
  5
14B4
102
{ACAD_REACTORS
330
77E
102
}
330
77E
100
AcDbXrecord
280
     1
102
MATERIAL
148
0.0
149
0.0
149
0.0
 93
        0
 94
      127
282
     0
 72
     0
 77
     0
171
     0
175
     0
179
     0
273
     0
  0
XRECORD
  5
780
102
{ACAD_REACTORS
330
77E
102
}
330
77E
100
AcDbXrecord
280
     1
270
     1
271
     1
  0
XRECORD
  5
77F
102
{ACAD_REACTORS
330
77E
102
}
330
77E
100
AcDbXrecord
280
     1
270
     1
271
     1
  0
XRECORD
  5
783
102
{ACAD_REACTORS
330
77E
102
}
330
77E
100
AcDbXrecord
280
     1
270
     1
271
     1
  0
XRECORD
  5
782
102
{ACAD_REACTORS
330
77E
102
}
330
77E
100
AcDbXrecord
280
     1
270
     1
271
     1
  0
XRECORD
  5
784
102
{ACAD_REACTORS
330
77E
102
}
330
77E
100
AcDbXrecord
280
     1
270
     1
271
     1
  0
XRECORD
  5
781
102
{ACAD_REACTORS
330
77E
102
}
330
77E
100
AcDbXrecord
280
     1
270
     1
271
     1
  0
XRECORD
  5
14B6
102
{ACAD_REACTORS
330
78E
102
}
330
78E
100
AcDbXrecord
280
     1
102
MATERIAL
148
0.0
149
0.0
149
0.0
 93
        0
 94
      127
282
     0
 72
     0
 77
     0
171
     0
175
     0
179
     0
273
     0
  0
XRECORD
  5
790
102
{ACAD_REACTORS
330
78E
102
}
330
78E
100
AcDbXrecord
280
     1
270
     1
271
     1
  0
XRECORD
  5
78F
102
{ACAD_REACTORS
330
78E
102
}
330
78E
100
AcDbXrecord
280
     1
270
     1
271
     1
  0
XRECORD
  5
793
102
{ACAD_REACTORS
330
78E
102
}
330
78E
100
AcDbXrecord
280
     1
270
     1
271
     1
  0
XRECORD
  5
792
102
{ACAD_REACTORS
330
78E
102
}
330
78E
100
AcDbXrecord
280
     1
270
     1
271
     1
  0
XRECORD
  5
794
102
{ACAD_REACTORS
330
78E
102
}
330
78E
100
AcDbXrecord
280
     1
270
     1
271
     1
  0
XRECORD
  5
791
102
{ACAD_REACTORS
330
78E
102
}
330
78E
100
AcDbXrecord
280
     1
270
     1
271
     1
  0
XRECORD
  5
14A5
102
{ACAD_REACTORS
330
14A4
102
}
330
14A4
100
AcDbXrecord
280
     1
102
SHADEPLOT
 70
     0
102
SHADEPLOTRESLEVEL
 70
     2
102
SHADEPLOTCUSTOMDPI
 70
   300
  0
XRECORD
  5
14A7
102
{ACAD_REACTORS
330
14A6
102
}
330
14A6
100
AcDbXrecord
280
     1
102
SHADEPLOT
 70
     0
102
SHADEPLOTRESLEVEL
 70
     2
102
SHADEPLOTCUSTOMDPI
 70
   300
  0
XRECORD
  5
14A9
102
{ACAD_REACTORS
330
14A8
102
}
330
14A8
100
AcDbXrecord
280
     1
102
SHADEPLOT
 70
     0
102
SHADEPLOTRESLEVEL
 70
     2
102
SHADEPLOTCUSTOMDPI
 70
   300
  0
XRECORD
  5
14AB
102
{ACAD_REACTORS
330
14AA
102
}
330
14AA
100
AcDbXrecord
280
     1
102
SHADEPLOT
 70
     0
102
SHADEPLOTRESLEVEL
 70
     2
102
SHADEPLOTCUSTOMDPI
 70
   300
  0
XRECORD
  5
14AD
102
{ACAD_REACTORS
330
14AC
102
}
330
14AC
100
AcDbXrecord
280
     1
102
SHADEPLOT
 70
     0
102
SHADEPLOTRESLEVEL
 70
     2
102
SHADEPLOTCUSTOMDPI
 70
   300
  0
XRECORD
  5
14AF
102
{ACAD_REACTORS
330
14AE
102
}
330
14AE
100
AcDbXrecord
280
     1
102
SHADEPLOT
 70
     0
102
SHADEPLOTRESLEVEL
 70
     2
102
SHADEPLOTCUSTOMDPI
 70
   300
  0
XRECORD
  5
14B1
102
{ACAD_REACTORS
330
14B0
102
}
330
14B0
100
AcDbXrecord
280
     1
102
SHADEPLOT
 70
     0
102
SHADEPLOTRESLEVEL
 70
     2
102
SHADEPLOTCUSTOMDPI
 70
   300
  0
XRECORD
  5
14B3
102
{ACAD_REACTORS
330
14B2
102
}
330
14B2
100
AcDbXrecord
280
     1
102
SHADEPLOT
 70
     0
102
SHADEPLOTRESLEVEL
 70
     2
102
SHADEPLOTCUSTOMDPI
 70
   300
  0
CELLSTYLEMAP
  5
149B
102
{ACAD_REACTORS
330
149A
102
}
330
149A
100
AcDbCellStyleMap
 90
        3
300
CELLSTYLE
  1
TABLEFORMAT_BEGIN
 90
        5
170
     1
 91
        0
 92
    32768
 62
   257
 93
        1
300
CONTENTFORMAT
  1
CONTENTFORMAT_BEGIN
 90
        0
 91
        0
 92
      512
 93
        0
300

 40
0.0
140
1.0
 94
        5
 62
     0
340
10
144
6.0
309
CONTENTFORMAT_END
171
     1
301
MARGIN
  1
CELLMARGIN_BEGIN
 40
1.5
 40
1.5
 40
1.5
 40
1.5
 40
4.5
 40
4.5
309
CELLMARGIN_END
 94
        6
 95
        1
302
GRIDFORMAT
  1
GRIDFORMAT_BEGIN
 90
        0
 91
        1
 62
     0
 92
       -2
340
0
 93
        0
 40
1.125
309
GRIDFORMAT_END
 95
        2
302
GRIDFORMAT
  1
GRIDFORMAT_BEGIN
 90
        0
 91
        1
 62
     0
 92
       -2
340
0
 93
        0
 40
1.125
309
GRIDFORMAT_END
 95
        4
302
GRIDFORMAT
  1
GRIDFORMAT_BEGIN
 90
        0
 91
        1
 62
     0
 92
       -2
340
0
 93
        0
 40
1.125
309
GRIDFORMAT_END
 95
        8
302
GRIDFORMAT
  1
GRIDFORMAT_BEGIN
 90
        0
 91
        1
 62
     0
 92
       -2
340
0
 93
        0
 40
1.125
309
GRIDFORMAT_END
 95
       16
302
GRIDFORMAT
  1
GRIDFORMAT_BEGIN
 90
        0
 91
        1
 62
     0
 92
       -2
340
0
 93
        0
 40
1.125
309
GRIDFORMAT_END
 95
       32
302
GRIDFORMAT
  1
GRIDFORMAT_BEGIN
 90
        0
 91
        1
 62
     0
 92
       -2
340
0
 93
        0
 40
1.125
309
GRIDFORMAT_END
309
TABLEFORMAT_END
  1
CELLSTYLE_BEGIN
 90
        1
 91
        1
300
_TITLE
309
CELLSTYLE_END
300
CELLSTYLE
  1
TABLEFORMAT_BEGIN
 90
        5
170
     1
 91
        0
 92
        0
 62
   257
 93
        1
300
CONTENTFORMAT
  1
CONTENTFORMAT_BEGIN
 90
        0
 91
        0
 92
      512
 93
        0
300

 40
0.0
140
1.0
 94
        5
 62
     0
340
10
144
4.5
309
CONTENTFORMAT_END
171
     1
301
MARGIN
  1
CELLMARGIN_BEGIN
 40
1.5
 40
1.5
 40
1.5
 40
1.5
 40
4.5
 40
4.5
309
CELLMARGIN_END
 94
        6
 95
        1
302
GRIDFORMAT
  1
GRIDFORMAT_BEGIN
 90
        0
 91
        1
 62
     0
 92
       -2
340
0
 93
        0
 40
1.125
309
GRIDFORMAT_END
 95
        2
302
GRIDFORMAT
  1
GRIDFORMAT_BEGIN
 90
        0
 91
        1
 62
     0
 92
       -2
340
0
 93
        0
 40
1.125
309
GRIDFORMAT_END
 95
        4
302
GRIDFORMAT
  1
GRIDFORMAT_BEGIN
 90
        0
 91
        1
 62
     0
 92
       -2
340
0
 93
        0
 40
1.125
309
GRIDFORMAT_END
 95
        8
302
GRIDFORMAT
  1
GRIDFORMAT_BEGIN
 90
        0
 91
        1
 62
     0
 92
       -2
340
0
 93
        0
 40
1.125
309
GRIDFORMAT_END
 95
       16
302
GRIDFORMAT
  1
GRIDFORMAT_BEGIN
 90
        0
 91
        1
 62
     0
 92
       -2
340
0
 93
        0
 40
1.125
309
GRIDFORMAT_END
 95
       32
302
GRIDFORMAT
  1
GRIDFORMAT_BEGIN
 90
        0
 91
        1
 62
     0
 92
       -2
340
0
 93
        0
 40
1.125
309
GRIDFORMAT_END
309
TABLEFORMAT_END
  1
CELLSTYLE_BEGIN
 90
        2
 91
        1
300
_HEADER
309
CELLSTYLE_END
300
CELLSTYLE
  1
TABLEFORMAT_BEGIN
 90
        5
170
     1
 91
        0
 92
        0
 62
   257
 93
        1
300
CONTENTFORMAT
  1
CONTENTFORMAT_BEGIN
 90
        0
 91
        0
 92
      512
 93
        0
300

 40
0.0
140
1.0
 94
        2
 62
     0
340
10
144
4.5
309
CONTENTFORMAT_END
171
     1
301
MARGIN
  1
CELLMARGIN_BEGIN
 40
1.5
 40
1.5
 40
1.5
 40
1.5
 40
4.5
 40
4.5
309
CELLMARGIN_END
 94
        6
 95
        1
302
GRIDFORMAT
  1
GRIDFORMAT_BEGIN
 90
        0
 91
        1
 62
     0
 92
       -2
340
0
 93
        0
 40
1.125
309
GRIDFORMAT_END
 95
        2
302
GRIDFORMAT
  1
GRIDFORMAT_BEGIN
 90
        0
 91
        1
 62
     0
 92
       -2
340
0
 93
        0
 40
1.125
309
GRIDFORMAT_END
 95
        4
302
GRIDFORMAT
  1
GRIDFORMAT_BEGIN
 90
        0
 91
        1
 62
     0
 92
       -2
340
0
 93
        0
 40
1.125
309
GRIDFORMAT_END
 95
        8
302
GRIDFORMAT
  1
GRIDFORMAT_BEGIN
 90
        0
 91
        1
 62
     0
 92
       -2
340
0
 93
        0
 40
1.125
309
GRIDFORMAT_END
 95
       16
302
GRIDFORMAT
  1
GRIDFORMAT_BEGIN
 90
        0
 91
        1
 62
     0
 92
       -2
340
0
 93
        0
 40
1.125
309
GRIDFORMAT_END
 95
       32
302
GRIDFORMAT
  1
GRIDFORMAT_BEGIN
 90
        0
 91
        1
 62
     0
 92
       -2
340
0
 93
        0
 40
1.125
309
GRIDFORMAT_END
309
TABLEFORMAT_END
  1
CELLSTYLE_BEGIN
 90
        3
 91
        2
300
_DATA
309
CELLSTYLE_END
  0
XRECORD
  5
14B7
102
{ACAD_REACTORS
330
149A
102
}
330
149A
100
AcDbXrecord
280
     1
102
ACAD_ROUNDTRIP_PRE2007_TABLESTYLE
 90
      512
 91
        0
  1

 92
      512
 93
        0
  2

 94
      512
 95
        0
  3

  0
ENDSEC
  0
EOF
