  0
SECTION
  2
HEADER
  9
$ACADVER
  1
AC1015
  9
$ACADMAINTVER
 70
    20
  9
$DWGCODEPAGE
  3
ANSI_932
  9
$INSBASE
 10
0.0
 20
0.0
 30
0.0
  9
$EXTMIN
 10
-49.57704426527937
 20
-11.00439340223022
 30
-0.0000000349181948
  9
$EXTMAX
 10
118.2706476893462
 20
40.01190360405854
 30
0.0000000814935746
  9
$LIMMIN
 10
0.0
 20
0.0
  9
$LIMMAX
 10
297.0
 20
210.0
  9
$ORTHOMODE
 70
     0
  9
$REGENMODE
 70
     1
  9
$FILLMODE
 70
     1
  9
$QTEXTMODE
 70
     0
  9
$MIRRTEXT
 70
     1
  9
$LTSCALE
 40
10.0
  9
$ATTMODE
 70
     1
  9
$TEXTSIZE
 40
3.0
  9
$TRACEWID
 40
1.0
  9
$TEXTSTYLE
  7
YOKO
  9
$CLAYER
  8
245
  9
$CELTYPE
  6
BYLAYER
  9
$CECOLOR
 62
   256
  9
$CELTSCALE
 40
1.0
  9
$DISPSILH
 70
     0
  9
$DIMSCALE
 40
1.0
  9
$DIMASZ
 40
2.0
  9
$DIMEXO
 40
0.5
  9
$DIMDLI
 40
2.5
  9
$DIMRND
 40
0.0
  9
$DIMDLE
 40
0.0
  9
$DIMEXE
 40
1.0
  9
$DIMTP
 40
0.0
  9
$DIMTM
 40
0.0
  9
$DIMTXT
 40
2.799999999999999
  9
$DIMCEN
 40
0.0
  9
$DIMTSZ
 40
0.0
  9
$DIMTOL
 70
     0
  9
$DIMLIM
 70
     0
  9
$DIMTIH
 70
     0
  9
$DIMTOH
 70
     0
  9
$DIMSE1
 70
     0
  9
$DIMSE2
 70
     0
  9
$DIMTAD
 70
     3
  9
$DIMZIN
 70
     8
  9
$DIMBLK
  1

  9
$DIMASO
 70
     1
  9
$DIMSHO
 70
     1
  9
$DIMPOST
  1

  9
$DIMAPOST
  1

  9
$DIMALT
 70
     0
  9
$DIMALTD
 70
     2
  9
$DIMALTF
 40
25.4
  9
$DIMLFAC
 40
1.0
  9
$DIMTOFL
 70
     1
  9
$DIMTVP
 40
0.0
  9
$DIMTIX
 70
     1
  9
$DIMSOXD
 70
     0
  9
$DIMSAH
 70
     1
  9
$DIMBLK1
  1
Open
  9
$DIMBLK2
  1
Open
  9
$DIMSTYLE
  2
BIGT
  9
$DIMCLRD
 70
   256
  9
$DIMCLRE
 70
   256
  9
$DIMCLRT
 70
    40
  9
$DIMTFAC
 40
1.0
  9
$DIMGAP
 40
1.0
  9
$DIMJUST
 70
     0
  9
$DIMSD1
 70
     0
  9
$DIMSD2
 70
     0
  9
$DIMTOLJ
 70
     1
  9
$DIMTZIN
 70
     8
  9
$DIMALTZ
 70
     0
  9
$DIMALTTZ
 70
     0
  9
$DIMUPT
 70
     0
  9
$DIMDEC
 70
     3
  9
$DIMTDEC
 70
     3
  9
$DIMALTU
 70
     2
  9
$DIMALTTD
 70
     2
  9
$DIMTXSTY
  7
STANDARD
  9
$DIMAUNIT
 70
     0
  9
$DIMADEC
 70
     3
  9
$DIMALTRND
 40
0.0
  9
$DIMAZIN
 70
     2
  9
$DIMDSEP
 70
    46
  9
$DIMATFIT
 70
     2
  9
$DIMFRAC
 70
     0
  9
$DIMLDRBLK
  1
Open
  9
$DIMLUNIT
 70
     2
  9
$DIMLWD
 70
    -1
  9
$DIMLWE
 70
    -1
  9
$DIMTMOVE
 70
     0
  9
$LUNITS
 70
     2
  9
$LUPREC
 70
     3
  9
$SKETCHINC
 40
1.0
  9
$FILLETRAD
 40
0.0
  9
$AUNITS
 70
     0
  9
$AUPREC
 70
     3
  9
$MENU
  1
.
  9
$ELEVATION
 40
0.0
  9
$PELEVATION
 40
0.0
  9
$THICKNESS
 40
0.0
  9
$LIMCHECK
 70
     0
  9
$CHAMFERA
 40
10.0
  9
$CHAMFERB
 40
10.0
  9
$CHAMFERC
 40
0.0
  9
$CHAMFERD
 40
0.0
  9
$SKPOLY
 70
     0
  9
$TDCREATE
 40
2455554.443852894
  9
$TDUCREATE
 40
2455554.068852894
  9
$TDUPDATE
 40
2455554.657774341
  9
$TDUUPDATE
 40
2455554.282774341
  9
$TDINDWG
 40
0.2139225231
  9
$TDUSRTIMER
 40
0.2139223495
  9
$USRTIMER
 70
     1
  9
$ANGBASE
 50
0.0
  9
$ANGDIR
 70
     0
  9
$PDMODE
 70
     1
  9
$PDSIZE
 40
-5.0
  9
$PLINEWID
 40
0.0
  9
$SPLFRAME
 70
     0
  9
$SPLINETYPE
 70
     6
  9
$SPLINESEGS
 70
     8
  9
$HANDSEED
  5
C1F
  9
$SURFTAB1
 70
     6
  9
$SURFTAB2
 70
     6
  9
$SURFTYPE
 70
     6
  9
$SURFU
 70
     6
  9
$SURFV
 70
     6
  9
$UCSBASE
  2

  9
$UCSNAME
  2

  9
$UCSORG
 10
0.0
 20
0.0
 30
0.0
  9
$UCSXDIR
 10
1.0
 20
0.0
 30
0.0
  9
$UCSYDIR
 10
0.0
 20
1.0
 30
0.0
  9
$UCSORTHOREF
  2

  9
$UCSORTHOVIEW
 70
     0
  9
$UCSORGTOP
 10
0.0
 20
0.0
 30
0.0
  9
$UCSORGBOTTOM
 10
0.0
 20
0.0
 30
0.0
  9
$UCSORGLEFT
 10
0.0
 20
0.0
 30
0.0
  9
$UCSORGRIGHT
 10
0.0
 20
0.0
 30
0.0
  9
$UCSORGFRONT
 10
0.0
 20
0.0
 30
0.0
  9
$UCSORGBACK
 10
0.0
 20
0.0
 30
0.0
  9
$PUCSBASE
  2

  9
$PUCSNAME
  2

  9
$PUCSORG
 10
0.0
 20
0.0
 30
0.0
  9
$PUCSXDIR
 10
1.0
 20
0.0
 30
0.0
  9
$PUCSYDIR
 10
0.0
 20
1.0
 30
0.0
  9
$PUCSORTHOREF
  2

  9
$PUCSORTHOVIEW
 70
     0
  9
$PUCSORGTOP
 10
0.0
 20
0.0
 30
0.0
  9
$PUCSORGBOTTOM
 10
0.0
 20
0.0
 30
0.0
  9
$PUCSORGLEFT
 10
0.0
 20
0.0
 30
0.0
  9
$PUCSORGRIGHT
 10
0.0
 20
0.0
 30
0.0
  9
$PUCSORGFRONT
 10
0.0
 20
0.0
 30
0.0
  9
$PUCSORGBACK
 10
0.0
 20
0.0
 30
0.0
  9
$USERI1
 70
     1
  9
$USERI2
 70
     0
  9
$USERI3
 70
     0
  9
$USERI4
 70
     0
  9
$USERI5
 70
     0
  9
$USERR1
 40
0.0
  9
$USERR2
 40
0.0
  9
$USERR3
 40
0.0
  9
$USERR4
 40
0.0
  9
$USERR5
 40
0.0
  9
$WORLDVIEW
 70
     1
  9
$SHADEDGE
 70
     3
  9
$SHADEDIF
 70
    70
  9
$TILEMODE
 70
     1
  9
$MAXACTVP
 70
    16
  9
$PINSBASE
 10
0.0
 20
0.0
 30
0.0
  9
$PLIMCHECK
 70
     0
  9
$PEXTMIN
 10
1.000000000000000E+20
 20
1.000000000000000E+20
 30
1.000000000000000E+20
  9
$PEXTMAX
 10
-1.000000000000000E+20
 20
-1.000000000000000E+20
 30
-1.000000000000000E+20
  9
$PLIMMIN
 10
0.0
 20
0.0
  9
$PLIMMAX
 10
420.0
 20
297.0
  9
$UNITMODE
 70
     0
  9
$VISRETAIN
 70
     0
  9
$PLINEGEN
 70
     0
  9
$PSLTSCALE
 70
     1
  9
$TREEDEPTH
 70
  3020
  9
$CMLSTYLE
  2
STANDARD
  9
$CMLJUST
 70
     0
  9
$CMLSCALE
 40
1.0
  9
$PROXYGRAPHICS
 70
     1
  9
$MEASUREMENT
 70
     1
  9
$CELWEIGHT
370
    -1
  9
$ENDCAPS
280
     0
  9
$JOINSTYLE
280
     0
  9
$LWDISPLAY
290
     0
  9
$INSUNITS
 70
     0
  9
$HYPERLINKBASE
  1

  9
$STYLESHEET
  1
big.ctb
  9
$XEDIT
290
     1
  9
$CEPSNTYPE
380
     0
  9
$PSTYLEMODE
290
     1
  9
$FINGERPRINTGUID
  2
{BE1FDFDE-B69E-4843-BBBE-BB1816911815}
  9
$VERSIONGUID
  2
{C7385E7E-196A-431F-846E-8A05ED20EF1C}
  9
$EXTNAMES
290
     1
  9
$PSVPSCALE
 40
0.0
  9
$OLESTARTUP
290
     0
  0
ENDSEC
  0
SECTION
  2
CLASSES
  0
CLASS
  1
ACDBDICTIONARYWDFLT
  2
AcDbDictionaryWithDefault
  3
ObjectDBX Classes
 90
        0
280
     0
281
     0
  0
CLASS
  1
ACDBPLACEHOLDER
  2
AcDbPlaceHolder
  3
ObjectDBX Classes
 90
        0
280
     0
281
     0
  0
CLASS
  1
LAYOUT
  2
AcDbLayout
  3
ObjectDBX Classes
 90
        0
280
     0
281
     0
  0
CLASS
  1
PLOTSETTINGS
  2
AcDbPlotSettings
  3
ObjectDBX Classes
 90
        0
280
     0
281
     0
  0
CLASS
  1
MATERIAL
  2
AcDbMaterial
  3
ObjectDBX Classes
 90
     1153
280
     0
281
     0
  0
CLASS
  1
VISUALSTYLE
  2
AcDbVisualStyle
  3
ObjectDBX Classes
 90
     4095
280
     0
281
     0
  0
CLASS
  1
TABLESTYLE
  2
AcDbTableStyle
  3
ObjectDBX Classes
 90
     4095
280
     0
281
     0
  0
CLASS
  1
SCALE
  2
AcDbScale
  3
ObjectDBX Classes
 90
     1153
280
     0
281
     0
  0
CLASS
  1
MLEADERSTYLE
  2
AcDbMLeaderStyle
  3
ACDB_MLEADERSTYLE_CLASS
 90
     4095
280
     0
281
     0
  0
CLASS
  1
SORTENTSTABLE
  2
AcDbSortentsTable
  3
ObjectDBX Classes
 90
        0
280
     0
281
     0
  0
CLASS
  1
CELLSTYLEMAP
  2
AcDbCellStyleMap
  3
ObjectDBX Classes
 90
     1152
280
     0
281
     0
  0
CLASS
  1
DICTIONARYVAR
  2
AcDbDictionaryVar
  3
ObjectDBX Classes
 90
        0
280
     0
281
     0
  0
ENDSEC
  0
SECTION
  2
TABLES
  0
TABLE
  2
VPORT
  5
8
330
0
100
AcDbSymbolTable
 70
     1
  0
VPORT
  5
77A
330
8
100
AcDbSymbolTableRecord
100
AcDbViewportTableRecord
  2
*Active
 70
     0
 10
0.0
 20
0.0
 11
1.0
 21
1.0
 12
34.34680171203343
 22
14.50375510091416
 13
0.0
 23
0.0
 14
7.0
 24
7.0
 15
7.0
 25
7.0
 16
0.0
 26
0.0
 36
1.0
 17
0.0
 27
0.0
 37
0.0
 40
104.6248596880487
 41
1.612676056338028
 42
50.0
 43
0.0
 44
0.0
 50
0.0
 51
0.0
 71
     0
 72
 20000
 73
     1
 74
     0
 75
     0
 76
     0
 77
     0
 78
     0
281
     0
 65
     1
110
0.0
120
0.0
130
0.0
111
1.0
121
0.0
131
0.0
112
0.0
122
1.0
132
0.0
 79
     0
146
0.0
  0
ENDTAB
  0
TABLE
  2
LTYPE
  5
5
330
0
100
AcDbSymbolTable
 70
    39
  0
LTYPE
  5
14
330
5
100
AcDbSymbolTableRecord
100
AcDbLinetypeTableRecord
  2
BYBLOCK
 70
     0
  3

 72
    65
 73
     0
 40
0.0
  0
LTYPE
  5
15
330
5
100
AcDbSymbolTableRecord
100
AcDbLinetypeTableRecord
  2
BYLAYER
 70
     0
  3

 72
    65
 73
     0
 40
0.0
  0
LTYPE
  5
16
330
5
100
AcDbSymbolTableRecord
100
AcDbLinetypeTableRecord
  2
CONTINUOUS
 70
     0
  3
Solid line
 72
    65
 73
     0
 40
0.0
  0
LTYPE
  5
258
330
5
100
AcDbSymbolTableRecord
100
AcDbLinetypeTableRecord
  2
CENTER2
 70
     0
  3
___ _ ___ _ ___ _ ___ _ ___ _ ___ _ ___ _ ___ _
 72
    65
 73
     4
 40
1.125
 49
0.75
 74
     0
 49
-0.125
 74
     0
 49
0.125
 74
     0
 49
-0.125
 74
     0
  0
LTYPE
  5
25C
330
5
100
AcDbSymbolTableRecord
100
AcDbLinetypeTableRecord
  2
HIDDEN2
 70
     0
  3
_ _ _ _ _ _ _ _ _ _ _ _ _ _ _ _ _ _ _ _ _ _ _ _
 72
    65
 73
     2
 40
0.1875
 49
0.125
 74
     0
 49
-0.0625
 74
     0
  0
LTYPE
  5
25D
330
5
100
AcDbSymbolTableRecord
100
AcDbLinetypeTableRecord
  2
PHANTOM2
 70
     0
  3
___ _ _ ___ _ _ ___ _ _ ___ _ _ ___ _ _ ___ _ _
 72
    65
 73
     6
 40
1.25
 49
0.625
 74
     0
 49
-0.125
 74
     0
 49
0.125
 74
     0
 49
-0.125
 74
     0
 49
0.125
 74
     0
 49
-0.125
 74
     0
  0
ENDTAB
  0
TABLE
  2
LAYER
  5
2
330
0
100
AcDbSymbolTable
 70
    33
  0
LAYER
  5
F
102
{ACAD_XDICTIONARY
360
A3B
102
}
330
2
100
AcDbSymbolTableRecord
100
AcDbLayerTableRecord
  2
0
 70
     0
 62
     7
  6
CONTINUOUS
370
    -3
390
564
  0
LAYER
  5
1AA
102
{ACAD_XDICTIONARY
360
A4B
102
}
330
2
100
AcDbSymbolTableRecord
100
AcDbLayerTableRecord
  2
240
 70
     0
 62
     4
  6
CONTINUOUS
370
    -3
390
564
  0
LAYER
  5
1AB
102
{ACAD_XDICTIONARY
360
A4D
102
}
330
2
100
AcDbSymbolTableRecord
100
AcDbLayerTableRecord
  2
241
 70
     0
 62
   211
  6
CONTINUOUS
370
    -3
390
564
  0
LAYER
  5
1AC
102
{ACAD_XDICTIONARY
360
A4F
102
}
330
2
100
AcDbSymbolTableRecord
100
AcDbLayerTableRecord
  2
242
 70
     0
 62
     3
  6
CONTINUOUS
370
    -3
390
564
  0
LAYER
  5
1AF
102
{ACAD_XDICTIONARY
360
A55
102
}
330
2
100
AcDbSymbolTableRecord
100
AcDbLayerTableRecord
  2
245
 70
     0
 62
     2
  6
CENTER2
370
    -3
390
564
  0
LAYER
  5
21E
102
{ACAD_XDICTIONARY
360
A5D
102
}
330
2
100
AcDbSymbolTableRecord
100
AcDbLayerTableRecord
  2
250
 70
     0
 62
     3
  6
CONTINUOUS
370
    -3
390
564
  0
LAYER
  5
21F
102
{ACAD_XDICTIONARY
360
A5F
102
}
330
2
100
AcDbSymbolTableRecord
100
AcDbLayerTableRecord
  2
251
 70
     0
 62
    40
  6
CONTINUOUS
370
    -3
390
564
  0
LAYER
  5
5C4
330
2
100
AcDbSymbolTableRecord
100
AcDbLayerTableRecord
  2
Defpoints
 70
     0
 62
     7
  6
CONTINUOUS
290
     0
370
    -3
390
564
  0
LAYER
  5
7F6
102
{ACAD_XDICTIONARY
360
A79
102
}
330
2
100
AcDbSymbolTableRecord
100
AcDbLayerTableRecord
  2
AM_7
 70
     0
 62
     2
  6
CENTER2
370
    -3
390
564
  0
ENDTAB
  0
TABLE
  2
STYLE
  5
3
330
0
100
AcDbSymbolTable
 70
     4
  0
STYLE
  5
10
330
3
100
AcDbSymbolTableRecord
100
AcDbTextStyleTableRecord
  2
STANDARD
 70
     0
 40
0.0
 41
1.0
 50
0.0
 71
     0
 42
3.0
  3
romans.shx
  4
BIGFONT.SHX
  0
STYLE
  5
339
330
3
100
AcDbSymbolTableRecord
100
AcDbTextStyleTableRecord
  2
YOKO
 70
     0
 40
0.0
 41
1.0
 50
0.0
 71
     0
 42
3.0
  3
romans.shx
  4
extfont.shx
  0
ENDTAB
  0
TABLE
  2
VIEW
  5
6
330
0
100
AcDbSymbolTable
 70
     0
  0
ENDTAB
  0
TABLE
  2
UCS
  5
7
330
0
100
AcDbSymbolTable
 70
     0
  0
ENDTAB
  0
TABLE
  2
APPID
  5
9
330
0
100
AcDbSymbolTable
 70
    18
  0
APPID
  5
11
330
9
100
AcDbSymbolTableRecord
100
AcDbRegAppTableRecord
  2
ACAD
 70
     0
  0
APPID
  5
1B1
330
9
100
AcDbSymbolTableRecord
100
AcDbRegAppTableRecord
  2
GLOBAL
 70
     0
  0
APPID
  5
2A4
330
9
100
AcDbSymbolTableRecord
100
AcDbRegAppTableRecord
  2
DETAIL
 70
     0
  0
APPID
  5
5FD
330
9
100
AcDbSymbolTableRecord
100
AcDbRegAppTableRecord
  2
GRPNAME
 70
     0
  0
APPID
  5
5FE
330
9
100
AcDbSymbolTableRecord
100
AcDbRegAppTableRecord
  2
GPARA
 70
     0
  0
APPID
  5
6C4
330
9
100
AcDbSymbolTableRecord
100
AcDbRegAppTableRecord
  2
DCO15
 70
     0
  0
APPID
  5
6C5
330
9
100
AcDbSymbolTableRecord
100
AcDbRegAppTableRecord
  2
ITEMNAME
 70
     0
  0
APPID
  5
6C6
330
9
100
AcDbSymbolTableRecord
100
AcDbRegAppTableRecord
  2
GRADE_0
 70
     0
  0
APPID
  5
7CD
330
9
100
AcDbSymbolTableRecord
100
AcDbRegAppTableRecord
  2
ACAD_MLEADERVER
 70
     0
  0
APPID
  5
7F7
330
9
100
AcDbSymbolTableRecord
100
AcDbRegAppTableRecord
  2
HATCH_TYPE
 70
     0
  0
APPID
  5
7F8
330
9
100
AcDbSymbolTableRecord
100
AcDbRegAppTableRecord
  2
HATCH_DISPLAY
 70
     0
  0
APPID
  5
7F9
330
9
100
AcDbSymbolTableRecord
100
AcDbRegAppTableRecord
  2
HATCH_DISTANCE
 70
     0
  0
APPID
  5
7FA
330
9
100
AcDbSymbolTableRecord
100
AcDbRegAppTableRecord
  2
GENIUS_GENODEF_13
 70
     0
  0
APPID
  5
7FB
330
9
100
AcDbSymbolTableRecord
100
AcDbRegAppTableRecord
  2
GENIUS_GENOREF_13
 70
     0
  0
APPID
  5
7FC
330
9
100
AcDbSymbolTableRecord
100
AcDbRegAppTableRecord
  2
GENIUS_GENOBJ-N-FIL_13
 70
     0
  0
APPID
  5
7FD
330
9
100
AcDbSymbolTableRecord
100
AcDbRegAppTableRecord
  2
GENIUS_GENFIL_13
 70
     0
  0
APPID
  5
7FE
330
9
100
AcDbSymbolTableRecord
100
AcDbRegAppTableRecord
  2
GENIUS_GENOBJ-N-CHA_13
 70
     0
  0
APPID
  5
AE0
330
9
100
AcDbSymbolTableRecord
100
AcDbRegAppTableRecord
  2
ACAD_PSEXT
 70
     0
  0
ENDTAB
  0
TABLE
  2
DIMSTYLE
  5
A
330
0
100
AcDbSymbolTable
 70
    12
100
AcDbDimStyleTable
 71
     1
340
725
  0
DIMSTYLE
105
725
102
{ACAD_REACTORS
330
94A
330
94B
102
}
330
A
100
AcDbSymbolTableRecord
100
AcDbDimStyleTableRecord
  2
BIGT
 70
     0
 41
2.229999999999999
 42
0.5
 43
2.5
 44
1.0
 73
     0
 74
     0
 77
     3
 78
     8
 79
     2
140
2.799999999999999
141
0.0
147
1.0
172
     1
173
     1
174
     1
176
   256
177
   256
178
    40
179
     3
271
     3
272
     3
284
     8
289
     2
340
10
341
594
343
594
344
594
371
    -1
372
    -1
  0
ENDTAB
  0
TABLE
  2
BLOCK_RECORD
  5
1
330
0
100
AcDbSymbolTable
 70
    19
  0
BLOCK_RECORD
  5
1A
330
1
100
AcDbSymbolTableRecord
100
AcDbBlockTableRecord
  2
*MODEL_SPACE
340
567
  0
BLOCK_RECORD
  5
17
330
1
100
AcDbSymbolTableRecord
100
AcDbBlockTableRecord
  2
*PAPER_SPACE
340
568
  0
BLOCK_RECORD
  5
594
330
1
100
AcDbSymbolTableRecord
100
AcDbBlockTableRecord
  2
_Open
340
0
102
{BLKREFS
331
7E3
331
7E4
331
7EF
331
7F0
331
846
331
951
331
A2C
331
A2D
331
A35
331
A36
102
}
  0
BLOCK_RECORD
  5
6E3
330
1
100
AcDbSymbolTableRecord
100
AcDbBlockTableRecord
  2
矢印なし
340
0
102
{BLKREFS
331
6E6
102
}
  0
BLOCK_RECORD
  5
A11
330
1
100
AcDbSymbolTableRecord
100
AcDbBlockTableRecord
  2
*D15
340
0
  0
BLOCK_RECORD
  5
A1D
330
1
100
AcDbSymbolTableRecord
100
AcDbBlockTableRecord
  2
*D16
340
0
  0
BLOCK_RECORD
  5
AF3
330
1
100
AcDbSymbolTableRecord
100
AcDbBlockTableRecord
  2
1
340
0
310
2800000020000000200000000100080000000000000400000000000000000000000000000000000000000000000080000080000000808000800000008000800080800000C0C0C000C0DCC000F0CAA6000020400000206000002080000020A0000020C0000020E00000400000004020000040400000406000004080000040A0
310
000040C0000040E00000600000006020000060400000606000006080000060A0000060C0000060E00000800000008020000080400000806000008080000080A0000080C0000080E00000A0000000A0200000A0400000A0600000A0800000A0A00000A0C00000A0E00000C0000000C0200000C0400000C0600000C0800000C0
310
A00000C0C00000C0E00000E0000000E0200000E0400000E0600000E0800000E0A00000E0C00000E0E00040000000400020004000400040006000400080004000A0004000C0004000E00040200000402020004020400040206000402080004020A0004020C0004020E000404000004040200040404000404060004040800040
310
40A0004040C0004040E00040600000406020004060400040606000406080004060A0004060C0004060E00040800000408020004080400040806000408080004080A0004080C0004080E00040A0000040A0200040A0400040A0600040A0800040A0A00040A0C00040A0E00040C0000040C0200040C0400040C0600040C08000
310
40C0A00040C0C00040C0E00040E0000040E0200040E0400040E0600040E0800040E0A00040E0C00040E0E00080000000800020008000400080006000800080008000A0008000C0008000E00080200000802020008020400080206000802080008020A0008020C0008020E00080400000804020008040400080406000804080
310
008040A0008040C0008040E00080600000806020008060400080606000806080008060A0008060C0008060E00080800000808020008080400080806000808080008080A0008080C0008080E00080A0000080A0200080A0400080A0600080A0800080A0A00080A0C00080A0E00080C0000080C0200080C0400080C0600080C0
310
800080C0A00080C0C00080C0E00080E0000080E0200080E0400080E0600080E0800080E0A00080E0C00080E0E000C0000000C0002000C0004000C0006000C0008000C000A000C000C000C000E000C0200000C0202000C0204000C0206000C0208000C020A000C020C000C020E000C0400000C0402000C0404000C0406000C0
310
408000C040A000C040C000C040E000C0600000C0602000C0604000C0606000C0608000C060A000C060C000C060E000C0800000C0802000C0804000C0806000C0808000C080A000C080C000C080E000C0A00000C0A02000C0A04000C0A06000C0A08000C0A0A000C0A0C000C0A0E000C0C00000C0C02000C0C04000C0C06000
310
C0C08000C0C0A000F0FBFF00A4A0A000808080000000FF0000FF000000FFFF00FF000000FF00FF00FFFF0000FFFFFF0000000000000000000000000000000000000000000000000000000000000000000000000000000000000000000000000000000000000000000000000000000000000000000000000000000000000000
310
00000000000000000000000000000000000000000000000000000000000000000000000000000000000000000000000000000000000000000000000000000000000000000000000000000000000000000000000000000000000000000000000000000000000000000000000000000000000000000000000000000000000000
310
00000000000000000000000000000000000000000000000000000000000000000000000000000000000000000000000000000000000000000000000000000000000000000000000000000000000000000000000000000000000000000000000000000000000000000000000000000000000000000000000000000000000000
310
000000000000000000000000000000000000000000FEE7FBFEE7FEE7E7E7FEFEFEFEFEFEFEFEFEFEFEFEFEFEFEFEFEFEFE00000000FEE7FBE7E700E7E7E7E70000000000000000000000000000E70000FE000000FBFEFBFBFBFBFBFBFBFBFBFBFBFBFBFBFBFBFBFBFBFBFBFBFBFBFBFBFBFB000000FEFEFBFEFEFBFEFEE7FE
310
FEFEFEFEFEFEFEFEFEFEFEFEFEFEFEFEFEFE0000000000000000000000FEE7FE0000000000000000000000000000000000000000000000000000000000000000000000000000000000000000000000000000000000000000000000000000000000000000000000000000000000000000000000000000000000000000000000
310
0000000000000000000000000000000000000000000000E7E7E7E700E7E7E7E7E7E700E7E7000000000000000000000000000000000000E7E7E7E7E7E7E7E7E7E7E7E7E7E7E7000000000000000000000000000000000000000000000000000000000000000000000000000000000000000000000000000000000000000000
310
00000000000000000000000000000000000000000000000000000000000000000000000000000000000000000000000000000000000000000000000000000000000000000000000000000000000000000000000000000000000000000000000000000000000000000000000000000000000000000000000000000000000000
310
00000000000000000000000000000000000000000000000000000000000000000000000000000000000000000000000000000000000000000000000000000000000000000000000000000000000000000000000000000000000000000000000000000000000000000000000000000000000000000000000000000000000000
310
0000000000000000000000000000000000000000000000000000000000000000000000000000000000000000000000000000000000000000
102
{BLKREFS
331
BF1
102
}
  0
ENDTAB
  0
ENDSEC
  0
SECTION
  2
BLOCKS
  0
BLOCK
  5
1B
330
1A
100
AcDbEntity
  8
0
100
AcDbBlockBegin
  2
*MODEL_SPACE
 70
     0
 10
0.0
 20
0.0
 30
0.0
  3
*MODEL_SPACE
  1

  0
ENDBLK
  5
1C
330
1A
100
AcDbEntity
  8
0
100
AcDbBlockEnd
  0
BLOCK
  5
18
330
17
100
AcDbEntity
 67
     1
  8
0
100
AcDbBlockBegin
  2
*PAPER_SPACE
 70
     0
 10
0.0
 20
0.0
 30
0.0
  3
*PAPER_SPACE
  1

  0
ENDBLK
  5
19
330
17
100
AcDbEntity
 67
     1
  8
0
100
AcDbBlockEnd
  0
BLOCK
  5
598
330
594
100
AcDbEntity
  8
0
100
AcDbBlockBegin
  2
_Open
 70
     0
 10
0.0
 20
0.0
 30
0.0
  3
_Open
  1

  0
LINE
  5
595
330
594
100
AcDbEntity
  8
0
  6
ByBlock
 62
     0
370
    -2
100
AcDbLine
 10
-1.0
 20
0.1666666666666666
 30
0.0
 11
0.0
 21
0.0
 31
0.0
  0
LINE
  5
596
330
594
100
AcDbEntity
  8
0
  6
ByBlock
 62
     0
370
    -2
100
AcDbLine
 10
-1.0
 20
-0.1666666666666666
 30
0.0
 11
0.0
 21
0.0
 31
0.0
  0
LINE
  5
597
330
594
100
AcDbEntity
  8
0
  6
ByBlock
 62
     0
370
    -2
100
AcDbLine
 10
0.0
 20
0.0
 30
0.0
 11
-1.0
 21
0.0
 31
0.0
  0
ENDBLK
  5
599
330
594
100
AcDbEntity
  8
0
100
AcDbBlockEnd
  0
BLOCK
  5
6E4
330
6E3
100
AcDbEntity
  8
0
100
AcDbBlockBegin
  2
矢印なし
 70
     0
 10
0.0
 20
0.0
 30
0.0
  3
矢印なし
  1

  0
ENDBLK
  5
6E5
330
6E3
100
AcDbEntity
  8
0
100
AcDbBlockEnd
  0
BLOCK
  5
A12
330
A11
100
AcDbEntity
  8
0
100
AcDbBlockBegin
  2
*D15
 70
     1
 10
0.0
 20
0.0
 30
0.0
  3
*D15
  1

  0
LINE
  5
A29
330
A11
100
AcDbEntity
  8
250
  6
Continuous
100
AcDbLine
 10
-0.0000000000069349
 20
11.14125602999997
 30
0.0
 11
-0.0000000000069342
 21
21.99999999999995
 31
0.0
  0
LINE
  5
A2A
330
A11
100
AcDbEntity
  8
250
  6
Continuous
100
AcDbLine
 10
99.99999999999307
 20
7.499999689999988
 30
0.0
 11
99.99999999999307
 21
21.99999999999995
 31
0.0
  0
LINE
  5
A2B
330
A11
100
AcDbEntity
  8
250
  6
Continuous
100
AcDbLine
 10
2.229999999993065
 20
20.99999999999995
 30
0.0
 11
97.76999999999306
 21
20.99999999999995
 31
0.0
  0
INSERT
  5
A2C
330
A11
100
AcDbEntity
  8
250
  6
Continuous
100
AcDbBlockReference
  2
_Open
 10
-0.0000000000069343
 20
20.99999999999995
 30
0.0
 41
2.229999999999999
 42
2.229999999999999
 43
2.229999999999999
 50
180.0
  0
INSERT
  5
A2D
330
A11
100
AcDbEntity
  8
250
  6
Continuous
100
AcDbBlockReference
  2
_Open
 10
99.99999999999307
 20
20.99999999999995
 30
0.0
 41
2.229999999999999
 42
2.229999999999999
 43
2.229999999999999
  0
MTEXT
  5
A2E
330
A11
100
AcDbEntity
  8
250
  6
Continuous
 62
    40
100
AcDbMText
 10
50.02058024999306
 20
23.39999999999995
 30
0.0
 40
2.799999999999999
 41
0.0
 71
     5
 72
     1
  1
\A1;100
 73
     1
 44
1.0
1001
ACAD
1000
MTEXTBEGIN
1070
    73
1070
     1
1070
    44
1040
1.0
1070
    74
1070
     0
1000
MTEXTEND
  0
POINT
  5
A2F
330
A11
100
AcDbEntity
  8
Defpoints
  6
Continuous
 62
     0
100
AcDbPoint
 10
-0.0000000000069349
 20
10.64125602999997
 30
0.0
  0
POINT
  5
A30
330
A11
100
AcDbEntity
  8
Defpoints
  6
Continuous
 62
     0
100
AcDbPoint
 10
99.99999999999307
 20
6.999999689999988
 30
0.0
  0
POINT
  5
A31
330
A11
100
AcDbEntity
  8
Defpoints
  6
Continuous
 62
     0
100
AcDbPoint
 10
99.99999999999307
 20
20.99999999999995
 30
0.0
  0
ENDBLK
  5
A13
330
A11
100
AcDbEntity
  8
0
100
AcDbBlockEnd
  0
BLOCK
  5
A1E
330
A1D
100
AcDbEntity
  8
0
100
AcDbBlockBegin
  2
*D16
 70
     1
 10
0.0
 20
0.0
 30
0.0
  3
*D16
  1

  0
LINE
  5
A32
330
A1D
100
AcDbEntity
  8
250
  6
Continuous
100
AcDbLine
 10
99.49999999999306
 20
-8.000000000000021
 30
0.0
 11
118.249999999993
 21
-8.000000000000026
 31
0.0
  0
LINE
  5
A33
330
A1D
100
AcDbEntity
  8
250
  6
Continuous
100
AcDbLine
 10
99.49999999999306
 20
7.999999999999977
 30
0.0
 11
118.249999999993
 21
7.999999999999972
 31
0.0
  0
LINE
  5
A34
330
A1D
100
AcDbEntity
  8
250
  6
Continuous
100
AcDbLine
 10
117.249999999993
 20
-5.770000000000025
 30
0.0
 11
117.249999999993
 21
5.769999999999973
 31
0.0
  0
INSERT
  5
A35
330
A1D
100
AcDbEntity
  8
250
  6
Continuous
100
AcDbBlockReference
  2
_Open
 10
117.249999999993
 20
-8.000000000000026
 30
0.0
 41
2.229999999999999
 42
2.229999999999999
 43
2.229999999999999
 50
270.0
  0
INSERT
  5
A36
330
A1D
100
AcDbEntity
  8
250
  6
Continuous
100
AcDbBlockReference
  2
_Open
 10
117.249999999993
 20
7.999999999999973
 30
0.0
 41
2.229999999999999
 42
2.229999999999999
 43
2.229999999999999
 50
90.0
  0
MTEXT
  5
A37
102
{ACAD_XDICTIONARY
360
C1D
102
}
330
A1D
100
AcDbEntity
  8
250
  6
Continuous
 62
    40
100
AcDbMText
 10
114.849999999993
 20
-0.0000000000000069
 30
0.0
 40
2.799999999999999
 41
0.0
 71
     5
 72
     1
  1
\A1;{\H2.8;\U+2205}16
 11
0.0000000000000001
 21
1.0
 31
0.0
 73
     1
 44
1.0
1001
ACAD
1000
MTEXTBEGIN
1070
    73
1070
     1
1070
    44
1040
1.0
1070
    74
1070
     0
1000
MTEXTEND
  0
POINT
  5
A38
330
A1D
100
AcDbEntity
  8
Defpoints
  6
Continuous
 62
     0
100
AcDbPoint
 10
98.99999999999307
 20
-8.000000000000021
 30
0.0
  0
POINT
  5
A39
330
A1D
100
AcDbEntity
  8
Defpoints
  6
Continuous
 62
     0
100
AcDbPoint
 10
98.99999999999307
 20
7.999999999999977
 30
0.0
  0
POINT
  5
A3A
330
A1D
100
AcDbEntity
  8
Defpoints
  6
Continuous
 62
     0
100
AcDbPoint
 10
117.249999999993
 20
7.999999999999973
 30
0.0
  0
ENDBLK
  5
A1F
330
A1D
100
AcDbEntity
  8
0
100
AcDbBlockEnd
  0
BLOCK
  5
AF4
330
AF3
100
AcDbEntity
  8
0
100
AcDbBlockBegin
  2
1
 70
     0
 10
0.0
 20
0.0
 30
0.0
  3
1
  1

  0
LINE
  5
AF6
330
AF3
100
AcDbEntity
  8
AM_7
100
AcDbLine
 10
-20.00000000000341
 20
8.63316716902279
 30
0.0
 11
-20.00000000000341
 21
5.941353813724397
 31
0.0
  0
LINE
  5
AF7
330
AF3
100
AcDbEntity
  8
AM_7
100
AcDbLine
 10
-33.99999999999977
 20
-6.999999999999992
 30
0.0
 11
-33.99999999999977
 21
6.999999999999609
 31
0.0
  0
LINE
  5
AF8
330
AF3
100
AcDbEntity
  8
240
100
AcDbLine
 10
-47.50000000000702
 20
-6.999999999999452
 30
0.0
 11
-47.50000000000705
 21
0.0000000000000071
 31
0.0
  0
LINE
  5
AF9
330
AF3
100
AcDbEntity
  8
240
100
AcDbLine
 10
-47.50000000000702
 20
6.999999999999495
 30
0.0
 11
-47.50000000000705
 21
0.0000000000000071
 31
0.0
  0
ARC
  5
AFA
330
AF3
100
AcDbEntity
  8
240
100
AcDbCircle
 10
-46.50000000000702
 20
6.999999999999495
 30
0.0
 40
1.0
100
AcDbArc
 50
90.00000000000161
 51
180.0
  0
LINE
  5
AFB
330
AF3
100
AcDbEntity
  8
240
100
AcDbLine
 10
-46.50000000000704
 20
7.999999999999495
 30
0.0
 11
-6.500000000001278
 21
8.000000000000518
 31
0.0
  0
LINE
  5
AFC
330
AF3
100
AcDbEntity
  8
AM_7
  6
PHANTOM2
100
AcDbLine
 10
-49.57659589909201
 20
0.0000000000000071
 30
0.0
 11
101.7432223667662
 21
-0.0000000000000213
 31
0.0
1001
GENIUS_GENOREF_13
1005
0
  0
LINE
  5
AFD
330
AF3
100
AcDbEntity
  8
241
100
AcDbLine
 10
-38.9999999999925
 20
5.291502622129151
 30
0.0
 11
-38.9999999999925
 21
-5.291502622129137
 31
0.0
  0
LINE
  5
AFE
330
AF3
100
AcDbEntity
  8
241
100
AcDbLine
 10
-38.9999999999925
 20
-5.291502622129137
 30
0.0
 11
-29.00000000000705
 21
-5.291502622129137
 31
0.0
  0
LINE
  5
AFF
330
AF3
100
AcDbEntity
  8
241
100
AcDbLine
 10
-29.00000000000705
 20
-5.291502622129137
 30
0.0
 11
-29.00000000000705
 21
5.291502622129151
 31
0.0
  0
LINE
  5
B00
330
AF3
100
AcDbEntity
  8
241
100
AcDbLine
 10
-29.00000000000705
 20
5.291502622129151
 30
0.0
 11
-38.9999999999925
 21
5.291502622129151
 31
0.0
  0
ARC
  5
B01
330
AF3
100
AcDbEntity
  8
241
100
AcDbCircle
 10
-32.99999999999125
 20
0.0000000000000071
 30
0.0
 40
8.000000000000996
100
AcDbArc
 50
138.590377890736
 51
169.6188960988396
  0
ARC
  5
B02
330
AF3
100
AcDbEntity
  8
241
100
AcDbCircle
 10
-35.00000000000841
 20
0.0000000000000071
 30
0.0
 40
8.000000000000996
100
AcDbArc
 50
318.590377890736
 51
41.40962210926401
  0
CIRCLE
  5
B03
330
AF3
100
AcDbEntity
  8
241
100
AcDbCircle
 10
-33.99999999999977
 20
-0.0000000000001634
 30
0.0
 40
4.499999999992724
  0
LINE
  5
B04
330
AF3
100
AcDbEntity
  8
241
100
AcDbLine
 10
-45.70000000000709
 20
7.999999999999438
 30
0.0
 11
-45.70000000000598
 21
1.441558035306833
 31
0.0
  0
LINE
  5
B05
330
AF3
100
AcDbEntity
  8
241
100
AcDbLine
 10
-43.63890360638629
 20
7.999999999999211
 30
0.0
 11
-43.63890360638629
 21
1.44155803530743
 31
0.0
  0
LINE
  5
B06
330
AF3
100
AcDbEntity
  8
241
100
AcDbLine
 10
-40.86904761903997
 20
1.44155803530743
 30
0.0
 11
-47.50000000000656
 21
1.441558035306293
 31
0.0
  0
LINE
  5
B07
330
AF3
100
AcDbEntity
  8
241
100
AcDbLine
 10
-40.86904761903997
 20
-1.441558035307416
 30
0.0
 11
-47.50000000000656
 21
-1.441558035308922
 31
0.0
  0
ARC
  5
B08
330
AF3
100
AcDbEntity
  8
241
100
AcDbCircle
 10
-43.49999999999193
 20
0.0000000000000071
 30
0.0
 40
2.999999999999344
100
AcDbArc
 50
331.2806732462342
 51
28.71932675376589
  0
ARC
  5
B09
330
AF3
100
AcDbEntity
  8
241
100
AcDbCircle
 10
-32.99999999999125
 20
0.0000000000000071
 30
0.0
 40
8.000000000000996
100
AcDbArc
 50
190.3811039011603
 51
221.409622109264
  0
LINE
  5
B0A
330
AF3
100
AcDbEntity
  8
241
100
AcDbLine
 10
-43.63890360638629
 20
-7.999999999999197
 30
0.0
 11
-43.63890360638629
 21
-1.441558035307359
 31
0.0
  0
LINE
  5
B0B
330
AF3
100
AcDbEntity
  8
241
100
AcDbLine
 10
-45.70000000000709
 20
-7.999999999999594
 30
0.0
 11
-45.70000000000615
 21
-1.441558035309434
 31
0.0
  0
LINE
  5
B0C
330
AF3
100
AcDbEntity
  8
241
100
AcDbLine
 10
-25.50000000000756
 20
8.000000000000092
 30
0.0
 11
-25.50000000000677
 21
-8.000000000000021
 31
0.0
  0
LINE
  5
B0D
330
AF3
100
AcDbEntity
  8
241
100
AcDbLine
 10
-23.50000000000131
 20
8.000000000000149
 30
0.0
 11
-23.50000000000085
 21
-8.000000000000078
 31
0.0
  0
LINE
  5
B0E
330
AF3
100
AcDbEntity
  8
241
100
AcDbLine
 10
-16.49999999999977
 20
8.000000000000291
 30
0.0
 11
-16.50000000000003
 21
-8.000000000000277
 31
0.0
  0
LINE
  5
B0F
330
AF3
100
AcDbEntity
  8
241
100
AcDbLine
 10
-14.49999999999977
 20
8.000000000000348
 30
0.0
 11
-14.50000000000023
 21
-8.000000000000333
 31
0.0
  0
LINE
  5
B10
330
AF3
100
AcDbEntity
  8
241
100
AcDbLine
 10
-10.99999999999977
 20
8.000000000000007
 30
0.0
 11
-11.00000000000008
 21
-8.000000000000447
 31
0.0
  0
ELLIPSE
  5
B11
330
AF3
100
AcDbEntity
  8
241
100
AcDbEllipse
 10
-20.00000000000341
 20
7.278827741715822
 30
0.0
 11
-2.0
 21
0.0
 31
0.0
210
0.0
220
0.0
230
1.0
 40
0.3420201433256835
 41
0.0
 42
6.283185307179586
  0
LINE
  5
B12
330
AF3
100
AcDbEntity
  8
AM_7
100
AcDbLine
 10
-22.5625275791964
 20
7.278827741715822
 30
0.0
 11
-17.32979991812328
 21
7.278827741715822
 31
0.0
  0
LINE
  5
B13
330
AF3
100
AcDbEntity
  8
240
100
AcDbLine
 10
-46.50000000000704
 20
-7.999999999999452
 30
0.0
 11
-6.500000000000881
 21
-8.000000000000561
 31
0.0
  0
ARC
  5
B14
330
AF3
100
AcDbEntity
  8
240
100
AcDbCircle
 10
-46.50000000000702
 20
-6.999999999999452
 30
0.0
 40
1.0
100
AcDbArc
 50
180.0
 51
269.9999999999984
  0
LINE
  5
B15
330
AF3
100
AcDbEntity
  8
241
100
AcDbLine
 10
-10.00000000000025
 20
3.399999999999894
 30
0.0
 11
-6.500000000001477
 21
3.399999999997625
 31
0.0
  0
LINE
  5
B16
330
AF3
100
AcDbEntity
  8
241
  6
Continuous
100
AcDbLine
 10
-10.00000000000025
 20
3.399999999999894
 30
0.0
 11
-9.999999999999751
 21
-3.400000000000241
 31
0.0
  0
LINE
  5
B17
330
AF3
100
AcDbEntity
  8
241
100
AcDbLine
 10
-9.500000000000227
 20
3.3999999999997
 30
0.0
 11
-9.500000000000312
 21
8.000000000000461
 31
0.0
  0
LINE
  5
B18
330
AF3
100
AcDbEntity
  8
241
100
AcDbLine
 10
-9.500000000000909
 20
-3.400000000000481
 30
0.0
 11
-9.50000000000108
 21
-8.000000000000476
 31
0.0
  0
LINE
  5
B19
330
AF3
100
AcDbEntity
  8
241
100
AcDbLine
 10
-9.999999999999751
 20
-3.400000000000241
 30
0.0
 11
-6.500000000001449
 21
-3.400000000003039
 31
0.0
  0
LINE
  5
B1A
330
AF3
100
AcDbEntity
  8
240
100
AcDbLine
 10
-6.500000000000881
 20
-8.000000000000561
 30
0.0
 11
-6.500000000001534
 21
-10.50313367013358
 31
0.0
  0
LINE
  5
B1B
330
AF3
100
AcDbEntity
  8
240
100
AcDbLine
 10
-6.500000000001278
 20
8.000000000000518
 30
0.0
 11
-6.500000000001591
 21
10.50313367013365
 31
0.0
  0
LINE
  5
B1C
330
AF3
100
AcDbEntity
  8
241
  6
Continuous
100
AcDbLine
 10
-2.000000000000028
 20
10.99999999999478
 30
0.0
 11
-1.999999999999772
 21
-10.9999999999936
 31
0.0
  0
LINE
  5
B1D
330
AF3
100
AcDbEntity
  8
241
  6
Continuous
100
AcDbLine
 10
-4.000000000000369
 20
10.99999999999813
 30
0.0
 11
-4.00000000000287
 21
-10.99999999999698
 31
0.0
  0
LINE
  5
B1E
330
AF3
100
AcDbEntity
  8
241
100
AcDbLine
 10
-5.126261290273021
 20
10.98433164933073
 30
0.0
 11
-5.126261290273077
 21
-10.99999999999885
 31
0.0
  0
ARC
  5
B1F
330
AF3
100
AcDbEntity
  8
240
100
AcDbCircle
 10
-6.535265396141767
 20
10.69999999999999
 30
0.0
 40
0.2
100
AcDbArc
 50
280.155889433858
 51
290.0000000000068
1001
GENIUS_GENODEF_13
1002
{
1000
HIER
1070
     0
1002
}
1002
{
1000
MANEDIT
1070
     0
1002
}
1002
{
1000
NOSEL
1070
     0
1002
}
1002
{
1000
BEHIND
1070
     0
1002
}
1002
{
1000
OTHER
1070
     0
1002
}
1002
{
1000
REACTOR
1002
}
1001
GENIUS_GENOBJ-N-FIL_13
1002
{
1000
OWNER
1000
GEN
1002
}
  0
LINE
  5
B20
330
AF3
100
AcDbEntity
  8
240
100
AcDbLine
 10
-6.46686136747661
 20
10.51206147584293
 30
0.0
 11
-5.291954452890252
 21
10.93969262078583
 31
0.0
  0
ARC
  5
B21
330
AF3
100
AcDbEntity
  8
240
100
AcDbCircle
 10
-4.949934309564582
 20
9.99999999999995
 30
0.0
 40
1.0
100
AcDbArc
 50
90.0
 51
110.0000000000001
1001
GENIUS_GENODEF_13
1002
{
1000
HIER
1070
     0
1002
}
1002
{
1000
MANEDIT
1070
     0
1002
}
1002
{
1000
NOSEL
1070
     0
1002
}
1002
{
1000
BEHIND
1070
     0
1002
}
1002
{
1000
OTHER
1070
     0
1002
}
1002
{
1000
REACTOR
1002
}
1001
GENIUS_GENOBJ-N-FIL_13
1002
{
1000
OWNER
1000
GEN
1002
}
  0
LINE
  5
B22
330
AF3
100
AcDbEntity
  8
240
100
AcDbLine
 10
-0.7673269879755935
 20
10.9999999999929
 30
0.0
 11
-4.949934309564582
 21
10.99999999999995
 31
0.0
  0
LINE
  5
B23
330
AF3
100
AcDbEntity
  8
240
100
AcDbLine
 10
79.99999999999068
 20
-8.000000000003602
 30
0.0
 11
1.571174565271121
 21
-8.000000000003602
 31
0.0
  0
LINE
  5
B24
330
AF3
100
AcDbEntity
  8
240
100
AcDbLine
 10
79.99999999999875
 20
8.000000000003446
 30
0.0
 11
1.571174565271093
 21
8.000000000002508
 31
0.0
  0
ARC
  5
B25
330
AF3
100
AcDbEntity
  8
240
100
AcDbCircle
 10
1.571174565271093
 20
9.000000000002508
 30
0.0
 40
1.0
100
AcDbArc
 50
194.9999999999877
 51
270.0
  0
LINE
  5
B26
330
AF3
100
AcDbEntity
  8
240
100
AcDbLine
 10
0.1985988383118524
 20
10.25881904509521
 30
0.0
 11
0.6052487389819703
 21
8.741180954900194
 31
0.0
  0
ARC
  5
B27
330
AF3
100
AcDbEntity
  8
240
100
AcDbCircle
 10
-0.7673269879772704
 20
9.999999999992901
 30
0.0
 40
1.0
100
AcDbArc
 50
14.9999999999894
 51
89.99999999990391
  0
LINE
  5
B28
330
AF3
100
AcDbEntity
  8
241
100
AcDbLine
 10
0.0
 20
10.64125602805627
 30
0.0
 11
0.0
 21
-10.64125602805114
 31
0.0
  0
LINE
  5
B29
330
AF3
100
AcDbEntity
  8
241
100
AcDbLine
 10
0.8306424965358019
 20
8.258743971943268
 30
0.0
 11
0.8306424965358019
 21
-8.327978977135209
 31
0.0
  0
LINE
  5
B2A
330
AF3
100
AcDbEntity
  8
241
  6
Continuous
370
    -3
100
AcDbLine
 10
-6.500000000001421
 20
8.000000000000518
 30
0.0
 11
-6.500000000001335
 21
-8.000000000000504
 31
0.0
  0
LINE
  5
B2B
330
AF3
100
AcDbEntity
  8
240
100
AcDbLine
 10
-6.50000000000125
 20
-8.000000000000532
 30
0.0
 11
-6.500000000001563
 21
-10.50313367013364
 31
0.0
  0
ARC
  5
B2C
330
AF3
100
AcDbEntity
  8
240
100
AcDbCircle
 10
-6.535265396141738
 20
-10.69999999999998
 30
0.0
 40
0.2
100
AcDbArc
 50
69.99999999999314
 51
79.84411056614198
1001
GENIUS_GENODEF_13
1002
{
1000
HIER
1070
     0
1002
}
1002
{
1000
MANEDIT
1070
     0
1002
}
1002
{
1000
NOSEL
1070
     0
1002
}
1002
{
1000
BEHIND
1070
     0
1002
}
1002
{
1000
OTHER
1070
     0
1002
}
1002
{
1000
REACTOR
1002
}
1001
GENIUS_GENOBJ-N-FIL_13
1002
{
1000
OWNER
1000
GEN
1002
}
  0
LINE
  5
B2D
330
AF3
100
AcDbEntity
  8
240
100
AcDbLine
 10
-6.466861367476582
 20
-10.51206147584292
 30
0.0
 11
-5.291954452890223
 21
-10.93969262078581
 31
0.0
  0
ARC
  5
B2E
330
AF3
100
AcDbEntity
  8
240
100
AcDbCircle
 10
-4.949934309564554
 20
-9.999999999999936
 30
0.0
 40
1.0
100
AcDbArc
 50
250.0000000000014
 51
270.0
1001
GENIUS_GENODEF_13
1002
{
1000
HIER
1070
     0
1002
}
1002
{
1000
MANEDIT
1070
     0
1002
}
1002
{
1000
NOSEL
1070
     0
1002
}
1002
{
1000
BEHIND
1070
     0
1002
}
1002
{
1000
OTHER
1070
     0
1002
}
1002
{
1000
REACTOR
1002
}
1001
GENIUS_GENOBJ-N-FIL_13
1002
{
1000
OWNER
1000
GEN
1002
}
  0
LINE
  5
B2F
330
AF3
100
AcDbEntity
  8
240
100
AcDbLine
 10
-0.7673269879755651
 20
-10.99999999999289
 30
0.0
 11
-4.949934309564554
 21
-10.99999999999993
 31
0.0
  0
ARC
  5
B30
330
AF3
100
AcDbEntity
  8
240
100
AcDbCircle
 10
1.571174565271121
 20
-9.000000000002522
 30
0.0
 40
1.0
100
AcDbArc
 50
90.0
 51
165.0000000000123
  0
LINE
  5
B31
330
AF3
100
AcDbEntity
  8
240
100
AcDbLine
 10
0.1985988383118808
 20
-10.2588190450952
 30
0.0
 11
0.6052487389819988
 21
-8.741180954900208
 31
0.0
  0
ARC
  5
B32
330
AF3
100
AcDbEntity
  8
240
100
AcDbCircle
 10
-0.767326987977242
 20
-9.999999999992887
 30
0.0
 40
1.0
100
AcDbArc
 50
270.0000000000961
 51
345.0000000000123
  0
LINE
  5
B33
330
AF3
100
AcDbEntity
  8
241
100
AcDbLine
 10
79.99999999999307
 20
-6.200000000000009
 30
0.0
 11
79.99999999999307
 21
-0.0000000000000213
 31
0.0
  0
LINE
  5
B34
330
AF3
100
AcDbEntity
  8
241
100
AcDbLine
 10
80.99999999999306
 20
-6.200000000000009
 30
0.0
 11
80.99999999999306
 21
-0.0000000000000213
 31
0.0
  0
LINE
  5
B35
330
AF3
100
AcDbEntity
  8
241
100
AcDbLine
 10
82.99999999999306
 20
-8.150000000000027
 30
0.0
 11
82.99999999999306
 21
-0.0000000000000213
 31
0.0
  0
LINE
  5
B36
330
AF3
100
AcDbEntity
  8
241
100
AcDbLine
 10
84.19999999999305
 20
-8.000000000000021
 30
0.0
 11
84.19999999999305
 21
-0.0000000000000213
 31
0.0
  0
LINE
  5
B37
330
AF3
100
AcDbEntity
  8
240
100
AcDbLine
 10
99.99999999999307
 20
-7.000000000000021
 30
0.0
 11
99.99999999999307
 21
-0.0000000000000213
 31
0.0
  0
LINE
  5
B38
330
AF3
100
AcDbEntity
  8
240
100
AcDbLine
 10
83.14999999999304
 20
-8.000000000000021
 30
0.0
 11
98.99999999999307
 21
-8.000000000000021
 31
0.0
  0
LINE
  5
B39
330
AF3
100
AcDbEntity
  8
240
100
AcDbLine
 10
80.99999999999306
 20
-6.200000000000009
 30
0.0
 11
80.99999999999306
 21
-8.150000000000027
 31
0.0
  0
LINE
  5
B3A
330
AF3
100
AcDbEntity
  8
240
100
AcDbLine
 10
79.99999999999307
 20
-6.200000000000009
 30
0.0
 11
79.99999999999068
 21
-8.000000000003602
 31
0.0
  0
LINE
  5
B3B
330
AF3
100
AcDbEntity
  8
240
100
AcDbLine
 10
83.14999999999304
 20
-8.000000000000021
 30
0.0
 11
82.99999999999306
 21
-8.150000000000027
 31
0.0
  0
LINE
  5
B3C
330
AF3
100
AcDbEntity
  8
240
100
AcDbLine
 10
80.99999999999306
 20
-8.150000000000027
 30
0.0
 11
82.99999999999306
 21
-8.150000000000027
 31
0.0
  0
LINE
  5
B3D
330
AF3
100
AcDbEntity
  8
240
100
AcDbLine
 10
80.99999999999306
 20
-6.200000000000009
 30
0.0
 11
79.99999999999307
 21
-6.200000000000009
 31
0.0
  0
ARC
  5
B3E
330
AF3
100
AcDbEntity
  8
240
100
AcDbCircle
 10
98.99999999999307
 20
-7.000000000000021
 30
0.0
 40
1.0
100
AcDbArc
 50
270.0
 51
0.0
1001
GENIUS_GENODEF_13
1002
{
1000
HIER
1070
     0
1002
}
1002
{
1000
MANEDIT
1070
     0
1002
}
1002
{
1000
NOSEL
1070
     0
1002
}
1002
{
1000
BEHIND
1070
     0
1002
}
1002
{
1000
OTHER
1070
     0
1002
}
1002
{
1000
REACTOR
1002
}
1001
GENIUS_GENOBJ-N-FIL_13
1002
{
1000
OWNER
1000
GEN
1002
}
  0
LINE
  5
B3F
330
AF3
100
AcDbEntity
  8
240
100
AcDbLine
 10
83.14999999999304
 20
7.999999999999978
 30
0.0
 11
98.99999999999307
 21
7.999999999999978
 31
0.0
  0
LINE
  5
B40
330
AF3
100
AcDbEntity
  8
241
  6
HIDDEN2
100
AcDbLine
 10
88.99999999999307
 20
2.249999999999978
 30
0.0
 11
99.99999999999307
 21
2.249999999999978
 31
0.0
  0
LINE
  5
B41
330
AF3
100
AcDbEntity
  8
241
  6
HIDDEN2
100
AcDbLine
 10
84.99999999999307
 20
2.54999999999999
 30
0.0
 11
88.99999999999307
 21
2.54999999999999
 31
0.0
1001
GRPNAME
1000
0000002S
  0
LINE
  5
B42
330
AF3
100
AcDbEntity
  8
241
100
AcDbLine
 10
84.19999999999305
 20
7.999999999999978
 30
0.0
 11
84.19999999999305
 21
-0.0000000000000213
 31
0.0
  0
LINE
  5
B43
330
AF3
100
AcDbEntity
  8
241
100
AcDbLine
 10
82.99999999999306
 20
8.149999999999984
 30
0.0
 11
82.99999999999306
 21
-0.0000000000000213
 31
0.0
  0
LINE
  5
B44
330
AF3
100
AcDbEntity
  8
241
100
AcDbLine
 10
80.99999999999306
 20
6.199999999999967
 30
0.0
 11
80.99999999999306
 21
-0.0000000000000213
 31
0.0
  0
LINE
  5
B45
330
AF3
100
AcDbEntity
  8
241
100
AcDbLine
 10
79.99999999999307
 20
6.199999999999967
 30
0.0
 11
79.99999999999307
 21
-0.0000000000000213
 31
0.0
  0
LINE
  5
B46
330
AF3
100
AcDbEntity
  8
241
  6
HIDDEN2
100
AcDbLine
 10
80.99999999999306
 20
2.54999999999999
 30
0.0
 11
80.99999999999306
 21
-0.0000000000000213
 31
0.0
  0
LINE
  5
B47
330
AF3
100
AcDbEntity
  8
241
  6
HIDDEN2
100
AcDbLine
 10
80.99999999999306
 20
2.474873729999991
 30
0.0
 11
84.99999999999307
 21
2.474873729999991
 31
0.0
  0
LINE
  5
B48
330
AF3
100
AcDbEntity
  8
241
  6
HIDDEN2
100
AcDbLine
 10
84.99999999999307
 20
2.54999999999999
 30
0.0
 11
84.99999999999307
 21
-0.0000000000000213
 31
0.0
  0
LINE
  5
B49
330
AF3
100
AcDbEntity
  8
242
100
AcDbLine
 10
84.99999999999307
 20
-0.0000000000000213
 30
0.0
 11
80.99999999999306
 21
2.474873729999991
 31
0.0
  0
LINE
  5
B4A
330
AF3
100
AcDbEntity
  8
242
100
AcDbLine
 10
84.99999999999307
 20
2.474873729999991
 30
0.0
 11
80.99999999999306
 21
-0.0000000000000213
 31
0.0
  0
LINE
  5
B4B
330
AF3
100
AcDbEntity
  8
240
100
AcDbLine
 10
80.99999999999306
 20
6.199999999999967
 30
0.0
 11
79.99999999999307
 21
6.199999999999967
 31
0.0
  0
LINE
  5
B4C
330
AF3
100
AcDbEntity
  8
240
100
AcDbLine
 10
79.99999999999307
 20
6.199999999999967
 30
0.0
 11
79.99999999999875
 21
8.000000000003446
 31
0.0
  0
LINE
  5
B4D
330
AF3
100
AcDbEntity
  8
240
100
AcDbLine
 10
83.14999999999304
 20
7.999999999999978
 30
0.0
 11
82.99999999999306
 21
8.149999999999984
 31
0.0
  0
LINE
  5
B4E
330
AF3
100
AcDbEntity
  8
240
100
AcDbLine
 10
80.99999999999306
 20
6.199999999999967
 30
0.0
 11
80.99999999999306
 21
8.149999999999984
 31
0.0
  0
LINE
  5
B4F
330
AF3
100
AcDbEntity
  8
240
100
AcDbLine
 10
80.99999999999306
 20
8.149999999999984
 30
0.0
 11
82.99999999999306
 21
8.149999999999984
 31
0.0
  0
LINE
  5
B50
330
AF3
100
AcDbEntity
  8
241
  6
HIDDEN2
100
AcDbLine
 10
88.99999999999307
 20
2.54999999999999
 30
0.0
 11
88.99999999999307
 21
-0.0000000000000213
 31
0.0
  0
LINE
  5
B51
330
AF3
100
AcDbEntity
  8
240
100
AcDbLine
 10
99.99999999999307
 20
6.999999999999978
 30
0.0
 11
99.99999999999307
 21
-0.0000000000000213
 31
0.0
  0
ARC
  5
B52
330
AF3
100
AcDbEntity
  8
240
100
AcDbCircle
 10
98.99999999999307
 20
6.999999999999978
 30
0.0
 40
1.0
100
AcDbArc
 50
359.9999824000004
 51
90.0
1001
GENIUS_GENODEF_13
1002
{
1000
HIER
1070
     0
1002
}
1002
{
1000
MANEDIT
1070
     0
1002
}
1002
{
1000
NOSEL
1070
     0
1002
}
1002
{
1000
BEHIND
1070
     0
1002
}
1002
{
1000
OTHER
1070
     0
1002
}
1002
{
1000
REACTOR
1002
}
1001
GENIUS_GENOBJ-N-FIL_13
1002
{
1000
OWNER
1000
GEN
1002
}
  0
TEXT
  5
B53
330
AF3
100
AcDbEntity
  8
241
100
AcDbText
 10
-47.50000000000705
 20
35.00000000000001
 30
0.0
 40
5.0
  1
MGT6-045034-100
  7
YOKO
 11
-47.50000000000705
 21
35.00000000000001
 31
0.0
100
AcDbText
 73
     1
  0
TEXT
  5
B54
330
AF3
100
AcDbEntity
  8
0
100
AcDbText
 10
25.7694495065358
 20
2.36291817
 30
0.0
 40
2.879999999999999
  1
MGT6-045034-100
  7
YOKO
100
AcDbText
  0
ARC
  5
B55
330
AF3
100
AcDbEntity
  8
0
100
AcDbCircle
 10
21.4305857565358
 20
4.923399920000001
 30
0.0
 40
0.3872005713500977
100
AcDbArc
 50
1.710121379999818
 51
163.99839835
  0
ARC
  5
B56
330
AF3
100
AcDbEntity
  8
0
100
AcDbCircle
 10
20.93360265653581
 20
3.190237860000003
 30
0.0
 40
0.3872002994384767
100
AcDbArc
 50
164.00027306
 51
344.00027306
  0
LINE
  5
B57
330
AF3
100
AcDbEntity
  8
0
100
AcDbLine
 10
20.9399125265358
 20
1.844256639999997
 30
0.0
 11
21.3086751465358
 21
2.213019260000002
 31
0.0
  0
LINE
  5
B58
330
AF3
100
AcDbEntity
  8
0
100
AcDbLine
 10
20.7042623865358
 20
2.427950700000003
 30
0.0
 11
21.1371957465358
 21
2.860884050000002
 31
0.0
  0
ARC
  5
B59
330
AF3
100
AcDbEntity
  8
0
100
AcDbCircle
 10
22.8772634765358
 20
3.780246929999997
 30
0.0
 40
1.935989859374998
100
AcDbArc
 50
270.0
 51
104.7707939699999
  0
ARC
  5
B5A
330
AF3
100
AcDbEntity
  8
0
100
AcDbCircle
 10
21.2375450265358
 20
4.517772180000001
 30
0.0
 40
1.198466349609373
100
AcDbArc
 50
53.44401220000015
 51
164.00018439
  0
LINE
  5
B5B
330
AF3
100
AcDbEntity
  8
0
100
AcDbLine
 10
19.9697414565358
 20
4.561134469999998
 30
0.0
 11
21.1189647065358
 21
5.710357719999997
 31
0.0
  0
LINE
  5
B5C
330
AF3
100
AcDbEntity
  8
0
100
AcDbLine
 10
19.8337332565358
 20
4.015454169999998
 30
0.0
 11
21.5044248165358
 21
5.686145729999999
 31
0.0
  0
LINE
  5
B5D
330
AF3
100
AcDbEntity
  8
0
100
AcDbLine
 10
15.3914295165358
 20
1.844256639999997
 30
0.0
 11
22.8772634765358
 21
1.844256639999997
 31
0.0
  0
LINE
  5
B5E
330
AF3
100
AcDbEntity
  8
0
100
AcDbLine
 10
15.3914295165358
 20
2.213019260000002
 30
0.0
 11
22.8772634765358
 21
2.213019260000002
 31
0.0
  0
ARC
  5
B5F
330
AF3
100
AcDbEntity
  8
0
100
AcDbCircle
 10
20.97319647653581
 20
3.595865619999997
 30
0.0
 40
1.198478531249999
100
AcDbArc
 50
163.9997507
 51
304.9638732899998
  0
LINE
  5
B60
330
AF3
100
AcDbEntity
  8
0
100
AcDbLine
 10
20.5614013365358
 20
3.296962960000001
 30
0.0
 11
21.0583844265358
 21
5.03013894
 31
0.0
  0
LINE
  5
B61
330
AF3
100
AcDbEntity
  8
0
100
AcDbLine
 10
13.5132183265358
 20
4.249692850000002
 30
0.0
 11
14.9219835965358
 21
5.658458109999997
 31
0.0
  0
ARC
  5
B62
330
AF3
100
AcDbEntity
  8
0
100
AcDbCircle
 10
15.3914295165358
 20
3.780246929999997
 30
0.0
 40
1.935989859374998
100
AcDbArc
 50
90.0
 51
270.0
  0
ARC
  5
B63
330
AF3
100
AcDbEntity
  8
0
100
AcDbCircle
 10
15.3914295165358
 20
3.780246929999997
 30
0.0
 40
1.567227234374995
100
AcDbArc
 50
90.0
 51
270.0
  0
LINE
  5
B64
330
AF3
100
AcDbEntity
  8
0
100
AcDbLine
 10
15.5849296665358
 20
2.397400570000002
 30
0.0
 11
16.4308506265358
 21
5.347474169999998
 31
0.0
  0
ARC
  5
B65
330
AF3
100
AcDbEntity
  8
0
100
AcDbCircle
 10
17.1267773165358
 20
4.831209270000002
 30
0.0
 40
0.5531284929199223
100
AcDbArc
 50
261.66260169
 51
66.33815509999997
  0
LINE
  5
B66
330
AF3
100
AcDbEntity
  8
0
100
AcDbLine
 10
16.1742859665358
 20
4.452727889999998
 30
0.0
 11
17.4377948665358
 21
5.716236790000003
 31
0.0
  0
LINE
  5
B67
330
AF3
100
AcDbEntity
  8
0
100
AcDbLine
 10
17.3487702265358
 20
5.33783563
 30
0.0
 11
17.0465734065358
 21
4.283926469999997
 31
0.0
  0
ARC
  5
B68
330
AF3
100
AcDbEntity
  8
0
100
AcDbCircle
 10
17.5381826465358
 20
4.794344139999999
 30
0.0
 40
0.9219004716796876
100
AcDbArc
 50
287.66957755
 51
90.23615983999999
  0
LINE
  5
B69
330
AF3
100
AcDbEntity
  8
0
100
AcDbLine
 10
18.7325327865358
 20
4.14326999
 30
0.0
 11
19.8888961665358
 21
5.299633380000003
 31
0.0
  0
LINE
  5
B6A
330
AF3
100
AcDbEntity
  8
0
100
AcDbLine
 10
19.0672639365358
 20
5.310609030000001
 30
0.0
 11
18.2319096765358
 21
2.397400570000002
 31
0.0
  0
LINE
  5
B6B
330
AF3
100
AcDbEntity
  8
0
100
AcDbLine
 10
19.0672639365358
 20
5.310609030000001
 30
0.0
 11
18.2319096765358
 21
2.397400570000002
 31
0.0
1001
HATCH_DISTANCE
1040
1.0
1001
HATCH_DISPLAY
1070
     0
1001
HATCH_TYPE
1070
     7
  0
LINE
  5
B6C
330
AF3
100
AcDbEntity
  8
0
100
AcDbLine
 10
18.2319096765358
 20
2.397400570000002
 30
0.0
 11
19.0672639365358
 21
5.310609030000001
 31
0.0
  0
LINE
  5
B6D
330
AF3
100
AcDbEntity
  8
0
100
AcDbLine
 10
17.1011993465358
 20
3.74095286
 30
0.0
 11
18.4208085465358
 21
5.060562069999996
 31
0.0
  0
LINE
  5
B6E
330
AF3
100
AcDbEntity
  8
0
100
AcDbLine
 10
17.2442037965358
 20
3.474285219999998
 30
0.0
 11
18.4533919965358
 21
4.683473409999997
 31
0.0
  0
LINE
  5
B6F
330
AF3
100
AcDbEntity
  8
0
100
AcDbLine
 10
15.8448894965358
 20
3.303987210000002
 30
0.0
 11
17.1357172565358
 21
4.594814970000001
 31
0.0
  0
LINE
  5
B70
330
AF3
100
AcDbEntity
  8
0
100
AcDbLine
 10
16.0095877265358
 20
3.878357549999996
 30
0.0
 11
17.3004100465358
 21
5.16917987
 31
0.0
  0
LINE
  5
B71
330
AF3
100
AcDbEntity
  8
0
100
AcDbLine
 10
18.5678333865358
 20
3.568898500000003
 30
0.0
 11
19.7241990165358
 21
4.725264129999999
 31
0.0
  0
LINE
  5
B72
330
AF3
100
AcDbEntity
  8
0
100
AcDbLine
 10
19.0566972365358
 20
2.397400570000002
 30
0.0
 11
20.0083548465358
 21
5.716236790000003
 31
0.0
  0
LINE
  5
B73
330
AF3
100
AcDbEntity
  8
0
100
AcDbLine
 10
19.0566972365358
 20
2.397400570000002
 30
0.0
 11
20.0083548465358
 21
5.716236790000003
 31
0.0
1001
HATCH_DISTANCE
1040
1.0
1001
HATCH_DISPLAY
1070
     0
1001
HATCH_TYPE
1070
     7
  0
LINE
  5
B74
330
AF3
100
AcDbEntity
  8
0
100
AcDbLine
 10
19.0566972365358
 20
2.397400570000002
 30
0.0
 11
20.0083548465358
 21
5.716236790000003
 31
0.0
  0
ARC
  5
B75
330
AF3
100
AcDbEntity
  8
0
100
AcDbCircle
 10
22.9326446865358
 20
3.532855210000001
 30
0.0
 40
3.136264312499998
100
AcDbArc
 50
155.2051773699997
 51
172.79482596
  0
LINE
  5
B76
330
AF3
100
AcDbEntity
  8
0
100
AcDbLine
 10
19.7756848465358
 20
3.547733659999998
 30
0.0
 11
20.9780973165358
 21
4.750146129999997
 31
0.0
  0
LINE
  5
B77
330
AF3
100
AcDbEntity
  8
0
100
AcDbLine
 10
16.4335194265358
 20
1.844256639999997
 30
0.0
 11
16.8022820465358
 21
2.213019260000002
 31
0.0
  0
LINE
  5
B78
330
AF3
100
AcDbEntity
  8
0
100
AcDbLine
 10
15.6801912665358
 20
2.729616880000001
 30
0.0
 11
17.2404645765358
 21
4.289890200000002
 31
0.0
  0
LINE
  5
B79
330
AF3
100
AcDbEntity
  8
0
100
AcDbLine
 10
15.7576470565358
 20
2.397400570000002
 30
0.0
 11
16.8063198165358
 21
3.446073329999997
 31
0.0
  0
LINE
  5
B7A
330
AF3
100
AcDbEntity
  8
0
100
AcDbLine
 10
15.5849296665358
 20
2.397400570000002
 30
0.0
 11
17.1152221665358
 21
2.397400570000002
 31
0.0
  0
LINE
  5
B7B
330
AF3
100
AcDbEntity
  8
0
100
AcDbLine
 10
16.1673191565358
 20
2.397400570000002
 30
0.0
 11
16.6416300765358
 21
2.871711480000001
 31
0.0
  0
LINE
  5
B7C
330
AF3
100
AcDbEntity
  8
0
100
AcDbLine
 10
15.6141752265358
 20
1.844256639999997
 30
0.0
 11
15.9829378465358
 21
2.213019260000002
 31
0.0
  0
LINE
  5
B7D
330
AF3
100
AcDbEntity
  8
0
100
AcDbLine
 10
16.0238473265358
 20
1.844256639999997
 30
0.0
 11
16.3926099365358
 21
2.213019260000002
 31
0.0
  0
LINE
  5
B7E
330
AF3
100
AcDbEntity
  8
0
100
AcDbLine
 10
13.4914503365358
 20
3.408580649999997
 30
0.0
 11
13.8246738465358
 21
3.74180416
 31
0.0
  0
LINE
  5
B7F
330
AF3
100
AcDbEntity
  8
0
100
AcDbLine
 10
13.5826335965358
 20
3.090091819999997
 30
0.0
 11
13.8754162265358
 21
3.382874440000001
 31
0.0
  0
LINE
  5
B80
330
AF3
100
AcDbEntity
  8
0
100
AcDbLine
 10
13.4554406865358
 20
3.782243100000002
 30
0.0
 11
13.8847064865358
 21
4.211508899999998
 31
0.0
  0
LINE
  5
B81
330
AF3
100
AcDbEntity
  8
0
100
AcDbLine
 10
13.7146860365358
 20
2.812472149999997
 30
0.0
 11
13.9869730565358
 21
3.084759169999998
 31
0.0
  0
LINE
  5
B82
330
AF3
100
AcDbEntity
  8
0
100
AcDbLine
 10
14.0787785765358
 20
2.357220490000003
 30
0.0
 11
14.3397952765358
 21
2.618237190000002
 31
0.0
  0
LINE
  5
B83
330
AF3
100
AcDbEntity
  8
0
100
AcDbLine
 10
13.8810337165358
 20
2.569147739999998
 30
0.0
 11
14.1437347765358
 21
2.831848790000002
 31
0.0
  0
LINE
  5
B84
330
AF3
100
AcDbEntity
  8
0
100
AcDbLine
 10
14.3074235565358
 20
2.17619337
 30
0.0
 11
14.5741937265358
 21
2.44296354
 31
0.0
  0
LINE
  5
B85
330
AF3
100
AcDbEntity
  8
0
100
AcDbLine
 10
14.5686816265358
 20
2.027779340000002
 30
0.0
 11
14.8503043065358
 21
2.30940202
 31
0.0
  0
LINE
  5
B86
330
AF3
100
AcDbEntity
  8
0
100
AcDbLine
 10
14.8671673865358
 20
1.916592999999998
 30
0.0
 11
15.1781712765358
 21
2.22759689
 31
0.0
  0
LINE
  5
B87
330
AF3
100
AcDbEntity
  8
0
100
AcDbLine
 10
15.2127652665358
 20
1.852518779999996
 30
0.0
 11
15.5732657365358
 21
2.213019260000002
 31
0.0
  0
LINE
  5
B88
330
AF3
100
AcDbEntity
  8
0
100
AcDbLine
 10
20.5302404265358
 20
1.844256639999997
 30
0.0
 11
20.8990030365358
 21
2.213019260000002
 31
0.0
  0
LINE
  5
B89
330
AF3
100
AcDbEntity
  8
0
100
AcDbLine
 10
20.4064818365358
 20
2.539842270000001
 30
0.0
 11
20.7284763665358
 21
2.861836779999997
 31
0.0
  0
LINE
  5
B8A
330
AF3
100
AcDbEntity
  8
0
100
AcDbLine
 10
20.1664984465358
 20
2.709530970000002
 30
0.0
 11
20.55704551653581
 21
3.100078039999999
 31
0.0
  0
LINE
  5
B8B
330
AF3
100
AcDbEntity
  8
0
100
AcDbLine
 10
20.12056832653581
 20
1.844256639999997
 30
0.0
 11
20.4893309465358
 21
2.213019260000002
 31
0.0
  0
LINE
  5
B8C
330
AF3
100
AcDbEntity
  8
0
100
AcDbLine
 10
18.0722078265358
 20
1.844256639999997
 30
0.0
 11
18.4409704465358
 21
2.213019260000002
 31
0.0
  0
LINE
  5
B8D
330
AF3
100
AcDbEntity
  8
0
100
AcDbLine
 10
18.2319096765358
 20
2.397400570000002
 30
0.0
 11
19.0566972365358
 21
2.397400570000002
 31
0.0
  0
LINE
  5
B8E
330
AF3
100
AcDbEntity
  8
0
100
AcDbLine
 10
18.2319096765358
 20
2.397400570000002
 30
0.0
 11
19.0566972365358
 21
2.397400570000002
 31
0.0
1001
HATCH_DISTANCE
1040
1.0
1001
HATCH_DISPLAY
1070
     0
1001
HATCH_TYPE
1070
     7
  0
LINE
  5
B8F
330
AF3
100
AcDbEntity
  8
0
100
AcDbLine
 10
18.2319096765358
 20
2.397400570000002
 30
0.0
 11
19.0566972365358
 21
2.397400570000002
 31
0.0
  0
LINE
  5
B90
330
AF3
100
AcDbEntity
  8
0
100
AcDbLine
 10
18.2384345965358
 20
2.420155499999999
 30
0.0
 11
19.3948047165358
 21
3.576525629999999
 31
0.0
  0
LINE
  5
B91
330
AF3
100
AcDbEntity
  8
0
100
AcDbLine
 10
17.2528636265358
 20
1.844256639999997
 30
0.0
 11
17.6216262465358
 21
2.213019260000002
 31
0.0
  0
LINE
  5
B92
330
AF3
100
AcDbEntity
  8
0
100
AcDbLine
 10
17.6625357165358
 20
1.844256639999997
 30
0.0
 11
18.0312983365358
 21
2.213019260000002
 31
0.0
  0
LINE
  5
B93
330
AF3
100
AcDbEntity
  8
0
100
AcDbLine
 10
17.4654546965358
 20
2.4665198
 30
0.0
 11
17.9679959965358
 21
2.969061119999999
 31
0.0
  0
LINE
  5
B94
330
AF3
100
AcDbEntity
  8
0
100
AcDbLine
 10
16.9866633565358
 20
2.397400570000002
 30
0.0
 11
18.0291882465358
 21
3.439925459999997
 31
0.0
  0
LINE
  5
B95
330
AF3
100
AcDbEntity
  8
0
100
AcDbLine
 10
16.5769912465358
 20
2.397400570000002
 30
0.0
 11
17.9300651665358
 21
3.750474490000001
 31
0.0
  0
ARC
  5
B96
330
AF3
100
AcDbEntity
  8
0
100
AcDbCircle
 10
16.7038168365358
 20
3.356172690000001
 30
0.0
 40
0.5531443181762698
100
AcDbArc
 50
261.66285421
 51
66.33819216000003
  0
ARC
  5
B97
330
AF3
100
AcDbEntity
  8
0
100
AcDbCircle
 10
17.1152221665358
 20
3.319293639999997
 30
0.0
 40
0.9218926406250002
100
AcDbArc
 50
270.0
 51
40.32984064999992
  0
LINE
  5
B98
330
AF3
100
AcDbEntity
  8
0
100
AcDbLine
 10
16.9258141465358
 20
3.862814409999998
 30
0.0
 11
16.6236123565358
 21
2.808873980000001
 31
0.0
  0
LINE
  5
B99
330
AF3
100
AcDbEntity
  8
0
100
AcDbLine
 10
16.8431915265358
 20
1.844256639999997
 30
0.0
 11
17.2119541365358
 21
2.213019260000002
 31
0.0
  0
LINE
  5
B9A
330
AF3
100
AcDbEntity
  8
0
100
AcDbLine
 10
18.4818799165358
 20
1.844256639999997
 30
0.0
 11
18.8506425365358
 21
2.213019260000002
 31
0.0
  0
LINE
  5
B9B
330
AF3
100
AcDbEntity
  8
0
100
AcDbLine
 10
18.6253517565358
 20
2.397400570000002
 30
0.0
 11
19.2301075565358
 21
3.002156370000001
 31
0.0
  0
LINE
  5
B9C
330
AF3
100
AcDbEntity
  8
0
100
AcDbLine
 10
18.4031339865358
 20
2.994527009999998
 30
0.0
 11
19.5595018665358
 21
4.150894880000002
 31
0.0
  0
LINE
  5
B9D
330
AF3
100
AcDbEntity
  8
0
100
AcDbLine
 10
18.8915520265358
 20
1.844256639999997
 30
0.0
 11
19.2603146365358
 21
2.213019260000002
 31
0.0
  0
LINE
  5
B9E
330
AF3
100
AcDbEntity
  8
0
100
AcDbLine
 10
19.3012241165358
 20
1.844256639999997
 30
0.0
 11
19.6699867465358
 21
2.213019260000002
 31
0.0
  0
LINE
  5
B9F
330
AF3
100
AcDbEntity
  8
0
100
AcDbLine
 10
19.0350238465358
 20
2.397400570000002
 30
0.0
 11
19.0654104065358
 21
2.427787129999998
 31
0.0
  0
LINE
  5
BA0
330
AF3
100
AcDbEntity
  8
0
100
AcDbLine
 10
19.7108962265358
 20
1.844256639999997
 30
0.0
 11
20.0796588365358
 21
2.213019260000002
 31
0.0
  0
LINE
  5
BA1
330
AF3
100
AcDbEntity
  8
0
100
AcDbLine
 10
19.9769479965358
 20
2.929652609999997
 30
0.0
 11
20.64869870653581
 21
3.601403320000002
 31
0.0
  0
LINE
  5
BA2
330
AF3
100
AcDbEntity
  8
0
100
AcDbLine
 10
19.8408575565358
 20
3.203234279999996
 30
0.0
 11
20.8133980165358
 21
4.17577473
 31
0.0
  0
LINE
  5
BA3
330
AF3
100
AcDbEntity
  8
0
100
AcDbLine
 10
16.3389842065358
 20
5.027098209999998
 30
0.0
 11
17.0281227665358
 21
5.716236790000003
 31
0.0
  0
LINE
  5
BA4
330
AF3
100
AcDbEntity
  8
0
100
AcDbLine
 10
16.3447716765358
 20
5.716236790000003
 30
0.0
 11
17.5343827965358
 21
5.716236790000003
 31
0.0
  0
LINE
  5
BA5
330
AF3
100
AcDbEntity
  8
0
100
AcDbLine
 10
16.2496880465358
 20
5.347474169999998
 30
0.0
 11
16.6184506665358
 21
5.716236790000003
 31
0.0
  0
LINE
  5
BA6
330
AF3
100
AcDbEntity
  8
0
100
AcDbLine
 10
15.4303438465358
 20
5.347474169999998
 30
0.0
 11
15.7991064665358
 21
5.716236790000003
 31
0.0
  0
LINE
  5
BA7
330
AF3
100
AcDbEntity
  8
0
100
AcDbLine
 10
15.8400159465358
 20
5.347474169999998
 30
0.0
 11
16.1305349165358
 21
5.637993129999998
 31
0.0
  0
LINE
  5
BA8
330
AF3
100
AcDbEntity
  8
0
100
AcDbLine
 10
16.3447716765358
 20
5.716236790000003
 30
0.0
 11
16.2390350365358
 21
5.347474169999998
 31
0.0
  0
LINE
  5
BA9
330
AF3
100
AcDbEntity
  8
0
100
AcDbLine
 10
16.2390350365358
 20
5.347474169999998
 30
0.0
 11
16.4308506265358
 21
5.347474169999998
 31
0.0
  0
LINE
  5
BAA
330
AF3
100
AcDbEntity
  8
0
100
AcDbLine
 10
16.1529700065358
 20
5.716236790000003
 30
0.0
 11
16.0472333565358
 21
5.347474169999998
 31
0.0
  0
LINE
  5
BAB
330
AF3
100
AcDbEntity
  8
0
100
AcDbLine
 10
14.9601675465358
 20
5.286969970000001
 30
0.0
 11
15.3894333365358
 21
5.716235750000002
 31
0.0
  0
LINE
  5
BAC
330
AF3
100
AcDbEntity
  8
0
100
AcDbLine
 10
15.3914295165358
 20
5.716236790000003
 30
0.0
 11
16.1529700065358
 21
5.716236790000003
 31
0.0
  0
LINE
  5
BAD
330
AF3
100
AcDbEntity
  8
0
100
AcDbLine
 10
15.3914295165358
 20
5.347474169999998
 30
0.0
 11
16.0472333565358
 21
5.347474169999998
 31
0.0
  0
LINE
  5
BAE
330
AF3
100
AcDbEntity
  8
0
100
AcDbLine
 10
18.8972321765358
 20
4.717641499999999
 30
0.0
 11
19.8958274765358
 21
5.716236790000003
 31
0.0
  0
LINE
  5
BAF
330
AF3
100
AcDbEntity
  8
0
100
AcDbLine
 10
17.6680963865358
 20
4.717522000000002
 30
0.0
 11
18.2851850365358
 21
5.334610660000002
 31
0.0
  0
LINE
  5
BB0
330
AF3
100
AcDbEntity
  8
0
100
AcDbLine
 10
17.6208314865358
 20
5.079929200000002
 30
0.0
 11
18.0806512365358
 21
5.539748949999996
 31
0.0
  0
LINE
  5
BB1
330
AF3
100
AcDbEntity
  8
0
100
AcDbLine
 10
17.4270006365358
 20
5.295770449999999
 30
0.0
 11
17.8073157165358
 21
5.676085530000001
 31
0.0
  0
LINE
  5
BB2
330
AF3
100
AcDbEntity
  8
0
100
AcDbLine
 10
19.0383775965358
 20
5.678131100000001
 30
0.0
 11
19.0764832765358
 21
5.716236790000003
 31
0.0
  0
LINE
  5
BB3
330
AF3
100
AcDbEntity
  8
0
100
AcDbLine
 10
19.0619315765358
 20
5.292012989999996
 30
0.0
 11
19.4861553665358
 21
5.716236790000003
 31
0.0
  0
LINE
  5
BB4
330
AF3
100
AcDbEntity
  8
0
100
AcDbLine
 10
18.9329874565358
 20
5.310609030000001
 30
0.0
 11
19.0672639365358
 21
5.310609030000001
 31
0.0
  0
LINE
  5
BB5
330
AF3
100
AcDbEntity
  8
0
100
AcDbLine
 10
19.0493047265358
 20
5.716236790000003
 30
0.0
 11
18.9329874565358
 21
5.310609030000001
 31
0.0
  0
LINE
  5
BB6
330
AF3
100
AcDbEntity
  8
0
100
AcDbLine
 10
18.9329874565358
 20
5.310609030000001
 30
0.0
 11
19.0672639365358
 21
5.310609030000001
 31
0.0
1001
HATCH_DISTANCE
1040
1.0
1001
HATCH_DISPLAY
1070
     0
1001
HATCH_TYPE
1070
     7
  0
LINE
  5
BB7
330
AF3
100
AcDbEntity
  8
0
100
AcDbLine
 10
19.0493047265358
 20
5.716236790000003
 30
0.0
 11
18.9329874565358
 21
5.310609030000001
 31
0.0
1001
HATCH_DISTANCE
1040
1.0
1001
HATCH_DISPLAY
1070
     0
1001
HATCH_TYPE
1070
     7
  0
LINE
  5
BB8
330
AF3
100
AcDbEntity
  8
0
100
AcDbLine
 10
18.9329874565358
 20
5.310609030000001
 30
0.0
 11
19.0493047265358
 21
5.716236790000003
 31
0.0
  0
LINE
  5
BB9
330
AF3
100
AcDbEntity
  8
0
100
AcDbLine
 10
18.9329874565358
 20
5.310609030000001
 30
0.0
 11
19.0672639365358
 21
5.310609030000001
 31
0.0
  0
LINE
  5
BBA
330
AF3
100
AcDbEntity
  8
0
100
AcDbLine
 10
20.0083548465358
 20
5.716236790000003
 30
0.0
 11
19.0493047265358
 21
5.716236790000003
 31
0.0
  0
LINE
  5
BBB
330
AF3
100
AcDbEntity
  8
0
100
AcDbLine
 10
20.0083548465358
 20
5.716236790000003
 30
0.0
 11
19.0493047265358
 21
5.716236790000003
 31
0.0
1001
HATCH_DISTANCE
1040
1.0
1001
HATCH_DISPLAY
1070
     0
1001
HATCH_TYPE
1070
     7
  0
LINE
  5
BBC
330
AF3
100
AcDbEntity
  8
0
100
AcDbLine
 10
19.0493047265358
 20
5.716236790000003
 30
0.0
 11
20.0083548465358
 21
5.716236790000003
 31
0.0
  0
ARC
  5
BBD
330
AF3
100
AcDbEntity
  8
0
100
AcDbCircle
 10
22.8772634765358
 20
3.780246929999997
 30
0.0
 40
1.567227234374995
100
AcDbArc
 50
270.0
 51
104.1274364999999
  0
LINE
  5
BBE
330
AF3
100
AcDbEntity
  8
0
100
AcDbLine
 10
24.3162194765358
 20
4.401219390000001
 30
0.0
 11
24.5926832265358
 21
4.677683139999999
 31
0.0
  0
LINE
  5
BBF
330
AF3
100
AcDbEntity
  8
0
100
AcDbLine
 10
22.9916559865358
 20
1.847639589999999
 30
0.0
 11
23.4758533765358
 21
2.331837
 31
0.0
  0
LINE
  5
BC0
330
AF3
100
AcDbEntity
  8
0
100
AcDbLine
 10
21.4487859065358
 20
3.582146319999999
 30
0.0
 11
22.1447188465358
 21
4.278079259999998
 31
0.0
  0
LINE
  5
BC1
330
AF3
100
AcDbEntity
  8
0
100
AcDbLine
 10
21.2629564665358
 20
2.986644779999998
 30
0.0
 11
22.35978318653581
 21
4.083471510000002
 31
0.0
  0
LINE
  5
BC2
330
AF3
100
AcDbEntity
  8
0
100
AcDbLine
 10
21.0889764865358
 20
2.402992709999999
 30
0.0
 11
22.1950844465358
 21
3.509100670000002
 31
0.0
  0
LINE
  5
BC3
330
AF3
100
AcDbEntity
  8
0
100
AcDbLine
 10
21.6846763165358
 20
2.589020429999997
 30
0.0
 11
22.0303857065358
 21
2.934729820000001
 31
0.0
  0
LINE
  5
BC4
330
AF3
100
AcDbEntity
  8
0
100
AcDbLine
 10
21.6599904165358
 20
2.613704740000002
 30
0.0
 11
21.8763084965358
 21
2.397400570000002
 31
0.0
  0
LINE
  5
BC5
330
AF3
100
AcDbEntity
  8
0
100
AcDbLine
 10
21.3414439865358
 20
4.278079259999998
 30
0.0
 11
22.4155862465358
 21
4.278079259999998
 31
0.0
  0
LINE
  5
BC6
330
AF3
100
AcDbEntity
  8
0
100
AcDbLine
 10
21.7592567265358
 20
1.844256639999997
 30
0.0
 11
22.1280193465358
 21
2.213019260000002
 31
0.0
  0
LINE
  5
BC7
330
AF3
100
AcDbEntity
  8
0
100
AcDbLine
 10
22.1689288165358
 20
1.844256639999997
 30
0.0
 11
22.5376914365358
 21
2.213019260000002
 31
0.0
  0
LINE
  5
BC8
330
AF3
100
AcDbEntity
  8
0
100
AcDbLine
 10
22.5786009265358
 20
1.844256639999997
 30
0.0
 11
22.94900694653581
 21
2.214662660000001
 31
0.0
  0
LINE
  5
BC9
330
AF3
100
AcDbEntity
  8
0
100
AcDbLine
 10
21.8763084965358
 20
2.397400570000002
 30
0.0
 11
22.4155862465358
 21
4.278079259999998
 31
0.0
  0
LINE
  5
BCA
330
AF3
100
AcDbEntity
  8
0
100
AcDbLine
 10
21.30580399653581
 20
3.083512769999998
 30
0.0
 11
21.5426011565358
 21
3.909316619999998
 31
0.0
  0
LINE
  5
BCB
330
AF3
100
AcDbEntity
  8
0
100
AcDbLine
 10
21.3662841165358
 20
3.909316619999998
 30
0.0
 11
21.7350467365358
 21
4.278079259999998
 31
0.0
  0
LINE
  5
BCC
330
AF3
100
AcDbEntity
  8
0
100
AcDbLine
 10
21.23570734653581
 20
3.909316619999998
 30
0.0
 11
21.3414439865358
 21
4.278079259999998
 31
0.0
  0
LINE
  5
BCD
330
AF3
100
AcDbEntity
  8
0
100
AcDbLine
 10
21.23570734653581
 20
3.909316619999998
 30
0.0
 11
21.5426011565358
 21
3.909316619999998
 31
0.0
  0
LINE
  5
BCE
330
AF3
100
AcDbEntity
  8
0
100
AcDbLine
 10
21.3495846265358
 20
1.844256639999997
 30
0.0
 11
21.7183472365358
 21
2.213019260000002
 31
0.0
  0
LINE
  5
BCF
330
AF3
100
AcDbEntity
  8
0
100
AcDbLine
 10
24.4428477365358
 20
3.708503450000002
 30
0.0
 11
24.7931136665358
 21
4.058769380000001
 31
0.0
  0
LINE
  5
BD0
330
AF3
100
AcDbEntity
  8
0
100
AcDbLine
 10
24.32567340653581
 20
3.181657010000002
 30
0.0
 11
24.8098708065358
 21
3.665854420000002
 31
0.0
  0
LINE
  5
BD1
330
AF3
100
AcDbEntity
  8
0
100
AcDbLine
 10
24.4137591665358
 20
4.089086989999998
 30
0.0
 11
24.7147104165358
 21
4.390038240000002
 31
0.0
  0
LINE
  5
BD2
330
AF3
100
AcDbEntity
  8
0
100
AcDbLine
 10
23.5012658265358
 20
1.947577340000002
 30
0.0
 11
24.70993305653581
 21
3.156244559999997
 31
0.0
  0
LINE
  5
BD3
330
AF3
100
AcDbEntity
  8
0
100
AcDbLine
 10
22.8026652465358
 20
5.345697749999999
 30
0.0
 11
23.1534086965358
 21
5.696441219999996
 31
0.0
  0
ARC
  5
BD4
330
AF3
100
AcDbEntity
  8
0
100
AcDbCircle
 10
22.8772634765358
 20
3.780246929999997
 30
0.0
 40
1.567231584960933
100
AcDbArc
 50
110.8721834
 51
132.5419489400001
  0
LINE
  5
BD5
330
AF3
100
AcDbEntity
  8
0
100
AcDbLine
 10
21.7617154765358
 20
5.124092199999999
 30
0.0
 11
22.2142090465358
 21
5.576585770000001
 31
0.0
  0
LINE
  5
BD6
330
AF3
100
AcDbEntity
  8
0
100
AcDbLine
 10
22.3836773265358
 20
5.652265769999999
 30
0.0
 11
22.3836773265358
 21
5.652265769999999
 31
0.0
  0
LINE
  5
BD7
330
AF3
100
AcDbEntity
  8
0
100
AcDbLine
 10
22.4947321165358
 20
5.300084099999999
 30
0.0
 11
22.3836773265358
 21
5.652265769999999
 31
0.0
  0
LINE
  5
BD8
330
AF3
100
AcDbEntity
  8
0
100
AcDbLine
 10
22.4947321165358
 20
5.300084099999999
 30
0.0
 11
22.4947321165358
 21
5.300084099999999
 31
0.0
1001
HATCH_DISTANCE
1040
1.0
1001
HATCH_DISPLAY
1070
     0
1001
HATCH_TYPE
1070
     7
  0
LINE
  5
BD9
330
AF3
100
AcDbEntity
  8
0
100
AcDbLine
 10
22.3836773265358
 20
5.652265769999999
 30
0.0
 11
22.4947321165358
 21
5.300084099999999
 31
0.0
1001
HATCH_DISTANCE
1040
1.0
1001
HATCH_DISPLAY
1070
     0
1001
HATCH_TYPE
1070
     7
  0
LINE
  5
BDA
330
AF3
100
AcDbEntity
  8
0
100
AcDbLine
 10
22.3836773265358
 20
5.652265769999999
 30
0.0
 11
22.3836773265358
 21
5.652265769999999
 31
0.0
1001
HATCH_DISTANCE
1040
1.0
1001
HATCH_DISPLAY
1070
     0
1001
HATCH_TYPE
1070
     7
  0
LINE
  5
BDB
330
AF3
100
AcDbEntity
  8
0
100
AcDbLine
 10
23.7607207465358
 20
5.074736960000002
 30
0.0
 11
24.0251839665358
 21
5.339200179999998
 31
0.0
  0
LINE
  5
BDC
330
AF3
100
AcDbEntity
  8
0
100
AcDbLine
 10
23.9847799365358
 20
4.889124049999999
 30
0.0
 11
24.2455345365358
 21
5.149878639999997
 31
0.0
  0
LINE
  5
BDD
330
AF3
100
AcDbEntity
  8
0
100
AcDbLine
 10
24.1706487565358
 20
4.665320770000001
 30
0.0
 11
24.4350619865358
 21
4.929734009999997
 31
0.0
  0
LINE
  5
BDE
330
AF3
100
AcDbEntity
  8
0
100
AcDbLine
 10
23.1838362065358
 20
5.317196619999997
 30
0.0
 11
23.4850105965358
 21
5.618371009999997
 31
0.0
  0
LINE
  5
BDF
330
AF3
100
AcDbEntity
  8
0
100
AcDbLine
 10
23.4963339265358
 20
5.220022249999999
 30
0.0
 11
23.77291228653581
 21
5.496600610000001
 31
0.0
  0
LINE
  5
BE0
330
AF3
100
AcDbEntity
  8
0
100
AcDbLine
 10
21.5264873165358
 20
5.298536130000002
 30
0.0
 11
21.80261425653581
 21
5.574663069999999
 31
0.0
  0
LINE
  5
BE1
330
AF3
100
AcDbEntity
  8
0
100
AcDbLine
 10
22.4947321165358
 20
5.300084099999999
 30
0.0
 11
22.3836773265358
 21
5.652265769999999
 31
0.0
1001
HATCH_DISTANCE
1040
1.0
1001
HATCH_DISPLAY
1070
     0
1001
HATCH_TYPE
1070
     7
  0
LINE
  5
BE2
330
AF3
100
AcDbEntity
  8
0
100
AcDbLine
 10
22.2740285665358
 20
5.226733180000003
 30
0.0
 11
22.3124225065358
 21
5.265127120000002
 31
0.0
  0
LINE
  5
BE3
330
AF3
100
AcDbEntity
  8
0
100
AcDbLine
 10
22.3188849065358
 20
5.244633270000001
 30
0.0
 11
22.2078301165358
 21
5.596814940000001
 31
0.0
  0
ARC
  5
BE4
330
AF3
100
AcDbEntity
  8
0
100
AcDbCircle
 10
22.8772634765358
 20
3.780246929999997
 30
0.0
 40
1.935990729492184
100
AcDbArc
 50
110.22964506
 51
118.5716889199998
  0
LINE
  5
BE5
330
AF3
100
AcDbEntity
  8
0
100
AcDbLine
 10
22.4947321165358
 20
5.300084099999999
 30
0.0
 11
22.3836773265358
 21
5.652265769999999
 31
0.0
  0
LINE
  5
BE6
330
AF3
100
AcDbEntity
  8
0
100
AcDbLine
 10
22.4594062765358
 20
5.412110890000001
 30
0.0
 11
22.7599761165358
 21
5.712680730000002
 31
0.0
  0
LINE
  5
BE7
330
AF3
100
AcDbEntity
  8
0
100
AcDbLine
 10
22.4947321165358
 20
5.300084099999999
 30
0.0
 11
22.4947321165358
 21
5.300084099999999
 31
0.0
  0
LINE
  5
BE8
330
AF3
100
AcDbEntity
  8
0
100
AcDbLine
 10
22.3836773265358
 20
5.652265769999999
 30
0.0
 11
22.4947321165358
 21
5.300084099999999
 31
0.0
  0
LINE
  5
BE9
330
AF3
100
AcDbEntity
  8
0
100
AcDbLine
 10
22.3836773265358
 20
5.652265769999999
 30
0.0
 11
22.3836773265358
 21
5.652265769999999
 31
0.0
  0
LINE
  5
BEA
330
AF3
100
AcDbEntity
  8
0
100
AcDbLine
 10
22.4947321165358
 20
5.300084099999999
 30
0.0
 11
22.3836773265358
 21
5.652265769999999
 31
0.0
  0
LINE
  5
BEB
330
AF3
100
AcDbEntity
  8
0
100
AcDbLine
 10
22.4947321165358
 20
5.300084099999999
 30
0.0
 11
22.4947321165358
 21
5.300084099999999
 31
0.0
1001
HATCH_DISTANCE
1040
1.0
1001
HATCH_DISPLAY
1070
     0
1001
HATCH_TYPE
1070
     7
  0
LINE
  5
BEC
330
AF3
100
AcDbEntity
  8
0
100
AcDbLine
 10
22.3836773265358
 20
5.652265769999999
 30
0.0
 11
22.4947321165358
 21
5.300084099999999
 31
0.0
1001
HATCH_DISTANCE
1040
1.0
1001
HATCH_DISPLAY
1070
     0
1001
HATCH_TYPE
1070
     7
  0
LINE
  5
BED
330
AF3
100
AcDbEntity
  8
0
100
AcDbLine
 10
22.3836773265358
 20
5.652265769999999
 30
0.0
 11
22.3836773265358
 21
5.652265769999999
 31
0.0
1001
HATCH_DISTANCE
1040
1.0
1001
HATCH_DISPLAY
1070
     0
1001
HATCH_TYPE
1070
     7
  0
LINE
  5
BEE
330
AF3
100
AcDbEntity
  8
0
100
AcDbLine
 10
22.4947321165358
 20
5.300084099999999
 30
0.0
 11
22.3836773265358
 21
5.652265769999999
 31
0.0
1001
HATCH_DISTANCE
1040
1.0
1001
HATCH_DISPLAY
1070
     0
1001
HATCH_TYPE
1070
     7
  0
LINE
  5
BEF
330
AF3
100
AcDbEntity
  8
0
100
AcDbLine
 10
22.4947321165358
 20
5.300084099999999
 30
0.0
 11
22.4947321165358
 21
5.300084099999999
 31
0.0
  0
LINE
  5
BF0
330
AF3
100
AcDbEntity
  8
0
100
AcDbLine
 10
22.3836773265358
 20
5.652265769999999
 30
0.0
 11
22.4947321165358
 21
5.300084099999999
 31
0.0
  0
ENDBLK
  5
AF5
330
AF3
100
AcDbEntity
  8
0
100
AcDbBlockEnd
  0
ENDSEC
  0
SECTION
  2
ENTITIES
  0
INSERT
  5
6E6
330
1A
100
AcDbEntity
  8
245
100
AcDbBlockReference
  2
矢印なし
 10
175.6238269664377
 20
90.55123571690598
 30
0.0
  0
DIMENSION
  5
94A
330
1A
100
AcDbEntity
  8
250
  6
Continuous
100
AcDbDimension
  2
*D15
 10
99.99999999999307
 20
20.99999999999995
 30
0.0
 11
50.02058024999306
 21
20.99999999999995
 31
0.0
 70
   160
 71
     5
 42
100.0
  3
BIGT
100
AcDbAlignedDimension
 13
-0.0000000000069349
 23
10.64125602999997
 33
0.0
 14
99.99999999999307
 24
6.999999689999988
 34
0.0
100
AcDbRotatedDimension
  0
DIMENSION
  5
94B
330
1A
100
AcDbEntity
  8
250
  6
Continuous
100
AcDbDimension
  2
*D16
 10
117.249999999993
 20
7.999999999999973
 30
0.0
 11
114.849999999993
 21
-0.0000000000000069
 31
0.0
 70
    32
  1
{\H2.8;\U+2205}<>
 71
     5
 42
16.0
  3
BIGT
100
AcDbAlignedDimension
 13
98.99999999999307
 23
-8.000000000000021
 33
0.0
 14
98.99999999999307
 24
7.999999999999978
 34
0.0
 50
90.0
100
AcDbRotatedDimension
  0
MTEXT
  5
94C
330
1A
100
AcDbEntity
  8
251
  6
Continuous
100
AcDbMText
 10
87.27492402999303
 20
14.99999999999995
 30
0.0
 40
2.799999999999999
 41
0.0
 71
     7
 72
     1
  1
□3.4
  7
YOKO
 73
     1
 44
1.0
1001
ITEMNAME
1000
DI010
1001
ACAD
1000
MTEXTBEGIN
1070
    73
1070
     1
1070
    44
1040
1.0
1070
    74
1070
     0
1000
MTEXTEND
  0
LINE
  5
94D
330
1A
100
AcDbEntity
  8
250
  6
Continuous
100
AcDbLine
 10
85.49999999999306
 20
13.99999999999995
 30
0.0
 11
99.42483821999303
 21
13.99999999999995
 31
0.0
1001
ITEMNAME
1000
LNSP2
  0
LEADER
  5
94E
330
1A
100
AcDbEntity
  8
250
  6
Continuous
100
AcDbLeader
  3
BIGT
 76
     2
 10
81.74369055999306
 20
2.474873729999991
 30
0.0
 10
85.49999999999306
 20
13.99999999999995
 30
0.0
1001
ACAD
1000
DSTYLE
1002
{
1070
     6
1000
OPEN
1070
   343
1005
594
1002
}
  0
LINE
  5
94F
330
1A
100
AcDbEntity
  8
250
  6
Continuous
100
AcDbLine
 10
100.499999999993
 20
2.249999999999978
 30
0.0
 11
111.249999999993
 21
2.249999999999978
 31
0.0
  0
LINE
  5
950
330
1A
100
AcDbEntity
  8
250
  6
Continuous
100
AcDbLine
 10
110.249999999993
 20
-2.250000000000021
 30
0.0
 11
110.249999999993
 21
2.249999999999978
 31
0.0
  0
INSERT
  5
951
330
1A
100
AcDbEntity
  8
250
  6
Continuous
100
AcDbBlockReference
  2
_Open
 10
110.249999999993
 20
2.249999999999978
 30
0.0
 41
2.229999999999989
 42
2.229999999999989
 43
2.229999999999999
 50
90.0
  0
MTEXT
  5
952
102
{ACAD_XDICTIONARY
360
C1B
102
}
330
1A
100
AcDbEntity
  8
250
  6
Continuous
 62
    40
100
AcDbMText
 10
107.8499999999931
 20
-0.0000000000000213
 30
0.0
 40
2.799999999999999
 41
0.0
 71
     5
 72
     1
  1
\A1;{\H2.8;\U+2205}4.5
 11
0.0
 21
1.0
 31
0.0
 73
     1
 44
1.0
1001
ACAD
1000
MTEXTBEGIN
1070
    73
1070
     1
1070
    44
1040
1.0
1070
    74
1070
     0
1000
MTEXTEND
  0
INSERT
  5
BF1
330
1A
100
AcDbEntity
  8
245
100
AcDbBlockReference
  2
1
 10
0.0
 20
0.0
 30
0.0
  0
VIEWPORT
  5
22
102
{ACAD_XDICTIONARY
360
BFD
102
}
330
17
100
AcDbEntity
 67
     1
  8
0
100
AcDbViewport
 10
261.5176991150442
 20
148.5
 30
0.0
 40
523.0353982300885
 41
297.0
 68
     1
 69
     1
 12
261.5176991150442
 22
148.5
 13
0.0
 23
0.0
 14
1.0
 24
1.0
 15
10.0
 25
10.0
 16
0.0
 26
0.0
 36
1.0
 17
0.0
 27
0.0
 37
0.0
 42
50.0
 43
0.0
 44
0.0
 45
297.0
 50
0.0
 51
0.0
 72
   100
 90
    32800
  1

281
     0
 71
     1
 74
     0
110
0.0
120
0.0
130
0.0
111
1.0
121
0.0
131
0.0
112
0.0
122
1.0
132
0.0
 79
     0
146
0.0
  0
ENDSEC
  0
SECTION
  2
OBJECTS
  0
DICTIONARY
  5
C
330
0
100
AcDbDictionary
281
     1
  3
ACAD_COLOR
350
7A6
  3
ACAD_GROUP
350
D
  3
ACAD_LAYOUT
350
565
  3
ACAD_MATERIAL
350
77C
  3
ACAD_MLEADERSTYLE
350
7CB
  3
ACAD_MLINESTYLE
350
E
  3
ACAD_PLOTSETTINGS
350
566
  3
ACAD_PLOTSTYLENAME
350
563
  3
ACAD_SCALELIST
350
7A9
  3
ACAD_TABLESTYLE
350
7A7
  3
ACAD_VISUALSTYLE
350
795
  3
ACDB_RECOMPOSE_DATA
350
BFB
  3
AcDbVariableDictionary
350
BF2
  3
DWGPROPS
350
BFC
  3
GRADE_DWG
350
540
  0
DICTIONARY
  5
A3B
330
F
100
AcDbDictionary
280
     1
281
     1
  3
ADSK_XREC_LAYER_RECONCILED
360
A3C
  0
DICTIONARY
  5
A4B
330
1AA
100
AcDbDictionary
280
     1
281
     1
  3
ADSK_XREC_LAYER_RECONCILED
360
A4C
  0
DICTIONARY
  5
A4D
330
1AB
100
AcDbDictionary
280
     1
281
     1
  3
ADSK_XREC_LAYER_RECONCILED
360
A4E
  0
DICTIONARY
  5
A4F
330
1AC
100
AcDbDictionary
280
     1
281
     1
  3
ADSK_XREC_LAYER_RECONCILED
360
A50
  0
DICTIONARY
  5
A55
330
1AF
100
AcDbDictionary
280
     1
281
     1
  3
ADSK_XREC_LAYER_RECONCILED
360
A56
  0
DICTIONARY
  5
A5D
330
21E
100
AcDbDictionary
280
     1
281
     1
  3
ADSK_XREC_LAYER_RECONCILED
360
A5E
  0
DICTIONARY
  5
A5F
330
21F
100
AcDbDictionary
280
     1
281
     1
  3
ADSK_XREC_LAYER_RECONCILED
360
A60
  0
DICTIONARY
  5
A79
330
7F6
100
AcDbDictionary
280
     1
281
     1
  3
ADSK_XREC_LAYER_RECONCILED
360
A7A
  0
DICTIONARY
  5
C1D
330
A37
100
AcDbDictionary
280
     1
281
     1
  3
ACAD_MTEXT_RT
360
C1E
  0
DICTIONARY
  5
C1B
330
952
100
AcDbDictionary
280
     1
281
     1
  3
ACAD_MTEXT_RT
360
C1C
  0
DICTIONARY
  5
BFD
330
22
100
AcDbDictionary
280
     1
281
     1
  3
ACAD_XREC_ROUNDTRIP
360
BFE
  0
DICTIONARY
  5
7A6
102
{ACAD_REACTORS
330
C
102
}
330
C
100
AcDbDictionary
281
     1
  0
DICTIONARY
  5
D
102
{ACAD_REACTORS
330
C
102
}
330
C
100
AcDbDictionary
281
     1
  3
*A1
350
6C7
  3
*A2
350
6C8
  3
*A3
350
6D4
  3
*A4
350
6D5
  3
DREC-1
350
5FC
  3
DREC-2
350
654
  3
DREC-3
350
673
  0
DICTIONARY
  5
565
102
{ACAD_REACTORS
330
C
102
}
330
C
100
AcDbDictionary
281
     1
  3
Model
350
567
  3
ﾚｲｱｳﾄ1
350
568
  0
DICTIONARY
  5
77C
102
{ACAD_REACTORS
330
C
102
}
330
C
100
AcDbDictionary
281
     1
  3
ByBlock
350
785
  3
ByLayer
350
77D
  3
Global
350
78D
  0
DICTIONARY
  5
7CB
102
{ACAD_REACTORS
330
C
102
}
330
C
100
AcDbDictionary
281
     1
  3
Standard
350
7CC
  0
DICTIONARY
  5
E
102
{ACAD_REACTORS
330
C
102
}
330
C
100
AcDbDictionary
281
     1
  3
STANDARD
350
13
  0
DICTIONARY
  5
566
102
{ACAD_REACTORS
330
C
102
}
330
C
100
AcDbDictionary
281
     1
  3
A3(0.5倍)
350
772
  3
A3(1倍)
350
773
  3
A3(1倍)(2000)
350
774
  3
A3(2倍)
350
775
  3
A4(0.5倍)
350
776
  3
A4(1倍)
350
777
  3
A4(1倍)(2000)
350
778
  3
A4(2倍)
350
779
  0
ACDBDICTIONARYWDFLT
  5
563
102
{ACAD_REACTORS
330
C
102
}
330
C
100
AcDbDictionary
281
     1
  3
Normal
350
564
100
AcDbDictionaryWithDefault
340
564
  0
DICTIONARY
  5
7A9
102
{ACAD_REACTORS
330
C
102
}
330
C
100
AcDbDictionary
281
     1
  3
A0
350
7AA
  3
A1
350
7AB
  3
A2
350
7AC
  3
A3
350
7AD
  3
A4
350
7AE
  3
A5
350
7AF
  3
A6
350
7B0
  3
A7
350
7B1
  3
A8
350
7B2
  3
A9
350
7B3
  3
B0
350
7B4
  3
B1
350
7B5
  3
B2
350
7B6
  3
B3
350
7B7
  3
B4
350
7B8
  3
B5
350
7B9
  3
B6
350
7BA
  3
B7
350
7BB
  3
B8
350
7BC
  3
B9
350
7BD
  3
C0
350
7BE
  3
C1
350
7BF
  3
C2
350
7C0
  3
C3
350
7C1
  3
C4
350
7C2
  3
C5
350
7C3
  3
C6
350
7C4
  3
C7
350
7C5
  3
C8
350
7C6
  3
C9
350
7C7
  3
D0
350
7C8
  3
D1
350
7C9
  3
D2
350
7CA
  0
DICTIONARY
  5
7A7
102
{ACAD_REACTORS
330
C
102
}
330
C
100
AcDbDictionary
281
     1
  3
Standard
350
7A8
  0
DICTIONARY
  5
795
102
{ACAD_REACTORS
330
C
102
}
330
C
100
AcDbDictionary
281
     1
  3
2dWireframe
350
79B
  3
3D Hidden
350
79D
  3
3dWireframe
350
79C
  3
Basic
350
79A
  3
Brighten
350
7A1
  3
ColorChange
350
7A5
  3
Conceptual
350
79E
  3
Dim
350
7A0
  3
Facepattern
350
7A4
  3
Flat
350
796
  3
FlatWithEdges
350
797
  3
Gouraud
350
798
  3
GouraudWithEdges
350
799
  3
Linepattern
350
7A3
  3
Realistic
350
79F
  3
Thicken
350
7A2
  0
XRECORD
  5
BFB
102
{ACAD_REACTORS
330
C
102
}
330
C
100
AcDbXrecord
280
     1
 90
        1
330
7A8
  0
DICTIONARY
  5
BF2
102
{ACAD_REACTORS
330
C
102
}
330
C
100
AcDbDictionary
281
     1
  3
CANNOSCALE
350
BF5
  3
CMLEADERSTYLE
350
BF4
  3
CTABLESTYLE
350
BF3
  3
DIMASSOC
350
BF8
  3
INDEXCTL
350
BF7
  3
SORTENTS
350
BF6
  0
XRECORD
  5
BFC
102
{ACAD_REACTORS
330
C
102
}
330
C
100
AcDbXrecord
280
     1
  1
DWGPROPS COOKIE
  2

  3

  4

  6

  7

  8
AWTEC
  9

300
=
301
=
302
=
303
=
304
=
305
=
306
=
307
=
308
=
309
=
 40
0.2139219791666667
 41
2455554.443852894
 42
2455554.657774341
  1

 90
        0
  0
DICTIONARY
  5
540
102
{ACAD_REACTORS
330
C
102
}
330
C
100
AcDbDictionary
281
     1
  3
VERSION
350
560
  0
XRECORD
  5
A3C
102
{ACAD_REACTORS
330
A3B
102
}
330
A3B
100
AcDbXrecord
280
     1
290
     1
  0
XRECORD
  5
A4C
102
{ACAD_REACTORS
330
A4B
102
}
330
A4B
100
AcDbXrecord
280
     1
290
     1
  0
XRECORD
  5
A4E
102
{ACAD_REACTORS
330
A4D
102
}
330
A4D
100
AcDbXrecord
280
     1
290
     1
  0
XRECORD
  5
A50
102
{ACAD_REACTORS
330
A4F
102
}
330
A4F
100
AcDbXrecord
280
     1
290
     1
  0
XRECORD
  5
A56
102
{ACAD_REACTORS
330
A55
102
}
330
A55
100
AcDbXrecord
280
     1
290
     1
  0
XRECORD
  5
A5E
102
{ACAD_REACTORS
330
A5D
102
}
330
A5D
100
AcDbXrecord
280
     1
290
     1
  0
XRECORD
  5
A60
102
{ACAD_REACTORS
330
A5F
102
}
330
A5F
100
AcDbXrecord
280
     1
290
     1
  0
XRECORD
  5
A7A
102
{ACAD_REACTORS
330
A79
102
}
330
A79
100
AcDbXrecord
280
     1
290
     1
  0
XRECORD
  5
C1E
102
{ACAD_REACTORS
330
C1D
102
}
330
C1D
100
AcDbXrecord
280
     1
 40
14919.0
  1
\A1;{\H2.8;\U+2205}16
  0
XRECORD
  5
C1C
102
{ACAD_REACTORS
330
C1B
102
}
330
C1B
100
AcDbXrecord
280
     1
 40
15977.0
  1
\A1;{\H2.8;\U+2205}4.5
  0
XRECORD
  5
BFE
102
{ACAD_REACTORS
330
BFD
102
}
330
BFD
100
AcDbXrecord
280
     1
102
SHADEPLOT
 70
     0
  0
GROUP
  5
6C7
102
{ACAD_REACTORS
330
D
102
}
330
D
100
AcDbGroup
300

 70
     0
 71
     1
1001
GRPNAME
1000
DMA00
  0
GROUP
  5
6C8
102
{ACAD_REACTORS
330
D
102
}
330
D
100
AcDbGroup
300

 70
     0
 71
     1
1001
GRPNAME
1000
DMA00
  0
GROUP
  5
6D4
102
{ACAD_REACTORS
330
D
102
}
330
D
100
AcDbGroup
300

 70
     0
 71
     1
1001
GRPNAME
1000
DMA00
  0
GROUP
  5
6D5
102
{ACAD_REACTORS
330
D
102
}
330
D
100
AcDbGroup
300

 70
     0
 71
     1
1001
GRPNAME
1000
DMA00
  0
GROUP
  5
5FC
102
{ACAD_REACTORS
330
D
102
}
330
D
100
AcDbGroup
300

 70
     0
 71
     1
1001
GRPNAME
1000
DREC-
1001
GPARA
1000
xsiz
1000
44.182
1000
ysiz
1000
40.677
1000
angl
1000
0
1000
ctyp
1000
0
1000
csiz
1000
5
1000
lfnt
1000
cont
1000
hcnt
1000
hoff
1000
vcnt
1000
voff
1000
opnt
1000
4
1000
dxpt
1000
0
1000
dypt
1000
0
  0
GROUP
  5
654
102
{ACAD_REACTORS
330
D
102
}
330
D
100
AcDbGroup
300

 70
     0
 71
     1
1001
GRPNAME
1000
DREC-
1001
GPARA
1000
xsiz
1000
54.592
1000
ysiz
1000
53.036
1000
angl
1000
0
1000
ctyp
1000
0
1000
csiz
1000
5
1000
lfnt
1000
cont
1000
hcnt
1000
hoff
1000
vcnt
1000
voff
1000
opnt
1000
4
1000
dxpt
1000
0
1000
dypt
1000
0
  0
GROUP
  5
673
102
{ACAD_REACTORS
330
D
102
}
330
D
100
AcDbGroup
300

 70
     0
 71
     1
1001
GRPNAME
1000
DREC-
1001
GPARA
1000
xsiz
1000
30.363
1000
ysiz
1000
36.175
1000
angl
1000
0
1000
ctyp
1000
0
1000
csiz
1000
5
1000
lfnt
1000
cont
1000
hcnt
1000
hoff
1000
vcnt
1000
voff
1000
opnt
1000
4
1000
dxpt
1000
0
1000
dypt
1000
0
  0
LAYOUT
  5
567
102
{ACAD_XDICTIONARY
360
BFF
102
}
102
{ACAD_REACTORS
330
565
102
}
330
565
100
AcDbPlotSettings
  1

  2
Canon LBP5600
  4
A4
  6

 40
5.873749732971191
 41
5.873747825622558
 42
5.873748779296875
 43
5.873748779296875
 44
209.9733276367187
 45
296.9259948730469
 46
10.69512688957445
 47
0.0
 48
0.0
 49
0.0
140
0.0
141
0.0
142
1.0
143
0.5916505176277499
 70
 11956
 72
     1
 73
     1
 74
     0
  7
big.ctb
 75
     0
147
1.690186977287785
148
50.01620134628755
149
37.80867474311019
100
AcDbLayout
  1
Model
 70
     1
 71
     0
 10
0.0
 20
0.0
 11
12.0
 21
9.0
 12
0.0
 22
0.0
 32
0.0
 14
0.0
 24
0.0
 34
0.0
 15
0.0
 25
0.0
 35
0.0
146
0.0
 13
0.0
 23
0.0
 33
0.0
 16
1.0
 26
0.0
 36
0.0
 17
0.0
 27
1.0
 37
0.0
 76
     0
330
1A
331
77A
1001
ACAD_PSEXT
1000
Canon LBP5600
1000
Canon LBP5600
1000
192_168_120_150.
1000

1070
     0
  0
LAYOUT
  5
568
102
{ACAD_XDICTIONARY
360
C01
102
}
102
{ACAD_REACTORS
330
565
102
}
330
565
100
AcDbPlotSettings
  1

  2
\\ICHIRO\FX Able Model-PRII ART4-ADV
  4

  6

 40
0.0
 41
0.0
 42
0.0
 43
0.0
 44
0.0
 45
0.0
 46
0.0
 47
0.0
 48
0.0
 49
0.0
140
0.0
141
0.0
142
1.0
143
1.0
 70
   688
 72
     0
 73
     0
 74
     5
  7
big.ctb
 75
    16
147
1.0
148
0.0
149
0.0
100
AcDbLayout
  1
ﾚｲｱｳﾄ1
 70
     1
 71
     1
 10
0.0
 20
0.0
 11
420.0
 21
297.0
 12
0.0
 22
0.0
 32
0.0
 14
1.000000000000000E+20
 24
1.000000000000000E+20
 34
1.000000000000000E+20
 15
-1.000000000000000E+20
 25
-1.000000000000000E+20
 35
-1.000000000000000E+20
146
0.0
 13
0.0
 23
0.0
 33
0.0
 16
1.0
 26
0.0
 36
0.0
 17
0.0
 27
1.0
 37
0.0
 76
     0
330
17
331
22
  0
MATERIAL
  5
785
102
{ACAD_XDICTIONARY
360
786
102
}
102
{ACAD_REACTORS
330
77C
102
}
330
77C
100
AcDbMaterial
  1
ByBlock
 72
     0
 43
0.0208333333333333
 43
0.0
 43
0.0
 43
0.0
 43
0.0
 43
0.0208333333333333
 43
0.0
 43
0.0
 43
0.0
 43
0.0
 43
1.0
 43
0.0
 43
0.0
 43
0.0
 43
0.0
 43
1.0
 77
     0
 47
0.0208333333333333
 47
0.0
 47
0.0
 47
0.0
 47
0.0
 47
0.0208333333333333
 47
0.0
 47
0.0
 47
0.0
 47
0.0
 47
1.0
 47
0.0
 47
0.0
 47
0.0
 47
0.0
 47
1.0
171
     0
 49
0.0208333333333333
 49
0.0
 49
0.0
 49
0.0
 49
0.0
 49
0.0208333333333333
 49
0.0
 49
0.0
 49
0.0
 49
0.0
 49
1.0
 49
0.0
 49
0.0
 49
0.0
 49
0.0
 49
1.0
175
     0
142
0.0208333333333333
142
0.0
142
0.0
142
0.0
142
0.0
142
0.0208333333333333
142
0.0
142
0.0
142
0.0
142
0.0
142
1.0
142
0.0
142
0.0
142
0.0
142
0.0
142
1.0
179
     0
144
0.0208333333333333
144
0.0
144
0.0
144
0.0
144
0.0
144
0.0208333333333333
144
0.0
144
0.0
144
0.0
144
0.0
144
1.0
144
0.0
144
0.0
144
0.0
144
0.0
144
1.0
147
0.0208333333333333
147
0.0
147
0.0
147
0.0
147
0.0
147
0.0208333333333333
147
0.0
147
0.0
147
0.0
147
0.0
147
1.0
147
0.0
147
0.0
147
0.0
147
0.0
147
1.0
  0
MATERIAL
  5
77D
102
{ACAD_XDICTIONARY
360
77E
102
}
102
{ACAD_REACTORS
330
77C
102
}
330
77C
100
AcDbMaterial
  1
ByLayer
 72
     0
 43
0.0208333333333333
 43
0.0
 43
0.0
 43
0.0
 43
0.0
 43
0.0208333333333333
 43
0.0
 43
0.0
 43
0.0
 43
0.0
 43
1.0
 43
0.0
 43
0.0
 43
0.0
 43
0.0
 43
1.0
 77
     0
 47
0.0208333333333333
 47
0.0
 47
0.0
 47
0.0
 47
0.0
 47
0.0208333333333333
 47
0.0
 47
0.0
 47
0.0
 47
0.0
 47
1.0
 47
0.0
 47
0.0
 47
0.0
 47
0.0
 47
1.0
171
     0
 49
0.0208333333333333
 49
0.0
 49
0.0
 49
0.0
 49
0.0
 49
0.0208333333333333
 49
0.0
 49
0.0
 49
0.0
 49
0.0
 49
1.0
 49
0.0
 49
0.0
 49
0.0
 49
0.0
 49
1.0
175
     0
142
0.0208333333333333
142
0.0
142
0.0
142
0.0
142
0.0
142
0.0208333333333333
142
0.0
142
0.0
142
0.0
142
0.0
142
1.0
142
0.0
142
0.0
142
0.0
142
0.0
142
1.0
179
     0
144
0.0208333333333333
144
0.0
144
0.0
144
0.0
144
0.0
144
0.0208333333333333
144
0.0
144
0.0
144
0.0
144
0.0
144
1.0
144
0.0
144
0.0
144
0.0
144
0.0
144
1.0
147
0.0208333333333333
147
0.0
147
0.0
147
0.0
147
0.0
147
0.0208333333333333
147
0.0
147
0.0
147
0.0
147
0.0
147
1.0
147
0.0
147
0.0
147
0.0
147
0.0
147
1.0
  0
MATERIAL
  5
78D
102
{ACAD_XDICTIONARY
360
78E
102
}
102
{ACAD_REACTORS
330
77C
102
}
330
77C
100
AcDbMaterial
  1
Global
 72
     0
 43
0.0208333333333333
 43
0.0
 43
0.0
 43
0.0
 43
0.0
 43
0.0208333333333333
 43
0.0
 43
0.0
 43
0.0
 43
0.0
 43
1.0
 43
0.0
 43
0.0
 43
0.0
 43
0.0
 43
1.0
 77
     0
 47
0.0208333333333333
 47
0.0
 47
0.0
 47
0.0
 47
0.0
 47
0.0208333333333333
 47
0.0
 47
0.0
 47
0.0
 47
0.0
 47
1.0
 47
0.0
 47
0.0
 47
0.0
 47
0.0
 47
1.0
171
     0
 49
0.0208333333333333
 49
0.0
 49
0.0
 49
0.0
 49
0.0
 49
0.0208333333333333
 49
0.0
 49
0.0
 49
0.0
 49
0.0
 49
1.0
 49
0.0
 49
0.0
 49
0.0
 49
0.0
 49
1.0
175
     0
142
0.0208333333333333
142
0.0
142
0.0
142
0.0
142
0.0
142
0.0208333333333333
142
0.0
142
0.0
142
0.0
142
0.0
142
1.0
142
0.0
142
0.0
142
0.0
142
0.0
142
1.0
179
     0
144
0.0208333333333333
144
0.0
144
0.0
144
0.0
144
0.0
144
0.0208333333333333
144
0.0
144
0.0
144
0.0
144
0.0
144
1.0
144
0.0
144
0.0
144
0.0
144
0.0
144
1.0
147
0.0208333333333333
147
0.0
147
0.0
147
0.0
147
0.0
147
0.0208333333333333
147
0.0
147
0.0
147
0.0
147
0.0
147
1.0
147
0.0
147
0.0
147
0.0
147
0.0
147
1.0
  0
MLEADERSTYLE
  5
7CC
102
{ACAD_REACTORS
330
7CB
102
}
330
7CB
100
AcDbMLeaderStyle
170
     2
171
     1
172
     0
 90
        2
 40
0.0
 41
0.0
173
     1
 91
-1056964608
340
14
 92
       -2
290
     1
 42
2.0
291
     1
 43
0.36
  3
Standard
 44
4.0
300

342
10
174
     1
178
     6
175
     1
176
     0
 93
-1056964608
 45
4.0
292
     0
297
     0
 46
4.0
 94
-1056964608
 47
1.0
 49
1.0
140
1.0
293
     1
141
0.0
294
     1
177
     0
142
1.0
295
     0
296
     0
143
0.125
1001
ACAD_MLEADERVER
1070
     2
  0
MLINESTYLE
  5
13
102
{ACAD_REACTORS
330
E
102
}
330
E
100
AcDbMlineStyle
  2
STANDARD
 70
     0
  3

 62
     0
 51
90.0
 52
90.0
 71
     2
 49
0.5
 62
   256
  6
BYLAYER
 49
-0.5
 62
   256
  6
BYLAYER
  0
PLOTSETTINGS
  5
772
102
{ACAD_XDICTIONARY
360
C03
102
}
102
{ACAD_REACTORS
330
566
102
}
330
566
100
AcDbPlotSettings
  1
A3(0.5倍)
  2
Canon LBP5600.pc3
  4
A3
  6

 40
5.873749732971191
 41
5.873747825622558
 42
5.873748779296875
 43
5.873748779296875
 44
296.9259948730469
 45
419.9466552734374
 46
90.09
 47
129.85
 48
0.0
 49
0.0
140
0.0
141
0.0
142
1.0
143
2.0
 70
  1716
 72
     1
 73
     1
 74
     2
  7
big.ctb
 75
    17
147
0.5
148
0.0
149
0.0
  0
PLOTSETTINGS
  5
773
102
{ACAD_XDICTIONARY
360
C05
102
}
102
{ACAD_REACTORS
330
566
102
}
330
566
100
AcDbPlotSettings
  1
A3(1倍)
  2
Canon LBP5600.pc3
  4
A3
  6

 40
5.873749732971191
 41
5.873747825622558
 42
5.873748779296875
 43
5.873748779296875
 44
296.9259948730469
 45
419.9466552734374
 46
37.59
 47
55.6
 48
0.0
 49
0.0
140
0.0
141
0.0
142
1.0
143
1.0
 70
  1716
 72
     1
 73
     1
 74
     2
  7
big.ctb
 75
    16
147
1.0
148
0.0
149
0.0
  0
PLOTSETTINGS
  5
774
102
{ACAD_XDICTIONARY
360
C07
102
}
102
{ACAD_REACTORS
330
566
102
}
330
566
100
AcDbPlotSettings
  1
A3(1倍)(2000)
  2
Canon LBP5600.pc3
  4
A3
  6

 40
5.873749732971191
 41
5.873747825622558
 42
5.873748779296875
 43
5.873748779296875
 44
296.9259948730469
 45
419.9466552734374
 46
37.59
 47
55.6
 48
0.0
 49
0.0
140
0.0
141
0.0
142
1.0
143
1.0
 70
  1716
 72
     1
 73
     1
 74
     2
  7
big.ctb
 75
    16
147
1.0
148
0.0
149
0.0
  0
PLOTSETTINGS
  5
775
102
{ACAD_XDICTIONARY
360
C09
102
}
102
{ACAD_REACTORS
330
566
102
}
330
566
100
AcDbPlotSettings
  1
A3(2倍)
  2
Canon LBP5600.pc3
  4
A3
  6

 40
5.873749732971191
 41
5.873747825622558
 42
5.873748779296875
 43
5.873748779296875
 44
296.9259948730469
 45
419.9466552734374
 46
-67.40999999999999
 47
-92.9
 48
0.0
 49
0.0
140
0.0
141
0.0
142
1.0
143
0.5
 70
  1716
 72
     1
 73
     1
 74
     2
  7
big.ctb
 75
    27
147
2.0
148
0.0
149
0.0
  0
PLOTSETTINGS
  5
776
102
{ACAD_XDICTIONARY
360
C0B
102
}
102
{ACAD_REACTORS
330
566
102
}
330
566
100
AcDbPlotSettings
  1
A4(0.5倍)
  2
Canon LBP5600.pc3
  4
A3
  6

 40
5.873749732971191
 41
5.873747825622558
 42
5.873748779296875
 43
5.873748779296875
 44
296.9259948730469
 45
419.9466552734374
 46
90.09
 47
129.85
 48
0.0
 49
0.0
140
0.0
141
0.0
142
1.0
143
2.0
 70
  1716
 72
     1
 73
     1
 74
     2
  7
big.ctb
 75
    17
147
0.5
148
0.0
149
0.0
  0
PLOTSETTINGS
  5
777
102
{ACAD_XDICTIONARY
360
C0D
102
}
102
{ACAD_REACTORS
330
566
102
}
330
566
100
AcDbPlotSettings
  1
A4(1倍)
  2
Canon LBP5600.pc3
  4
A3
  6

 40
5.873749732971191
 41
5.873747825622558
 42
5.873748779296875
 43
5.873748779296875
 44
296.9259948730469
 45
419.9466552734374
 46
37.59
 47
55.6
 48
0.0
 49
0.0
140
0.0
141
0.0
142
1.0
143
1.0
 70
  1716
 72
     1
 73
     1
 74
     2
  7
big.ctb
 75
    16
147
1.0
148
0.0
149
0.0
  0
PLOTSETTINGS
  5
778
102
{ACAD_XDICTIONARY
360
C0F
102
}
102
{ACAD_REACTORS
330
566
102
}
330
566
100
AcDbPlotSettings
  1
A4(1倍)(2000)
  2
Canon LBP5600.pc3
  4
A3
  6

 40
5.873749732971191
 41
5.873747825622558
 42
5.873748779296875
 43
5.873748779296875
 44
296.9259948730469
 45
419.9466552734374
 46
37.59
 47
55.6
 48
0.0
 49
0.0
140
0.0
141
0.0
142
1.0
143
1.0
 70
  1716
 72
     1
 73
     1
 74
     2
  7
big.ctb
 75
    16
147
1.0
148
0.0
149
0.0
  0
PLOTSETTINGS
  5
779
102
{ACAD_XDICTIONARY
360
C11
102
}
102
{ACAD_REACTORS
330
566
102
}
330
566
100
AcDbPlotSettings
  1
A4(2倍)
  2
Canon LBP5600.pc3
  4
A3
  6

 40
5.873749732971191
 41
5.873747825622558
 42
5.873748779296875
 43
5.873748779296875
 44
296.9259948730469
 45
419.9466552734374
 46
-67.40999999999999
 47
-92.9
 48
0.0
 49
0.0
140
0.0
141
0.0
142
1.0
143
0.5
 70
  1716
 72
     1
 73
     1
 74
     2
  7
big.ctb
 75
    27
147
2.0
148
0.0
149
0.0
  0
ACDBPLACEHOLDER
  5
564
102
{ACAD_REACTORS
330
563
102
}
330
563
  0
SCALE
  5
7AA
102
{ACAD_REACTORS
330
7A9
102
}
330
7A9
100
AcDbScale
 70
     0
300
1:1
140
1.0
141
1.0
290
     1
  0
SCALE
  5
7AB
102
{ACAD_REACTORS
330
7A9
102
}
330
7A9
100
AcDbScale
 70
     0
300
1:2
140
1.0
141
2.0
290
     0
  0
SCALE
  5
7AC
102
{ACAD_REACTORS
330
7A9
102
}
330
7A9
100
AcDbScale
 70
     0
300
1:4
140
1.0
141
4.0
290
     0
  0
SCALE
  5
7AD
102
{ACAD_REACTORS
330
7A9
102
}
330
7A9
100
AcDbScale
 70
     0
300
1:5
140
1.0
141
5.0
290
     0
  0
SCALE
  5
7AE
102
{ACAD_REACTORS
330
7A9
102
}
330
7A9
100
AcDbScale
 70
     0
300
1:8
140
1.0
141
8.0
290
     0
  0
SCALE
  5
7AF
102
{ACAD_REACTORS
330
7A9
102
}
330
7A9
100
AcDbScale
 70
     0
300
1:10
140
1.0
141
10.0
290
     0
  0
SCALE
  5
7B0
102
{ACAD_REACTORS
330
7A9
102
}
330
7A9
100
AcDbScale
 70
     0
300
1:16
140
1.0
141
16.0
290
     0
  0
SCALE
  5
7B1
102
{ACAD_REACTORS
330
7A9
102
}
330
7A9
100
AcDbScale
 70
     0
300
1:20
140
1.0
141
20.0
290
     0
  0
SCALE
  5
7B2
102
{ACAD_REACTORS
330
7A9
102
}
330
7A9
100
AcDbScale
 70
     0
300
1:30
140
1.0
141
30.0
290
     0
  0
SCALE
  5
7B3
102
{ACAD_REACTORS
330
7A9
102
}
330
7A9
100
AcDbScale
 70
     0
300
1:40
140
1.0
141
40.0
290
     0
  0
SCALE
  5
7B4
102
{ACAD_REACTORS
330
7A9
102
}
330
7A9
100
AcDbScale
 70
     0
300
1:50
140
1.0
141
50.0
290
     0
  0
SCALE
  5
7B5
102
{ACAD_REACTORS
330
7A9
102
}
330
7A9
100
AcDbScale
 70
     0
300
1:100
140
1.0
141
100.0
290
     0
  0
SCALE
  5
7B6
102
{ACAD_REACTORS
330
7A9
102
}
330
7A9
100
AcDbScale
 70
     0
300
2:1
140
2.0
141
1.0
290
     0
  0
SCALE
  5
7B7
102
{ACAD_REACTORS
330
7A9
102
}
330
7A9
100
AcDbScale
 70
     0
300
4:1
140
4.0
141
1.0
290
     0
  0
SCALE
  5
7B8
102
{ACAD_REACTORS
330
7A9
102
}
330
7A9
100
AcDbScale
 70
     0
300
8:1
140
8.0
141
1.0
290
     0
  0
SCALE
  5
7B9
102
{ACAD_REACTORS
330
7A9
102
}
330
7A9
100
AcDbScale
 70
     0
300
10:1
140
10.0
141
1.0
290
     0
  0
SCALE
  5
7BA
102
{ACAD_REACTORS
330
7A9
102
}
330
7A9
100
AcDbScale
 70
     0
300
100:1
140
100.0
141
1.0
290
     0
  0
SCALE
  5
7BB
102
{ACAD_REACTORS
330
7A9
102
}
330
7A9
100
AcDbScale
 70
     0
300
1/128" = 1'-0"
140
0.0078125
141
12.0
290
     0
  0
SCALE
  5
7BC
102
{ACAD_REACTORS
330
7A9
102
}
330
7A9
100
AcDbScale
 70
     0
300
1/64" = 1'-0"
140
0.015625
141
12.0
290
     0
  0
SCALE
  5
7BD
102
{ACAD_REACTORS
330
7A9
102
}
330
7A9
100
AcDbScale
 70
     0
300
1/32" = 1'-0"
140
0.03125
141
12.0
290
     0
  0
SCALE
  5
7BE
102
{ACAD_REACTORS
330
7A9
102
}
330
7A9
100
AcDbScale
 70
     0
300
1/16" = 1'-0"
140
0.0625
141
12.0
290
     0
  0
SCALE
  5
7BF
102
{ACAD_REACTORS
330
7A9
102
}
330
7A9
100
AcDbScale
 70
     0
300
3/32" = 1'-0"
140
0.09375
141
12.0
290
     0
  0
SCALE
  5
7C0
102
{ACAD_REACTORS
330
7A9
102
}
330
7A9
100
AcDbScale
 70
     0
300
1/8" = 1'-0"
140
0.125
141
12.0
290
     0
  0
SCALE
  5
7C1
102
{ACAD_REACTORS
330
7A9
102
}
330
7A9
100
AcDbScale
 70
     0
300
3/16" = 1'-0"
140
0.1875
141
12.0
290
     0
  0
SCALE
  5
7C2
102
{ACAD_REACTORS
330
7A9
102
}
330
7A9
100
AcDbScale
 70
     0
300
1/4" = 1'-0"
140
0.25
141
12.0
290
     0
  0
SCALE
  5
7C3
102
{ACAD_REACTORS
330
7A9
102
}
330
7A9
100
AcDbScale
 70
     0
300
3/8" = 1'-0"
140
0.375
141
12.0
290
     0
  0
SCALE
  5
7C4
102
{ACAD_REACTORS
330
7A9
102
}
330
7A9
100
AcDbScale
 70
     0
300
1/2" = 1'-0"
140
0.5
141
12.0
290
     0
  0
SCALE
  5
7C5
102
{ACAD_REACTORS
330
7A9
102
}
330
7A9
100
AcDbScale
 70
     0
300
3/4" = 1'-0"
140
0.75
141
12.0
290
     0
  0
SCALE
  5
7C6
102
{ACAD_REACTORS
330
7A9
102
}
330
7A9
100
AcDbScale
 70
     0
300
1" = 1'-0"
140
1.0
141
12.0
290
     0
  0
SCALE
  5
7C7
102
{ACAD_REACTORS
330
7A9
102
}
330
7A9
100
AcDbScale
 70
     0
300
1-1/2" = 1'-0"
140
1.5
141
12.0
290
     0
  0
SCALE
  5
7C8
102
{ACAD_REACTORS
330
7A9
102
}
330
7A9
100
AcDbScale
 70
     0
300
3" = 1'-0"
140
3.0
141
12.0
290
     0
  0
SCALE
  5
7C9
102
{ACAD_REACTORS
330
7A9
102
}
330
7A9
100
AcDbScale
 70
     0
300
6" = 1'-0"
140
6.0
141
12.0
290
     0
  0
SCALE
  5
7CA
102
{ACAD_REACTORS
330
7A9
102
}
330
7A9
100
AcDbScale
 70
     0
300
1'-0" = 1'-0"
140
12.0
141
12.0
290
     0
  0
TABLESTYLE
  5
7A8
102
{ACAD_XDICTIONARY
360
BF9
102
}
102
{ACAD_REACTORS
330
7A7
102
}
330
7A7
100
AcDbTableStyle
  3
Standard
 70
     0
 71
     0
 40
1.5
 41
1.5
280
     0
281
     0
  7
STANDARD
140
4.5
170
     2
 62
     0
 63
     7
283
     0
274
    -2
284
     1
 64
     0
275
    -2
285
     1
 65
     0
276
    -2
286
     1
 66
     0
277
    -2
287
     1
 67
     0
278
    -2
288
     1
 68
     0
279
    -2
289
     1
 69
     0
  7
STANDARD
140
6.0
170
     5
 62
     0
 63
     7
283
     0
274
    -2
284
     1
 64
     0
275
    -2
285
     1
 65
     0
276
    -2
286
     1
 66
     0
277
    -2
287
     1
 67
     0
278
    -2
288
     1
 68
     0
279
    -2
289
     1
 69
     0
  7
STANDARD
140
4.5
170
     5
 62
     0
 63
     7
283
     0
274
    -2
284
     1
 64
     0
275
    -2
285
     1
 65
     0
276
    -2
286
     1
 66
     0
277
    -2
287
     1
 67
     0
278
    -2
288
     1
 68
     0
279
    -2
289
     1
 69
     0
  0
VISUALSTYLE
  5
79B
102
{ACAD_REACTORS
330
795
102
}
330
795
100
AcDbVisualStyle
  2
2dWireframe
 70
     4
 71
     0
 72
     2
 73
     0
 90
        0
 40
-0.6
 41
-30.0
 62
     5
 63
     7
 74
     1
 91
        4
 64
     7
 65
   257
 75
     1
175
     1
 42
1.0
 92
        0
 66
   257
 43
1.0
 76
     1
 77
     6
 78
     2
 67
     7
 79
     5
170
     0
171
     0
290
     0
174
     0
 93
        1
 44
0.0
173
     0
291
     0
 45
0.0
1001
ACAD
1000
AcDbSavedByObjectVersion
1070
     0
  0
VISUALSTYLE
  5
79D
102
{ACAD_REACTORS
330
795
102
}
330
795
100
AcDbVisualStyle
  2
3D Hidden
 70
     6
 71
     1
 72
     2
 73
     2
 90
        0
 40
-0.6
 41
-30.0
 62
     5
 63
     7
 74
     2
 91
        2
 64
     7
 65
   257
 75
     2
175
     1
 42
40.0
 92
        0
 66
   257
 43
1.0
 76
     1
 77
     6
 78
     2
 67
     7
 79
     3
170
     0
171
     0
290
     0
174
     0
 93
        1
 44
0.0
173
     0
291
     0
 45
0.0
1001
ACAD
1000
AcDbSavedByObjectVersion
1070
     0
  0
VISUALSTYLE
  5
79C
102
{ACAD_REACTORS
330
795
102
}
330
795
100
AcDbVisualStyle
  2
3dWireframe
 70
     5
 71
     0
 72
     2
 73
     0
 90
        0
 40
-0.6
 41
-30.0
 62
     5
 63
     7
 74
     1
 91
        4
 64
     7
 65
   257
 75
     1
175
     1
 42
1.0
 92
        0
 66
   257
 43
1.0
 76
     1
 77
     6
 78
     2
 67
     7
 79
     5
170
     0
171
     0
290
     0
174
     0
 93
        1
 44
0.0
173
     0
291
     0
 45
0.0
1001
ACAD
1000
AcDbSavedByObjectVersion
1070
     0
  0
VISUALSTYLE
  5
79A
102
{ACAD_REACTORS
330
795
102
}
330
795
100
AcDbVisualStyle
  2
Basic
 70
     7
 71
     1
 72
     0
 73
     1
 90
        0
 40
-0.6
 41
-30.0
 62
     5
 63
     7
 74
     0
 91
        4
 64
     7
 65
   257
 75
     1
175
     1
 42
1.0
 92
        8
 66
     7
 43
1.0
 76
     1
 77
     6
 78
     2
 67
     7
 79
     5
170
     0
171
     0
290
     0
174
     0
 93
        1
 44
0.0
173
     0
291
     1
 45
0.0
1001
ACAD
1000
AcDbSavedByObjectVersion
1070
     0
  0
VISUALSTYLE
  5
7A1
102
{ACAD_REACTORS
330
795
102
}
330
795
100
AcDbVisualStyle
  2
Brighten
 70
    12
 71
     2
 72
     2
 73
     0
 90
        0
 40
-0.6
 41
-30.0
 62
     5
 63
     7
 74
     1
 91
        4
 64
     7
 65
   257
 75
     1
175
     1
 42
1.0
 92
        8
 66
     7
 43
1.0
 76
     1
 77
     6
 78
     2
 67
     7
 79
     5
170
     0
171
     0
290
     0
174
     0
 93
        1
 44
50.0
173
     0
291
     1
 45
0.0
1001
ACAD
1000
AcDbSavedByObjectVersion
1070
     0
  0
VISUALSTYLE
  5
7A5
102
{ACAD_REACTORS
330
795
102
}
330
795
100
AcDbVisualStyle
  2
ColorChange
 70
    16
 71
     2
 72
     2
 73
     3
 90
        0
 40
-0.6
 41
-30.0
 62
     5
 63
     8
 74
     1
 91
        4
 64
     7
 65
   257
 75
     1
175
     1
 42
1.0
 92
        8
 66
     8
 43
1.0
 76
     1
 77
     6
 78
     2
 67
     7
 79
     5
170
     0
171
     0
290
     0
174
     0
 93
        1
 44
0.0
173
     0
291
     1
 45
0.0
1001
ACAD
1000
AcDbSavedByObjectVersion
1070
     0
  0
VISUALSTYLE
  5
79E
102
{ACAD_REACTORS
330
795
102
}
330
795
100
AcDbVisualStyle
  2
Conceptual
 70
     9
 71
     3
 72
     2
 73
     0
 90
        0
 40
-0.6
 41
-30.0
 62
     5
 63
     7
 74
     2
 91
        2
 64
     7
 65
   257
 75
     1
175
     1
 42
40.0
 92
        8
 66
     7
 43
1.0
 76
     1
 77
     6
 78
     2
 67
     7
 79
     3
170
     0
171
     0
290
     0
174
     0
 93
        1
 44
0.0
173
     0
291
     0
 45
0.0
1001
ACAD
1000
AcDbSavedByObjectVersion
1070
     0
  0
VISUALSTYLE
  5
7A0
102
{ACAD_REACTORS
330
795
102
}
330
795
100
AcDbVisualStyle
  2
Dim
 70
    11
 71
     2
 72
     2
 73
     0
 90
        0
 40
-0.6
 41
-30.0
 62
     5
 63
     7
 74
     1
 91
        4
 64
     7
 65
   257
 75
     1
175
     1
 42
1.0
 92
        8
 66
     7
 43
1.0
 76
     1
 77
     6
 78
     2
 67
     7
 79
     5
170
     0
171
     0
290
     0
174
     0
 93
        1
 44
-50.0
173
     0
291
     1
 45
0.0
1001
ACAD
1000
AcDbSavedByObjectVersion
1070
     0
  0
VISUALSTYLE
  5
7A4
102
{ACAD_REACTORS
330
795
102
}
330
795
100
AcDbVisualStyle
  2
Facepattern
 70
    15
 71
     2
 72
     2
 73
     0
 90
        0
 40
-0.6
 41
-30.0
 62
     5
 63
     7
 74
     1
 91
        4
 64
     7
 65
   257
 75
     1
175
     1
 42
1.0
 92
        8
 66
     7
 43
1.0
 76
     1
 77
     6
 78
     2
 67
     7
 79
     5
170
     0
171
     0
290
     0
174
     0
 93
        1
 44
0.0
173
     0
291
     1
 45
0.0
1001
ACAD
1000
AcDbSavedByObjectVersion
1070
     0
  0
VISUALSTYLE
  5
796
102
{ACAD_REACTORS
330
795
102
}
330
795
100
AcDbVisualStyle
  2
Flat
 70
     0
 71
     2
 72
     1
 73
     1
 90
        2
 40
-0.6
 41
30.0
 62
     5
 63
     7
 74
     0
 91
        4
 64
     7
 65
   257
 75
     1
175
     1
 42
1.0
 92
        8
 66
     7
 43
1.0
 76
     1
 77
     6
 78
     2
 67
     7
 79
     5
170
     0
171
     0
290
     0
174
     0
 93
       13
 44
0.0
173
     0
291
     1
 45
0.0
1001
ACAD
1000
AcDbSavedByObjectVersion
1070
     0
  0
VISUALSTYLE
  5
797
102
{ACAD_REACTORS
330
795
102
}
330
795
100
AcDbVisualStyle
  2
FlatWithEdges
 70
     1
 71
     2
 72
     1
 73
     1
 90
        2
 40
-0.6
 41
30.0
 62
     5
 63
     7
 74
     1
 91
        4
 64
     7
 65
   257
 75
     1
175
     1
 42
1.0
 92
        0
 66
   257
 43
1.0
 76
     1
 77
     6
 78
     2
 67
     7
 79
     5
170
     0
171
     0
290
     0
174
     0
 93
       13
 44
0.0
173
     0
291
     1
 45
0.0
1001
ACAD
1000
AcDbSavedByObjectVersion
1070
     0
  0
VISUALSTYLE
  5
798
102
{ACAD_REACTORS
330
795
102
}
330
795
100
AcDbVisualStyle
  2
Gouraud
 70
     2
 71
     2
 72
     2
 73
     1
 90
        2
 40
-0.6
 41
30.0
 62
     5
 63
     7
 74
     0
 91
        4
 64
     7
 65
   257
 75
     1
175
     1
 42
1.0
 92
        0
 66
     7
 43
1.0
 76
     1
 77
     6
 78
     2
 67
     7
 79
     5
170
     0
171
     0
290
     0
174
     0
 93
       13
 44
0.0
173
     0
291
     1
 45
0.0
1001
ACAD
1000
AcDbSavedByObjectVersion
1070
     0
  0
VISUALSTYLE
  5
799
102
{ACAD_REACTORS
330
795
102
}
330
795
100
AcDbVisualStyle
  2
GouraudWithEdges
 70
     3
 71
     2
 72
     2
 73
     1
 90
        2
 40
-0.6
 41
30.0
 62
     5
 63
     7
 74
     1
 91
        4
 64
     7
 65
   257
 75
     1
175
     1
 42
1.0
 92
        0
 66
   257
 43
1.0
 76
     1
 77
     6
 78
     2
 67
     7
 79
     5
170
     0
171
     0
290
     0
174
     0
 93
       13
 44
0.0
173
     0
291
     1
 45
0.0
1001
ACAD
1000
AcDbSavedByObjectVersion
1070
     0
  0
VISUALSTYLE
  5
7A3
102
{ACAD_REACTORS
330
795
102
}
330
795
100
AcDbVisualStyle
  2
Linepattern
 70
    14
 71
     2
 72
     2
 73
     0
 90
        0
 40
-0.6
 41
-30.0
 62
     5
 63
     7
 74
     1
 91
        4
 64
     7
 65
   257
 75
     7
175
     7
 42
1.0
 92
        8
 66
     7
 43
1.0
 76
     1
 77
     6
 78
     2
 67
     7
 79
     5
170
     0
171
     0
290
     0
174
     0
 93
        1
 44
0.0
173
     0
291
     1
 45
0.0
1001
ACAD
1000
AcDbSavedByObjectVersion
1070
     0
  0
VISUALSTYLE
  5
79F
102
{ACAD_REACTORS
330
795
102
}
330
795
100
AcDbVisualStyle
  2
Realistic
 70
     8
 71
     2
 72
     2
 73
     0
 90
        0
 40
-0.6
 41
-30.0
 62
     5
 63
     7
 74
     1
 91
        0
 64
     7
 65
   257
 75
     1
175
     1
 42
1.0
 92
        8
 66
     8
 43
1.0
 76
     1
 77
     6
 78
     2
 67
     7
 79
     5
170
     0
171
     0
290
     0
174
     0
 93
       13
 44
0.0
173
     0
291
     0
 45
0.0
1001
ACAD
1000
AcDbSavedByObjectVersion
1070
     0
  0
VISUALSTYLE
  5
7A2
102
{ACAD_REACTORS
330
795
102
}
330
795
100
AcDbVisualStyle
  2
Thicken
 70
    13
 71
     2
 72
     2
 73
     0
 90
        0
 40
-0.6
 41
-30.0
 62
     5
 63
     7
 74
     1
 91
        4
 64
     7
 65
   257
 75
     1
175
     1
 42
1.0
 92
       12
 66
     7
 43
1.0
 76
     1
 77
     6
 78
     2
 67
     7
 79
     5
170
     0
171
     0
290
     0
174
     0
 93
        1
 44
0.0
173
     0
291
     1
 45
0.0
1001
ACAD
1000
AcDbSavedByObjectVersion
1070
     0
  0
DICTIONARYVAR
  5
BF5
102
{ACAD_REACTORS
330
BF2
102
}
330
BF2
100
DictionaryVariables
280
     0
  1
1:1
  0
DICTIONARYVAR
  5
BF4
102
{ACAD_REACTORS
330
BF2
102
}
330
BF2
100
DictionaryVariables
280
     0
  1
STANDARD
  0
DICTIONARYVAR
  5
BF3
102
{ACAD_REACTORS
330
BF2
102
}
330
BF2
100
DictionaryVariables
280
     0
  1
STANDARD
  0
DICTIONARYVAR
  5
BF8
102
{ACAD_REACTORS
330
BF2
102
}
330
BF2
100
DictionaryVariables
280
     0
  1
1
  0
DICTIONARYVAR
  5
BF7
102
{ACAD_REACTORS
330
BF2
102
}
330
BF2
100
DictionaryVariables
280
     0
  1
0
  0
DICTIONARYVAR
  5
BF6
102
{ACAD_REACTORS
330
BF2
102
}
330
BF2
100
DictionaryVariables
280
     0
  1
127
  0
XRECORD
  5
560
102
{ACAD_REACTORS
330
540
102
}
330
540
100
AcDbXrecord
280
     1
  1
2.0.0
  0
DICTIONARY
  5
BFF
330
567
100
AcDbDictionary
280
     1
281
     1
  3
ACAD_XREC_ROUNDTRIP
360
C00
  0
DICTIONARY
  5
C01
330
568
100
AcDbDictionary
280
     1
281
     1
  3
ACAD_XREC_ROUNDTRIP
360
C02
  0
DICTIONARY
  5
786
330
785
100
AcDbDictionary
280
     1
281
     1
  3
ACAD_XREC_ROUNDTRIP
360
C14
  3
BUMPTILE
360
788
  3
DIFFUSETILE
360
787
  3
OPACITYTILE
360
78B
  3
REFLECTIONTILE
360
78A
  3
REFRACTIONTILE
360
78C
  3
SPECULARTILE
360
789
  0
DICTIONARY
  5
77E
330
77D
100
AcDbDictionary
280
     1
281
     1
  3
ACAD_XREC_ROUNDTRIP
360
C13
  3
BUMPTILE
360
780
  3
DIFFUSETILE
360
77F
  3
OPACITYTILE
360
783
  3
REFLECTIONTILE
360
782
  3
REFRACTIONTILE
360
784
  3
SPECULARTILE
360
781
  0
DICTIONARY
  5
78E
330
78D
100
AcDbDictionary
280
     1
281
     1
  3
ACAD_XREC_ROUNDTRIP
360
C15
  3
BUMPTILE
360
790
  3
DIFFUSETILE
360
78F
  3
OPACITYTILE
360
793
  3
REFLECTIONTILE
360
792
  3
REFRACTIONTILE
360
794
  3
SPECULARTILE
360
791
  0
DICTIONARY
  5
C03
330
772
100
AcDbDictionary
280
     1
281
     1
  3
ACAD_XREC_ROUNDTRIP
360
C04
  0
DICTIONARY
  5
C05
330
773
100
AcDbDictionary
280
     1
281
     1
  3
ACAD_XREC_ROUNDTRIP
360
C06
  0
DICTIONARY
  5
C07
330
774
100
AcDbDictionary
280
     1
281
     1
  3
ACAD_XREC_ROUNDTRIP
360
C08
  0
DICTIONARY
  5
C09
330
775
100
AcDbDictionary
280
     1
281
     1
  3
ACAD_XREC_ROUNDTRIP
360
C0A
  0
DICTIONARY
  5
C0B
330
776
100
AcDbDictionary
280
     1
281
     1
  3
ACAD_XREC_ROUNDTRIP
360
C0C
  0
DICTIONARY
  5
C0D
330
777
100
AcDbDictionary
280
     1
281
     1
  3
ACAD_XREC_ROUNDTRIP
360
C0E
  0
DICTIONARY
  5
C0F
330
778
100
AcDbDictionary
280
     1
281
     1
  3
ACAD_XREC_ROUNDTRIP
360
C10
  0
DICTIONARY
  5
C11
330
779
100
AcDbDictionary
280
     1
281
     1
  3
ACAD_XREC_ROUNDTRIP
360
C12
  0
DICTIONARY
  5
BF9
330
7A8
100
AcDbDictionary
280
     1
281
     1
  3
ACAD_ROUNDTRIP_2008_TABLESTYLE_CELLSTYLEMAP
360
BFA
  3
ACAD_XREC_ROUNDTRIP
360
C16
  0
XRECORD
  5
C00
102
{ACAD_REACTORS
330
BFF
102
}
330
BFF
100
AcDbXrecord
280
     1
102
SHADEPLOT
 70
     0
102
SHADEPLOTRESLEVEL
 70
     2
102
SHADEPLOTCUSTOMDPI
 70
   300
  0
XRECORD
  5
C02
102
{ACAD_REACTORS
330
C01
102
}
330
C01
100
AcDbXrecord
280
     1
102
SHADEPLOT
 70
     0
102
SHADEPLOTRESLEVEL
 70
     2
102
SHADEPLOTCUSTOMDPI
 70
   300
  0
XRECORD
  5
C14
102
{ACAD_REACTORS
330
786
102
}
330
786
100
AcDbXrecord
280
     1
102
MATERIAL
148
0.0
149
0.0
149
0.0
 93
        0
 94
      127
282
     0
 72
     0
 77
     0
171
     0
175
     0
179
     0
273
     0
  0
XRECORD
  5
788
102
{ACAD_REACTORS
330
786
102
}
330
786
100
AcDbXrecord
280
     1
270
     1
271
     1
  0
XRECORD
  5
787
102
{ACAD_REACTORS
330
786
102
}
330
786
100
AcDbXrecord
280
     1
270
     1
271
     1
  0
XRECORD
  5
78B
102
{ACAD_REACTORS
330
786
102
}
330
786
100
AcDbXrecord
280
     1
270
     1
271
     1
  0
XRECORD
  5
78A
102
{ACAD_REACTORS
330
786
102
}
330
786
100
AcDbXrecord
280
     1
270
     1
271
     1
  0
XRECORD
  5
78C
102
{ACAD_REACTORS
330
786
102
}
330
786
100
AcDbXrecord
280
     1
270
     1
271
     1
  0
XRECORD
  5
789
102
{ACAD_REACTORS
330
786
102
}
330
786
100
AcDbXrecord
280
     1
270
     1
271
     1
  0
XRECORD
  5
C13
102
{ACAD_REACTORS
330
77E
102
}
330
77E
100
AcDbXrecord
280
     1
102
MATERIAL
148
0.0
149
0.0
149
0.0
 93
        0
 94
      127
282
     0
 72
     0
 77
     0
171
     0
175
     0
179
     0
273
     0
  0
XRECORD
  5
780
102
{ACAD_REACTORS
330
77E
102
}
330
77E
100
AcDbXrecord
280
     1
270
     1
271
     1
  0
XRECORD
  5
77F
102
{ACAD_REACTORS
330
77E
102
}
330
77E
100
AcDbXrecord
280
     1
270
     1
271
     1
  0
XRECORD
  5
783
102
{ACAD_REACTORS
330
77E
102
}
330
77E
100
AcDbXrecord
280
     1
270
     1
271
     1
  0
XRECORD
  5
782
102
{ACAD_REACTORS
330
77E
102
}
330
77E
100
AcDbXrecord
280
     1
270
     1
271
     1
  0
XRECORD
  5
784
102
{ACAD_REACTORS
330
77E
102
}
330
77E
100
AcDbXrecord
280
     1
270
     1
271
     1
  0
XRECORD
  5
781
102
{ACAD_REACTORS
330
77E
102
}
330
77E
100
AcDbXrecord
280
     1
270
     1
271
     1
  0
XRECORD
  5
C15
102
{ACAD_REACTORS
330
78E
102
}
330
78E
100
AcDbXrecord
280
     1
102
MATERIAL
148
0.0
149
0.0
149
0.0
 93
        0
 94
      127
282
     0
 72
     0
 77
     0
171
     0
175
     0
179
     0
273
     0
  0
XRECORD
  5
790
102
{ACAD_REACTORS
330
78E
102
}
330
78E
100
AcDbXrecord
280
     1
270
     1
271
     1
  0
XRECORD
  5
78F
102
{ACAD_REACTORS
330
78E
102
}
330
78E
100
AcDbXrecord
280
     1
270
     1
271
     1
  0
XRECORD
  5
793
102
{ACAD_REACTORS
330
78E
102
}
330
78E
100
AcDbXrecord
280
     1
270
     1
271
     1
  0
XRECORD
  5
792
102
{ACAD_REACTORS
330
78E
102
}
330
78E
100
AcDbXrecord
280
     1
270
     1
271
     1
  0
XRECORD
  5
794
102
{ACAD_REACTORS
330
78E
102
}
330
78E
100
AcDbXrecord
280
     1
270
     1
271
     1
  0
XRECORD
  5
791
102
{ACAD_REACTORS
330
78E
102
}
330
78E
100
AcDbXrecord
280
     1
270
     1
271
     1
  0
XRECORD
  5
C04
102
{ACAD_REACTORS
330
C03
102
}
330
C03
100
AcDbXrecord
280
     1
102
SHADEPLOT
 70
     0
102
SHADEPLOTRESLEVEL
 70
     2
102
SHADEPLOTCUSTOMDPI
 70
   300
  0
XRECORD
  5
C06
102
{ACAD_REACTORS
330
C05
102
}
330
C05
100
AcDbXrecord
280
     1
102
SHADEPLOT
 70
     0
102
SHADEPLOTRESLEVEL
 70
     2
102
SHADEPLOTCUSTOMDPI
 70
   300
  0
XRECORD
  5
C08
102
{ACAD_REACTORS
330
C07
102
}
330
C07
100
AcDbXrecord
280
     1
102
SHADEPLOT
 70
     0
102
SHADEPLOTRESLEVEL
 70
     2
102
SHADEPLOTCUSTOMDPI
 70
   300
  0
XRECORD
  5
C0A
102
{ACAD_REACTORS
330
C09
102
}
330
C09
100
AcDbXrecord
280
     1
102
SHADEPLOT
 70
     0
102
SHADEPLOTRESLEVEL
 70
     2
102
SHADEPLOTCUSTOMDPI
 70
   300
  0
XRECORD
  5
C0C
102
{ACAD_REACTORS
330
C0B
102
}
330
C0B
100
AcDbXrecord
280
     1
102
SHADEPLOT
 70
     0
102
SHADEPLOTRESLEVEL
 70
     2
102
SHADEPLOTCUSTOMDPI
 70
   300
  0
XRECORD
  5
C0E
102
{ACAD_REACTORS
330
C0D
102
}
330
C0D
100
AcDbXrecord
280
     1
102
SHADEPLOT
 70
     0
102
SHADEPLOTRESLEVEL
 70
     2
102
SHADEPLOTCUSTOMDPI
 70
   300
  0
XRECORD
  5
C10
102
{ACAD_REACTORS
330
C0F
102
}
330
C0F
100
AcDbXrecord
280
     1
102
SHADEPLOT
 70
     0
102
SHADEPLOTRESLEVEL
 70
     2
102
SHADEPLOTCUSTOMDPI
 70
   300
  0
XRECORD
  5
C12
102
{ACAD_REACTORS
330
C11
102
}
330
C11
100
AcDbXrecord
280
     1
102
SHADEPLOT
 70
     0
102
SHADEPLOTRESLEVEL
 70
     2
102
SHADEPLOTCUSTOMDPI
 70
   300
  0
CELLSTYLEMAP
  5
BFA
102
{ACAD_REACTORS
330
BF9
102
}
330
BF9
100
AcDbCellStyleMap
 90
        3
300
CELLSTYLE
  1
TABLEFORMAT_BEGIN
 90
        5
170
     1
 91
        0
 92
    32768
 62
   257
 93
        1
300
CONTENTFORMAT
  1
CONTENTFORMAT_BEGIN
 90
        0
 91
        0
 92
      512
 93
        0
300

 40
0.0
140
1.0
 94
        5
 62
     0
340
10
144
6.0
309
CONTENTFORMAT_END
171
     1
301
MARGIN
  1
CELLMARGIN_BEGIN
 40
1.5
 40
1.5
 40
1.5
 40
1.5
 40
4.5
 40
4.5
309
CELLMARGIN_END
 94
        6
 95
        1
302
GRIDFORMAT
  1
GRIDFORMAT_BEGIN
 90
        0
 91
        1
 62
     0
 92
       -2
340
0
 93
        0
 40
1.125
309
GRIDFORMAT_END
 95
        2
302
GRIDFORMAT
  1
GRIDFORMAT_BEGIN
 90
        0
 91
        1
 62
     0
 92
       -2
340
0
 93
        0
 40
1.125
309
GRIDFORMAT_END
 95
        4
302
GRIDFORMAT
  1
GRIDFORMAT_BEGIN
 90
        0
 91
        1
 62
     0
 92
       -2
340
0
 93
        0
 40
1.125
309
GRIDFORMAT_END
 95
        8
302
GRIDFORMAT
  1
GRIDFORMAT_BEGIN
 90
        0
 91
        1
 62
     0
 92
       -2
340
0
 93
        0
 40
1.125
309
GRIDFORMAT_END
 95
       16
302
GRIDFORMAT
  1
GRIDFORMAT_BEGIN
 90
        0
 91
        1
 62
     0
 92
       -2
340
0
 93
        0
 40
1.125
309
GRIDFORMAT_END
 95
       32
302
GRIDFORMAT
  1
GRIDFORMAT_BEGIN
 90
        0
 91
        1
 62
     0
 92
       -2
340
0
 93
        0
 40
1.125
309
GRIDFORMAT_END
309
TABLEFORMAT_END
  1
CELLSTYLE_BEGIN
 90
        1
 91
        1
300
_TITLE
309
CELLSTYLE_END
300
CELLSTYLE
  1
TABLEFORMAT_BEGIN
 90
        5
170
     1
 91
        0
 92
        0
 62
   257
 93
        1
300
CONTENTFORMAT
  1
CONTENTFORMAT_BEGIN
 90
        0
 91
        0
 92
      512
 93
        0
300

 40
0.0
140
1.0
 94
        5
 62
     0
340
10
144
4.5
309
CONTENTFORMAT_END
171
     1
301
MARGIN
  1
CELLMARGIN_BEGIN
 40
1.5
 40
1.5
 40
1.5
 40
1.5
 40
4.5
 40
4.5
309
CELLMARGIN_END
 94
        6
 95
        1
302
GRIDFORMAT
  1
GRIDFORMAT_BEGIN
 90
        0
 91
        1
 62
     0
 92
       -2
340
0
 93
        0
 40
1.125
309
GRIDFORMAT_END
 95
        2
302
GRIDFORMAT
  1
GRIDFORMAT_BEGIN
 90
        0
 91
        1
 62
     0
 92
       -2
340
0
 93
        0
 40
1.125
309
GRIDFORMAT_END
 95
        4
302
GRIDFORMAT
  1
GRIDFORMAT_BEGIN
 90
        0
 91
        1
 62
     0
 92
       -2
340
0
 93
        0
 40
1.125
309
GRIDFORMAT_END
 95
        8
302
GRIDFORMAT
  1
GRIDFORMAT_BEGIN
 90
        0
 91
        1
 62
     0
 92
       -2
340
0
 93
        0
 40
1.125
309
GRIDFORMAT_END
 95
       16
302
GRIDFORMAT
  1
GRIDFORMAT_BEGIN
 90
        0
 91
        1
 62
     0
 92
       -2
340
0
 93
        0
 40
1.125
309
GRIDFORMAT_END
 95
       32
302
GRIDFORMAT
  1
GRIDFORMAT_BEGIN
 90
        0
 91
        1
 62
     0
 92
       -2
340
0
 93
        0
 40
1.125
309
GRIDFORMAT_END
309
TABLEFORMAT_END
  1
CELLSTYLE_BEGIN
 90
        2
 91
        1
300
_HEADER
309
CELLSTYLE_END
300
CELLSTYLE
  1
TABLEFORMAT_BEGIN
 90
        5
170
     1
 91
        0
 92
        0
 62
   257
 93
        1
300
CONTENTFORMAT
  1
CONTENTFORMAT_BEGIN
 90
        0
 91
        0
 92
      512
 93
        0
300

 40
0.0
140
1.0
 94
        2
 62
     0
340
10
144
4.5
309
CONTENTFORMAT_END
171
     1
301
MARGIN
  1
CELLMARGIN_BEGIN
 40
1.5
 40
1.5
 40
1.5
 40
1.5
 40
4.5
 40
4.5
309
CELLMARGIN_END
 94
        6
 95
        1
302
GRIDFORMAT
  1
GRIDFORMAT_BEGIN
 90
        0
 91
        1
 62
     0
 92
       -2
340
0
 93
        0
 40
1.125
309
GRIDFORMAT_END
 95
        2
302
GRIDFORMAT
  1
GRIDFORMAT_BEGIN
 90
        0
 91
        1
 62
     0
 92
       -2
340
0
 93
        0
 40
1.125
309
GRIDFORMAT_END
 95
        4
302
GRIDFORMAT
  1
GRIDFORMAT_BEGIN
 90
        0
 91
        1
 62
     0
 92
       -2
340
0
 93
        0
 40
1.125
309
GRIDFORMAT_END
 95
        8
302
GRIDFORMAT
  1
GRIDFORMAT_BEGIN
 90
        0
 91
        1
 62
     0
 92
       -2
340
0
 93
        0
 40
1.125
309
GRIDFORMAT_END
 95
       16
302
GRIDFORMAT
  1
GRIDFORMAT_BEGIN
 90
        0
 91
        1
 62
     0
 92
       -2
340
0
 93
        0
 40
1.125
309
GRIDFORMAT_END
 95
       32
302
GRIDFORMAT
  1
GRIDFORMAT_BEGIN
 90
        0
 91
        1
 62
     0
 92
       -2
340
0
 93
        0
 40
1.125
309
GRIDFORMAT_END
309
TABLEFORMAT_END
  1
CELLSTYLE_BEGIN
 90
        3
 91
        2
300
_DATA
309
CELLSTYLE_END
  0
XRECORD
  5
C16
102
{ACAD_REACTORS
330
BF9
102
}
330
BF9
100
AcDbXrecord
280
     1
102
ACAD_ROUNDTRIP_PRE2007_TABLESTYLE
 90
      512
 91
        0
  1

 92
      512
 93
        0
  2

 94
      512
 95
        0
  3

  0
ENDSEC
  0
EOF
