  0
SECTION
  2
HEADER
  9
$ACADVER
  1
AC1014
  9
$ACADMAINTVER
 70
     9
  9
$DWGCODEPAGE
  3
ANSI_932
  9
$INSBASE
 10
0.0
 20
0.0
 30
0.0
  9
$EXTMIN
 10
-70.01495247
 20
-19.5703201
 30
-0.00152582
  9
$EXTMAX
 10
104.53109819
 20
54.96170761
 30
0.00000003
  9
$LIMMIN
 10
0.0
 20
0.0
  9
$LIMMAX
 10
420.0
 20
297.0
  9
$ORTHOMODE
 70
     0
  9
$REGENMODE
 70
     1
  9
$FILLMODE
 70
     1
  9
$QTEXTMODE
 70
     0
  9
$MIRRTEXT
 70
     1
  9
$DRAGMODE
 70
     2
  9
$LTSCALE
 40
10.0
  9
$OSMODE
 70
   549
  9
$ATTMODE
 70
     1
  9
$TEXTSIZE
 40
3.0
  9
$TRACEWID
 40
1.0
  9
$TEXTSTYLE
  7
YOKO
  9
$CLAYER
  8
245
  9
$CELTYPE
  6
BYLAYER
  9
$CECOLOR
 62
   256
  9
$CELTSCALE
 40
1.0
  9
$DELOBJ
 70
     1
  9
$DISPSILH
 70
     0
  9
$DIMSCALE
 40
1.0
  9
$DIMASZ
 40
2.0
  9
$DIMEXO
 40
2.0
  9
$DIMDLI
 40
2.5
  9
$DIMRND
 40
0.0
  9
$DIMDLE
 40
0.0
  9
$DIMEXE
 40
2.0
  9
$DIMTP
 40
0.0
  9
$DIMTM
 40
0.0
  9
$DIMTXT
 40
4.0
  9
$DIMCEN
 40
0.0
  9
$DIMTSZ
 40
0.0
  9
$DIMTOL
 70
     0
  9
$DIMLIM
 70
     0
  9
$DIMTIH
 70
     0
  9
$DIMTOH
 70
     0
  9
$DIMSE1
 70
     0
  9
$DIMSE2
 70
     0
  9
$DIMTAD
 70
     3
  9
$DIMZIN
 70
     8
  9
$DIMBLK
  1

  9
$DIMASO
 70
     1
  9
$DIMSHO
 70
     1
  9
$DIMPOST
  1

  9
$DIMAPOST
  1

  9
$DIMALT
 70
     0
  9
$DIMALTD
 70
     2
  9
$DIMALTF
 40
25.4
  9
$DIMLFAC
 40
1.0
  9
$DIMTOFL
 70
     1
  9
$DIMTVP
 40
0.0
  9
$DIMTIX
 70
     1
  9
$DIMSOXD
 70
     0
  9
$DIMSAH
 70
     1
  9
$DIMBLK1
  1
OPEN
  9
$DIMBLK2
  1
OPEN
  9
$DIMSTYLE
  2
BIGT
  9
$DIMCLRD
 70
   256
  9
$DIMCLRE
 70
   256
  9
$DIMCLRT
 70
    40
  9
$DIMTFAC
 40
1.0
  9
$DIMGAP
 40
1.0
  9
$DIMJUST
 70
     0
  9
$DIMSD1
 70
     0
  9
$DIMSD2
 70
     0
  9
$DIMTOLJ
 70
     1
  9
$DIMTZIN
 70
     8
  9
$DIMALTZ
 70
     0
  9
$DIMALTTZ
 70
     0
  9
$DIMFIT
 70
     3
  9
$DIMUPT
 70
     0
  9
$DIMUNIT
 70
     2
  9
$DIMDEC
 70
     3
  9
$DIMTDEC
 70
     3
  9
$DIMALTU
 70
     2
  9
$DIMALTTD
 70
     2
  9
$DIMTXSTY
  7
STANDARD
  9
$DIMAUNIT
 70
     0
  9
$LUNITS
 70
     2
  9
$LUPREC
 70
     3
  9
$SKETCHINC
 40
1.0
  9
$FILLETRAD
 40
0.0
  9
$AUNITS
 70
     0
  9
$AUPREC
 70
     3
  9
$MENU
  1
.
  9
$ELEVATION
 40
0.0
  9
$PELEVATION
 40
0.0
  9
$THICKNESS
 40
0.0
  9
$LIMCHECK
 70
     0
  9
$BLIPMODE
 70
     0
  9
$CHAMFERA
 40
10.0
  9
$CHAMFERB
 40
10.0
  9
$CHAMFERC
 40
0.0
  9
$CHAMFERD
 40
0.0
  9
$SKPOLY
 70
     0
  9
$TDCREATE
 40
2455128.619876481
  9
$TDUPDATE
 40
2455316.548545463
  9
$TDINDWG
 40
0.0031217361
  9
$TDUSRTIMER
 40
0.0031215625
  9
$USRTIMER
 70
     1
  9
$ANGBASE
 50
0.0
  9
$ANGDIR
 70
     0
  9
$PDMODE
 70
     1
  9
$PDSIZE
 40
-5.0
  9
$PLINEWID
 40
0.0
  9
$COORDS
 70
     0
  9
$SPLFRAME
 70
     0
  9
$SPLINETYPE
 70
     6
  9
$SPLINESEGS
 70
     8
  9
$ATTDIA
 70
     0
  9
$ATTREQ
 70
     1
  9
$HANDLING
 70
-16383
  9
$HANDSEED
  5
1074
  9
$SURFTAB1
 70
     6
  9
$SURFTAB2
 70
     6
  9
$SURFTYPE
 70
     6
  9
$SURFU
 70
     6
  9
$SURFV
 70
     6
  9
$UCSNAME
  2

  9
$UCSORG
 10
0.0
 20
0.0
 30
0.0
  9
$UCSXDIR
 10
1.0
 20
0.0
 30
0.0
  9
$UCSYDIR
 10
0.0
 20
1.0
 30
0.0
  9
$PUCSNAME
  2

  9
$PUCSORG
 10
0.0
 20
0.0
 30
0.0
  9
$PUCSXDIR
 10
1.0
 20
0.0
 30
0.0
  9
$PUCSYDIR
 10
0.0
 20
1.0
 30
0.0
  9
$USERI1
 70
     1
  9
$USERI2
 70
     0
  9
$USERI3
 70
     0
  9
$USERI4
 70
     0
  9
$USERI5
 70
     0
  9
$USERR1
 40
0.0
  9
$USERR2
 40
0.0
  9
$USERR3
 40
0.0
  9
$USERR4
 40
0.0
  9
$USERR5
 40
0.0
  9
$WORLDVIEW
 70
     1
  9
$SHADEDGE
 70
     3
  9
$SHADEDIF
 70
    70
  9
$TILEMODE
 70
     1
  9
$MAXACTVP
 70
    16
  9
$PINSBASE
 10
0.0
 20
0.0
 30
0.0
  9
$PLIMCHECK
 70
     0
  9
$PEXTMIN
 10
1.00000000E+20
 20
1.00000000E+20
 30
1.00000000E+20
  9
$PEXTMAX
 10
-1.00000000E+20
 20
-1.00000000E+20
 30
-1.00000000E+20
  9
$PLIMMIN
 10
0.0
 20
0.0
  9
$PLIMMAX
 10
420.0
 20
297.0
  9
$UNITMODE
 70
     0
  9
$VISRETAIN
 70
     0
  9
$PLINEGEN
 70
     0
  9
$PSLTSCALE
 70
     1
  9
$TREEDEPTH
 70
  3020
  9
$PICKSTYLE
 70
     0
  9
$CMLSTYLE
  2
STANDARD
  9
$CMLJUST
 70
     0
  9
$CMLSCALE
 40
1.0
  9
$PROXYGRAPHICS
 70
     1
  9
$MEASUREMENT
 70
     1
  0
ENDSEC
  0
SECTION
  2
CLASSES
  0
CLASS
  1
XRECORD
  2
AcDbXrecord
  3
AutoCAD 2000
 90
        0
280
     0
281
     0
  0
CLASS
  1
ACDBDICTIONARYWDFLT
  2
AcDbDictionaryWithDefault
  3
AutoCAD 2000
 90
        0
280
     0
281
     0
  0
CLASS
  1
ACDBPLACEHOLDER
  2
AcDbPlaceHolder
  3
AutoCAD 2000
 90
        0
280
     0
281
     0
  0
CLASS
  1
LAYOUT
  2
AcDbLayout
  3
AutoCAD 2000
 90
        0
280
     0
281
     0
  0
CLASS
  1
PLOTSETTINGS
  2
AcDbPlotSettings
  3
AutoCAD 2000
 90
        0
280
     0
281
     0
  0
CLASS
  1
LONG_TRANSACTION
  2
AcDbLongTransaction
  3
AutoCAD 2000
 90
        0
280
     0
281
     0
  0
CLASS
  1
LWPOLYLINE
  2
AcDbPolyline
  3
AutoCAD 2000
 90
        0
280
     0
281
     1
  0
CLASS
  1
HATCH
  2
AcDbHatch
  3
AutoCAD 2000
 90
        0
280
     0
281
     1
  0
CLASS
  1
XRECORD
  2
AcDbXrecord
  3
AutoCAD 2000
 90
        0
280
     0
281
     0
  0
CLASS
  1
LONG_TRANSACTION
  2
AcDbLongTransaction
  3
AutoCAD 2000
 90
        0
280
     0
281
     0
  0
CLASS
  1
LWPOLYLINE
  2
AcDbPolyline
  3
AutoCAD 2000
 90
        0
280
     0
281
     1
  0
CLASS
  1
HATCH
  2
AcDbHatch
  3
AutoCAD 2000
 90
        0
280
     0
281
     1
  0
CLASS
  1
XRECORD
  2
AcDbXrecord
  3
AutoCAD 2000
 90
        0
280
     0
281
     0
  0
ENDSEC
  0
SECTION
  2
TABLES
  0
TABLE
  2
VPORT
  5
8
330
0
100
AcDbSymbolTable
 70
     2
  0
VPORT
  5
104F
330
8
100
AcDbSymbolTableRecord
100
AcDbViewportTableRecord
  2
*ACTIVE
 70
     0
 10
0.0
 20
0.0
 11
1.0
 21
1.0
 12
17.25807286
 22
17.69569376
 13
0.0
 23
0.0
 14
7.0
 24
7.0
 15
7.0
 25
7.0
 16
0.0
 26
0.0
 36
1.0
 17
0.0
 27
0.0
 37
0.0
 40
122.55261165
 41
1.43184713
 42
50.0
 43
0.0
 44
0.0
 50
0.0
 51
0.0
 71
     0
 72
  2000
 73
     1
 74
     0
 75
     0
 76
     0
 77
     0
 78
     0
  0
ENDTAB
  0
TABLE
  2
LTYPE
  5
5
330
0
100
AcDbSymbolTable
 70
     3
  0
LTYPE
  5
14
330
5
100
AcDbSymbolTableRecord
100
AcDbLinetypeTableRecord
  2
BYBLOCK
 70
     0
  3

 72
    65
 73
     0
 40
0.0
  0
LTYPE
  5
15
330
5
100
AcDbSymbolTableRecord
100
AcDbLinetypeTableRecord
  2
BYLAYER
 70
     0
  3

 72
    65
 73
     0
 40
0.0
  0
LTYPE
  5
16
330
5
100
AcDbSymbolTableRecord
100
AcDbLinetypeTableRecord
  2
CONTINUOUS
 70
     0
  3
Solid line
 72
    65
 73
     0
 40
0.0
  0
LTYPE
  5
258
330
5
100
AcDbSymbolTableRecord
100
AcDbLinetypeTableRecord
  2
CENTER2
 70
     0
  3
___ _ ___ _ ___ _ ___ _ ___ _ ___ _ ___ _ ___ _
 72
    65
 73
     4
 40
1.125
 49
0.75
 74
     0
 49
-0.125
 74
     0
 49
0.125
 74
     0
 49
-0.125
 74
     0
  0
LTYPE
  5
25C
330
5
100
AcDbSymbolTableRecord
100
AcDbLinetypeTableRecord
  2
HIDDEN2
 70
     0
  3
_ _ _ _ _ _ _ _ _ _ _ _ _ _ _ _ _ _ _ _ _ _ _ _
 72
    65
 73
     2
 40
0.1875
 49
0.125
 74
     0
 49
-0.0625
 74
     0
  0
ENDTAB
  0
TABLE
  2
LAYER
  5
2
330
0
100
AcDbSymbolTable
 70
    12
  0
LAYER
  5
F
330
2
100
AcDbSymbolTableRecord
100
AcDbLayerTableRecord
  2
0
 70
     0
 62
     7
  6
CONTINUOUS
  0
LAYER
  5
1AA
330
2
100
AcDbSymbolTableRecord
100
AcDbLayerTableRecord
  2
240
 70
     0
 62
     4
  6
CONTINUOUS
  0
LAYER
  5
1AB
330
2
100
AcDbSymbolTableRecord
100
AcDbLayerTableRecord
  2
241
 70
     0
 62
   211
  6
CONTINUOUS
  0
LAYER
  5
1AC
330
2
100
AcDbSymbolTableRecord
100
AcDbLayerTableRecord
  2
242
 70
     0
 62
     3
  6
CONTINUOUS
  0
LAYER
  5
1AD
330
2
100
AcDbSymbolTableRecord
100
AcDbLayerTableRecord
  2
243
 70
     0
 62
   211
  6
HIDDEN2
  0
LAYER
  5
1AF
330
2
100
AcDbSymbolTableRecord
100
AcDbLayerTableRecord
  2
245
 70
     0
 62
     2
  6
CENTER2
  0
LAYER
  5
21E
330
2
100
AcDbSymbolTableRecord
100
AcDbLayerTableRecord
  2
250
 70
     0
 62
     3
  6
CONTINUOUS
  0
LAYER
  5
21F
330
2
100
AcDbSymbolTableRecord
100
AcDbLayerTableRecord
  2
251
 70
     0
 62
    40
  6
CONTINUOUS
  0
LAYER
  5
5C4
330
2
100
AcDbSymbolTableRecord
100
AcDbLayerTableRecord
  2
DEFPOINTS
 70
     0
 62
     7
  6
CONTINUOUS
  0
LAYER
  5
8C3
330
2
100
AcDbSymbolTableRecord
100
AcDbLayerTableRecord
  2
AM_5
 70
     0
 62
     3
  6
CONTINUOUS
  0
ENDTAB
  0
TABLE
  2
STYLE
  5
3
330
0
100
AcDbSymbolTable
 70
     2
  0
STYLE
  5
10
330
3
100
AcDbSymbolTableRecord
100
AcDbTextStyleTableRecord
  2
STANDARD
 70
     0
 40
0.0
 41
1.0
 50
0.0
 71
     0
 42
3.0
  3
romans.shx
  4
BIGFONT.SHX
  0
STYLE
  5
339
330
3
100
AcDbSymbolTableRecord
100
AcDbTextStyleTableRecord
  2
YOKO
 70
     0
 40
0.0
 41
1.0
 50
0.0
 71
     0
 42
3.0
  3
romans.shx
  4
extfont.shx
  0
ENDTAB
  0
TABLE
  2
VIEW
  5
6
330
0
100
AcDbSymbolTable
 70
     0
  0
ENDTAB
  0
TABLE
  2
UCS
  5
7
330
0
100
AcDbSymbolTable
 70
     0
  0
ENDTAB
  0
TABLE
  2
APPID
  5
9
330
0
100
AcDbSymbolTable
 70
    15
  0
APPID
  5
11
330
9
100
AcDbSymbolTableRecord
100
AcDbRegAppTableRecord
  2
ACAD
 70
     0
  0
APPID
  5
1B1
330
9
100
AcDbSymbolTableRecord
100
AcDbRegAppTableRecord
  2
GLOBAL
 70
     0
  0
APPID
  5
2A4
330
9
100
AcDbSymbolTableRecord
100
AcDbRegAppTableRecord
  2
DETAIL
 70
     0
  0
APPID
  5
5FD
330
9
100
AcDbSymbolTableRecord
100
AcDbRegAppTableRecord
  2
GRPNAME
 70
     0
  0
APPID
  5
5FE
330
9
100
AcDbSymbolTableRecord
100
AcDbRegAppTableRecord
  2
GPARA
 70
     0
  0
APPID
  5
6C4
330
9
100
AcDbSymbolTableRecord
100
AcDbRegAppTableRecord
  2
DCO15
 70
     0
  0
APPID
  5
6C5
330
9
100
AcDbSymbolTableRecord
100
AcDbRegAppTableRecord
  2
ITEMNAME
 70
     0
  0
APPID
  5
6C6
330
9
100
AcDbSymbolTableRecord
100
AcDbRegAppTableRecord
  2
GRADE_0
 70
     0
  0
APPID
  5
8C5
330
9
100
AcDbSymbolTableRecord
100
AcDbRegAppTableRecord
  2
GENIUS_GENODEF_13
 70
     0
  0
APPID
  5
8C6
330
9
100
AcDbSymbolTableRecord
100
AcDbRegAppTableRecord
  2
GENIUS_GENOREF_13
 70
     0
  0
APPID
  5
8C7
330
9
100
AcDbSymbolTableRecord
100
AcDbRegAppTableRecord
  2
GENIUS_GENOBJ-N-FIL_13
 70
     0
  0
APPID
  5
8C8
330
9
100
AcDbSymbolTableRecord
100
AcDbRegAppTableRecord
  2
HATCH_TYPE
 70
     0
  0
APPID
  5
8C9
330
9
100
AcDbSymbolTableRecord
100
AcDbRegAppTableRecord
  2
HATCH_DISPLAY
 70
     0
  0
APPID
  5
8CA
330
9
100
AcDbSymbolTableRecord
100
AcDbRegAppTableRecord
  2
HATCH_DISTANCE
 70
     0
  0
APPID
  5
C54
330
9
100
AcDbSymbolTableRecord
100
AcDbRegAppTableRecord
  2
CONTENTBLOCKICON
 70
     0
  0
ENDTAB
  0
TABLE
  2
DIMSTYLE
  5
A
330
0
100
AcDbSymbolTable
 70
     2
  0
DIMSTYLE
105
725
102
{ACAD_REACTORS
330
ECB
102
}
330
A
100
AcDbSymbolTableRecord
100
AcDbDimStyleTableRecord
  2
BIGT
 70
     0
  3

  4

  5

  6
OPEN
  7
OPEN
 40
1.0
 41
2.23
 42
0.5
 43
2.5
 44
1.0
 45
0.0
 46
0.0
 47
0.0
 48
0.0
140
2.8
141
0.0
142
0.0
143
25.4
144
1.0
145
0.0
146
1.0
147
1.0
 71
     0
 72
     0
 73
     0
 74
     0
 75
     0
 76
     0
 77
     3
 78
     8
170
     0
171
     2
172
     1
173
     1
174
     1
175
     0
176
   256
177
   256
178
    40
270
     2
271
     3
272
     3
273
     2
274
     2
340
10
275
     0
280
     0
281
     0
282
     0
283
     1
284
     8
285
     0
286
     0
287
     3
288
     0
  0
DIMSTYLE
105
8C4
102
{ACAD_REACTORS
330
DAE
330
EAF
102
}
330
A
100
AcDbSymbolTableRecord
100
AcDbDimStyleTableRecord
  2
BIGT$0
 70
     0
  3

  4

  5
OPEN
  6

  7

 40
1.0
 41
2.23
 42
0.5
 43
7.0
 44
1.0
 45
0.0
 46
0.0
 47
0.0
 48
0.01
140
2.8
141
0.0
142
0.0
143
25.4
144
1.0
145
0.0
146
1.0
147
1.0
 71
     0
 72
     0
 73
     0
 74
     0
 75
     0
 76
     0
 77
     3
 78
     9
170
     0
171
     2
172
     1
173
     0
174
     1
175
     0
176
   256
177
   256
178
    40
270
     2
271
     3
272
     3
273
     2
274
     2
340
10
275
     0
280
     0
281
     0
282
     0
283
     1
284
     8
285
     0
286
     0
287
     3
288
     0
  0
ENDTAB
  0
TABLE
  2
BLOCK_RECORD
  5
1
330
0
100
AcDbSymbolTable
 70
    13
  0
BLOCK_RECORD
  5
1A
102
{ACAD_XDICTIONARY
360
C4A
102
}
330
1
100
AcDbSymbolTableRecord
100
AcDbBlockTableRecord
  2
*MODEL_SPACE
  0
BLOCK_RECORD
  5
17
102
{ACAD_XDICTIONARY
360
C48
102
}
330
1
100
AcDbSymbolTableRecord
100
AcDbBlockTableRecord
  2
*PAPER_SPACE
  0
BLOCK_RECORD
  5
594
330
1
100
AcDbSymbolTableRecord
100
AcDbBlockTableRecord
  2
_OPEN
  0
BLOCK_RECORD
  5
6E3
330
1
100
AcDbSymbolTableRecord
100
AcDbBlockTableRecord
  2
矢印なし
  0
BLOCK_RECORD
  5
AB8
330
1
100
AcDbSymbolTableRecord
100
AcDbBlockTableRecord
  2
1
1001
CONTENTBLOCKICON
1071
        0
1004
2800000020000000200000000100080000000000000400000000000000000000000000000000000000000000000080000080000000808000800000008000800080800000C0C0C000C0DCC000F0CAA6000020400000206000002080000020A0000020C0000020E00000400000004020000040400000406000004080000040A0
1004
000040C0000040E00000600000006020000060400000606000006080000060A0000060C0000060E00000800000008020000080400000806000008080000080A0000080C0000080E00000A0000000A0200000A0400000A0600000A0800000A0A00000A0C00000A0E00000C0000000C0200000C0400000C0600000C0800000C0
1004
A00000C0C00000C0E00000E0000000E0200000E0400000E0600000E0800000E0A00000E0C00000E0E00040000000400020004000400040006000400080004000A0004000C0004000E00040200000402020004020400040206000402080004020A0004020C0004020E000404000004040200040404000404060004040800040
1004
40A0004040C0004040E00040600000406020004060400040606000406080004060A0004060C0004060E00040800000408020004080400040806000408080004080A0004080C0004080E00040A0000040A0200040A0400040A0600040A0800040A0A00040A0C00040A0E00040C0000040C0200040C0400040C0600040C08000
1004
40C0A00040C0C00040C0E00040E0000040E0200040E0400040E0600040E0800040E0A00040E0C00040E0E00080000000800020008000400080006000800080008000A0008000C0008000E00080200000802020008020400080206000802080008020A0008020C0008020E00080400000804020008040400080406000804080
1004
008040A0008040C0008040E00080600000806020008060400080606000806080008060A0008060C0008060E00080800000808020008080400080806000808080008080A0008080C0008080E00080A0000080A0200080A0400080A0600080A0800080A0A00080A0C00080A0E00080C0000080C0200080C0400080C0600080C0
1004
800080C0A00080C0C00080C0E00080E0000080E0200080E0400080E0600080E0800080E0A00080E0C00080E0E000C0000000C0002000C0004000C0006000C0008000C000A000C000C000C000E000C0200000C0202000C0204000C0206000C0208000C020A000C020C000C020E000C0400000C0402000C0404000C0406000C0
1004
408000C040A000C040C000C040E000C0600000C0602000C0604000C0606000C0608000C060A000C060C000C060E000C0800000C0802000C0804000C0806000C0808000C080A000C080C000C080E000C0A00000C0A02000C0A04000C0A06000C0A08000C0A0A000C0A0C000C0A0E000C0C00000C0C02000C0C04000C0C06000
1004
C0C08000C0C0A000F0FBFF00A4A0A000808080000000FF0000FF000000FFFF00FF000000FF00FF00FFFF0000FFFFFF0000000000000000000000000000000000000000000000000000000000000000000000000000000000000000000000000000000000000000000000000000000000000000000000000000000000000000
1004
00000000000000000000000000000000000000000000000000000000000000000000000000000000000000000000000000000000000000000000000000000000000000000000000000000000000000000000000000000000000000000000000000000000000000000000000000000000000000000000000000000000000000
1004
00000000000000000000000000000000000000000000000000000000000000000000000000000000000000000000000000000000000000000000000000000000000000000000000000000000000000000000000000000000000000000000000000000000000000000000000000000000000000000000000000000000000000
1004
000000000000000000000000000000000000000000000000000000000000000000000000000000000000000000000000000000000000000000000000000000FEFEFE00000000000000000000000000000000000000FEFEFEFEFEFEFEFEFEFEFEE7FEFEFEFEFEFEFEFEFEFEFEFEFEFEFEFE00000000FE0000E7FB00E7FBE7E7
1004
00E7E700000000000000000000E7E70000FE00000000FE0000E7FB00E7FBFBE700E7E700000000000000000000E7E70000FE000000FBFEFBFBE7FBFBE7E7E7E7FBE7E7FBFBFBFBFBFBFBFBFBE7E7E7FBFBFEFB000000FE0000E7FB00E7E7E7E700E7E7FFFFFFFFFFFFFFFFFFE7E7E7E7E7FE00000000FEFEFEFEFEFEFEFEFE
1004
FEFEE7FEFEFEFEFEFEFEFEFEFEFEFEE7FEFEFE0000000000000000000000000000FEFEFE00000000000000000000000000000000000000000000000000000000000000000000000000000000000000000000000000000000000000000000000000000000000000000000000000000000000000000000000000000000000000
1004
00000000000000000000000000000000000000000000000000000000000000000000000000000000000000000000000000000000000000000000000000000000000000000000000000000000000000000000000000000000000000000000000000000000000000000000000000000000000000000000000000000000000000
1004
00000000000000000000000000000000000000000000000000000000000000000000000000000000000000000000000000000000000000000000000000000000000000000000000000000000000000000000000000000000000000000000000000000000000000000000000000000000000000000000000000000000000000
1004
0000000000000000000000000000000000000000000000000000000000000000000000000000000000000000000000000000000000000000
  0
BLOCK_RECORD
  5
ECF
330
1
100
AcDbSymbolTableRecord
100
AcDbBlockTableRecord
  2
*D10
  0
BLOCK_RECORD
  5
EDB
330
1
100
AcDbSymbolTableRecord
100
AcDbBlockTableRecord
  2
*D11
  0
BLOCK_RECORD
  5
EE7
330
1
100
AcDbSymbolTableRecord
100
AcDbBlockTableRecord
  2
*D12
  0
ENDTAB
  0
ENDSEC
  0
SECTION
  2
BLOCKS
  0
BLOCK
  5
1B
330
1A
100
AcDbEntity
  8
0
100
AcDbBlockBegin
  2
*MODEL_SPACE
 70
     0
 10
0.0
 20
0.0
 30
0.0
  3
*MODEL_SPACE
  1

  0
ENDBLK
  5
1C
330
1A
100
AcDbEntity
  8
0
100
AcDbBlockEnd
  0
BLOCK
  5
18
330
17
100
AcDbEntity
 67
     1
  8
0
100
AcDbBlockBegin
  2
*PAPER_SPACE
 70
     0
 10
0.0
 20
0.0
 30
0.0
  3
*PAPER_SPACE
  1

  0
ENDBLK
  5
19
330
17
100
AcDbEntity
 67
     1
  8
0
100
AcDbBlockEnd
  0
BLOCK
  5
598
330
594
100
AcDbEntity
  8
0
100
AcDbBlockBegin
  2
_OPEN
 70
     0
 10
0.0
 20
0.0
 30
0.0
  3
_OPEN
  1

  0
LINE
  5
595
330
594
100
AcDbEntity
  8
0
  6
BYBLOCK
 62
     0
100
AcDbLine
 10
-1.0
 20
0.16666667
 30
0.0
 11
0.0
 21
0.0
 31
0.0
  0
LINE
  5
596
330
594
100
AcDbEntity
  8
0
  6
BYBLOCK
 62
     0
100
AcDbLine
 10
-1.0
 20
-0.16666667
 30
0.0
 11
0.0
 21
0.0
 31
0.0
  0
LINE
  5
597
330
594
100
AcDbEntity
  8
0
  6
BYBLOCK
 62
     0
100
AcDbLine
 10
0.0
 20
0.0
 30
0.0
 11
-1.0
 21
0.0
 31
0.0
  0
ENDBLK
  5
599
330
594
100
AcDbEntity
  8
0
100
AcDbBlockEnd
  0
BLOCK
  5
6E4
330
6E3
100
AcDbEntity
  8
0
100
AcDbBlockBegin
  2
矢印なし
 70
     0
 10
0.0
 20
0.0
 30
0.0
  3
矢印なし
  1

  0
ENDBLK
  5
6E5
330
6E3
100
AcDbEntity
  8
0
100
AcDbBlockEnd
  0
BLOCK
  5
AB9
330
AB8
100
AcDbEntity
  8
0
100
AcDbBlockBegin
  2
1
 70
     0
 10
0.0
 20
0.0
 30
0.0
  3
1
  1

  0
TEXT
  5
F30
330
AB8
100
AcDbEntity
  8
0
100
AcDbText
 10
17.24634203
 20
7.34735128
 30
0.0
 40
3.0
  1
MGT20-U5/8-85
  7
YOKO
100
AcDbText
  0
LINE
  5
F31
330
AB8
100
AcDbEntity
  8
245
100
AcDbLine
 10
-70.0
 20
0.0
 30
0.0
 11
86.0
 21
0.0
 31
0.0
  0
LINE
  5
F32
330
AB8
100
AcDbEntity
  8
240
100
AcDbLine
 10
60.0
 20
-15.0
 30
0.0
 11
1.97309836
 21
-15.0
 31
0.0
  0
LINE
  5
F33
330
AB8
100
AcDbEntity
  8
240
100
AcDbLine
 10
60.0
 20
15.0
 30
0.0
 11
1.97309836
 21
15.0
 31
0.0
  0
LINE
  5
F34
330
AB8
100
AcDbEntity
  8
240
100
AcDbLine
 10
-54.0
 20
12.5
 30
0.0
 11
-56.5
 21
15.0
 31
0.0
  0
LINE
  5
F35
330
AB8
100
AcDbEntity
  8
240
100
AcDbLine
 10
-54.0
 20
-12.5
 30
0.0
 11
-56.5
 21
-15.0
 31
0.0
  0
LINE
  5
F36
330
AB8
100
AcDbEntity
  8
240
100
AcDbLine
 10
-69.0
 20
-14.0
 30
0.0
 11
-69.0
 21
0.0
 31
0.0
  0
LINE
  5
F37
330
AB8
100
AcDbEntity
  8
240
100
AcDbLine
 10
-68.0
 20
-15.0
 30
0.0
 11
-56.5
 21
-15.0
 31
0.0
  0
ARC
  5
F38
330
AB8
100
AcDbEntity
  8
240
100
AcDbCircle
 10
-68.0
 20
-14.0
 30
0.0
 40
1.0
100
AcDbArc
 50
180.0
 51
270.0
  0
ARC
  5
F39
330
AB8
100
AcDbEntity
  8
240
100
AcDbCircle
 10
-68.0
 20
14.0
 30
0.0
 40
1.0
100
AcDbArc
 50
90.0
 51
180.0
  0
LINE
  5
F3A
330
AB8
100
AcDbEntity
  8
240
100
AcDbLine
 10
-69.0
 20
14.0
 30
0.0
 11
-69.0
 21
0.0
 31
0.0
  0
LINE
  5
F3B
330
AB8
100
AcDbEntity
  8
240
100
AcDbLine
 10
-68.0
 20
15.0
 30
0.0
 11
-56.5
 21
15.0
 31
0.0
  0
LINE
  5
F3C
330
AB8
100
AcDbEntity
  8
241
100
AcDbLine
 10
1.20577137
 20
-15.35874397
 30
0.0
 11
1.20577137
 21
0.0
 31
0.0
  0
LINE
  5
F3D
330
AB8
100
AcDbEntity
  8
241
100
AcDbLine
 10
-6.12626129
 20
-19.5
 30
0.0
 11
-6.12626129
 21
0.0
 31
0.0
  0
LINE
  5
F3E
330
AB8
100
AcDbEntity
  8
241
  6
CONTINUOUS
100
AcDbLine
 10
-7.5
 20
-19.00000001
 30
0.0
 11
-7.5
 21
0.0
 31
0.0
  0
LINE
  5
F3F
330
AB8
100
AcDbEntity
  8
241
100
AcDbLine
 10
0.0
 20
-19.14125603
 30
0.0
 11
0.0
 21
0.0
 31
0.0
  0
LINE
  5
F40
330
AB8
100
AcDbEntity
  8
241
100
AcDbLine
 10
-2.0
 20
-18.25
 30
0.0
 11
-2.0
 21
0.0
 31
0.0
  0
LINE
  5
F41
330
AB8
100
AcDbEntity
  8
241
100
AcDbLine
 10
-4.5
 20
-18.25
 30
0.0
 11
-4.5
 21
0.0
 31
0.0
  0
LINE
  5
F42
330
AB8
100
AcDbEntity
  8
241
100
AcDbLine
 10
-14.5
 20
-15.0
 30
0.0
 11
-14.5
 21
0.0
 31
0.0
  0
LINE
  5
F43
330
AB8
100
AcDbEntity
  8
241
100
AcDbLine
 10
-19.0
 20
-13.75
 30
0.0
 11
-19.0
 21
0.0
 31
0.0
  0
LINE
  5
F44
330
AB8
100
AcDbEntity
  8
241
100
AcDbLine
 10
-21.5
 20
-13.75
 30
0.0
 11
-21.5
 21
0.0
 31
0.0
  0
LINE
  5
F45
330
AB8
100
AcDbEntity
  8
241
100
AcDbLine
 10
-29.5
 20
-13.75
 30
0.0
 11
-29.5
 21
0.0
 31
0.0
  0
LINE
  5
F46
330
AB8
100
AcDbEntity
  8
241
100
AcDbLine
 10
-32.0
 20
-13.75
 30
0.0
 11
-32.0
 21
0.0
 31
0.0
  0
LINE
  5
F47
330
AB8
100
AcDbEntity
  8
243
100
AcDbLine
 10
-42.0
 20
-12.5
 30
0.0
 11
-42.0
 21
12.5
 31
0.0
1001
GENIUS_GENOREF_13
1005
0
  0
LINE
  5
F48
330
AB8
100
AcDbEntity
  8
243
100
AcDbLine
 10
-50.0
 20
-12.5
 30
0.0
 11
-50.0
 21
12.5
 31
0.0
1001
GENIUS_GENOREF_13
1005
0
  0
LINE
  5
F49
330
AB8
100
AcDbEntity
  8
245
100
AcDbLine
 10
-46.0
 20
-15.0
 30
0.0
 11
-46.0
 21
15.0
 31
0.0
1001
GENIUS_GENOREF_13
1005
0
  0
LINE
  5
F4A
330
AB8
100
AcDbEntity
  8
240
100
AcDbLine
 10
-19.0
 20
-15.0
 30
0.0
 11
-14.5
 21
-15.0
 31
0.0
  0
LINE
  5
F4B
330
AB8
100
AcDbEntity
  8
240
100
AcDbLine
 10
-38.0
 20
-12.5
 30
0.0
 11
-35.5
 21
-15.0
 31
0.0
  0
LINE
  5
F4C
330
AB8
100
AcDbEntity
  8
240
100
AcDbLine
 10
-46.0
 20
-12.5
 30
0.0
 11
-38.0
 21
-12.5
 31
0.0
  0
LINE
  5
F4D
330
AB8
100
AcDbEntity
  8
240
100
AcDbLine
 10
-54.0
 20
-12.5
 30
0.0
 11
-46.0
 21
-12.5
 31
0.0
  0
LINE
  5
F4E
330
AB8
100
AcDbEntity
  8
240
100
AcDbLine
 10
-29.5
 20
-15.0
 30
0.0
 11
-21.5
 21
-15.0
 31
0.0
  0
ARC
  5
F4F
330
AB8
100
AcDbEntity
  8
240
100
AcDbCircle
 10
-30.75
 20
-13.75
 30
0.0
 40
1.24999999999827
100
AcDbArc
 50
180.0
 51
0.0
  0
LINE
  5
F50
330
AB8
100
AcDbEntity
  8
240
100
AcDbLine
 10
-35.5
 20
-15.0
 30
0.0
 11
-32.0
 21
-15.0
 31
0.0
  0
LINE
  5
F51
330
AB8
100
AcDbEntity
  8
240
100
AcDbLine
 10
-32.0
 20
-13.75
 30
0.0
 11
-32.0
 21
-15.0
 31
0.0
  0
LINE
  5
F52
330
AB8
100
AcDbEntity
  8
240
100
AcDbLine
 10
-29.5
 20
-13.75
 30
0.0
 11
-29.5
 21
-15.0
 31
0.0
  0
ARC
  5
F53
330
AB8
100
AcDbEntity
  8
240
100
AcDbCircle
 10
-20.25
 20
-13.75
 30
0.0
 40
1.249999999998089
100
AcDbArc
 50
180.0
 51
0.0
  0
LINE
  5
F54
330
AB8
100
AcDbEntity
  8
240
100
AcDbLine
 10
-21.5
 20
-13.75
 30
0.0
 11
-21.5
 21
-15.0
 31
0.0
  0
LINE
  5
F55
330
AB8
100
AcDbEntity
  8
240
100
AcDbLine
 10
-19.0
 20
-13.75
 30
0.0
 11
-19.0
 21
-15.0
 31
0.0
  0
LINE
  5
F56
330
AB8
100
AcDbEntity
  8
240
100
AcDbLine
 10
-7.5
 20
-19.00000001
 30
0.0
 11
-6.12626128
 21
-19.5
 31
0.0
  0
LINE
  5
F57
330
AB8
100
AcDbEntity
  8
240
100
AcDbLine
 10
-13.0
 20
-15.5
 30
0.0
 11
-13.5
 21
-16.0
 31
0.0
  0
LINE
  5
F58
330
AB8
100
AcDbEntity
  8
240
100
AcDbLine
 10
-7.50000001
 20
-19.0
 30
0.0
 11
-13.5
 21
-19.0
 31
0.0
  0
LINE
  5
F59
330
AB8
100
AcDbEntity
  8
240
100
AcDbLine
 10
-13.5
 20
-19.0
 30
0.0
 11
-13.5
 21
-16.0
 31
0.0
  0
LINE
  5
F5A
330
AB8
100
AcDbEntity
  8
241
  6
CONTINUOUS
100
AcDbLine
 10
-7.5
 20
-15.2
 30
0.0
 11
-13.0
 21
-15.2
 31
0.0
  0
LINE
  5
F5B
330
AB8
100
AcDbEntity
  8
240
100
AcDbLine
 10
-13.0
 20
-15.5
 30
0.0
 11
-13.0
 21
-14.7
 31
0.0
  0
LINE
  5
F5C
330
AB8
100
AcDbEntity
  8
240
100
AcDbLine
 10
-14.2
 20
-14.7
 30
0.0
 11
-13.0
 21
-14.7
 31
0.0
  0
LINE
  5
F5D
330
AB8
100
AcDbEntity
  8
240
100
AcDbLine
 10
-14.2
 20
-14.7
 30
0.0
 11
-14.5
 21
-15.0
 31
0.0
  0
LINE
  5
F5E
330
AB8
100
AcDbEntity
  8
240
100
AcDbLine
 10
0.19859884
 20
-18.75881905
 30
0.0
 11
1.00717253
 21
-15.74118096
 31
0.0
  0
ARC
  5
F5F
330
AB8
100
AcDbEntity
  8
240
100
AcDbCircle
 10
-3.25
 20
-18.25
 30
0.0
 40
1.250000000000339
100
AcDbArc
 50
180.0
 51
0.0
  0
LINE
  5
F60
330
AB8
100
AcDbEntity
  8
240
100
AcDbLine
 10
-4.5
 20
-19.5
 30
0.0
 11
-6.12626129
 21
-19.5
 31
0.0
  0
LINE
  5
F61
330
AB8
100
AcDbEntity
  8
240
100
AcDbLine
 10
-4.5
 20
-18.25
 30
0.0
 11
-4.5
 21
-19.5
 31
0.0
  0
LINE
  5
F62
330
AB8
100
AcDbEntity
  8
240
100
AcDbLine
 10
-0.63567449
 20
-19.5
 30
0.0
 11
-2.0
 21
-19.5
 31
0.0
  0
LINE
  5
F63
330
AB8
100
AcDbEntity
  8
240
100
AcDbLine
 10
-2.0
 20
-18.25
 30
0.0
 11
-2.0
 21
-19.5
 31
0.0
  0
ARC
  5
F64
330
AB8
100
AcDbEntity
  8
240
100
AcDbCircle
 10
-0.76732699
 20
-18.5
 30
0.0
 40
1.0
100
AcDbArc
 50
285.0
 51
345.0
1001
GENIUS_GENOBJ-N-FIL_13
1002
{
1000
OWNER
1000
GEN
1002
}
1001
GENIUS_GENODEF_13
1002
{
1000
HIER
1070
     0
1002
}
1002
{
1000
MANEDIT
1070
     0
1002
}
1002
{
1000
NOSEL
1070
     0
1002
}
1002
{
1000
BEHIND
1070
     0
1002
}
1002
{
1000
OTHER
1070
     0
1002
}
1002
{
1000
REACTOR
1002
}
  0
LINE
  5
F65
330
AB8
100
AcDbEntity
  8
240
100
AcDbLine
 10
-0.50850794
 20
-19.46592583
 30
0.0
 11
-0.63567449
 21
-19.5
 31
0.0
  0
ARC
  5
F66
330
AB8
100
AcDbEntity
  8
240
100
AcDbCircle
 10
1.97309836
 20
-16.0
 30
0.0
 40
1.0
100
AcDbArc
 50
90.0
 51
165.00000002
  0
LINE
  5
F67
330
AB8
100
AcDbEntity
  8
240
100
AcDbLine
 10
-19.0
 20
15.0
 30
0.0
 11
-14.5
 21
15.0
 31
0.0
  0
LINE
  5
F68
330
AB8
100
AcDbEntity
  8
240
100
AcDbLine
 10
-38.0
 20
12.5
 30
0.0
 11
-35.5
 21
15.0
 31
0.0
  0
LINE
  5
F69
330
AB8
100
AcDbEntity
  8
240
100
AcDbLine
 10
-46.0
 20
12.5
 30
0.0
 11
-38.0
 21
12.5
 31
0.0
  0
LINE
  5
F6A
330
AB8
100
AcDbEntity
  8
240
100
AcDbLine
 10
-54.0
 20
12.5
 30
0.0
 11
-46.0
 21
12.5
 31
0.0
  0
LINE
  5
F6B
330
AB8
100
AcDbEntity
  8
241
100
AcDbLine
 10
-21.5
 20
13.75
 30
0.0
 11
-21.5
 21
0.0
 31
0.0
  0
LINE
  5
F6C
330
AB8
100
AcDbEntity
  8
241
100
AcDbLine
 10
-19.0
 20
13.75
 30
0.0
 11
-19.0
 21
0.0
 31
0.0
  0
LINE
  5
F6D
330
AB8
100
AcDbEntity
  8
241
100
AcDbLine
 10
-32.0
 20
13.75
 30
0.0
 11
-32.0
 21
0.0
 31
0.0
  0
LINE
  5
F6E
330
AB8
100
AcDbEntity
  8
241
100
AcDbLine
 10
-29.5
 20
13.75
 30
0.0
 11
-29.5
 21
0.0
 31
0.0
  0
ELLIPSE
  5
F6F
330
AB8
100
AcDbEntity
  8
241
100
AcDbEllipse
 10
-25.5000349
 20
-5.08449496
 30
0.0
 11
-2.000524505802109
 21
0.0
 31
0.0
210
0.0
220
0.0
230
1.0
 40
0.93944625
 41
0.0
 42
6.283185307179584
  0
LINE
  5
F70
330
AB8
100
AcDbEntity
  8
245
100
AcDbLine
 10
-27.4999651
 20
-5.13030215
 30
0.0
 11
-23.5000349
 21
-5.13030215
 31
0.0
  0
LINE
  5
F71
330
AB8
100
AcDbEntity
  8
245
100
AcDbLine
 10
-25.5000349
 20
-3.20510972
 30
0.0
 11
-25.5000349
 21
-6.96388021
 31
0.0
  0
LINE
  5
F72
330
AB8
100
AcDbEntity
  8
240
100
AcDbLine
 10
-29.5
 20
15.0
 30
0.0
 11
-21.5
 21
15.0
 31
0.0
  0
ARC
  5
F73
330
AB8
100
AcDbEntity
  8
240
100
AcDbCircle
 10
-30.75
 20
13.75
 30
0.0
 40
1.24999999999827
100
AcDbArc
 50
0.0
 51
180.0
  0
LINE
  5
F74
330
AB8
100
AcDbEntity
  8
240
100
AcDbLine
 10
-35.5
 20
15.0
 30
0.0
 11
-32.0
 21
15.0
 31
0.0
  0
LINE
  5
F75
330
AB8
100
AcDbEntity
  8
240
100
AcDbLine
 10
-32.0
 20
13.75
 30
0.0
 11
-32.0
 21
15.0
 31
0.0
  0
LINE
  5
F76
330
AB8
100
AcDbEntity
  8
240
100
AcDbLine
 10
-29.5
 20
13.75
 30
0.0
 11
-29.5
 21
15.0
 31
0.0
  0
ARC
  5
F77
330
AB8
100
AcDbEntity
  8
240
100
AcDbCircle
 10
-20.25
 20
13.75
 30
0.0
 40
1.249999999998089
100
AcDbArc
 50
0.0
 51
180.0
  0
LINE
  5
F78
330
AB8
100
AcDbEntity
  8
240
100
AcDbLine
 10
-21.5
 20
13.75
 30
0.0
 11
-21.5
 21
15.0
 31
0.0
  0
LINE
  5
F79
330
AB8
100
AcDbEntity
  8
240
100
AcDbLine
 10
-19.0
 20
13.75
 30
0.0
 11
-19.0
 21
15.0
 31
0.0
  0
LINE
  5
F7A
330
AB8
100
AcDbEntity
  8
241
100
AcDbLine
 10
-4.5
 20
18.25
 30
0.0
 11
-4.5
 21
0.0
 31
0.0
  0
LINE
  5
F7B
330
AB8
100
AcDbEntity
  8
241
100
AcDbLine
 10
-2.0
 20
18.25
 30
0.0
 11
-2.0
 21
0.0
 31
0.0
  0
LINE
  5
F7C
330
AB8
100
AcDbEntity
  8
241
100
AcDbLine
 10
0.0
 20
19.14125603
 30
0.0
 11
0.0
 21
0.0
 31
0.0
  0
LINE
  5
F7D
330
AB8
100
AcDbEntity
  8
241
  6
CONTINUOUS
100
AcDbLine
 10
-7.5
 20
19.00000001
 30
0.0
 11
-7.5
 21
0.0
 31
0.0
  0
LINE
  5
F7E
330
AB8
100
AcDbEntity
  8
241
100
AcDbLine
 10
-6.12626129
 20
19.5
 30
0.0
 11
-6.12626129
 21
0.0
 31
0.0
  0
LINE
  5
F7F
330
AB8
100
AcDbEntity
  8
241
100
AcDbLine
 10
1.20577137
 20
15.35874397
 30
0.0
 11
1.20577137
 21
0.0
 31
0.0
  0
ARC
  5
F80
330
AB8
100
AcDbEntity
  8
240
100
AcDbCircle
 10
1.97309836
 20
16.0
 30
0.0
 40
1.0
100
AcDbArc
 50
194.99999998
 51
270.0
  0
LINE
  5
F81
330
AB8
100
AcDbEntity
  8
240
100
AcDbLine
 10
-13.0
 20
15.5
 30
0.0
 11
-13.0
 21
14.7
 31
0.0
  0
LINE
  5
F82
330
AB8
100
AcDbEntity
  8
241
100
AcDbLine
 10
-14.5
 20
15.0
 30
0.0
 11
-14.5
 21
0.0
 31
0.0
  0
LINE
  5
F83
330
AB8
100
AcDbEntity
  8
240
100
AcDbLine
 10
-14.2
 20
14.7
 30
0.0
 11
-14.5
 21
15.0
 31
0.0
  0
LINE
  5
F84
330
AB8
100
AcDbEntity
  8
240
100
AcDbLine
 10
-14.2
 20
14.7
 30
0.0
 11
-13.0
 21
14.7
 31
0.0
  0
LINE
  5
F85
330
AB8
100
AcDbEntity
  8
0
100
AcDbLine
 10
12.14383848
 20
7.46665846
 30
0.0
 11
13.23493298
 21
8.55775297
 31
0.0
  0
ARC
  5
F86
330
AB8
100
AcDbEntity
  8
0
100
AcDbCircle
 10
12.48081101
 20
9.9528556
 30
0.0
 40
0.3819450080394744
100
AcDbArc
 50
1.71012138
 51
163.99839835
  0
LINE
  5
F87
330
AB8
100
AcDbEntity
  8
0
100
AcDbLine
 10
12.28857773
 20
8.95253669
 30
0.0
 11
12.39287918
 21
9.31629403
 31
0.0
  0
LINE
  5
F88
330
AB8
100
AcDbEntity
  8
0
100
AcDbLine
 10
12.28857773
 20
8.95253669
 30
0.0
 11
12.591306
 21
8.95253669
 31
0.0
  0
LINE
  5
F89
330
AB8
100
AcDbEntity
  8
0
100
AcDbLine
 10
6.52362564
 20
6.91550625
 30
0.0
 11
13.90785264
 21
6.91550625
 31
0.0
  0
LINE
  5
F8A
330
AB8
100
AcDbEntity
  8
0
100
AcDbLine
 10
6.52362564
 20
7.27926357
 30
0.0
 11
13.90785264
 21
7.27926357
 31
0.0
  0
ARC
  5
F8B
330
AB8
100
AcDbEntity
  8
0
100
AcDbCircle
 10
13.90785264
 20
8.82521889
 30
0.0
 40
1.909712219238279
100
AcDbArc
 50
270.0
 51
104.77079397
  0
ARC
  5
F8C
330
AB8
100
AcDbEntity
  8
0
100
AcDbCircle
 10
11.99057358
 20
8.24321816
 30
0.0
 40
0.3819447398185731
100
AcDbArc
 50
164.00027306
 51
344.00027306
  0
ARC
  5
F8D
330
AB8
100
AcDbEntity
  8
0
100
AcDbCircle
 10
12.02962998
 20
8.64334023
 30
0.0
 40
1.182211303710936
100
AcDbArc
 50
163.9997507
 51
304.96387329
  0
ARC
  5
F8E
330
AB8
100
AcDbEntity
  8
0
100
AcDbCircle
 10
12.29039047
 20
9.55273354
 30
0.0
 40
1.182199287414549
100
AcDbArc
 50
53.4440122
 51
164.00018439
  0
LINE
  5
F8F
330
AB8
100
AcDbEntity
  8
0
100
AcDbLine
 10
10.90563296
 20
9.05723361
 30
0.0
 11
12.55364784
 21
10.70524849
 31
0.0
  0
LINE
  5
F90
330
AB8
100
AcDbEntity
  8
0
100
AcDbLine
 10
11.9967978
 20
6.91550625
 30
0.0
 11
12.36055512
 21
7.27926357
 31
0.0
  0
LINE
  5
F91
330
AB8
100
AcDbEntity
  8
0
100
AcDbLine
 10
9.65691545
 20
8.61673915
 30
0.0
 11
10.79758546
 21
9.75740915
 31
0.0
  0
LINE
  5
F92
330
AB8
100
AcDbEntity
  8
0
100
AcDbLine
 10
9.49445155
 20
8.05016373
 30
0.0
 11
10.63512378
 21
9.19083596
 31
0.0
  0
LINE
  5
F93
330
AB8
100
AcDbEntity
  8
0
100
AcDbLine
 10
10.13914384
 20
7.46114223
 30
0.0
 11
11.07788437
 21
10.73493111
 31
0.0
  0
LINE
  5
F94
330
AB8
100
AcDbEntity
  8
0
100
AcDbLine
 10
10.13914384
 20
7.46114223
 30
0.0
 11
11.07788437
 21
10.73493111
 31
0.0
1001
HATCH_DISTANCE
1040
1.0
1001
HATCH_DISPLAY
1070
     0
1001
HATCH_TYPE
1070
     7
  0
LINE
  5
F95
330
AB8
100
AcDbEntity
  8
0
100
AcDbLine
 10
10.13914384
 20
7.46114223
 30
0.0
 11
11.07788437
 21
10.73493111
 31
0.0
  0
LINE
  5
F96
330
AB8
100
AcDbEntity
  8
0
100
AcDbLine
 10
10.14956711
 20
10.33480904
 30
0.0
 11
9.3255513
 21
7.46114223
 31
0.0
  0
LINE
  5
F97
330
AB8
100
AcDbEntity
  8
0
100
AcDbLine
 10
10.14956711
 20
10.33480904
 30
0.0
 11
9.3255513
 21
7.46114223
 31
0.0
1001
HATCH_DISTANCE
1040
1.0
1001
HATCH_DISPLAY
1070
     0
1001
HATCH_TYPE
1070
     7
  0
LINE
  5
F98
330
AB8
100
AcDbEntity
  8
0
100
AcDbLine
 10
9.3255513
 20
7.46114223
 30
0.0
 11
10.14956711
 21
10.33480904
 31
0.0
  0
LINE
  5
F99
330
AB8
100
AcDbEntity
  8
0
100
AcDbLine
 10
8.35125179
 20
8.52341007
 30
0.0
 11
9.54402739
 21
9.71618567
 31
0.0
  0
ARC
  5
F9A
330
AB8
100
AcDbEntity
  8
0
100
AcDbCircle
 10
7.81819962
 20
8.40690071
 30
0.0
 40
0.5456363618373872
100
AcDbArc
 50
261.66285421
 51
66.33819216
  0
LINE
  5
F9B
330
AB8
100
AcDbEntity
  8
0
100
AcDbLine
 10
8.03718371
 20
8.90666566
 30
0.0
 11
7.73908378
 21
7.86703061
 31
0.0
  0
ARC
  5
F9C
330
AB8
100
AcDbEntity
  8
0
100
AcDbCircle
 10
8.22402085
 20
8.37052223
 30
0.0
 40
0.9093795776367187
100
AcDbArc
 50
270.0
 51
40.32984065
  0
LINE
  5
F9D
330
AB8
100
AcDbEntity
  8
0
100
AcDbLine
 10
8.21018837
 20
8.78645817
 30
0.0
 11
9.51188621
 21
10.08815602
 31
0.0
  0
LINE
  5
F9E
330
AB8
100
AcDbEntity
  8
0
100
AcDbLine
 10
10.84837246
 20
8.59586158
 30
0.0
 11
12.0344643
 21
9.78195343
 31
0.0
  0
LINE
  5
F9F
330
AB8
100
AcDbEntity
  8
0
100
AcDbLine
 10
10.91266056
 20
8.25603817
 30
0.0
 11
11.8720005
 21
9.21537811
 31
0.0
  0
ARC
  5
FA0
330
AB8
100
AcDbEntity
  8
0
100
AcDbCircle
 10
6.52362564
 20
8.82521889
 30
0.0
 40
1.909712219238279
100
AcDbArc
 50
90.0
 51
270.0
  0
ARC
  5
FA1
330
AB8
100
AcDbEntity
  8
0
100
AcDbCircle
 10
6.52362564
 20
8.82521889
 30
0.0
 40
1.545954895019525
100
AcDbArc
 50
90.0
 51
270.0
  0
LINE
  5
FA2
330
AB8
100
AcDbEntity
  8
0
100
AcDbLine
 10
4.61391444
 20
8.82718797
 30
0.0
 11
5.03735371
 21
9.25062724
 31
0.0
  0
LINE
  5
FA3
330
AB8
100
AcDbEntity
  8
0
100
AcDbLine
 10
6.71449937
 20
7.46114223
 30
0.0
 11
7.54893845
 21
10.37117379
 31
0.0
  0
LINE
  5
FA4
330
AB8
100
AcDbEntity
  8
0
100
AcDbLine
 10
6.80846796
 20
7.78884929
 30
0.0
 11
8.34756332
 21
9.32794466
 31
0.0
  0
LINE
  5
FA5
330
AB8
100
AcDbEntity
  8
0
100
AcDbLine
 10
6.9709307
 20
8.35542356
 30
0.0
 11
8.24423776
 21
9.62873061
 31
0.0
  0
LINE
  5
FA6
330
AB8
100
AcDbEntity
  8
0
100
AcDbLine
 10
11.62342423
 20
8.34849465
 30
0.0
 11
12.11366166
 21
10.05814583
 31
0.0
  0
LINE
  5
FA7
330
AB8
100
AcDbEntity
  8
0
100
AcDbLine
 10
6.88487243
 20
7.46114223
 30
0.0
 11
7.91931131
 21
8.49558111
 31
0.0
  0
LINE
  5
FA8
330
AB8
100
AcDbEntity
  8
0
100
AcDbLine
 10
6.71449937
 20
7.46114223
 30
0.0
 11
8.22402085
 21
7.46114223
 31
0.0
  0
LINE
  5
FA9
330
AB8
100
AcDbEntity
  8
0
100
AcDbLine
 10
7.28898395
 20
7.46114223
 30
0.0
 11
7.75685694
 21
7.92901521
 31
0.0
  0
LINE
  5
FAA
330
AB8
100
AcDbEntity
  8
0
100
AcDbLine
 10
5.22879162
 20
7.42150753
 30
0.0
 11
5.48626548
 21
7.67898139
 31
0.0
  0
LINE
  5
FAB
330
AB8
100
AcDbEntity
  8
0
100
AcDbLine
 10
4.73938093
 20
8.14443142
 30
0.0
 11
5.02818955
 21
8.43324003
 31
0.0
  0
LINE
  5
FAC
330
AB8
100
AcDbEntity
  8
0
100
AcDbLine
 10
4.86964099
 20
7.87057995
 30
0.0
 11
5.13823219
 21
8.13917115
 31
0.0
  0
LINE
  5
FAD
330
AB8
100
AcDbEntity
  8
0
100
AcDbLine
 10
5.03373079
 20
7.63055823
 30
0.0
 11
5.29286615
 21
7.88969359
 31
0.0
  0
LINE
  5
FAE
330
AB8
100
AcDbEntity
  8
0
100
AcDbLine
 10
4.64943532
 20
8.45859733
 30
0.0
 11
4.97813591
 21
8.78729792
 31
0.0
  0
LINE
  5
FAF
330
AB8
100
AcDbEntity
  8
0
100
AcDbLine
 10
6.34738644
 20
6.92365624
 30
0.0
 11
6.70299376
 21
7.27926357
 31
0.0
  0
LINE
  5
FB0
330
AB8
100
AcDbEntity
  8
0
100
AcDbLine
 10
6.74334797
 20
6.91550625
 30
0.0
 11
7.10710529
 21
7.27926357
 31
0.0
  0
LINE
  5
FB1
330
AB8
100
AcDbEntity
  8
0
100
AcDbLine
 10
6.00647945
 20
6.98686077
 30
0.0
 11
6.313262
 21
7.29364334
 31
0.0
  0
LINE
  5
FB2
330
AB8
100
AcDbEntity
  8
0
100
AcDbLine
 10
5.45433314
 20
7.24293753
 30
0.0
 11
5.71748238
 21
7.50608677
 31
0.0
  0
LINE
  5
FB3
330
AB8
100
AcDbEntity
  8
0
100
AcDbLine
 10
5.7120451
 20
7.09653795
 30
0.0
 11
5.98984525
 21
7.37433811
 31
0.0
  0
LINE
  5
FB4
330
AB8
100
AcDbEntity
  8
0
100
AcDbLine
 10
7.1474595
 20
6.91550625
 30
0.0
 11
7.51121681
 21
7.27926357
 31
0.0
  0
LINE
  5
FB5
330
AB8
100
AcDbEntity
  8
0
100
AcDbLine
 10
9.97624018
 20
6.91550625
 30
0.0
 11
10.33999748
 21
7.27926357
 31
0.0
  0
LINE
  5
FB6
330
AB8
100
AcDbEntity
  8
0
100
AcDbLine
 10
9.7136531
 20
7.46114223
 30
0.0
 11
10.31020042
 21
8.05768954
 31
0.0
  0
LINE
  5
FB7
330
AB8
100
AcDbEntity
  8
0
100
AcDbLine
 10
9.33198766
 20
7.4835883
 30
0.0
 11
10.4726621
 21
8.62426275
 31
0.0
  0
LINE
  5
FB8
330
AB8
100
AcDbEntity
  8
0
100
AcDbLine
 10
7.55157102
 20
6.91550625
 30
0.0
 11
7.91532834
 21
7.27926357
 31
0.0
  0
LINE
  5
FB9
330
AB8
100
AcDbEntity
  8
0
100
AcDbLine
 10
7.95568255
 20
6.91550625
 30
0.0
 11
8.31943986
 21
7.27926357
 31
0.0
  0
LINE
  5
FBA
330
AB8
100
AcDbEntity
  8
0
100
AcDbLine
 10
8.35979407
 20
6.91550625
 30
0.0
 11
8.72355139
 21
7.27926357
 31
0.0
  0
LINE
  5
FBB
330
AB8
100
AcDbEntity
  8
0
100
AcDbLine
 10
8.76390559
 20
6.91550625
 30
0.0
 11
9.12766291
 21
7.27926357
 31
0.0
  0
LINE
  5
FBC
330
AB8
100
AcDbEntity
  8
0
100
AcDbLine
 10
9.16801712
 20
6.91550625
 30
0.0
 11
9.53177444
 21
7.27926357
 31
0.0
  0
LINE
  5
FBD
330
AB8
100
AcDbEntity
  8
0
100
AcDbLine
 10
9.57212864
 20
6.91550625
 30
0.0
 11
9.93588596
 21
7.27926357
 31
0.0
  0
LINE
  5
FBE
330
AB8
100
AcDbEntity
  8
0
100
AcDbLine
 10
9.3255513
 20
7.46114223
 30
0.0
 11
10.13914384
 21
7.46114223
 31
0.0
  0
LINE
  5
FBF
330
AB8
100
AcDbEntity
  8
0
100
AcDbLine
 10
9.3255513
 20
7.46114223
 30
0.0
 11
10.13914384
 21
7.46114223
 31
0.0
1001
HATCH_DISTANCE
1040
1.0
1001
HATCH_DISPLAY
1070
     0
1001
HATCH_TYPE
1070
     7
  0
LINE
  5
FC0
330
AB8
100
AcDbEntity
  8
0
100
AcDbLine
 10
9.3255513
 20
7.46114223
 30
0.0
 11
10.13914384
 21
7.46114223
 31
0.0
  0
LINE
  5
FC1
330
AB8
100
AcDbEntity
  8
0
100
AcDbLine
 10
8.097207
 20
7.46114223
 30
0.0
 11
9.12558146
 21
8.48951668
 31
0.0
  0
LINE
  5
FC2
330
AB8
100
AcDbEntity
  8
0
100
AcDbLine
 10
8.56949959
 20
7.52932329
 30
0.0
 11
9.06521978
 21
8.02504349
 31
0.0
  0
LINE
  5
FC3
330
AB8
100
AcDbEntity
  8
0
100
AcDbLine
 10
10.11776462
 20
7.46114223
 30
0.0
 11
10.14773874
 21
7.49111635
 31
0.0
  0
LINE
  5
FC4
330
AB8
100
AcDbEntity
  8
0
100
AcDbLine
 10
7.69309547
 20
7.46114223
 30
0.0
 11
9.0278038
 21
8.79585056
 31
0.0
  0
LINE
  5
FC5
330
AB8
100
AcDbEntity
  8
0
100
AcDbLine
 10
11.04690382
 20
7.98616989
 30
0.0
 11
11.7095367
 21
8.64880277
 31
0.0
  0
LINE
  5
FC6
330
AB8
100
AcDbEntity
  8
0
100
AcDbLine
 10
11.23388146
 20
7.76903601
 30
0.0
 11
11.61912754
 21
8.15428209
 31
0.0
  0
LINE
  5
FC7
330
AB8
100
AcDbEntity
  8
0
100
AcDbLine
 10
11.4706075
 20
7.60165053
 30
0.0
 11
11.78823151
 21
7.91927453
 31
0.0
  0
LINE
  5
FC8
330
AB8
100
AcDbEntity
  8
0
100
AcDbLine
 10
10.3803517
 20
6.91550625
 30
0.0
 11
10.74410902
 21
7.27926357
 31
0.0
  0
LINE
  5
FC9
330
AB8
100
AcDbEntity
  8
0
100
AcDbLine
 10
10.78446323
 20
6.91550625
 30
0.0
 11
11.14822054
 21
7.27926357
 31
0.0
  0
LINE
  5
FCA
330
AB8
100
AcDbEntity
  8
0
100
AcDbLine
 10
11.18857475
 20
6.91550625
 30
0.0
 11
11.55233207
 21
7.27926357
 31
0.0
  0
LINE
  5
FCB
330
AB8
100
AcDbEntity
  8
0
100
AcDbLine
 10
11.59268628
 20
6.91550625
 30
0.0
 11
11.95644359
 21
7.27926357
 31
0.0
  0
LINE
  5
FCC
330
AB8
100
AcDbEntity
  8
0
100
AcDbLine
 10
11.7643462
 20
7.4912777
 30
0.0
 11
12.19140325
 21
7.91833474
 31
0.0
  0
LINE
  5
FCD
330
AB8
100
AcDbEntity
  8
0
100
AcDbLine
 10
7.46402786
 20
10.73493111
 30
0.0
 11
8.63749212
 21
10.73493111
 31
0.0
  0
LINE
  5
FCE
330
AB8
100
AcDbEntity
  8
0
100
AcDbLine
 10
7.45831895
 20
10.05514637
 30
0.0
 11
8.13810367
 21
10.73493111
 31
0.0
  0
LINE
  5
FCF
330
AB8
100
AcDbEntity
  8
0
100
AcDbLine
 10
7.37023483
 20
10.37117379
 30
0.0
 11
7.73399215
 21
10.73493111
 31
0.0
  0
LINE
  5
FD0
330
AB8
100
AcDbEntity
  8
0
100
AcDbLine
 10
7.35972642
 20
10.37117379
 30
0.0
 11
7.54893845
 21
10.37117379
 31
0.0
  0
LINE
  5
FD1
330
AB8
100
AcDbEntity
  8
0
100
AcDbLine
 10
7.13339345
 20
8.92199783
 30
0.0
 11
8.40669514
 21
10.19529952
 31
0.0
  0
LINE
  5
FD2
330
AB8
100
AcDbEntity
  8
0
100
AcDbLine
 10
7.2958562
 20
9.48857211
 30
0.0
 11
8.5422152
 21
10.73493111
 31
0.0
  0
LINE
  5
FD3
330
AB8
100
AcDbEntity
  8
0
100
AcDbLine
 10
7.46402786
 20
10.73493111
 30
0.0
 11
7.35972642
 21
10.37117379
 31
0.0
  0
LINE
  5
FD4
330
AB8
100
AcDbEntity
  8
0
100
AcDbLine
 10
4.67090785
 20
9.28829291
 30
0.0
 11
6.06055162
 21
10.67793668
 31
0.0
  0
LINE
  5
FD5
330
AB8
100
AcDbEntity
  8
0
100
AcDbLine
 10
6.52362564
 20
10.73493111
 30
0.0
 11
7.27482956
 21
10.73493111
 31
0.0
  0
LINE
  5
FD6
330
AB8
100
AcDbEntity
  8
0
100
AcDbLine
 10
6.52362564
 20
10.37117379
 30
0.0
 11
7.17052811
 21
10.37117379
 31
0.0
  0
LINE
  5
FD7
330
AB8
100
AcDbEntity
  8
0
100
AcDbLine
 10
6.9661233
 20
10.37117379
 30
0.0
 11
7.252699
 21
10.65774947
 31
0.0
  0
LINE
  5
FD8
330
AB8
100
AcDbEntity
  8
0
100
AcDbLine
 10
6.09821729
 20
10.31149083
 30
0.0
 11
6.52165656
 21
10.73493009
 31
0.0
  0
LINE
  5
FD9
330
AB8
100
AcDbEntity
  8
0
100
AcDbLine
 10
6.56201178
 20
10.37117379
 30
0.0
 11
6.9257691
 21
10.73493111
 31
0.0
  0
LINE
  5
FDA
330
AB8
100
AcDbEntity
  8
0
100
AcDbLine
 10
7.27482956
 20
10.73493111
 30
0.0
 11
7.17052811
 21
10.37117379
 31
0.0
  0
LINE
  5
FDB
330
AB8
100
AcDbEntity
  8
0
100
AcDbLine
 10
9.81937934
 20
9.18331456
 30
0.0
 11
10.96004713
 21
10.32398236
 31
0.0
  0
LINE
  5
FDC
330
AB8
100
AcDbEntity
  8
0
100
AcDbLine
 10
10.14430712
 20
10.31646541
 30
0.0
 11
10.56277283
 21
10.73493111
 31
0.0
  0
LINE
  5
FDD
330
AB8
100
AcDbEntity
  8
0
100
AcDbLine
 10
9.98184323
 20
9.74988999
 30
0.0
 11
10.96688436
 21
10.73493111
 31
0.0
  0
LINE
  5
FDE
330
AB8
100
AcDbEntity
  8
0
100
AcDbLine
 10
11.07788437
 20
10.73493111
 30
0.0
 11
10.13185166
 21
10.73493111
 31
0.0
  0
LINE
  5
FDF
330
AB8
100
AcDbEntity
  8
0
100
AcDbLine
 10
11.07788437
 20
10.73493111
 30
0.0
 11
10.13185166
 21
10.73493111
 31
0.0
1001
HATCH_DISTANCE
1040
1.0
1001
HATCH_DISPLAY
1070
     0
1001
HATCH_TYPE
1070
     7
  0
LINE
  5
FE0
330
AB8
100
AcDbEntity
  8
0
100
AcDbLine
 10
10.13185166
 20
10.73493111
 30
0.0
 11
11.07788437
 21
10.73493111
 31
0.0
  0
LINE
  5
FE1
330
AB8
100
AcDbEntity
  8
0
100
AcDbLine
 10
8.76939078
 20
9.74977211
 30
0.0
 11
9.37810355
 21
10.35848488
 31
0.0
  0
ARC
  5
FE2
330
AB8
100
AcDbEntity
  8
0
100
AcDbCircle
 10
8.23541916
 20
9.86191628
 30
0.0
 40
0.5456207513809207
100
AcDbArc
 50
261.66260169
 51
66.3381551
  0
LINE
  5
FE3
330
AB8
100
AcDbEntity
  8
0
100
AcDbLine
 10
8.45439892
 20
10.36166608
 30
0.0
 11
8.15630388
 21
9.32206187
 31
0.0
  0
LINE
  5
FE4
330
AB8
100
AcDbEntity
  8
0
100
AcDbLine
 10
8.72276742
 20
10.10726027
 30
0.0
 11
9.17634593
 21
10.56083878
 31
0.0
  0
LINE
  5
FE5
330
AB8
100
AcDbEntity
  8
0
100
AcDbLine
 10
8.53156748
 20
10.32017186
 30
0.0
 11
8.90672046
 21
10.69532483
 31
0.0
  0
ARC
  5
FE6
330
AB8
100
AcDbEntity
  8
0
100
AcDbCircle
 10
8.64124039
 20
9.82555153
 30
0.0
 40
0.9093873023986816
100
AcDbArc
 50
287.66957755
 51
90.23615984
  0
LINE
  5
FE7
330
AB8
100
AcDbEntity
  8
0
100
AcDbLine
 10
10.12107284
 20
10.69734265
 30
0.0
 11
10.15866131
 21
10.73493111
 31
0.0
  0
LINE
  5
FE8
330
AB8
100
AcDbEntity
  8
0
100
AcDbLine
 10
10.0171132
 20
10.33480904
 30
0.0
 11
10.14956711
 21
10.33480904
 31
0.0
  0
LINE
  5
FE9
330
AB8
100
AcDbEntity
  8
0
100
AcDbLine
 10
10.13185166
 20
10.73493111
 30
0.0
 11
10.0171132
 21
10.33480904
 31
0.0
  0
LINE
  5
FEA
330
AB8
100
AcDbEntity
  8
0
100
AcDbLine
 10
10.0171132
 20
10.33480904
 30
0.0
 11
10.14956711
 21
10.33480904
 31
0.0
1001
HATCH_DISTANCE
1040
1.0
1001
HATCH_DISPLAY
1070
     0
1001
HATCH_TYPE
1070
     7
  0
LINE
  5
FEB
330
AB8
100
AcDbEntity
  8
0
100
AcDbLine
 10
10.13185166
 20
10.73493111
 30
0.0
 11
10.0171132
 21
10.33480904
 31
0.0
1001
HATCH_DISTANCE
1040
1.0
1001
HATCH_DISPLAY
1070
     0
1001
HATCH_TYPE
1070
     7
  0
LINE
  5
FEC
330
AB8
100
AcDbEntity
  8
0
100
AcDbLine
 10
10.0171132
 20
10.33480904
 30
0.0
 11
10.13185166
 21
10.73493111
 31
0.0
  0
LINE
  5
FED
330
AB8
100
AcDbEntity
  8
0
100
AcDbLine
 10
10.0171132
 20
10.33480904
 30
0.0
 11
10.14956711
 21
10.33480904
 31
0.0
  0
ARC
  5
FEE
330
AB8
100
AcDbEntity
  8
0
100
AcDbCircle
 10
13.96248215
 20
8.58118508
 30
0.0
 40
3.093695068359374
100
AcDbArc
 50
155.20517737
 51
172.79482596
  0
LINE
  5
FEF
330
AB8
100
AcDbEntity
  8
0
100
AcDbLine
 10
11.03979509
 20
9.59550727
 30
0.0
 11
12.17341967
 21
10.72913185
 31
0.0
  0
ARC
  5
FF0
330
AB8
100
AcDbEntity
  8
0
100
AcDbCircle
 10
13.90785264
 20
8.82521889
 30
0.0
 40
1.545954895019525
100
AcDbArc
 50
270.0
 51
104.1274365
  0
LINE
  5
FF1
330
AB8
100
AcDbEntity
  8
0
100
AcDbLine
 10
12.49876412
 20
8.62980715
 30
0.0
 11
13.185251
 21
9.31629403
 31
0.0
  0
LINE
  5
FF2
330
AB8
100
AcDbEntity
  8
0
100
AcDbLine
 10
12.315457
 20
8.04238849
 30
0.0
 11
13.39739623
 21
9.12432773
 31
0.0
  0
LINE
  5
FF3
330
AB8
100
AcDbEntity
  8
0
100
AcDbLine
 10
12.35772294
 20
8.13794167
 30
0.0
 11
12.591306
 21
8.95253669
 31
0.0
  0
LINE
  5
FF4
330
AB8
100
AcDbEntity
  8
0
100
AcDbLine
 10
12.92048386
 20
7.46114223
 30
0.0
 11
13.45244186
 21
9.31629403
 31
0.0
  0
LINE
  5
FF5
330
AB8
100
AcDbEntity
  8
0
100
AcDbLine
 10
15.45218686
 20
8.7544492
 30
0.0
 11
15.79769855
 21
9.09996089
 31
0.0
  0
LINE
  5
FF6
330
AB8
100
AcDbEntity
  8
0
100
AcDbLine
 10
14.52338526
 20
7.01742455
 30
0.0
 11
15.71564696
 21
8.20968626
 31
0.0
  0
LINE
  5
FF7
330
AB8
100
AcDbEntity
  8
0
100
AcDbLine
 10
12.80502085
 20
6.91550625
 30
0.0
 11
13.16877817
 21
7.27926357
 31
0.0
  0
LINE
  5
FF8
330
AB8
100
AcDbEntity
  8
0
100
AcDbLine
 10
12.73145274
 20
7.65016119
 30
0.0
 11
13.07246974
 21
7.99117819
 31
0.0
  0
LINE
  5
FF9
330
AB8
100
AcDbEntity
  8
0
100
AcDbLine
 10
12.70710191
 20
7.67451045
 30
0.0
 11
12.92048386
 21
7.46114223
 31
0.0
  0
LINE
  5
FFA
330
AB8
100
AcDbEntity
  8
0
100
AcDbLine
 10
13.20913237
 20
6.91550625
 30
0.0
 11
13.57288969
 21
7.27926357
 31
0.0
  0
LINE
  5
FFB
330
AB8
100
AcDbEntity
  8
0
100
AcDbLine
 10
13.6132439
 20
6.91550625
 30
0.0
 11
13.97862232
 21
7.28088466
 31
0.0
  0
LINE
  5
FFC
330
AB8
100
AcDbEntity
  8
0
100
AcDbLine
 10
14.02069247
 20
6.91884328
 30
0.0
 11
14.49831774
 21
7.39646857
 31
0.0
  0
LINE
  5
FFD
330
AB8
100
AcDbEntity
  8
0
100
AcDbLine
 10
12.40090933
 20
6.91550625
 30
0.0
 11
12.76466664
 21
7.27926357
 31
0.0
  0
LINE
  5
FFE
330
AB8
100
AcDbEntity
  8
0
100
AcDbLine
 10
15.33660296
 20
8.23475378
 30
0.0
 11
15.81422824
 21
8.71237906
 31
0.0
  0
LINE
  5
FFF
330
AB8
100
AcDbEntity
  8
0
100
AcDbLine
 10
14.77931854
 20
10.10213851
 30
0.0
 11
15.04019214
 21
10.36301211
 31
0.0
  0
LINE
  5
1000
330
AB8
100
AcDbEntity
  8
0
100
AcDbLine
 10
13.83426695
 20
10.36942149
 30
0.0
 11
14.18024968
 21
10.71540423
 31
0.0
  0
LINE
  5
1001
330
AB8
100
AcDbEntity
  8
0
100
AcDbLine
 10
14.21026418
 20
10.34130721
 30
0.0
 11
14.50735067
 21
10.63839369
 31
0.0
  0
LINE
  5
1002
330
AB8
100
AcDbEntity
  8
0
100
AcDbLine
 10
14.5185203
 20
10.24545181
 30
0.0
 11
14.7913446
 21
10.5182761
 31
0.0
  0
LINE
  5
1003
330
AB8
100
AcDbEntity
  8
0
100
AcDbLine
 10
13.53051347
 20
10.32442696
 30
0.0
 11
13.53051347
 21
10.32442696
 31
0.0
  0
LINE
  5
1004
330
AB8
100
AcDbEntity
  8
0
100
AcDbLine
 10
13.42096604
 20
10.67182839
 30
0.0
 11
13.53051347
 21
10.32442696
 31
0.0
  0
LINE
  5
1005
330
AB8
100
AcDbEntity
  8
0
100
AcDbLine
 10
13.42096604
 20
10.67182839
 30
0.0
 11
13.42096604
 21
10.67182839
 31
0.0
  0
LINE
  5
1006
330
AB8
100
AcDbEntity
  8
0
100
AcDbLine
 10
13.53051347
 20
10.32442696
 30
0.0
 11
13.42096604
 21
10.67182839
 31
0.0
  0
LINE
  5
1007
330
AB8
100
AcDbEntity
  8
0
100
AcDbLine
 10
13.53051347
 20
10.32442696
 30
0.0
 11
13.53051347
 21
10.32442696
 31
0.0
1001
HATCH_DISTANCE
1040
1.0
1001
HATCH_DISPLAY
1070
     0
1001
HATCH_TYPE
1070
     7
  0
LINE
  5
1008
330
AB8
100
AcDbEntity
  8
0
100
AcDbLine
 10
13.42096604
 20
10.67182839
 30
0.0
 11
13.53051347
 21
10.32442696
 31
0.0
1001
HATCH_DISTANCE
1040
1.0
1001
HATCH_DISPLAY
1070
     0
1001
HATCH_TYPE
1070
     7
  0
LINE
  5
1009
330
AB8
100
AcDbEntity
  8
0
100
AcDbLine
 10
13.42096604
 20
10.67182839
 30
0.0
 11
13.42096604
 21
10.67182839
 31
0.0
1001
HATCH_DISTANCE
1040
1.0
1001
HATCH_DISPLAY
1070
     0
1001
HATCH_TYPE
1070
     7
  0
LINE
  5
100A
330
AB8
100
AcDbEntity
  8
0
100
AcDbLine
 10
13.53051347
 20
10.32442696
 30
0.0
 11
13.42096604
 21
10.67182839
 31
0.0
1001
HATCH_DISTANCE
1040
1.0
1001
HATCH_DISPLAY
1070
     0
1001
HATCH_TYPE
1070
     7
  0
LINE
  5
100B
330
AB8
100
AcDbEntity
  8
0
100
AcDbLine
 10
13.53051347
 20
10.32442696
 30
0.0
 11
13.53051347
 21
10.32442696
 31
0.0
  0
LINE
  5
100C
330
AB8
100
AcDbEntity
  8
0
100
AcDbLine
 10
13.42096604
 20
10.67182839
 30
0.0
 11
13.53051347
 21
10.32442696
 31
0.0
  0
LINE
  5
100D
330
AB8
100
AcDbEntity
  8
0
100
AcDbLine
 10
13.42096604
 20
10.67182839
 30
0.0
 11
13.42096604
 21
10.67182839
 31
0.0
  0
LINE
  5
100E
330
AB8
100
AcDbEntity
  8
0
100
AcDbLine
 10
13.53051347
 20
10.32442696
 30
0.0
 11
13.42096604
 21
10.67182839
 31
0.0
  0
LINE
  5
100F
330
AB8
100
AcDbEntity
  8
0
100
AcDbLine
 10
13.53051347
 20
10.32442696
 30
0.0
 11
13.53051347
 21
10.32442696
 31
0.0
1001
HATCH_DISTANCE
1040
1.0
1001
HATCH_DISPLAY
1070
     0
1001
HATCH_TYPE
1070
     7
  0
LINE
  5
1010
330
AB8
100
AcDbEntity
  8
0
100
AcDbLine
 10
13.42096604
 20
10.67182839
 30
0.0
 11
13.53051347
 21
10.32442696
 31
0.0
1001
HATCH_DISTANCE
1040
1.0
1001
HATCH_DISPLAY
1070
     0
1001
HATCH_TYPE
1070
     7
  0
LINE
  5
1011
330
AB8
100
AcDbEntity
  8
0
100
AcDbLine
 10
13.42096604
 20
10.67182839
 30
0.0
 11
13.42096604
 21
10.67182839
 31
0.0
1001
HATCH_DISTANCE
1040
1.0
1001
HATCH_DISPLAY
1070
     0
1001
HATCH_TYPE
1070
     7
  0
LINE
  5
1012
330
AB8
100
AcDbEntity
  8
0
100
AcDbLine
 10
13.53051347
 20
10.32442696
 30
0.0
 11
13.42096604
 21
10.67182839
 31
0.0
1001
HATCH_DISTANCE
1040
1.0
1001
HATCH_DISPLAY
1070
     0
1001
HATCH_TYPE
1070
     7
  0
LINE
  5
1013
330
AB8
100
AcDbEntity
  8
0
100
AcDbLine
 10
13.31280558
 20
10.25207165
 30
0.0
 11
13.35067838
 21
10.28994446
 31
0.0
  0
LINE
  5
1014
330
AB8
100
AcDbEntity
  8
0
100
AcDbLine
 10
13.35705307
 20
10.26972878
 30
0.0
 11
13.24750565
 21
10.61713021
 31
0.0
  0
LINE
  5
1015
330
AB8
100
AcDbEntity
  8
0
100
AcDbLine
 10
13.53051347
 20
10.32442696
 30
0.0
 11
13.42096604
 21
10.67182839
 31
0.0
  0
LINE
  5
1016
330
AB8
100
AcDbEntity
  8
0
100
AcDbLine
 10
13.49566711
 20
10.43493319
 30
0.0
 11
13.79215724
 21
10.73142332
 31
0.0
  0
LINE
  5
1017
330
AB8
100
AcDbEntity
  8
0
100
AcDbLine
 10
12.57541087
 20
10.3229
 30
0.0
 11
12.84778988
 21
10.59527901
 31
0.0
  0
LINE
  5
1018
330
AB8
100
AcDbEntity
  8
0
100
AcDbLine
 10
12.41738215
 20
8.95253669
 30
0.0
 11
12.78113947
 21
9.31629403
 31
0.0
  0
LINE
  5
1019
330
AB8
100
AcDbEntity
  8
0
100
AcDbLine
 10
12.39287918
 20
9.31629403
 30
0.0
 11
13.45244186
 21
9.31629403
 31
0.0
  0
LINE
  5
101A
330
AB8
100
AcDbEntity
  8
0
100
AcDbLine
 10
12.80744623
 20
10.15082384
 30
0.0
 11
13.253798
 21
10.59717561
 31
0.0
  0
ARC
  5
101B
330
AB8
100
AcDbEntity
  8
0
100
AcDbCircle
 10
13.90785264
 20
8.82521889
 30
0.0
 40
1.545959186553949
100
AcDbArc
 50
110.8721834
 51
132.54194894
  0
ARC
  5
101C
330
AB8
100
AcDbEntity
  8
0
100
AcDbCircle
 10
13.90785264
 20
8.82521889
 30
0.0
 40
1.909713077545161
100
AcDbArc
 50
110.22964506
 51
118.57168892
  0
LINE
  5
101D
330
AB8
100
AcDbEntity
  8
0
100
AcDbLine
 10
15.42349312
 20
9.12986699
 30
0.0
 11
15.72035948
 21
9.42673336
 31
0.0
  0
LINE
  5
101E
330
AB8
100
AcDbEntity
  8
0
100
AcDbLine
 10
15.00033652
 20
9.91904497
 30
0.0
 11
15.25755184
 21
10.17626027
 31
0.0
  0
LINE
  5
101F
330
AB8
100
AcDbEntity
  8
0
100
AcDbLine
 10
15.1836825
 20
9.69827942
 30
0.0
 11
15.44450678
 21
9.95910371
 31
0.0
  0
LINE
  5
1020
330
AB8
100
AcDbEntity
  8
0
100
AcDbLine
 10
15.32727736
 20
9.43776275
 30
0.0
 11
15.5999886
 21
9.710474
 31
0.0
  0
LINE
  5
1021
330
AB8
100
AcDbEntity
  8
240
100
AcDbLine
 10
-7.5
 20
19.00000001
 30
0.0
 11
-6.12626128
 21
19.5
 31
0.0
  0
LINE
  5
1022
330
AB8
100
AcDbEntity
  8
241
  6
CONTINUOUS
100
AcDbLine
 10
-7.5
 20
15.2
 30
0.0
 11
-13.0
 21
15.2
 31
0.0
  0
LINE
  5
1023
330
AB8
100
AcDbEntity
  8
240
100
AcDbLine
 10
-7.50000001
 20
19.0
 30
0.0
 11
-13.5
 21
19.0
 31
0.0
  0
LINE
  5
1024
330
AB8
100
AcDbEntity
  8
240
100
AcDbLine
 10
-13.5
 20
19.0
 30
0.0
 11
-13.5
 21
16.0
 31
0.0
  0
LINE
  5
1025
330
AB8
100
AcDbEntity
  8
240
100
AcDbLine
 10
-13.0
 20
15.5
 30
0.0
 11
-13.5
 21
16.0
 31
0.0
  0
ARC
  5
1026
330
AB8
100
AcDbEntity
  8
240
100
AcDbCircle
 10
-3.25
 20
18.25
 30
0.0
 40
1.250000000000339
100
AcDbArc
 50
0.0
 51
180.0
  0
LINE
  5
1027
330
AB8
100
AcDbEntity
  8
240
100
AcDbLine
 10
-4.5
 20
18.25
 30
0.0
 11
-4.5
 21
19.5
 31
0.0
  0
LINE
  5
1028
330
AB8
100
AcDbEntity
  8
240
100
AcDbLine
 10
-4.5
 20
19.5
 30
0.0
 11
-6.12626129
 21
19.5
 31
0.0
  0
LINE
  5
1029
330
AB8
100
AcDbEntity
  8
240
100
AcDbLine
 10
-0.63567449
 20
19.5
 30
0.0
 11
-2.0
 21
19.5
 31
0.0
  0
LINE
  5
102A
330
AB8
100
AcDbEntity
  8
240
100
AcDbLine
 10
0.19859884
 20
18.75881905
 30
0.0
 11
1.00717253
 21
15.74118096
 31
0.0
  0
LINE
  5
102B
330
AB8
100
AcDbEntity
  8
240
100
AcDbLine
 10
-0.50850794
 20
19.46592583
 30
0.0
 11
-0.63567449
 21
19.5
 31
0.0
  0
ARC
  5
102C
330
AB8
100
AcDbEntity
  8
240
100
AcDbCircle
 10
-0.76732699
 20
18.5
 30
0.0
 40
1.0
100
AcDbArc
 50
15.0
 51
75.0
1001
GENIUS_GENOBJ-N-FIL_13
1002
{
1000
OWNER
1000
GEN
1002
}
1001
GENIUS_GENODEF_13
1002
{
1000
HIER
1070
     0
1002
}
1002
{
1000
MANEDIT
1070
     0
1002
}
1002
{
1000
NOSEL
1070
     0
1002
}
1002
{
1000
BEHIND
1070
     0
1002
}
1002
{
1000
OTHER
1070
     0
1002
}
1002
{
1000
REACTOR
1002
}
  0
LINE
  5
102D
330
AB8
100
AcDbEntity
  8
240
100
AcDbLine
 10
-2.0
 20
18.25
 30
0.0
 11
-2.0
 21
19.5
 31
0.0
  0
LINE
  5
102E
330
AB8
100
AcDbEntity
  8
241
100
AcDbLine
 10
61.0
 20
-11.7
 30
0.0
 11
61.0
 21
0.0
 31
0.0
  0
LINE
  5
102F
330
AB8
100
AcDbEntity
  8
241
100
AcDbLine
 10
63.0
 20
-15.15
 30
0.0
 11
63.0
 21
0.0
 31
0.0
  0
LINE
  5
1030
330
AB8
100
AcDbEntity
  8
241
100
AcDbLine
 10
64.2
 20
-15.0
 30
0.0
 11
64.2
 21
0.0
 31
0.0
  0
LINE
  5
1031
330
AB8
100
AcDbEntity
  8
240
100
AcDbLine
 10
85.0
 20
-14.0
 30
0.0
 11
85.0
 21
0.0
 31
0.0
  0
LINE
  5
1032
330
AB8
100
AcDbEntity
  8
241
100
AcDbLine
 10
60.0
 20
-11.7
 30
0.0
 11
60.0
 21
0.0
 31
0.0
  0
LINE
  5
1033
330
AB8
100
AcDbEntity
  8
240
100
AcDbLine
 10
61.0
 20
-11.7
 30
0.0
 11
60.0
 21
-11.7
 31
0.0
  0
LINE
  5
1034
330
AB8
100
AcDbEntity
  8
240
100
AcDbLine
 10
60.0
 20
-11.7
 30
0.0
 11
60.0
 21
-15.0
 31
0.0
  0
LINE
  5
1035
330
AB8
100
AcDbEntity
  8
240
100
AcDbLine
 10
63.25980762
 20
-15.0
 30
0.0
 11
84.0
 21
-15.0
 31
0.0
  0
LINE
  5
1036
330
AB8
100
AcDbEntity
  8
240
100
AcDbLine
 10
63.25980762
 20
-15.0
 30
0.0
 11
63.0
 21
-15.15
 31
0.0
  0
LINE
  5
1037
330
AB8
100
AcDbEntity
  8
240
100
AcDbLine
 10
61.0
 20
-11.7
 30
0.0
 11
61.0
 21
-15.15
 31
0.0
  0
LINE
  5
1038
330
AB8
100
AcDbEntity
  8
240
100
AcDbLine
 10
61.0
 20
-15.15
 30
0.0
 11
63.0
 21
-15.15
 31
0.0
  0
ARC
  5
1039
330
AB8
100
AcDbEntity
  8
240
100
AcDbCircle
 10
84.0
 20
-14.0
 30
0.0
 40
1.0
100
AcDbArc
 50
270.0
 51
0.0
1001
GENIUS_GENOBJ-N-FIL_13
1002
{
1000
OWNER
1000
GEN
1002
}
1001
GENIUS_GENODEF_13
1002
{
1000
HIER
1070
     0
1002
}
1002
{
1000
MANEDIT
1070
     0
1002
}
1002
{
1000
NOSEL
1070
     0
1002
}
1002
{
1000
BEHIND
1070
     0
1002
}
1002
{
1000
OTHER
1070
     0
1002
}
1002
{
1000
REACTOR
1002
}
  0
LINE
  5
103A
330
AB8
100
AcDbEntity
  8
240
100
AcDbLine
 10
61.0
 20
11.7
 30
0.0
 11
60.0
 21
11.7
 31
0.0
  0
LINE
  5
103B
330
AB8
100
AcDbEntity
  8
241
  6
HIDDEN2
100
AcDbLine
 10
55.0
 20
6.43467171
 30
0.0
 11
63.0
 21
6.43467171
 31
0.0
  0
LINE
  5
103C
330
AB8
100
AcDbEntity
  8
242
  6
HIDDEN2
100
AcDbLine
 10
63.0
 20
6.43467171
 30
0.0
 11
55.0
 21
0.0
 31
0.0
  0
LINE
  5
103D
330
AB8
100
AcDbEntity
  8
242
  6
HIDDEN2
100
AcDbLine
 10
55.0
 20
6.43467171
 30
0.0
 11
63.0
 21
0.0
 31
0.0
  0
LINE
  5
103E
330
AB8
100
AcDbEntity
  8
241
  6
HIDDEN2
100
AcDbLine
 10
55.0
 20
6.43467171
 30
0.0
 11
55.0
 21
0.0
 31
0.0
  0
LINE
  5
103F
330
AB8
100
AcDbEntity
  8
241
100
AcDbLine
 10
60.0
 20
11.7
 30
0.0
 11
60.0
 21
0.0
 31
0.0
  0
LINE
  5
1040
330
AB8
100
AcDbEntity
  8
240
100
AcDbLine
 10
60.0
 20
11.7
 30
0.0
 11
60.0
 21
15.0
 31
0.0
  0
ARC
  5
1041
330
AB8
100
AcDbEntity
  8
240
100
AcDbCircle
 10
84.0
 20
14.0
 30
0.0
 40
1.0
100
AcDbArc
 50
0.0
 51
90.0
1001
GENIUS_GENOBJ-N-FIL_13
1002
{
1000
OWNER
1000
GEN
1002
}
1001
GENIUS_GENODEF_13
1002
{
1000
HIER
1070
     0
1002
}
1002
{
1000
MANEDIT
1070
     0
1002
}
1002
{
1000
NOSEL
1070
     0
1002
}
1002
{
1000
BEHIND
1070
     0
1002
}
1002
{
1000
OTHER
1070
     0
1002
}
1002
{
1000
REACTOR
1002
}
  0
LINE
  5
1042
330
AB8
100
AcDbEntity
  8
240
100
AcDbLine
 10
61.0
 20
11.7
 30
0.0
 11
61.0
 21
15.15
 31
0.0
  0
LINE
  5
1043
330
AB8
100
AcDbEntity
  8
240
100
AcDbLine
 10
63.25980762
 20
15.0
 30
0.0
 11
63.0
 21
15.15
 31
0.0
  0
LINE
  5
1044
330
AB8
100
AcDbEntity
  8
241
100
AcDbLine
 10
63.0
 20
15.15
 30
0.0
 11
63.0
 21
0.0
 31
0.0
  0
LINE
  5
1045
330
AB8
100
AcDbEntity
  8
241
  6
HIDDEN2
100
AcDbLine
 10
68.0
 20
6.0
 30
0.0
 11
85.0
 21
6.0
 31
0.0
  0
LINE
  5
1046
330
AB8
100
AcDbEntity
  8
240
100
AcDbLine
 10
63.25980762
 20
15.0
 30
0.0
 11
84.0
 21
15.0
 31
0.0
  0
LINE
  5
1047
330
AB8
100
AcDbEntity
  8
241
  6
HIDDEN2
100
AcDbLine
 10
68.0
 20
6.75
 30
0.0
 11
68.0
 21
0.0
 31
0.0
  0
LINE
  5
1048
330
AB8
100
AcDbEntity
  8
241
  6
HIDDEN2
100
AcDbLine
 10
63.0
 20
6.75
 30
0.0
 11
63.0
 21
0.0
 31
0.0
  0
LINE
  5
1049
330
AB8
100
AcDbEntity
  8
241
100
AcDbLine
 10
64.2
 20
15.0
 30
0.0
 11
64.2
 21
0.0
 31
0.0
  0
LINE
  5
104A
330
AB8
100
AcDbEntity
  8
241
100
AcDbLine
 10
61.0
 20
11.7
 30
0.0
 11
61.0
 21
0.0
 31
0.0
  0
LINE
  5
104B
330
AB8
100
AcDbEntity
  8
241
  6
HIDDEN2
100
AcDbLine
 10
63.0
 20
6.75
 30
0.0
 11
68.0
 21
6.75
 31
0.0
  0
LINE
  5
104C
330
AB8
100
AcDbEntity
  8
240
100
AcDbLine
 10
85.0
 20
14.0
 30
0.0
 11
85.0
 21
0.0
 31
0.0
  0
LINE
  5
104D
330
AB8
100
AcDbEntity
  8
240
100
AcDbLine
 10
61.0
 20
15.15
 30
0.0
 11
63.0
 21
15.15
 31
0.0
  0
ENDBLK
  5
ABA
330
AB8
100
AcDbEntity
  8
0
100
AcDbBlockEnd
  0
BLOCK
  5
ED9
330
ECF
100
AcDbEntity
  8
0
100
AcDbBlockBegin
  2
*D10
 70
     1
 10
0.0
 20
0.0
 30
0.0
  3
*D10
  1

  0
LINE
  5
F16
330
ECF
100
AcDbEntity
  8
250
  6
CONTINUOUS
100
AcDbLine
 10
0.0
 20
19.64125603
 30
0.0
 11
0.0
 21
36.0
 31
0.0
  0
LINE
  5
F17
330
ECF
100
AcDbEntity
  8
250
  6
CONTINUOUS
100
AcDbLine
 10
85.0
 20
14.5
 30
0.0
 11
85.0
 21
36.0
 31
0.0
  0
LINE
  5
F18
330
ECF
100
AcDbEntity
  8
250
  6
CONTINUOUS
100
AcDbLine
 10
2.23
 20
35.0
 30
0.0
 11
82.77
 21
35.0
 31
0.0
  0
INSERT
  5
F19
330
ECF
100
AcDbEntity
  8
250
  6
CONTINUOUS
100
AcDbBlockReference
  2
_OPEN
 10
0.0
 20
35.0
 30
0.0
 41
2.23
 42
2.23
 43
2.23
 50
180.0
  0
INSERT
  5
F1A
330
ECF
100
AcDbEntity
  8
250
  6
CONTINUOUS
100
AcDbBlockReference
  2
_OPEN
 10
85.0
 20
35.0
 30
0.0
 41
2.23
 42
2.23
 43
2.23
  0
MTEXT
  5
F1B
330
ECF
100
AcDbEntity
  8
250
  6
CONTINUOUS
 62
    40
100
AcDbMText
 10
42.5
 20
37.4
 30
0.0
 40
2.8
 41
0.0
 71
     5
 72
     1
  1
\A1;85
1001
ACAD
1000
MTEXTBEGIN
1070
    73
1070
     1
1070
    44
1040
1.0
1070
    74
1070
     0
1000
MTEXTEND
  0
POINT
  5
F1C
330
ECF
100
AcDbEntity
  8
DEFPOINTS
  6
CONTINUOUS
 62
     0
100
AcDbPoint
 10
0.0
 20
19.14125603
 30
0.0
  0
POINT
  5
F1D
330
ECF
100
AcDbEntity
  8
DEFPOINTS
  6
CONTINUOUS
 62
     0
100
AcDbPoint
 10
85.0
 20
14.0
 30
0.0
  0
POINT
  5
F1E
330
ECF
100
AcDbEntity
  8
DEFPOINTS
  6
CONTINUOUS
 62
     0
100
AcDbPoint
 10
85.0
 20
35.0
 30
0.0
  0
ENDBLK
  5
EDA
330
ECF
100
AcDbEntity
  8
0
100
AcDbBlockEnd
  0
BLOCK
  5
EE5
330
EDB
100
AcDbEntity
  8
0
100
AcDbBlockBegin
  2
*D11
 70
     1
 10
0.0
 20
0.0
 30
0.0
  3
*D11
  1

  0
LINE
  5
F1F
330
EDB
100
AcDbEntity
  8
AM_5
100
AcDbLine
 10
84.5
 20
15.0
 30
0.0
 11
104.5
 21
15.0
 31
0.0
  0
LINE
  5
F20
330
EDB
100
AcDbEntity
  8
AM_5
100
AcDbLine
 10
84.5
 20
-15.0
 30
0.0
 11
104.5
 21
-15.0
 31
0.0
  0
LINE
  5
F21
330
EDB
100
AcDbEntity
  8
AM_5
100
AcDbLine
 10
103.5
 20
12.77
 30
0.0
 11
103.5
 21
-12.77
 31
0.0
  0
INSERT
  5
F22
330
EDB
100
AcDbEntity
  8
AM_5
100
AcDbBlockReference
  2
_OPEN
 10
103.5
 20
15.0
 30
0.0
 41
2.23
 42
2.23
 43
2.23
 50
90.0
  0
INSERT
  5
F23
330
EDB
100
AcDbEntity
  8
AM_5
100
AcDbBlockReference
  2
_OPEN
 10
103.5
 20
-15.0
 30
0.0
 41
2.23
 42
2.23
 43
2.23
 50
270.0
  0
MTEXT
  5
F24
330
EDB
100
AcDbEntity
  8
AM_5
 62
    40
100
AcDbMText
 10
101.1
 20
-1.48621162
 30
0.0
 40
2.8
 41
0.0
 71
     5
 72
     1
  1
\A1;%%c30
 11
0.0
 21
1.0
 31
0.0
1001
ACAD
1000
MTEXTBEGIN
1070
    73
1070
     1
1070
    44
1040
1.0
1070
    74
1070
     0
1000
MTEXTEND
  0
POINT
  5
F25
330
EDB
100
AcDbEntity
  8
DEFPOINTS
 62
     0
100
AcDbPoint
 10
84.0
 20
15.0
 30
0.0
  0
POINT
  5
F26
330
EDB
100
AcDbEntity
  8
DEFPOINTS
 62
     0
100
AcDbPoint
 10
84.0
 20
-15.0
 30
0.0
  0
POINT
  5
F27
330
EDB
100
AcDbEntity
  8
DEFPOINTS
 62
     0
100
AcDbPoint
 10
103.5
 20
-15.0
 30
0.0
  0
ENDBLK
  5
EE6
330
EDB
100
AcDbEntity
  8
0
100
AcDbBlockEnd
  0
BLOCK
  5
EF0
330
EE7
100
AcDbEntity
  8
0
100
AcDbBlockBegin
  2
*D12
 70
     1
 10
0.0
 20
0.0
 30
0.0
  3
*D12
  1

  0
LINE
  5
F28
330
EE7
100
AcDbEntity
  8
250
  6
CONTINUOUS
100
AcDbLine
 10
85.5
 20
6.0
 30
0.0
 11
97.5
 21
6.0
 31
0.0
  0
LINE
  5
F29
330
EE7
100
AcDbEntity
  8
250
  6
CONTINUOUS
100
AcDbLine
 10
96.5
 20
-3.77
 30
0.0
 11
96.5
 21
3.77
 31
0.0
  0
INSERT
  5
F2A
330
EE7
100
AcDbEntity
  8
250
  6
CONTINUOUS
100
AcDbBlockReference
  2
矢印なし
 10
96.5
 20
-6.0
 30
0.0
 41
2.23
 42
2.23
 43
2.23
 50
270.0
  0
INSERT
  5
F2B
330
EE7
100
AcDbEntity
  8
250
  6
CONTINUOUS
100
AcDbBlockReference
  2
_OPEN
 10
96.5
 20
6.0
 30
0.0
 41
2.23
 42
2.23
 43
2.23
 50
90.0
  0
MTEXT
  5
F2C
330
EE7
100
AcDbEntity
  8
250
  6
CONTINUOUS
 62
    40
100
AcDbMText
 10
94.1
 20
-1.46522202
 30
0.0
 40
2.8
 41
0.0
 71
     5
 72
     1
  1
\A1;{\H2.8;\U+2205}12
 11
0.0
 21
1.0
 31
0.0
1001
ACAD
1000
MTEXTBEGIN
1070
    73
1070
     1
1070
    44
1040
1.0
1070
    74
1070
     0
1000
MTEXTEND
  0
POINT
  5
F2D
330
EE7
100
AcDbEntity
  8
DEFPOINTS
  6
CONTINUOUS
 62
     0
100
AcDbPoint
 10
85.0
 20
-6.0
 30
0.0
  0
POINT
  5
F2E
330
EE7
100
AcDbEntity
  8
DEFPOINTS
  6
CONTINUOUS
 62
     0
100
AcDbPoint
 10
85.0
 20
6.0
 30
0.0
  0
POINT
  5
F2F
330
EE7
100
AcDbEntity
  8
DEFPOINTS
  6
CONTINUOUS
 62
     0
100
AcDbPoint
 10
96.5
 20
6.0
 30
0.0
  0
ENDBLK
  5
EF1
330
EE7
100
AcDbEntity
  8
0
100
AcDbBlockEnd
  0
ENDSEC
  0
SECTION
  2
ENTITIES
  0
INSERT
  5
6E6
330
1A
100
AcDbEntity
  8
245
100
AcDbBlockReference
  2
矢印なし
 10
175.62382697
 20
90.55123572
 30
0.0
  0
INSERT
  5
8E9
330
1A
100
AcDbEntity
  8
245
100
AcDbBlockReference
  2
矢印なし
 10
357.62382697
 20
223.55123572
 30
0.0
  0
INSERT
  5
8EA
330
1A
100
AcDbEntity
  8
245
100
AcDbBlockReference
  2
矢印なし
 10
532.62382697
 20
370.55123572
 30
0.0
  0
INSERT
  5
8EB
330
1A
100
AcDbEntity
  8
245
100
AcDbBlockReference
  2
矢印なし
 10
721.62382697
 20
503.55123572
 30
0.0
  0
INSERT
  5
8EC
330
1A
100
AcDbEntity
  8
245
100
AcDbBlockReference
  2
矢印なし
 10
910.62382697
 20
643.55123572
 30
0.0
  0
INSERT
  5
8ED
330
1A
100
AcDbEntity
  8
245
100
AcDbBlockReference
  2
矢印なし
 10
1085.62382697
 20
783.55123572
 30
0.0
  0
INSERT
  5
8EE
330
1A
100
AcDbEntity
  8
245
100
AcDbBlockReference
  2
矢印なし
 10
1260.62382697
 20
923.55123572
 30
0.0
  0
INSERT
  5
8EF
330
1A
100
AcDbEntity
  8
245
100
AcDbBlockReference
  2
矢印なし
 10
1449.62382697
 20
1063.55123572
 30
0.0
  0
INSERT
  5
8F0
330
1A
100
AcDbEntity
  8
245
100
AcDbBlockReference
  2
矢印なし
 10
1631.62382697
 20
1203.55123572
 30
0.0
  0
INSERT
  5
8F1
330
1A
100
AcDbEntity
  8
245
100
AcDbBlockReference
  2
矢印なし
 10
1813.62382697
 20
1350.55123572
 30
0.0
  0
INSERT
  5
8F2
330
1A
100
AcDbEntity
  8
245
100
AcDbBlockReference
  2
矢印なし
 10
1995.62382697
 20
1497.55123572
 30
0.0
  0
INSERT
  5
8F3
330
1A
100
AcDbEntity
  8
245
100
AcDbBlockReference
  2
矢印なし
 10
2142.62382697
 20
1637.55123572
 30
0.0
  0
INSERT
  5
8F4
330
1A
100
AcDbEntity
  8
245
100
AcDbBlockReference
  2
矢印なし
 10
2317.62382697
 20
1791.55123572
 30
0.0
  0
INSERT
  5
8F5
330
1A
100
AcDbEntity
  8
245
100
AcDbBlockReference
  2
矢印なし
 10
2513.62382697
 20
1938.55123572
 30
0.0
  0
INSERT
  5
8F6
330
1A
100
AcDbEntity
  8
245
100
AcDbBlockReference
  2
矢印なし
 10
2702.62382697
 20
2071.55123572
 30
0.0
  0
INSERT
  5
8F7
330
1A
100
AcDbEntity
  8
245
100
AcDbBlockReference
  2
矢印なし
 10
2863.62382697
 20
2225.55123572
 30
0.0
  0
INSERT
  5
8F8
330
1A
100
AcDbEntity
  8
245
100
AcDbBlockReference
  2
矢印なし
 10
3038.62382697
 20
2379.55123572
 30
0.0
  0
INSERT
  5
8F9
330
1A
100
AcDbEntity
  8
245
100
AcDbBlockReference
  2
矢印なし
 10
3213.62382697
 20
2512.55123572
 30
0.0
  0
INSERT
  5
8FA
330
1A
100
AcDbEntity
  8
245
100
AcDbBlockReference
  2
矢印なし
 10
3367.62382697
 20
2659.55123572
 30
0.0
  0
TEXT
  5
8FB
330
1A
100
AcDbEntity
  8
241
100
AcDbText
 10
-69.0
 20
49.0
 30
0.0
 40
5.0
  1
MGT20-U5/8-85
  7
YOKO
 11
-69.0
 21
49.0
 31
0.0
100
AcDbText
 73
     1
  0
DIMENSION
  5
DAE
330
1A
100
AcDbEntity
  8
250
  6
CONTINUOUS
100
AcDbDimension
  2
*D10
 10
85.0
 20
35.0
 30
0.0
 11
42.5
 21
37.4
 31
0.0
 70
    32
  3
BIGT$0
100
AcDbAlignedDimension
 13
0.0
 23
19.14125603
 33
0.0
 14
85.0
 24
14.0
 34
0.0
100
AcDbRotatedDimension
  0
DIMENSION
  5
EAF
330
1A
100
AcDbEntity
  8
AM_5
100
AcDbDimension
  2
*D11
 10
103.5
 20
-15.0
 30
0.0
 11
103.5
 21
-1.48621162
 31
0.0
 70
   160
  1
%%c<>
  3
BIGT$0
100
AcDbAlignedDimension
 13
84.0
 23
15.0
 33
0.0
 14
84.0
 24
-15.0
 34
0.0
 50
90.0
100
AcDbRotatedDimension
  0
LEADER
  5
EB9
330
1A
100
AcDbEntity
  8
250
  6
CONTINUOUS
100
AcDbLeader
  3
BIGT
 76
     2
 10
61.39695282
 20
6.43467171
 30
0.0
 10
72.0
 20
28.0
 30
0.0
1001
ACAD
1000
DSTYLE
1002
{
1070
     6
1000
OPEN
1070
   343
1005
594
1002
}
  0
DIMENSION
  5
ECB
330
1A
100
AcDbEntity
  8
250
  6
CONTINUOUS
100
AcDbDimension
  2
*D12
 10
96.5
 20
6.0
 30
0.0
 11
96.5
 21
-1.46522202
 31
0.0
 70
   160
  1
{\H2.8;\U+2205}<>
  3
BIGT
100
AcDbAlignedDimension
 13
85.0
 23
-6.0
 33
0.0
 14
85.0
 24
6.0
 34
0.0
 50
90.0
100
AcDbRotatedDimension
1001
ACAD
1000
DSTYLE
1002
{
1070
   287
1070
     3
1070
   287
1070
     3
1070
   287
1070
     3
1070
   287
1070
     3
1070
    75
1070
     1
1070
    77
1070
     3
1070
   145
1040
1.0
1070
   279
1070
     0
1070
   289
1070
     3
1070
     6
1000
矢印なし
1002
}
  0
LINE
  5
ECD
330
1A
100
AcDbEntity
  8
250
  6
CONTINUOUS
100
AcDbLine
 10
72.0
 20
28.0
 30
0.0
 11
84.37936977
 21
28.0
 31
0.0
1001
ITEMNAME
1000
LNSP2
  0
MTEXT
  5
ECE
330
1A
100
AcDbEntity
  8
251
  6
CONTINUOUS
100
AcDbMText
 10
76.32603644
 20
29.0
 30
0.0
 40
2.8
 41
0.0
 71
     7
 72
     1
  1
\U+25A19
  7
YOKO
1001
ITEMNAME
1000
LNSP3
1001
ACAD
1000
MTEXTBEGIN
1070
    73
1070
     1
1070
    44
1040
1.0
1070
    74
1070
     0
1000
MTEXTEND
1000
MTEXTBEGIN
1070
    73
1070
     1
1070
    44
1040
1.0
1070
    74
1070
     0
1000
MTEXTEND
1000
MTEXTBEGIN
1070
    73
1070
     1
1070
    44
1040
1.0
1070
    74
1070
     0
1000
MTEXTEND
1000
MTEXTBEGIN
1070
    73
1070
     1
1070
    44
1040
1.0
1070
    74
1070
     0
1000
MTEXTEND
1000
MTEXTBEGIN
1070
    73
1070
     1
1070
    44
1040
1.0
1070
    74
1070
     0
1000
MTEXTEND
1000
MTEXTBEGIN
1070
    73
1070
     1
1070
    44
1040
1.0
1070
    74
1070
     0
1000
MTEXTEND
  0
INSERT
  5
104E
330
1A
100
AcDbEntity
  8
245
100
AcDbBlockReference
  2
1
 10
0.0
 20
0.0
 30
0.0
  0
VIEWPORT
  5
22
330
17
100
AcDbEntity
 67
     1
  8
0
100
AcDbViewport
 10
261.51769912
 20
148.5
 30
0.0
 40
523.03539823
 41
297.0
 68
     1
 69
     1
1001
ACAD
1000
MVIEW
1002
{
1070
    16
1010
0.0
1020
0.0
1030
0.0
1010
0.0
1020
0.0
1030
1.0
1040
0.0
1040
297.0
1040
261.51769912
1040
148.5
1040
50.0
1040
0.0
1040
0.0
1070
     0
1070
   100
1070
     1
1070
     1
1070
     0
1070
     0
1070
     0
1070
     0
1040
0.0
1040
0.0
1040
0.0
1040
1.0
1040
1.0
1040
10.0
1040
10.0
1070
     0
1002
{
1002
}
1002
}
  0
ENDSEC
  0
SECTION
  2
OBJECTS
  0
DICTIONARY
  5
C
330
0
100
AcDbDictionary
  3
ACAD_GROUP
350
D
  3
ACAD_LAYOUT
350
565
  3
ACAD_MLINESTYLE
350
E
  3
ACAD_PLOTSETTINGS
350
566
  3
ACAD_PLOTSTYLENAME
350
563
  3
ACDBHEADERROUNDTRIPXREC
350
1050
  3
GRADE_DWG
350
540
  0
DICTIONARY
  5
C4A
330
1A
100
AcDbDictionary
280
     1
  3
ACAD_LAYOUTSELFREF
360
1072
  0
DICTIONARY
  5
C48
330
17
100
AcDbDictionary
280
     1
  3
ACAD_LAYOUTSELFREF
360
1071
  0
DICTIONARY
  5
D
102
{ACAD_REACTORS
330
C
102
}
330
C
100
AcDbDictionary
  3
*A1
350
6C7
  3
*A2
350
6C8
  3
*A3
350
6D4
  3
*A4
350
6D5
  3
DREC-1
350
5FC
  3
DREC-2
350
654
  3
DREC-3
350
673
  0
DICTIONARY
  5
565
102
{ACAD_REACTORS
330
C
102
}
330
C
100
AcDbDictionary
  0
DICTIONARY
  5
E
102
{ACAD_REACTORS
330
C
102
}
330
C
100
AcDbDictionary
  3
STANDARD
350
13
  0
DICTIONARY
  5
566
102
{ACAD_REACTORS
330
C
102
}
330
C
100
AcDbDictionary
  3
A3_0_5倍_
350
758
  3
A3_1倍_
350
757
  3
A3_1倍__2000_
350
707
  3
A3_2倍_
350
759
  3
A4_0_5倍_
350
755
  3
A4_1倍_
350
754
  3
A4_1倍__2000_
350
708
  3
A4_2倍_
350
756
  0
ACDBDICTIONARYWDFLT
  5
563
102
{ACAD_REACTORS
330
C
102
}
330
C
100
AcDbDictionary
281
     1
  3
Normal
350
564
100
AcDbDictionaryWithDefault
340
564
  0
DICTIONARY
  5
1050
102
{ACAD_REACTORS
330
C
102
}
330
C
100
AcDbDictionary
  3
CEPSNTYPE
350
105A
  3
DIMSTYLEDATA
350
105E
  3
FINGERPRINTGUID
350
105B
  3
HYPERLINKBASE
350
1053
  3
INSUNITS
350
1059
  3
LAYOUTDICT
350
1055
  3
LWETCUNION
350
1058
  3
PLOTSETDICT
350
1056
  3
PLOTSTYLNAMDICT
350
1057
  3
PSVPSCALE
350
105D
  3
PUCSBASE
350
1061
  3
PUCSORGBACK
350
1067
  3
PUCSORGBOTTOM
350
1063
  3
PUCSORGFRONT
350
1066
  3
PUCSORGLEFT
350
1064
  3
PUCSORGRIGHT
350
1065
  3
PUCSORGTOP
350
1062
  3
PUCSORTHOREF
350
105F
  3
PUCSORTHOVIEW
350
1060
  3
STYLESHEET
350
1054
  3
TSTACKALIGN
350
1051
  3
TSTACKSIZE
350
1052
  3
UCSBASE
350
106A
  3
UCSORGBACK
350
1070
  3
UCSORGBOTTOM
350
106C
  3
UCSORGFRONT
350
106F
  3
UCSORGLEFT
350
106D
  3
UCSORGRIGHT
350
106E
  3
UCSORGTOP
350
106B
  3
UCSORTHOREF
350
1068
  3
UCSORTHOVIEW
350
1069
  3
VERSIONGUID
350
105C
  0
DICTIONARY
  5
540
102
{ACAD_REACTORS
330
C
102
}
330
C
100
AcDbDictionary
  3
VERSION
350
560
  0
XRECORD
  5
1072
102
{ACAD_REACTORS
330
C4A
102
}
330
C4A
100
AcDbXrecord
340
1A
  0
XRECORD
  5
1071
102
{ACAD_REACTORS
330
C48
102
}
330
C48
100
AcDbXrecord
340
17
  0
GROUP
  5
6C7
102
{ACAD_REACTORS
330
D
102
}
330
D
100
AcDbGroup
300

 70
     0
 71
     1
1001
GRPNAME
1000
DMA00
  0
GROUP
  5
6C8
102
{ACAD_REACTORS
330
D
102
}
330
D
100
AcDbGroup
300

 70
     0
 71
     1
1001
GRPNAME
1000
DMA00
  0
GROUP
  5
6D4
102
{ACAD_REACTORS
330
D
102
}
330
D
100
AcDbGroup
300

 70
     0
 71
     1
1001
GRPNAME
1000
DMA00
  0
GROUP
  5
6D5
102
{ACAD_REACTORS
330
D
102
}
330
D
100
AcDbGroup
300

 70
     0
 71
     1
1001
GRPNAME
1000
DMA00
  0
GROUP
  5
5FC
102
{ACAD_REACTORS
330
D
102
}
330
D
100
AcDbGroup
300

 70
     0
 71
     1
1001
GRPNAME
1000
DREC-
1001
GPARA
1000
xsiz
1000
44.182
1000
ysiz
1000
40.677
1000
angl
1000
0
1000
ctyp
1000
0
1000
csiz
1000
5
1000
lfnt
1000
cont
1000
hcnt
1000
hoff
1000
vcnt
1000
voff
1000
opnt
1000
4
1000
dxpt
1000
0
1000
dypt
1000
0
  0
GROUP
  5
654
102
{ACAD_REACTORS
330
D
102
}
330
D
100
AcDbGroup
300

 70
     0
 71
     1
1001
GRPNAME
1000
DREC-
1001
GPARA
1000
xsiz
1000
54.592
1000
ysiz
1000
53.036
1000
angl
1000
0
1000
ctyp
1000
0
1000
csiz
1000
5
1000
lfnt
1000
cont
1000
hcnt
1000
hoff
1000
vcnt
1000
voff
1000
opnt
1000
4
1000
dxpt
1000
0
1000
dypt
1000
0
  0
GROUP
  5
673
102
{ACAD_REACTORS
330
D
102
}
330
D
100
AcDbGroup
300

 70
     0
 71
     1
1001
GRPNAME
1000
DREC-
1001
GPARA
1000
xsiz
1000
30.363
1000
ysiz
1000
36.175
1000
angl
1000
0
1000
ctyp
1000
0
1000
csiz
1000
5
1000
lfnt
1000
cont
1000
hcnt
1000
hoff
1000
vcnt
1000
voff
1000
opnt
1000
4
1000
dxpt
1000
0
1000
dypt
1000
0
  0
MLINESTYLE
  5
13
102
{ACAD_REACTORS
330
E
102
}
330
E
100
AcDbMlineStyle
  2
STANDARD
 70
     0
  3

 62
     0
 51
90.0
 52
90.0
 71
     2
 49
0.5
 62
   256
  6
BYLAYER
 49
-0.5
 62
   256
  6
BYLAYER
  0
PLOTSETTINGS
  5
758
102
{ACAD_REACTORS
330
566
102
}
330
566
100
AcDbPlotSettings
  1
A3(0.5倍)
  2
\\AWTECPC05\HP DeskJet 1120C
  4
A3
  6

 40
5.95841646
 41
13.49375153
 42
6.04309082
 43
3.67242432
 44
296.92599487
 45
419.94665527
 46
89.96
 47
127.14
 48
0.0
 49
0.0
140
0.0
141
0.0
142
1.0
143
2.0
 70
  1716
 72
     1
 73
     1
 74
     2
  7
big.ctb
 75
    17
147
0.5
148
0.0
149
0.0
  0
PLOTSETTINGS
  5
757
102
{ACAD_REACTORS
330
566
102
}
330
566
100
AcDbPlotSettings
  1
A3(1倍)
  2
\\AWTECPC05\HP DeskJet 1120C
  4
A3
  6

 40
5.95841646
 41
13.49375153
 42
6.04309082
 43
3.67242432
 44
296.92599487
 45
419.94665527
 46
37.46
 47
52.89
 48
0.0
 49
0.0
140
0.0
141
0.0
142
1.0
143
1.0
 70
  1716
 72
     1
 73
     1
 74
     2
  7
big.ctb
 75
    16
147
1.0
148
0.0
149
0.0
  0
PLOTSETTINGS
  5
707
102
{ACAD_REACTORS
330
566
102
}
330
566
100
AcDbPlotSettings
  1
A3(1倍)(2000)
  2
SII LS-1300 (D-SCAN)
  4
User258
  6

 40
3.17499995
 41
3.17499995
 42
3.17498779
 43
3.17498779
 44
419.98898315
 45
296.98950195
 46
58.32
 47
40.32
 48
0.0
 49
0.0
140
0.0
141
0.0
142
1.0
143
1.0
 70
  1716
 72
     1
 73
     0
 74
     2
  7
big.ctb
 75
    16
147
1.0
148
0.0
149
0.0
  0
PLOTSETTINGS
  5
759
102
{ACAD_REACTORS
330
566
102
}
330
566
100
AcDbPlotSettings
  1
A3(2倍)
  2
\\AWTECPC05\HP DeskJet 1120C
  4
A3
  6

 40
5.95841646
 41
13.49375153
 42
6.04309082
 43
3.67242432
 44
296.92599487
 45
419.94665527
 46
-67.54
 47
-95.61
 48
0.0
 49
0.0
140
0.0
141
0.0
142
1.0
143
0.5
 70
  1716
 72
     1
 73
     1
 74
     2
  7
big.ctb
 75
    27
147
2.0
148
0.0
149
0.0
  0
PLOTSETTINGS
  5
755
102
{ACAD_REACTORS
330
566
102
}
330
566
100
AcDbPlotSettings
  1
A4(0.5倍)
  2
\\AWTECPC05\HP DeskJet 1120C
  4
A4
  6

 40
4.18041658
 41
13.49374962
 42
4.18040466
 43
3.92642212
 44
209.97332764
 45
296.92599487
 46
48.31
 47
65.5
 48
0.0
 49
0.0
140
0.0
141
0.0
142
1.0
143
2.0
 70
  1716
 72
     1
 73
     1
 74
     2
  7
big.ctb
 75
    17
147
0.5
148
0.0
149
0.0
  0
PLOTSETTINGS
  5
754
102
{ACAD_REACTORS
330
566
102
}
330
566
100
AcDbPlotSettings
  1
A4(1倍)
  2
\\AWTECPC05\HP DeskJet 1120C
  4
A4
  6

 40
4.18041658
 41
13.49374962
 42
4.18040466
 43
3.92642212
 44
209.97332764
 45
296.92599487
 46
-4.19
 47
-8.75
 48
0.0
 49
0.0
140
0.0
141
0.0
142
1.0
143
1.0
 70
  1716
 72
     1
 73
     1
 74
     2
  7
big.ctb
 75
    16
147
1.0
148
0.0
149
0.0
  0
PLOTSETTINGS
  5
708
102
{ACAD_REACTORS
330
566
102
}
330
566
100
AcDbPlotSettings
  1
A4(1倍)(2000)
  2
SII LS-1300 (D-SCAN)
  4
User259
  6

 40
3.17499995
 41
3.17499995
 42
3.17498779
 43
3.17500305
 44
296.98950195
 45
209.99449158
 46
-3.18
 47
-3.18
 48
0.0
 49
0.0
140
0.0
141
0.0
142
1.0
143
1.0
 70
  1716
 72
     1
 73
     0
 74
     2
  7
big.ctb
 75
    16
147
1.0
148
0.0
149
0.0
  0
PLOTSETTINGS
  5
756
102
{ACAD_REACTORS
330
566
102
}
330
566
100
AcDbPlotSettings
  1
A4(2倍)
  2
\\AWTECPC05\HP DeskJet 1120C
  4
A4
  6

 40
4.18041658
 41
13.49374962
 42
4.18040466
 43
3.92642212
 44
209.97332764
 45
296.92599487
 46
-109.19
 47
-157.25
 48
0.0
 49
0.0
140
0.0
141
0.0
142
1.0
143
0.5
 70
  1716
 72
     1
 73
     1
 74
     2
  7
big.ctb
 75
    27
147
2.0
148
0.0
149
0.0
  0
ACDBPLACEHOLDER
  5
564
102
{ACAD_REACTORS
330
563
102
}
330
563
100
AcDbPlaceHolder
280
     0
  0
XRECORD
  5
105A
102
{ACAD_REACTORS
330
1050
102
}
330
1050
100
AcDbXrecord
 90
        0
  0
XRECORD
  5
105E
102
{ACAD_REACTORS
330
1050
102
}
330
1050
100
AcDbXrecord
1000
DSTYLE
1002
{
1070
    79
 70
     2
1070
   179
 70
     3
1070
   341
340
594
1070
   343
340
594
1070
   344
340
594
1070
   371
 70
    -1
1070
   372
 70
    -1
1002
}
  0
XRECORD
  5
105B
102
{ACAD_REACTORS
330
1050
102
}
330
1050
100
AcDbXrecord
  1
{51294030-9CB4-11D3-8E18-00A0C925D94D}
  0
XRECORD
  5
1053
102
{ACAD_REACTORS
330
1050
102
}
330
1050
100
AcDbXrecord
  1

  0
XRECORD
  5
1059
102
{ACAD_REACTORS
330
1050
102
}
330
1050
100
AcDbXrecord
 90
        0
  0
XRECORD
  5
1055
102
{ACAD_REACTORS
330
1050
102
}
330
1050
100
AcDbXrecord
340
565
  0
XRECORD
  5
1058
102
{ACAD_REACTORS
330
1050
102
}
330
1050
100
AcDbXrecord
 90
    10781
  0
XRECORD
  5
1056
102
{ACAD_REACTORS
330
1050
102
}
330
1050
100
AcDbXrecord
340
566
  0
XRECORD
  5
1057
102
{ACAD_REACTORS
330
1050
102
}
330
1050
100
AcDbXrecord
340
563
  0
XRECORD
  5
105D
102
{ACAD_REACTORS
330
1050
102
}
330
1050
100
AcDbXrecord
 40
0.0
  0
XRECORD
  5
1061
102
{ACAD_REACTORS
330
1050
102
}
330
1050
100
AcDbXrecord
340
0
  0
XRECORD
  5
1067
102
{ACAD_REACTORS
330
1050
102
}
330
1050
100
AcDbXrecord
 10
0.0
 20
0.0
 30
0.0
  0
XRECORD
  5
1063
102
{ACAD_REACTORS
330
1050
102
}
330
1050
100
AcDbXrecord
 10
0.0
 20
0.0
 30
0.0
  0
XRECORD
  5
1066
102
{ACAD_REACTORS
330
1050
102
}
330
1050
100
AcDbXrecord
 10
0.0
 20
0.0
 30
0.0
  0
XRECORD
  5
1064
102
{ACAD_REACTORS
330
1050
102
}
330
1050
100
AcDbXrecord
 10
0.0
 20
0.0
 30
0.0
  0
XRECORD
  5
1065
102
{ACAD_REACTORS
330
1050
102
}
330
1050
100
AcDbXrecord
 10
0.0
 20
0.0
 30
0.0
  0
XRECORD
  5
1062
102
{ACAD_REACTORS
330
1050
102
}
330
1050
100
AcDbXrecord
 10
0.0
 20
0.0
 30
0.0
  0
XRECORD
  5
105F
102
{ACAD_REACTORS
330
1050
102
}
330
1050
100
AcDbXrecord
340
0
  0
XRECORD
  5
1060
102
{ACAD_REACTORS
330
1050
102
}
330
1050
100
AcDbXrecord
 70
     0
  0
XRECORD
  5
1054
102
{ACAD_REACTORS
330
1050
102
}
330
1050
100
AcDbXrecord
  1
big.ctb
  0
XRECORD
  5
1051
102
{ACAD_REACTORS
330
1050
102
}
330
1050
100
AcDbXrecord
 90
        1
  0
XRECORD
  5
1052
102
{ACAD_REACTORS
330
1050
102
}
330
1050
100
AcDbXrecord
 90
       70
  0
XRECORD
  5
106A
102
{ACAD_REACTORS
330
1050
102
}
330
1050
100
AcDbXrecord
340
0
  0
XRECORD
  5
1070
102
{ACAD_REACTORS
330
1050
102
}
330
1050
100
AcDbXrecord
 10
0.0
 20
0.0
 30
0.0
  0
XRECORD
  5
106C
102
{ACAD_REACTORS
330
1050
102
}
330
1050
100
AcDbXrecord
 10
0.0
 20
0.0
 30
0.0
  0
XRECORD
  5
106F
102
{ACAD_REACTORS
330
1050
102
}
330
1050
100
AcDbXrecord
 10
0.0
 20
0.0
 30
0.0
  0
XRECORD
  5
106D
102
{ACAD_REACTORS
330
1050
102
}
330
1050
100
AcDbXrecord
 10
0.0
 20
0.0
 30
0.0
  0
XRECORD
  5
106E
102
{ACAD_REACTORS
330
1050
102
}
330
1050
100
AcDbXrecord
 10
0.0
 20
0.0
 30
0.0
  0
XRECORD
  5
106B
102
{ACAD_REACTORS
330
1050
102
}
330
1050
100
AcDbXrecord
 10
0.0
 20
0.0
 30
0.0
  0
XRECORD
  5
1068
102
{ACAD_REACTORS
330
1050
102
}
330
1050
100
AcDbXrecord
340
0
  0
XRECORD
  5
1069
102
{ACAD_REACTORS
330
1050
102
}
330
1050
100
AcDbXrecord
 70
     0
  0
XRECORD
  5
105C
102
{ACAD_REACTORS
330
1050
102
}
330
1050
100
AcDbXrecord
  1
{7911E60B-A667-4FC8-8A88-5A7430F1A0EB}
  0
XRECORD
  5
560
102
{ACAD_REACTORS
330
540
102
}
330
540
100
AcDbXrecord
  1
2.0.0
  0
ENDSEC
  0
EOF
