  0
SECTION
  2
HEADER
  9
$ACADVER
  1
AC1014
  9
$ACADMAINTVER
 70
     9
  9
$DWGCODEPAGE
  3
ANSI_932
  9
$INSBASE
 10
0.0
 20
0.0
 30
0.0
  9
$EXTMIN
 10
-70.01495247
 20
-19.5703201
 30
-0.00152582
  9
$EXTMAX
 10
54.5112617
 20
54.96170761
 30
0.00000003
  9
$LIMMIN
 10
0.0
 20
0.0
  9
$LIMMAX
 10
420.0
 20
297.0
  9
$ORTHOMODE
 70
     0
  9
$REGENMODE
 70
     1
  9
$FILLMODE
 70
     1
  9
$QTEXTMODE
 70
     0
  9
$MIRRTEXT
 70
     1
  9
$DRAGMODE
 70
     2
  9
$LTSCALE
 40
10.0
  9
$OSMODE
 70
   549
  9
$ATTMODE
 70
     1
  9
$TEXTSIZE
 40
3.0
  9
$TRACEWID
 40
1.0
  9
$TEXTSTYLE
  7
YOKO
  9
$CLAYER
  8
245
  9
$CELTYPE
  6
BYLAYER
  9
$CECOLOR
 62
   256
  9
$CELTSCALE
 40
1.0
  9
$DELOBJ
 70
     1
  9
$DISPSILH
 70
     0
  9
$DIMSCALE
 40
1.0
  9
$DIMASZ
 40
2.0
  9
$DIMEXO
 40
2.0
  9
$DIMDLI
 40
2.5
  9
$DIMRND
 40
0.0
  9
$DIMDLE
 40
0.0
  9
$DIMEXE
 40
2.0
  9
$DIMTP
 40
0.0
  9
$DIMTM
 40
0.0
  9
$DIMTXT
 40
4.0
  9
$DIMCEN
 40
0.0
  9
$DIMTSZ
 40
0.0
  9
$DIMTOL
 70
     0
  9
$DIMLIM
 70
     0
  9
$DIMTIH
 70
     0
  9
$DIMTOH
 70
     0
  9
$DIMSE1
 70
     0
  9
$DIMSE2
 70
     0
  9
$DIMTAD
 70
     3
  9
$DIMZIN
 70
     8
  9
$DIMBLK
  1

  9
$DIMASO
 70
     1
  9
$DIMSHO
 70
     1
  9
$DIMPOST
  1

  9
$DIMAPOST
  1

  9
$DIMALT
 70
     0
  9
$DIMALTD
 70
     2
  9
$DIMALTF
 40
25.4
  9
$DIMLFAC
 40
1.0
  9
$DIMTOFL
 70
     1
  9
$DIMTVP
 40
0.0
  9
$DIMTIX
 70
     1
  9
$DIMSOXD
 70
     0
  9
$DIMSAH
 70
     1
  9
$DIMBLK1
  1
OPEN
  9
$DIMBLK2
  1
OPEN
  9
$DIMSTYLE
  2
BIGT
  9
$DIMCLRD
 70
   256
  9
$DIMCLRE
 70
   256
  9
$DIMCLRT
 70
    40
  9
$DIMTFAC
 40
1.0
  9
$DIMGAP
 40
1.0
  9
$DIMJUST
 70
     0
  9
$DIMSD1
 70
     0
  9
$DIMSD2
 70
     0
  9
$DIMTOLJ
 70
     1
  9
$DIMTZIN
 70
     8
  9
$DIMALTZ
 70
     0
  9
$DIMALTTZ
 70
     0
  9
$DIMFIT
 70
     3
  9
$DIMUPT
 70
     0
  9
$DIMUNIT
 70
     2
  9
$DIMDEC
 70
     3
  9
$DIMTDEC
 70
     3
  9
$DIMALTU
 70
     2
  9
$DIMALTTD
 70
     2
  9
$DIMTXSTY
  7
STANDARD
  9
$DIMAUNIT
 70
     0
  9
$LUNITS
 70
     2
  9
$LUPREC
 70
     3
  9
$SKETCHINC
 40
1.0
  9
$FILLETRAD
 40
0.0
  9
$AUNITS
 70
     0
  9
$AUPREC
 70
     3
  9
$MENU
  1
.
  9
$ELEVATION
 40
0.0
  9
$PELEVATION
 40
0.0
  9
$THICKNESS
 40
0.0
  9
$LIMCHECK
 70
     0
  9
$BLIPMODE
 70
     0
  9
$CHAMFERA
 40
10.0
  9
$CHAMFERB
 40
10.0
  9
$CHAMFERC
 40
0.0
  9
$CHAMFERD
 40
0.0
  9
$SKPOLY
 70
     0
  9
$TDCREATE
 40
2455128.620985960
  9
$TDUPDATE
 40
2455316.549090162
  9
$TDINDWG
 40
0.0043693866
  9
$TDUSRTIMER
 40
0.0043693866
  9
$USRTIMER
 70
     1
  9
$ANGBASE
 50
0.0
  9
$ANGDIR
 70
     0
  9
$PDMODE
 70
     1
  9
$PDSIZE
 40
-5.0
  9
$PLINEWID
 40
0.0
  9
$COORDS
 70
     0
  9
$SPLFRAME
 70
     0
  9
$SPLINETYPE
 70
     6
  9
$SPLINESEGS
 70
     8
  9
$ATTDIA
 70
     0
  9
$ATTREQ
 70
     1
  9
$HANDLING
 70
-16383
  9
$HANDSEED
  5
12EC
  9
$SURFTAB1
 70
     6
  9
$SURFTAB2
 70
     6
  9
$SURFTYPE
 70
     6
  9
$SURFU
 70
     6
  9
$SURFV
 70
     6
  9
$UCSNAME
  2

  9
$UCSORG
 10
0.0
 20
0.0
 30
0.0
  9
$UCSXDIR
 10
1.0
 20
0.0
 30
0.0
  9
$UCSYDIR
 10
0.0
 20
1.0
 30
0.0
  9
$PUCSNAME
  2

  9
$PUCSORG
 10
0.0
 20
0.0
 30
0.0
  9
$PUCSXDIR
 10
1.0
 20
0.0
 30
0.0
  9
$PUCSYDIR
 10
0.0
 20
1.0
 30
0.0
  9
$USERI1
 70
     1
  9
$USERI2
 70
     0
  9
$USERI3
 70
     0
  9
$USERI4
 70
     0
  9
$USERI5
 70
     0
  9
$USERR1
 40
0.0
  9
$USERR2
 40
0.0
  9
$USERR3
 40
0.0
  9
$USERR4
 40
0.0
  9
$USERR5
 40
0.0
  9
$WORLDVIEW
 70
     1
  9
$SHADEDGE
 70
     3
  9
$SHADEDIF
 70
    70
  9
$TILEMODE
 70
     1
  9
$MAXACTVP
 70
    16
  9
$PINSBASE
 10
0.0
 20
0.0
 30
0.0
  9
$PLIMCHECK
 70
     0
  9
$PEXTMIN
 10
1.00000000E+20
 20
1.00000000E+20
 30
1.00000000E+20
  9
$PEXTMAX
 10
-1.00000000E+20
 20
-1.00000000E+20
 30
-1.00000000E+20
  9
$PLIMMIN
 10
0.0
 20
0.0
  9
$PLIMMAX
 10
420.0
 20
297.0
  9
$UNITMODE
 70
     0
  9
$VISRETAIN
 70
     0
  9
$PLINEGEN
 70
     0
  9
$PSLTSCALE
 70
     1
  9
$TREEDEPTH
 70
  3020
  9
$PICKSTYLE
 70
     0
  9
$CMLSTYLE
  2
STANDARD
  9
$CMLJUST
 70
     0
  9
$CMLSCALE
 40
1.0
  9
$PROXYGRAPHICS
 70
     1
  9
$MEASUREMENT
 70
     1
  0
ENDSEC
  0
SECTION
  2
CLASSES
  0
CLASS
  1
XRECORD
  2
AcDbXrecord
  3
AutoCAD 2000
 90
        0
280
     0
281
     0
  0
CLASS
  1
ACDBDICTIONARYWDFLT
  2
AcDbDictionaryWithDefault
  3
AutoCAD 2000
 90
        0
280
     0
281
     0
  0
CLASS
  1
ACDBPLACEHOLDER
  2
AcDbPlaceHolder
  3
AutoCAD 2000
 90
        0
280
     0
281
     0
  0
CLASS
  1
LAYOUT
  2
AcDbLayout
  3
AutoCAD 2000
 90
        0
280
     0
281
     0
  0
CLASS
  1
PLOTSETTINGS
  2
AcDbPlotSettings
  3
AutoCAD 2000
 90
        0
280
     0
281
     0
  0
CLASS
  1
LONG_TRANSACTION
  2
AcDbLongTransaction
  3
AutoCAD 2000
 90
        0
280
     0
281
     0
  0
CLASS
  1
LWPOLYLINE
  2
AcDbPolyline
  3
AutoCAD 2000
 90
        0
280
     0
281
     1
  0
CLASS
  1
HATCH
  2
AcDbHatch
  3
AutoCAD 2000
 90
        0
280
     0
281
     1
  0
CLASS
  1
XRECORD
  2
AcDbXrecord
  3
AutoCAD 2000
 90
        0
280
     0
281
     0
  0
CLASS
  1
LONG_TRANSACTION
  2
AcDbLongTransaction
  3
AutoCAD 2000
 90
        0
280
     0
281
     0
  0
CLASS
  1
LWPOLYLINE
  2
AcDbPolyline
  3
AutoCAD 2000
 90
        0
280
     0
281
     1
  0
CLASS
  1
HATCH
  2
AcDbHatch
  3
AutoCAD 2000
 90
        0
280
     0
281
     1
  0
CLASS
  1
XRECORD
  2
AcDbXrecord
  3
AutoCAD 2000
 90
        0
280
     0
281
     0
  0
ENDSEC
  0
SECTION
  2
TABLES
  0
TABLE
  2
VPORT
  5
8
330
0
100
AcDbSymbolTable
 70
     2
  0
VPORT
  5
12C7
330
8
100
AcDbSymbolTableRecord
100
AcDbViewportTableRecord
  2
*ACTIVE
 70
     0
 10
0.0
 20
0.0
 11
1.0
 21
1.0
 12
-7.75184539
 22
17.69569376
 13
0.0
 23
0.0
 14
7.0
 24
7.0
 15
7.0
 25
7.0
 16
0.0
 26
0.0
 36
1.0
 17
0.0
 27
0.0
 37
0.0
 40
87.43258703
 41
1.43184713
 42
50.0
 43
0.0
 44
0.0
 50
0.0
 51
0.0
 71
     0
 72
  2000
 73
     1
 74
     0
 75
     0
 76
     0
 77
     0
 78
     0
  0
ENDTAB
  0
TABLE
  2
LTYPE
  5
5
330
0
100
AcDbSymbolTable
 70
     3
  0
LTYPE
  5
14
330
5
100
AcDbSymbolTableRecord
100
AcDbLinetypeTableRecord
  2
BYBLOCK
 70
     0
  3

 72
    65
 73
     0
 40
0.0
  0
LTYPE
  5
15
330
5
100
AcDbSymbolTableRecord
100
AcDbLinetypeTableRecord
  2
BYLAYER
 70
     0
  3

 72
    65
 73
     0
 40
0.0
  0
LTYPE
  5
16
330
5
100
AcDbSymbolTableRecord
100
AcDbLinetypeTableRecord
  2
CONTINUOUS
 70
     0
  3
Solid line
 72
    65
 73
     0
 40
0.0
  0
LTYPE
  5
258
330
5
100
AcDbSymbolTableRecord
100
AcDbLinetypeTableRecord
  2
CENTER2
 70
     0
  3
___ _ ___ _ ___ _ ___ _ ___ _ ___ _ ___ _ ___ _
 72
    65
 73
     4
 40
1.125
 49
0.75
 74
     0
 49
-0.125
 74
     0
 49
0.125
 74
     0
 49
-0.125
 74
     0
  0
LTYPE
  5
25C
330
5
100
AcDbSymbolTableRecord
100
AcDbLinetypeTableRecord
  2
HIDDEN2
 70
     0
  3
_ _ _ _ _ _ _ _ _ _ _ _ _ _ _ _ _ _ _ _ _ _ _ _
 72
    65
 73
     2
 40
0.1875
 49
0.125
 74
     0
 49
-0.0625
 74
     0
  0
ENDTAB
  0
TABLE
  2
LAYER
  5
2
330
0
100
AcDbSymbolTable
 70
    12
  0
LAYER
  5
F
330
2
100
AcDbSymbolTableRecord
100
AcDbLayerTableRecord
  2
0
 70
     0
 62
     7
  6
CONTINUOUS
  0
LAYER
  5
1AA
330
2
100
AcDbSymbolTableRecord
100
AcDbLayerTableRecord
  2
240
 70
     0
 62
     4
  6
CONTINUOUS
  0
LAYER
  5
1AB
330
2
100
AcDbSymbolTableRecord
100
AcDbLayerTableRecord
  2
241
 70
     0
 62
   211
  6
CONTINUOUS
  0
LAYER
  5
1AC
330
2
100
AcDbSymbolTableRecord
100
AcDbLayerTableRecord
  2
242
 70
     0
 62
     3
  6
CONTINUOUS
  0
LAYER
  5
1AD
330
2
100
AcDbSymbolTableRecord
100
AcDbLayerTableRecord
  2
243
 70
     0
 62
   211
  6
HIDDEN2
  0
LAYER
  5
1AF
330
2
100
AcDbSymbolTableRecord
100
AcDbLayerTableRecord
  2
245
 70
     0
 62
     2
  6
CENTER2
  0
LAYER
  5
21E
330
2
100
AcDbSymbolTableRecord
100
AcDbLayerTableRecord
  2
250
 70
     0
 62
     3
  6
CONTINUOUS
  0
LAYER
  5
21F
330
2
100
AcDbSymbolTableRecord
100
AcDbLayerTableRecord
  2
251
 70
     0
 62
    40
  6
CONTINUOUS
  0
LAYER
  5
5C4
330
2
100
AcDbSymbolTableRecord
100
AcDbLayerTableRecord
  2
DEFPOINTS
 70
     0
 62
     7
  6
CONTINUOUS
  0
LAYER
  5
8C3
330
2
100
AcDbSymbolTableRecord
100
AcDbLayerTableRecord
  2
AM_5
 70
     0
 62
     3
  6
CONTINUOUS
  0
ENDTAB
  0
TABLE
  2
STYLE
  5
3
330
0
100
AcDbSymbolTable
 70
     2
  0
STYLE
  5
10
330
3
100
AcDbSymbolTableRecord
100
AcDbTextStyleTableRecord
  2
STANDARD
 70
     0
 40
0.0
 41
1.0
 50
0.0
 71
     0
 42
3.0
  3
romans.shx
  4
BIGFONT.SHX
  0
STYLE
  5
339
330
3
100
AcDbSymbolTableRecord
100
AcDbTextStyleTableRecord
  2
YOKO
 70
     0
 40
0.0
 41
1.0
 50
0.0
 71
     0
 42
3.0
  3
romans.shx
  4
extfont.shx
  0
ENDTAB
  0
TABLE
  2
VIEW
  5
6
330
0
100
AcDbSymbolTable
 70
     0
  0
ENDTAB
  0
TABLE
  2
UCS
  5
7
330
0
100
AcDbSymbolTable
 70
     0
  0
ENDTAB
  0
TABLE
  2
APPID
  5
9
330
0
100
AcDbSymbolTable
 70
    15
  0
APPID
  5
11
330
9
100
AcDbSymbolTableRecord
100
AcDbRegAppTableRecord
  2
ACAD
 70
     0
  0
APPID
  5
1B1
330
9
100
AcDbSymbolTableRecord
100
AcDbRegAppTableRecord
  2
GLOBAL
 70
     0
  0
APPID
  5
2A4
330
9
100
AcDbSymbolTableRecord
100
AcDbRegAppTableRecord
  2
DETAIL
 70
     0
  0
APPID
  5
5FD
330
9
100
AcDbSymbolTableRecord
100
AcDbRegAppTableRecord
  2
GRPNAME
 70
     0
  0
APPID
  5
5FE
330
9
100
AcDbSymbolTableRecord
100
AcDbRegAppTableRecord
  2
GPARA
 70
     0
  0
APPID
  5
6C4
330
9
100
AcDbSymbolTableRecord
100
AcDbRegAppTableRecord
  2
DCO15
 70
     0
  0
APPID
  5
6C5
330
9
100
AcDbSymbolTableRecord
100
AcDbRegAppTableRecord
  2
ITEMNAME
 70
     0
  0
APPID
  5
6C6
330
9
100
AcDbSymbolTableRecord
100
AcDbRegAppTableRecord
  2
GRADE_0
 70
     0
  0
APPID
  5
8C5
330
9
100
AcDbSymbolTableRecord
100
AcDbRegAppTableRecord
  2
GENIUS_GENODEF_13
 70
     0
  0
APPID
  5
8C6
330
9
100
AcDbSymbolTableRecord
100
AcDbRegAppTableRecord
  2
GENIUS_GENOREF_13
 70
     0
  0
APPID
  5
8C7
330
9
100
AcDbSymbolTableRecord
100
AcDbRegAppTableRecord
  2
GENIUS_GENOBJ-N-FIL_13
 70
     0
  0
APPID
  5
8C8
330
9
100
AcDbSymbolTableRecord
100
AcDbRegAppTableRecord
  2
HATCH_TYPE
 70
     0
  0
APPID
  5
8C9
330
9
100
AcDbSymbolTableRecord
100
AcDbRegAppTableRecord
  2
HATCH_DISPLAY
 70
     0
  0
APPID
  5
8CA
330
9
100
AcDbSymbolTableRecord
100
AcDbRegAppTableRecord
  2
HATCH_DISTANCE
 70
     0
  0
APPID
  5
D89
330
9
100
AcDbSymbolTableRecord
100
AcDbRegAppTableRecord
  2
CONTENTBLOCKICON
 70
     0
  0
ENDTAB
  0
TABLE
  2
DIMSTYLE
  5
A
330
0
100
AcDbSymbolTable
 70
     2
  0
DIMSTYLE
105
725
102
{ACAD_REACTORS
330
1143
102
}
330
A
100
AcDbSymbolTableRecord
100
AcDbDimStyleTableRecord
  2
BIGT
 70
     0
  3

  4

  5

  6
OPEN
  7
OPEN
 40
1.0
 41
2.23
 42
0.5
 43
2.5
 44
1.0
 45
0.0
 46
0.0
 47
0.0
 48
0.0
140
2.8
141
0.0
142
0.0
143
25.4
144
1.0
145
0.0
146
1.0
147
1.0
 71
     0
 72
     0
 73
     0
 74
     0
 75
     0
 76
     0
 77
     3
 78
     8
170
     0
171
     2
172
     1
173
     1
174
     1
175
     0
176
   256
177
   256
178
    40
270
     2
271
     3
272
     3
273
     2
274
     2
340
10
275
     0
280
     0
281
     0
282
     0
283
     1
284
     8
285
     0
286
     0
287
     3
288
     0
  0
DIMSTYLE
105
8C4
102
{ACAD_REACTORS
330
1127
330
1026
102
}
330
A
100
AcDbSymbolTableRecord
100
AcDbDimStyleTableRecord
  2
BIGT$0
 70
     0
  3

  4

  5
OPEN
  6

  7

 40
1.0
 41
2.23
 42
0.5
 43
7.0
 44
1.0
 45
0.0
 46
0.0
 47
0.0
 48
0.01
140
2.8
141
0.0
142
0.0
143
25.4
144
1.0
145
0.0
146
1.0
147
1.0
 71
     0
 72
     0
 73
     0
 74
     0
 75
     0
 76
     0
 77
     3
 78
     9
170
     0
171
     2
172
     1
173
     0
174
     1
175
     0
176
   256
177
   256
178
    40
270
     2
271
     3
272
     3
273
     2
274
     2
340
10
275
     0
280
     0
281
     0
282
     0
283
     1
284
     8
285
     0
286
     0
287
     3
288
     0
  0
ENDTAB
  0
TABLE
  2
BLOCK_RECORD
  5
1
330
0
100
AcDbSymbolTable
 70
    13
  0
BLOCK_RECORD
  5
1A
102
{ACAD_XDICTIONARY
360
D87
102
}
330
1
100
AcDbSymbolTableRecord
100
AcDbBlockTableRecord
  2
*MODEL_SPACE
  0
BLOCK_RECORD
  5
17
102
{ACAD_XDICTIONARY
360
D85
102
}
330
1
100
AcDbSymbolTableRecord
100
AcDbBlockTableRecord
  2
*PAPER_SPACE
  0
BLOCK_RECORD
  5
594
330
1
100
AcDbSymbolTableRecord
100
AcDbBlockTableRecord
  2
_OPEN
  0
BLOCK_RECORD
  5
6E3
330
1
100
AcDbSymbolTableRecord
100
AcDbBlockTableRecord
  2
矢印なし
  0
BLOCK_RECORD
  5
785
330
1
100
AcDbSymbolTableRecord
100
AcDbBlockTableRecord
  2
1
1001
CONTENTBLOCKICON
1071
        0
1004
2800000020000000200000000100080000000000000400000000000000000000000000000000000000000000000080000080000000808000800000008000800080800000C0C0C000C0DCC000F0CAA6000020400000206000002080000020A0000020C0000020E00000400000004020000040400000406000004080000040A0
1004
000040C0000040E00000600000006020000060400000606000006080000060A0000060C0000060E00000800000008020000080400000806000008080000080A0000080C0000080E00000A0000000A0200000A0400000A0600000A0800000A0A00000A0C00000A0E00000C0000000C0200000C0400000C0600000C0800000C0
1004
A00000C0C00000C0E00000E0000000E0200000E0400000E0600000E0800000E0A00000E0C00000E0E00040000000400020004000400040006000400080004000A0004000C0004000E00040200000402020004020400040206000402080004020A0004020C0004020E000404000004040200040404000404060004040800040
1004
40A0004040C0004040E00040600000406020004060400040606000406080004060A0004060C0004060E00040800000408020004080400040806000408080004080A0004080C0004080E00040A0000040A0200040A0400040A0600040A0800040A0A00040A0C00040A0E00040C0000040C0200040C0400040C0600040C08000
1004
40C0A00040C0C00040C0E00040E0000040E0200040E0400040E0600040E0800040E0A00040E0C00040E0E00080000000800020008000400080006000800080008000A0008000C0008000E00080200000802020008020400080206000802080008020A0008020C0008020E00080400000804020008040400080406000804080
1004
008040A0008040C0008040E00080600000806020008060400080606000806080008060A0008060C0008060E00080800000808020008080400080806000808080008080A0008080C0008080E00080A0000080A0200080A0400080A0600080A0800080A0A00080A0C00080A0E00080C0000080C0200080C0400080C0600080C0
1004
800080C0A00080C0C00080C0E00080E0000080E0200080E0400080E0600080E0800080E0A00080E0C00080E0E000C0000000C0002000C0004000C0006000C0008000C000A000C000C000C000E000C0200000C0202000C0204000C0206000C0208000C020A000C020C000C020E000C0400000C0402000C0404000C0406000C0
1004
408000C040A000C040C000C040E000C0600000C0602000C0604000C0606000C0608000C060A000C060C000C060E000C0800000C0802000C0804000C0806000C0808000C080A000C080C000C080E000C0A00000C0A02000C0A04000C0A06000C0A08000C0A0A000C0A0C000C0A0E000C0C00000C0C02000C0C04000C0C06000
1004
C0C08000C0C0A000F0FBFF00A4A0A000808080000000FF0000FF000000FFFF00FF000000FF00FF00FFFF0000FFFFFF0000000000000000000000000000000000000000000000000000000000000000000000000000000000000000000000000000000000000000000000000000000000000000000000000000000000000000
1004
00000000000000000000000000000000000000000000000000000000000000000000000000000000000000000000000000000000000000000000000000000000000000000000000000000000000000000000000000000000000000000000000000000000000000000000000000000000000000000000000000000000000000
1004
00000000000000000000000000000000000000000000000000000000000000000000000000000000000000000000000000000000000000000000000000000000000000000000000000000000000000000000000000000000000000000000000000000000000000000000000000000000000000000000000000000000000000
1004
000000FEFEFEFEFE000000000000000000000000000000000000000000000000000000FEFEE7FEFE0000FE00000000000000000000FEFEFEFEFEFEFEFEFEFEFEFEFEFEFEFEE7E7E7FFFEFEFEFEFEFEFEFE00000000FE00000000E7FBE70000E700E7E7E700E7E7E7FFFFE7E700000000FE00000000FE00000000E7FBE70000
1004
E7FBFBE7E700E7E7E700FFE7E700000000FE00000000FE00000000E7FBE70000E7FBE7E7E700E7E7E700FFE7E700000000FE000000FBFEFBFBFBFBE7FBE7FBFBE7FBE7E7E7FBE7E7E7E7FBE7E7E7FBFBFBFEFB000000FE00000000E7FBE70000E700E7E7E700E7E7E7E7E7E7E7E7E7E7E7FE00000000FE00000000E7FBE700
1004
00E700E7E7E700E7E7E70000E7E700000000FE00000000FEFEFEFEFEFEFEFEFEFEFEFEFEFEFEFEE7E7E7FEFEFEE7FEFEFEFEFE000000000000000000000000000000000000FEFEE7FEFE0000FE000000000000000000000000000000000000000000000000FEFEFEFEFE000000000000000000000000000000000000000000
1004
00000000000000000000000000000000000000000000000000000000000000000000000000000000000000000000000000000000000000000000000000000000000000000000000000000000000000000000000000000000000000000000000000000000000000000000000000000000000000000000000000000000000000
1004
00000000000000000000000000000000000000000000000000000000000000000000000000000000000000000000000000000000000000000000000000000000000000000000000000000000000000000000000000000000000000000000000000000000000000000000000000000000000000000000000000000000000000
1004
0000000000000000000000000000000000000000000000000000000000000000000000000000000000000000000000000000000000000000
  0
BLOCK_RECORD
  5
1147
330
1
100
AcDbSymbolTableRecord
100
AcDbBlockTableRecord
  2
*D10
  0
BLOCK_RECORD
  5
1153
330
1
100
AcDbSymbolTableRecord
100
AcDbBlockTableRecord
  2
*D11
  0
BLOCK_RECORD
  5
115E
330
1
100
AcDbSymbolTableRecord
100
AcDbBlockTableRecord
  2
*D12
  0
ENDTAB
  0
ENDSEC
  0
SECTION
  2
BLOCKS
  0
BLOCK
  5
1B
330
1A
100
AcDbEntity
  8
0
100
AcDbBlockBegin
  2
*MODEL_SPACE
 70
     0
 10
0.0
 20
0.0
 30
0.0
  3
*MODEL_SPACE
  1

  0
ENDBLK
  5
1C
330
1A
100
AcDbEntity
  8
0
100
AcDbBlockEnd
  0
BLOCK
  5
18
330
17
100
AcDbEntity
 67
     1
  8
0
100
AcDbBlockBegin
  2
*PAPER_SPACE
 70
     0
 10
0.0
 20
0.0
 30
0.0
  3
*PAPER_SPACE
  1

  0
ENDBLK
  5
19
330
17
100
AcDbEntity
 67
     1
  8
0
100
AcDbBlockEnd
  0
BLOCK
  5
598
330
594
100
AcDbEntity
  8
0
100
AcDbBlockBegin
  2
_OPEN
 70
     0
 10
0.0
 20
0.0
 30
0.0
  3
_OPEN
  1

  0
LINE
  5
595
330
594
100
AcDbEntity
  8
0
  6
BYBLOCK
 62
     0
100
AcDbLine
 10
-1.0
 20
0.16666667
 30
0.0
 11
0.0
 21
0.0
 31
0.0
  0
LINE
  5
596
330
594
100
AcDbEntity
  8
0
  6
BYBLOCK
 62
     0
100
AcDbLine
 10
-1.0
 20
-0.16666667
 30
0.0
 11
0.0
 21
0.0
 31
0.0
  0
LINE
  5
597
330
594
100
AcDbEntity
  8
0
  6
BYBLOCK
 62
     0
100
AcDbLine
 10
0.0
 20
0.0
 30
0.0
 11
-1.0
 21
0.0
 31
0.0
  0
ENDBLK
  5
599
330
594
100
AcDbEntity
  8
0
100
AcDbBlockEnd
  0
BLOCK
  5
6E4
330
6E3
100
AcDbEntity
  8
0
100
AcDbBlockBegin
  2
矢印なし
 70
     0
 10
0.0
 20
0.0
 30
0.0
  3
矢印なし
  1

  0
ENDBLK
  5
6E5
330
6E3
100
AcDbEntity
  8
0
100
AcDbBlockEnd
  0
BLOCK
  5
8C1
330
785
100
AcDbEntity
  8
0
100
AcDbBlockBegin
  2
1
 70
     0
 10
0.0
 20
0.0
 30
0.0
  3
1
  1

  0
LINE
  5
11A8
330
785
100
AcDbEntity
  8
241
  6
HIDDEN2
100
AcDbLine
 10
18.0
 20
6.0
 30
0.0
 11
35.0
 21
6.0
 31
0.0
  0
LINE
  5
11A9
330
785
100
AcDbEntity
  8
240
100
AcDbLine
 10
13.25980762
 20
15.0
 30
0.0
 11
34.0
 21
15.0
 31
0.0
  0
LINE
  5
11AA
330
785
100
AcDbEntity
  8
240
100
AcDbLine
 10
13.25980762
 20
-15.0
 30
0.0
 11
34.0
 21
-15.0
 31
0.0
  0
LINE
  5
11AB
330
785
100
AcDbEntity
  8
245
100
AcDbLine
 10
-70.0
 20
0.0
 30
0.0
 11
36.0
 21
0.0
 31
0.0
  0
LINE
  5
11AC
330
785
100
AcDbEntity
  8
240
100
AcDbLine
 10
-54.0
 20
12.5
 30
0.0
 11
-56.5
 21
15.0
 31
0.0
  0
LINE
  5
11AD
330
785
100
AcDbEntity
  8
240
100
AcDbLine
 10
-54.0
 20
-12.5
 30
0.0
 11
-56.5
 21
-15.0
 31
0.0
  0
LINE
  5
11AE
330
785
100
AcDbEntity
  8
240
100
AcDbLine
 10
-69.0
 20
-14.0
 30
0.0
 11
-69.0
 21
0.0
 31
0.0
  0
LINE
  5
11AF
330
785
100
AcDbEntity
  8
240
100
AcDbLine
 10
-68.0
 20
-15.0
 30
0.0
 11
-56.5
 21
-15.0
 31
0.0
  0
ARC
  5
11B0
330
785
100
AcDbEntity
  8
240
100
AcDbCircle
 10
-68.0
 20
-14.0
 30
0.0
 40
1.0
100
AcDbArc
 50
180.0
 51
270.0
  0
ARC
  5
11B1
330
785
100
AcDbEntity
  8
240
100
AcDbCircle
 10
-68.0
 20
14.0
 30
0.0
 40
1.0
100
AcDbArc
 50
90.0
 51
180.0
  0
LINE
  5
11B2
330
785
100
AcDbEntity
  8
240
100
AcDbLine
 10
-69.0
 20
14.0
 30
0.0
 11
-69.0
 21
0.0
 31
0.0
  0
LINE
  5
11B3
330
785
100
AcDbEntity
  8
240
100
AcDbLine
 10
-68.0
 20
15.0
 30
0.0
 11
-56.5
 21
15.0
 31
0.0
  0
TEXT
  5
11B4
330
785
100
AcDbEntity
  8
0
100
AcDbText
 10
7.23937278
 20
-14.71506068
 30
0.0
 40
1.1
  1
MGT20-U5/8-35
 50
90.0
  7
YOKO
100
AcDbText
  0
ARC
  5
11B5
330
785
100
AcDbEntity
  8
0
100
AcDbCircle
 10
4.16358534
 20
-9.27001361
 30
0.0
 40
0.8911994361877553
100
AcDbArc
 50
200.22964506
 51
208.57168892
  0
LINE
  5
11B6
330
785
100
AcDbEntity
  8
0
100
AcDbLine
 10
5.05478457
 20
-9.78466844
 30
0.0
 11
4.88503115
 21
-9.61491503
 31
0.0
  0
LINE
  5
11B7
330
785
100
AcDbEntity
  8
0
100
AcDbLine
 10
3.5449697
 20
-9.7835366
 30
0.0
 11
3.3366722
 21
-9.57523911
 31
0.0
  0
ARC
  5
11B8
330
785
100
AcDbEntity
  8
0
100
AcDbCircle
 10
4.16358534
 20
-9.27001361
 30
0.0
 40
0.7214476203918543
100
AcDbArc
 50
200.8721834
 51
222.54194894
  0
LINE
  5
11B9
330
785
100
AcDbEntity
  8
0
100
AcDbLine
 10
4.7119456
 20
-9.81900023
 30
0.0
 11
4.55280433
 21
-9.65985896
 31
0.0
  0
LINE
  5
11BA
330
785
100
AcDbEntity
  8
0
100
AcDbLine
 10
4.80015445
 20
-9.73078571
 30
0.0
 11
3.93441694
 21
-9.48253864
 31
0.0
  0
LINE
  5
11BB
330
785
100
AcDbEntity
  8
0
100
AcDbLine
 10
4.25477749
 20
-9.92758825
 30
0.0
 11
3.93441694
 21
-9.60722771
 31
0.0
  0
LINE
  5
11BC
330
785
100
AcDbEntity
  8
0
100
AcDbLine
 10
4.52890619
 20
-10.01313158
 30
0.0
 11
4.02400121
 21
-9.5082266
 31
0.0
  0
LINE
  5
11BD
330
785
100
AcDbEntity
  8
0
100
AcDbLine
 10
3.93441694
 20
-9.97700122
 30
0.0
 11
3.93441694
 21
-9.48253864
 31
0.0
  0
LINE
  5
11BE
330
785
100
AcDbEntity
  8
0
100
AcDbLine
 10
4.7975802
 20
-10.09322022
 30
0.0
 11
4.28840277
 21
-9.58404278
 31
0.0
  0
ARC
  5
11BF
330
785
100
AcDbEntity
  8
0
100
AcDbCircle
 10
4.16358534
 20
-9.27001361
 30
0.0
 40
0.7214456176757899
100
AcDbArc
 50
0.0
 51
194.1274365
  0
ARC
  5
11C0
330
785
100
AcDbEntity
  8
0
100
AcDbCircle
 10
4.16358534
 20
-9.27001361
 30
0.0
 40
0.8911990356445432
100
AcDbArc
 50
0.0
 51
194.77079397
  0
LINE
  5
11C1
330
785
100
AcDbEntity
  8
0
100
AcDbLine
 10
5.05478457
 20
-12.71598621
 30
0.0
 11
5.05478457
 21
-9.27001361
 31
0.0
  0
LINE
  5
11C2
330
785
100
AcDbEntity
  8
0
100
AcDbLine
 10
4.88503115
 20
-12.71598621
 30
0.0
 11
4.88503115
 21
-9.27001361
 31
0.0
  0
LINE
  5
11C3
330
785
100
AcDbEntity
  8
241
100
AcDbLine
 10
11.0
 20
-11.7
 30
0.0
 11
11.0
 21
0.0
 31
0.0
  0
LINE
  5
11C4
330
785
100
AcDbEntity
  8
241
100
AcDbLine
 10
13.0
 20
-15.15
 30
0.0
 11
13.0
 21
0.0
 31
0.0
  0
LINE
  5
11C5
330
785
100
AcDbEntity
  8
241
100
AcDbLine
 10
14.2
 20
-15.0
 30
0.0
 11
14.2
 21
0.0
 31
0.0
  0
LINE
  5
11C6
330
785
100
AcDbEntity
  8
241
100
AcDbLine
 10
10.0
 20
-11.7
 30
0.0
 11
10.0
 21
0.0
 31
0.0
  0
LINE
  5
11C7
330
785
100
AcDbEntity
  8
241
100
AcDbLine
 10
1.20577137
 20
-15.35874397
 30
0.0
 11
1.20577137
 21
0.0
 31
0.0
  0
LINE
  5
11C8
330
785
100
AcDbEntity
  8
241
100
AcDbLine
 10
-6.12626129
 20
-19.5
 30
0.0
 11
-6.12626129
 21
0.0
 31
0.0
  0
LINE
  5
11C9
330
785
100
AcDbEntity
  8
241
  6
CONTINUOUS
100
AcDbLine
 10
-7.5
 20
-19.00000001
 30
0.0
 11
-7.5
 21
0.0
 31
0.0
  0
LINE
  5
11CA
330
785
100
AcDbEntity
  8
241
100
AcDbLine
 10
0.0
 20
-19.14125603
 30
0.0
 11
0.0
 21
0.0
 31
0.0
  0
LINE
  5
11CB
330
785
100
AcDbEntity
  8
241
100
AcDbLine
 10
-2.0
 20
-18.25
 30
0.0
 11
-2.0
 21
0.0
 31
0.0
  0
LINE
  5
11CC
330
785
100
AcDbEntity
  8
241
100
AcDbLine
 10
-4.5
 20
-18.25
 30
0.0
 11
-4.5
 21
0.0
 31
0.0
  0
LINE
  5
11CD
330
785
100
AcDbEntity
  8
241
100
AcDbLine
 10
-14.5
 20
-15.0
 30
0.0
 11
-14.5
 21
0.0
 31
0.0
  0
LINE
  5
11CE
330
785
100
AcDbEntity
  8
241
100
AcDbLine
 10
-19.0
 20
-13.75
 30
0.0
 11
-19.0
 21
0.0
 31
0.0
  0
LINE
  5
11CF
330
785
100
AcDbEntity
  8
241
100
AcDbLine
 10
-21.5
 20
-13.75
 30
0.0
 11
-21.5
 21
0.0
 31
0.0
  0
LINE
  5
11D0
330
785
100
AcDbEntity
  8
241
100
AcDbLine
 10
-29.5
 20
-13.75
 30
0.0
 11
-29.5
 21
0.0
 31
0.0
  0
LINE
  5
11D1
330
785
100
AcDbEntity
  8
241
100
AcDbLine
 10
-32.0
 20
-13.75
 30
0.0
 11
-32.0
 21
0.0
 31
0.0
  0
LINE
  5
11D2
330
785
100
AcDbEntity
  8
243
100
AcDbLine
 10
-42.0
 20
-12.5
 30
0.0
 11
-42.0
 21
12.5
 31
0.0
1001
GENIUS_GENOREF_13
1005
0
  0
LINE
  5
11D3
330
785
100
AcDbEntity
  8
243
100
AcDbLine
 10
-50.0
 20
-12.5
 30
0.0
 11
-50.0
 21
12.5
 31
0.0
1001
GENIUS_GENOREF_13
1005
0
  0
LINE
  5
11D4
330
785
100
AcDbEntity
  8
245
100
AcDbLine
 10
-46.0
 20
-15.0
 30
0.0
 11
-46.0
 21
15.0
 31
0.0
1001
GENIUS_GENOREF_13
1005
0
  0
LINE
  5
11D5
330
785
100
AcDbEntity
  8
240
100
AcDbLine
 10
-19.0
 20
-15.0
 30
0.0
 11
-14.5
 21
-15.0
 31
0.0
  0
LINE
  5
11D6
330
785
100
AcDbEntity
  8
240
100
AcDbLine
 10
-38.0
 20
-12.5
 30
0.0
 11
-35.5
 21
-15.0
 31
0.0
  0
LINE
  5
11D7
330
785
100
AcDbEntity
  8
240
100
AcDbLine
 10
-46.0
 20
-12.5
 30
0.0
 11
-38.0
 21
-12.5
 31
0.0
  0
LINE
  5
11D8
330
785
100
AcDbEntity
  8
240
100
AcDbLine
 10
-54.0
 20
-12.5
 30
0.0
 11
-46.0
 21
-12.5
 31
0.0
  0
LINE
  5
11D9
330
785
100
AcDbEntity
  8
240
100
AcDbLine
 10
-29.5
 20
-15.0
 30
0.0
 11
-21.5
 21
-15.0
 31
0.0
  0
ARC
  5
11DA
330
785
100
AcDbEntity
  8
240
100
AcDbCircle
 10
-30.75
 20
-13.75
 30
0.0
 40
1.24999999999827
100
AcDbArc
 50
180.0
 51
0.0
  0
LINE
  5
11DB
330
785
100
AcDbEntity
  8
240
100
AcDbLine
 10
-35.5
 20
-15.0
 30
0.0
 11
-32.0
 21
-15.0
 31
0.0
  0
LINE
  5
11DC
330
785
100
AcDbEntity
  8
240
100
AcDbLine
 10
-32.0
 20
-13.75
 30
0.0
 11
-32.0
 21
-15.0
 31
0.0
  0
LINE
  5
11DD
330
785
100
AcDbEntity
  8
240
100
AcDbLine
 10
-29.5
 20
-13.75
 30
0.0
 11
-29.5
 21
-15.0
 31
0.0
  0
ARC
  5
11DE
330
785
100
AcDbEntity
  8
240
100
AcDbCircle
 10
-20.25
 20
-13.75
 30
0.0
 40
1.249999999998089
100
AcDbArc
 50
180.0
 51
0.0
  0
LINE
  5
11DF
330
785
100
AcDbEntity
  8
240
100
AcDbLine
 10
-21.5
 20
-13.75
 30
0.0
 11
-21.5
 21
-15.0
 31
0.0
  0
LINE
  5
11E0
330
785
100
AcDbEntity
  8
240
100
AcDbLine
 10
-19.0
 20
-13.75
 30
0.0
 11
-19.0
 21
-15.0
 31
0.0
  0
LINE
  5
11E1
330
785
100
AcDbEntity
  8
240
100
AcDbLine
 10
10.0
 20
-15.0
 30
0.0
 11
1.97309836
 21
-15.0
 31
0.0
  0
LINE
  5
11E2
330
785
100
AcDbEntity
  8
240
100
AcDbLine
 10
-7.5
 20
-19.00000001
 30
0.0
 11
-6.12626128
 21
-19.5
 31
0.0
  0
LINE
  5
11E3
330
785
100
AcDbEntity
  8
240
100
AcDbLine
 10
-13.0
 20
-15.5
 30
0.0
 11
-13.5
 21
-16.0
 31
0.0
  0
LINE
  5
11E4
330
785
100
AcDbEntity
  8
240
100
AcDbLine
 10
-7.50000001
 20
-19.0
 30
0.0
 11
-13.5
 21
-19.0
 31
0.0
  0
LINE
  5
11E5
330
785
100
AcDbEntity
  8
240
100
AcDbLine
 10
-13.5
 20
-19.0
 30
0.0
 11
-13.5
 21
-16.0
 31
0.0
  0
LINE
  5
11E6
330
785
100
AcDbEntity
  8
241
  6
CONTINUOUS
100
AcDbLine
 10
-7.5
 20
-15.2
 30
0.0
 11
-13.0
 21
-15.2
 31
0.0
  0
LINE
  5
11E7
330
785
100
AcDbEntity
  8
240
100
AcDbLine
 10
-13.0
 20
-15.5
 30
0.0
 11
-13.0
 21
-14.7
 31
0.0
  0
LINE
  5
11E8
330
785
100
AcDbEntity
  8
240
100
AcDbLine
 10
-14.2
 20
-14.7
 30
0.0
 11
-13.0
 21
-14.7
 31
0.0
  0
LINE
  5
11E9
330
785
100
AcDbEntity
  8
240
100
AcDbLine
 10
-14.2
 20
-14.7
 30
0.0
 11
-14.5
 21
-15.0
 31
0.0
  0
LINE
  5
11EA
330
785
100
AcDbEntity
  8
240
100
AcDbLine
 10
0.19859884
 20
-18.75881905
 30
0.0
 11
1.00717253
 21
-15.74118096
 31
0.0
  0
ARC
  5
11EB
330
785
100
AcDbEntity
  8
240
100
AcDbCircle
 10
-3.25
 20
-18.25
 30
0.0
 40
1.250000000000339
100
AcDbArc
 50
180.0
 51
0.0
  0
LINE
  5
11EC
330
785
100
AcDbEntity
  8
240
100
AcDbLine
 10
-4.5
 20
-19.5
 30
0.0
 11
-6.12626129
 21
-19.5
 31
0.0
  0
LINE
  5
11ED
330
785
100
AcDbEntity
  8
240
100
AcDbLine
 10
-4.5
 20
-18.25
 30
0.0
 11
-4.5
 21
-19.5
 31
0.0
  0
LINE
  5
11EE
330
785
100
AcDbEntity
  8
240
100
AcDbLine
 10
-0.63567449
 20
-19.5
 30
0.0
 11
-2.0
 21
-19.5
 31
0.0
  0
LINE
  5
11EF
330
785
100
AcDbEntity
  8
240
100
AcDbLine
 10
-2.0
 20
-18.25
 30
0.0
 11
-2.0
 21
-19.5
 31
0.0
  0
ARC
  5
11F0
330
785
100
AcDbEntity
  8
240
100
AcDbCircle
 10
-0.76732699
 20
-18.5
 30
0.0
 40
1.0
100
AcDbArc
 50
285.0
 51
345.0
1001
GENIUS_GENOBJ-N-FIL_13
1002
{
1000
OWNER
1000
GEN
1002
}
1001
GENIUS_GENODEF_13
1002
{
1000
HIER
1070
     0
1002
}
1002
{
1000
MANEDIT
1070
     0
1002
}
1002
{
1000
NOSEL
1070
     0
1002
}
1002
{
1000
BEHIND
1070
     0
1002
}
1002
{
1000
OTHER
1070
     0
1002
}
1002
{
1000
REACTOR
1002
}
  0
LINE
  5
11F1
330
785
100
AcDbEntity
  8
240
100
AcDbLine
 10
-0.50850794
 20
-19.46592583
 30
0.0
 11
-0.63567449
 21
-19.5
 31
0.0
  0
ARC
  5
11F2
330
785
100
AcDbEntity
  8
240
100
AcDbCircle
 10
1.97309836
 20
-16.0
 30
0.0
 40
1.0
100
AcDbArc
 50
90.0
 51
165.00000002
  0
LINE
  5
11F3
330
785
100
AcDbEntity
  8
240
100
AcDbLine
 10
11.0
 20
-15.15
 30
0.0
 11
13.0
 21
-15.15
 31
0.0
  0
LINE
  5
11F4
330
785
100
AcDbEntity
  8
0
100
AcDbLine
 10
4.80015445
 20
-12.17023362
 30
0.0
 11
4.17729056
 21
-11.54736974
 31
0.0
  0
LINE
  5
11F5
330
785
100
AcDbEntity
  8
0
100
AcDbLine
 10
4.80015445
 20
-12.54740438
 30
0.0
 11
4.3174163
 21
-12.06466623
 31
0.0
  0
LINE
  5
11F6
330
785
100
AcDbEntity
  8
0
100
AcDbLine
 10
4.76833662
 20
-11.76124503
 30
0.0
 11
4.53700052
 21
-11.52990894
 31
0.0
  0
LINE
  5
11F7
330
785
100
AcDbEntity
  8
0
100
AcDbLine
 10
4.78967961
 20
-11.40541727
 30
0.0
 11
4.25736487
 21
-10.87310253
 31
0.0
  0
LINE
  5
11F8
330
785
100
AcDbEntity
  8
0
100
AcDbLine
 10
4.80015445
 20
-11.22730673
 30
0.0
 11
4.5217657
 21
-10.94891798
 31
0.0
  0
LINE
  5
11F9
330
785
100
AcDbEntity
  8
0
100
AcDbLine
 10
3.80411743
 20
-10.60844047
 30
0.0
 11
3.27509263
 21
-10.07941566
 31
0.0
  0
LINE
  5
11FA
330
785
100
AcDbEntity
  8
0
100
AcDbLine
 10
4.0553118
 20
-10.67104946
 30
0.0
 11
3.28623819
 21
-9.90197585
 31
0.0
  0
LINE
  5
11FB
330
785
100
AcDbEntity
  8
0
100
AcDbLine
 10
5.05478457
 20
-10.53900996
 30
0.0
 11
4.88503115
 21
-10.36925654
 31
0.0
  0
LINE
  5
11FC
330
785
100
AcDbEntity
  8
0
100
AcDbLine
 10
4.27061875
 20
-10.69777103
 30
0.0
 11
3.71710922
 21
-10.1442615
 31
0.0
  0
LINE
  5
11FD
330
785
100
AcDbEntity
  8
0
100
AcDbLine
 10
4.42920301
 20
-10.66776991
 30
0.0
 11
3.98151104
 21
-10.22007794
 31
0.0
  0
LINE
  5
11FE
330
785
100
AcDbEntity
  8
0
100
AcDbLine
 10
4.55514154
 20
-10.60512306
 30
0.0
 11
4.24591286
 21
-10.29589438
 31
0.0
  0
LINE
  5
11FF
330
785
100
AcDbEntity
  8
0
100
AcDbLine
 10
4.65647068
 20
-10.51786683
 30
0.0
 11
4.47668918
 21
-10.33808532
 31
0.0
  0
LINE
  5
1200
330
785
100
AcDbEntity
  8
0
100
AcDbLine
 10
4.70058261
 20
-9.83036395
 30
0.0
 11
4.80015445
 21
-9.73078571
 31
0.0
  0
LINE
  5
1201
330
785
100
AcDbEntity
  8
0
100
AcDbLine
 10
3.46466749
 20
-9.89181977
 30
0.0
 11
3.33755728
 21
-9.76470956
 31
0.0
  0
LINE
  5
1202
330
785
100
AcDbEntity
  8
0
100
AcDbLine
 10
5.05478457
 20
-11.48193685
 30
0.0
 11
4.88503115
 21
-11.31218343
 31
0.0
  0
LINE
  5
1203
330
785
100
AcDbEntity
  8
0
100
AcDbLine
 10
4.90198331
 20
-13.21498937
 30
0.0
 11
4.77918033
 21
-13.0921864
 31
0.0
  0
LINE
  5
1204
330
785
100
AcDbEntity
  8
0
100
AcDbLine
 10
4.97030311
 20
-13.0947238
 30
0.0
 11
4.84066304
 21
-12.96508372
 31
0.0
  0
LINE
  5
1205
330
785
100
AcDbEntity
  8
0
100
AcDbLine
 10
5.02148579
 20
-12.9573211
 30
0.0
 11
4.8783206
 21
-12.81415591
 31
0.0
  0
LINE
  5
1206
330
785
100
AcDbEntity
  8
0
100
AcDbLine
 10
5.05098124
 20
-12.79823117
 30
0.0
 11
4.88503115
 21
-12.63228109
 31
0.0
  0
LINE
  5
1207
330
785
100
AcDbEntity
  8
0
100
AcDbLine
 10
5.05478457
 20
-12.61344912
 30
0.0
 11
4.88503115
 21
-12.44369571
 31
0.0
  0
LINE
  5
1208
330
785
100
AcDbEntity
  8
0
100
AcDbLine
 10
5.05478457
 20
-12.42486374
 30
0.0
 11
4.88503115
 21
-12.25511033
 31
0.0
  0
LINE
  5
1209
330
785
100
AcDbEntity
  8
0
100
AcDbLine
 10
5.05478457
 20
-12.23627837
 30
0.0
 11
4.88503115
 21
-12.06652495
 31
0.0
  0
LINE
  5
120A
330
785
100
AcDbEntity
  8
0
100
AcDbLine
 10
5.05478457
 20
-12.04769298
 30
0.0
 11
4.88503115
 21
-11.87793957
 31
0.0
  0
LINE
  5
120B
330
785
100
AcDbEntity
  8
0
100
AcDbLine
 10
5.05478457
 20
-11.85910761
 30
0.0
 11
4.88503115
 21
-11.68935419
 31
0.0
  0
LINE
  5
120C
330
785
100
AcDbEntity
  8
0
100
AcDbLine
 10
5.05478457
 20
-11.67052223
 30
0.0
 11
4.88503115
 21
-11.50076882
 31
0.0
  0
LINE
  5
120D
330
785
100
AcDbEntity
  8
0
100
AcDbLine
 10
4.80015445
 20
-12.6269118
 30
0.0
 11
4.80015445
 21
-11.92246844
 31
0.0
  0
LINE
  5
120E
330
785
100
AcDbEntity
  8
0
100
AcDbLine
 10
5.05478457
 20
-11.29335147
 30
0.0
 11
4.88503115
 21
-11.12359806
 31
0.0
  0
LINE
  5
120F
330
785
100
AcDbEntity
  8
0
100
AcDbLine
 10
5.05478457
 20
-11.10476609
 30
0.0
 11
4.88503115
 21
-10.93501268
 31
0.0
  0
LINE
  5
1210
330
785
100
AcDbEntity
  8
0
100
AcDbLine
 10
5.05478457
 20
-10.91618072
 30
0.0
 11
4.88503115
 21
-10.7464273
 31
0.0
  0
LINE
  5
1211
330
785
100
AcDbEntity
  8
0
100
AcDbLine
 10
5.05478457
 20
-10.72759534
 30
0.0
 11
4.88503115
 21
-10.55784192
 31
0.0
  0
LINE
  5
1212
330
785
100
AcDbEntity
  8
0
100
AcDbLine
 10
4.80015445
 20
-11.03872135
 30
0.0
 11
4.78616653
 21
-11.02473343
 31
0.0
  0
LINE
  5
1213
330
785
100
AcDbEntity
  8
0
100
AcDbLine
 10
4.80015445
 20
-11.4084209
 30
0.0
 11
4.80015445
 21
-11.02874438
 31
0.0
  0
LINE
  5
1214
330
785
100
AcDbEntity
  8
0
100
AcDbLine
 10
4.80015445
 20
-11.4084209
 30
0.0
 11
4.80015445
 21
-11.02874438
 31
0.0
1001
HATCH_DISTANCE
1040
1.0
1001
HATCH_DISPLAY
1070
     0
1001
HATCH_TYPE
1070
     7
  0
LINE
  5
1215
330
785
100
AcDbEntity
  8
0
100
AcDbLine
 10
4.80015445
 20
-11.4084209
 30
0.0
 11
4.80015445
 21
-11.02874438
 31
0.0
  0
LINE
  5
1216
330
785
100
AcDbEntity
  8
0
100
AcDbLine
 10
4.72109365
 20
-13.41127047
 30
0.0
 11
4.60016381
 21
-13.29034064
 31
0.0
  0
LINE
  5
1217
330
785
100
AcDbEntity
  8
0
100
AcDbLine
 10
4.81865064
 20
-13.32024209
 30
0.0
 11
4.69849617
 21
-13.20008762
 31
0.0
  0
LINE
  5
1218
330
785
100
AcDbEntity
  8
0
100
AcDbLine
 10
4.80015445
 20
-12.358819
 30
0.0
 11
4.58181372
 21
-12.14047827
 31
0.0
  0
ARC
  5
1219
330
785
100
AcDbEntity
  8
0
100
AcDbCircle
 10
4.27746778
 20
-9.24451984
 30
0.0
 40
1.443724365234395
100
AcDbArc
 50
245.20517737
 51
262.79482596
  0
LINE
  5
121A
330
785
100
AcDbEntity
  8
0
100
AcDbLine
 10
3.94748413
 20
-13.58058784
 30
0.0
 11
3.2989837
 21
-12.93208742
 31
0.0
  0
LINE
  5
121B
330
785
100
AcDbEntity
  8
0
100
AcDbLine
 10
4.18167367
 20
-11.9289236
 30
0.0
 11
3.57421468
 21
-11.32146461
 31
0.0
  0
LINE
  5
121C
330
785
100
AcDbEntity
  8
0
100
AcDbLine
 10
3.73212717
 20
-11.66796248
 30
0.0
 11
3.44806121
 21
-11.38389652
 31
0.0
  0
ARC
  5
121D
330
785
100
AcDbEntity
  8
0
100
AcDbCircle
 10
3.69676344
 20
-11.72776599
 30
0.0
 40
0.4243807411193908
100
AcDbArc
 50
17.66957755
 51
180.23615984
  0
ARC
  5
121E
330
785
100
AcDbEntity
  8
0
100
AcDbCircle
 10
3.67979322
 20
-11.91714923
 30
0.0
 40
0.2546230173110999
100
AcDbArc
 50
351.66260169
 51
156.3381551
  0
LINE
  5
121F
330
785
100
AcDbEntity
  8
0
100
AcDbLine
 10
4.11842183
 20
-12.4314279
 30
0.0
 11
3.52421438
 21
-11.83722044
 31
0.0
  0
LINE
  5
1220
330
785
100
AcDbEntity
  8
0
100
AcDbLine
 10
3.8540205
 20
-12.35561195
 30
0.0
 11
3.2723863
 21
-11.77397775
 31
0.0
  0
LINE
  5
1221
330
785
100
AcDbEntity
  8
0
100
AcDbLine
 10
3.44657665
 20
-11.81495868
 30
0.0
 11
3.93172528
 21
-11.9540697
 31
0.0
  0
LINE
  5
1222
330
785
100
AcDbEntity
  8
0
100
AcDbLine
 10
3.73207216
 20
-11.10215134
 30
0.0
 11
3.2723863
 21
-10.64246547
 31
0.0
  0
LINE
  5
1223
330
785
100
AcDbEntity
  8
0
100
AcDbLine
 10
3.99647402
 20
-11.17796781
 30
0.0
 11
3.46416238
 21
-10.64565618
 31
0.0
  0
LINE
  5
1224
330
785
100
AcDbEntity
  8
0
100
AcDbLine
 10
3.28992759
 20
-11.03717751
 30
0.0
 11
3.2723863
 21
-11.01963623
 31
0.0
  0
LINE
  5
1225
330
785
100
AcDbEntity
  8
0
100
AcDbLine
 10
3.4676703
 20
-11.02633485
 30
0.0
 11
3.2723863
 21
-10.83105086
 31
0.0
  0
LINE
  5
1226
330
785
100
AcDbEntity
  8
0
100
AcDbLine
 10
3.2723863
 20
-10.59066547
 30
0.0
 11
3.2723863
 21
-11.0321474
 31
0.0
  0
LINE
  5
1227
330
785
100
AcDbEntity
  8
0
100
AcDbLine
 10
3.45910994
 20
-11.08569202
 30
0.0
 11
3.45910994
 21
-11.02388019
 31
0.0
  0
LINE
  5
1228
330
785
100
AcDbEntity
  8
0
100
AcDbLine
 10
3.2723863
 20
-11.0321474
 30
0.0
 11
3.45910994
 21
-11.08569202
 31
0.0
  0
LINE
  5
1229
330
785
100
AcDbEntity
  8
0
100
AcDbLine
 10
3.2723863
 20
-10.59066547
 30
0.0
 11
3.2723863
 21
-11.0321474
 31
0.0
1001
HATCH_DISTANCE
1040
1.0
1001
HATCH_DISPLAY
1070
     0
1001
HATCH_TYPE
1070
     7
  0
LINE
  5
122A
330
785
100
AcDbEntity
  8
0
100
AcDbLine
 10
3.45910994
 20
-11.08569202
 30
0.0
 11
3.45910994
 21
-11.02388019
 31
0.0
1001
HATCH_DISTANCE
1040
1.0
1001
HATCH_DISPLAY
1070
     0
1001
HATCH_TYPE
1070
     7
  0
LINE
  5
122B
330
785
100
AcDbEntity
  8
0
100
AcDbLine
 10
3.2723863
 20
-11.0321474
 30
0.0
 11
3.45910994
 21
-11.08569202
 31
0.0
1001
HATCH_DISTANCE
1040
1.0
1001
HATCH_DISPLAY
1070
     0
1001
HATCH_TYPE
1070
     7
  0
LINE
  5
122C
330
785
100
AcDbEntity
  8
0
100
AcDbLine
 10
3.2723863
 20
-11.0321474
 30
0.0
 11
3.2723863
 21
-10.59066547
 31
0.0
  0
LINE
  5
122D
330
785
100
AcDbEntity
  8
0
100
AcDbLine
 10
3.45910994
 20
-11.08569202
 30
0.0
 11
3.2723863
 21
-11.0321474
 31
0.0
  0
LINE
  5
122E
330
785
100
AcDbEntity
  8
0
100
AcDbLine
 10
3.45910994
 20
-11.08569202
 30
0.0
 11
3.45910994
 21
-11.02388019
 31
0.0
  0
LINE
  5
122F
330
785
100
AcDbEntity
  8
0
100
AcDbLine
 10
3.56529936
 20
-11.68972005
 30
0.0
 11
3.35362939
 21
-11.47805008
 31
0.0
  0
LINE
  5
1230
330
785
100
AcDbEntity
  8
0
100
AcDbLine
 10
3.46999177
 20
-12.91451011
 30
0.0
 11
3.27238678
 21
-12.71690511
 31
0.0
  0
LINE
  5
1231
330
785
100
AcDbEntity
  8
0
100
AcDbLine
 10
3.44213972
 20
-12.69807268
 30
0.0
 11
3.2723863
 21
-12.52831926
 31
0.0
  0
LINE
  5
1232
330
785
100
AcDbEntity
  8
0
100
AcDbLine
 10
3.44213972
 20
-12.5094873
 30
0.0
 11
3.3084044
 21
-12.37575198
 31
0.0
  0
LINE
  5
1233
330
785
100
AcDbEntity
  8
0
100
AcDbLine
 10
3.2723863
 20
-12.27713184
 30
0.0
 11
3.2723863
 21
-11.72951519
 31
0.0
  0
LINE
  5
1234
330
785
100
AcDbEntity
  8
0
100
AcDbLine
 10
3.44213972
 20
-12.32090192
 30
0.0
 11
3.2723863
 21
-12.1511485
 31
0.0
  0
LINE
  5
1235
330
785
100
AcDbEntity
  8
0
100
AcDbLine
 10
3.58961918
 20
-12.279796
 30
0.0
 11
3.2723863
 21
-11.96256313
 31
0.0
  0
LINE
  5
1236
330
785
100
AcDbEntity
  8
0
100
AcDbLine
 10
3.2723863
 20
-12.27713184
 30
0.0
 11
3.44213972
 21
-12.32580585
 31
0.0
  0
LINE
  5
1237
330
785
100
AcDbEntity
  8
0
100
AcDbLine
 10
3.44213972
 20
-12.32580585
 30
0.0
 11
3.44213972
 21
-12.2375069
 31
0.0
  0
LINE
  5
1238
330
785
100
AcDbEntity
  8
0
100
AcDbLine
 10
3.2723863
 20
-12.71598621
 30
0.0
 11
3.2723863
 21
-12.36542438
 31
0.0
  0
LINE
  5
1239
330
785
100
AcDbEntity
  8
0
100
AcDbLine
 10
3.44213972
 20
-12.71598621
 30
0.0
 11
3.44213972
 21
-12.41409839
 31
0.0
  0
LINE
  5
123A
330
785
100
AcDbEntity
  8
0
100
AcDbLine
 10
3.2723863
 20
-12.36542438
 30
0.0
 11
3.44213972
 21
-12.41409839
 31
0.0
  0
LINE
  5
123B
330
785
100
AcDbEntity
  8
0
100
AcDbLine
 10
3.46594062
 20
-11.77894668
 30
0.0
 11
3.29086923
 21
-11.60387529
 31
0.0
  0
LINE
  5
123C
330
785
100
AcDbEntity
  8
0
100
AcDbLine
 10
4.30442945
 20
-11.86309401
 30
0.0
 11
3.74780084
 21
-11.30646539
 31
0.0
  0
LINE
  5
123D
330
785
100
AcDbEntity
  8
0
100
AcDbLine
 10
4.38282316
 20
-12.50724385
 30
0.0
 11
3.7886132
 21
-11.91303389
 31
0.0
  0
LINE
  5
123E
330
785
100
AcDbEntity
  8
0
100
AcDbLine
 10
4.26087589
 20
-11.2537843
 30
0.0
 11
3.72856321
 21
-10.72147163
 31
0.0
  0
LINE
  5
123F
330
785
100
AcDbEntity
  8
0
100
AcDbLine
 10
4.52527775
 20
-11.32960078
 30
0.0
 11
3.99296404
 21
-10.79728708
 31
0.0
  0
LINE
  5
1240
330
785
100
AcDbEntity
  8
0
100
AcDbLine
 10
4.16266643
 20
-13.60718477
 30
0.0
 11
3.96506144
 21
-13.40957978
 31
0.0
  0
LINE
  5
1241
330
785
100
AcDbEntity
  8
0
100
AcDbLine
 10
4.3346754
 20
-13.59060836
 30
0.0
 11
4.18128179
 21
-13.43721475
 31
0.0
  0
LINE
  5
1242
330
785
100
AcDbEntity
  8
0
100
AcDbLine
 10
4.48128616
 20
-13.54863374
 30
0.0
 11
4.34650881
 21
-13.41385638
 31
0.0
  0
ARC
  5
1243
330
785
100
AcDbEntity
  8
0
100
AcDbCircle
 10
4.16358534
 20
-12.71598621
 30
0.0
 40
0.7214456176757899
100
AcDbArc
 50
180.0
 51
0.0
  0
ARC
  5
1244
330
785
100
AcDbEntity
  8
0
100
AcDbCircle
 10
4.16358534
 20
-12.71598621
 30
0.0
 40
0.8911990356445432
100
AcDbArc
 50
180.0
 51
0.0
  0
LINE
  5
1245
330
785
100
AcDbEntity
  8
0
100
AcDbLine
 10
4.80015445
 20
-12.6269118
 30
0.0
 11
3.44213972
 21
-12.2375069
 31
0.0
  0
LINE
  5
1246
330
785
100
AcDbEntity
  8
0
100
AcDbLine
 10
4.80015445
 20
-11.02874438
 30
0.0
 11
3.2723863
 21
-10.59066547
 31
0.0
  0
LINE
  5
1247
330
785
100
AcDbEntity
  8
0
100
AcDbLine
 10
3.45910994
 20
-11.02388019
 30
0.0
 11
4.80015445
 21
-11.4084209
 31
0.0
  0
LINE
  5
1248
330
785
100
AcDbEntity
  8
0
100
AcDbLine
 10
4.80015445
 20
-11.02874438
 30
0.0
 11
3.2723863
 21
-10.59066547
 31
0.0
1001
HATCH_DISTANCE
1040
1.0
1001
HATCH_DISPLAY
1070
     0
1001
HATCH_TYPE
1070
     7
  0
LINE
  5
1249
330
785
100
AcDbEntity
  8
0
100
AcDbLine
 10
3.45910994
 20
-11.02388019
 30
0.0
 11
4.80015445
 21
-11.4084209
 31
0.0
1001
HATCH_DISTANCE
1040
1.0
1001
HATCH_DISPLAY
1070
     0
1001
HATCH_TYPE
1070
     7
  0
LINE
  5
124A
330
785
100
AcDbEntity
  8
0
100
AcDbLine
 10
4.80015445
 20
-11.02874438
 30
0.0
 11
3.2723863
 21
-10.59066547
 31
0.0
  0
LINE
  5
124B
330
785
100
AcDbEntity
  8
0
100
AcDbLine
 10
4.80015445
 20
-11.4084209
 30
0.0
 11
3.45910994
 21
-11.02388019
 31
0.0
  0
ARC
  5
124C
330
785
100
AcDbEntity
  8
0
100
AcDbCircle
 10
4.35880049
 20
-12.11185169
 30
0.0
 40
0.2546303021907843
100
AcDbArc
 50
351.66285421
 51
156.33819216
  0
LINE
  5
124D
330
785
100
AcDbEntity
  8
0
100
AcDbLine
 10
4.64722448
 20
-12.58305979
 30
0.0
 11
3.92897998
 21
-11.86481529
 31
0.0
  0
LINE
  5
124E
330
785
100
AcDbEntity
  8
0
100
AcDbLine
 10
4.12557684
 20
-12.00965911
 30
0.0
 11
4.61073987
 21
-12.14877241
 31
0.0
  0
LINE
  5
124F
330
785
100
AcDbEntity
  8
0
100
AcDbLine
 10
4.60908351
 20
-13.48784571
 30
0.0
 11
4.48374095
 21
-13.36250315
 31
0.0
  0
ARC
  5
1250
330
785
100
AcDbEntity
  8
0
100
AcDbCircle
 10
4.37577711
 20
-11.92246844
 30
0.0
 40
0.4243771362304749
100
AcDbArc
 50
0.0
 51
130.32984065
  0
LINE
  5
1251
330
785
100
AcDbEntity
  8
0
100
AcDbLine
 10
4.80015445
 20
-11.98164824
 30
0.0
 11
4.32024637
 21
-11.50174016
 31
0.0
  0
LINE
  5
1252
330
785
100
AcDbEntity
  8
0
100
AcDbLine
 10
5.05478457
 20
-9.97325382
 30
0.0
 11
4.88503115
 21
-9.80350041
 31
0.0
  0
LINE
  5
1253
330
785
100
AcDbEntity
  8
0
100
AcDbLine
 10
4.10417036
 20
-9.9655665
 30
0.0
 11
3.93441694
 21
-9.79581309
 31
0.0
  0
ARC
  5
1254
330
785
100
AcDbEntity
  8
0
100
AcDbCircle
 10
3.63735487
 20
-9.93596637
 30
0.0
 40
0.1782410037517573
100
AcDbArc
 50
91.71012138
 51
253.99839835
  0
LINE
  5
1255
330
785
100
AcDbEntity
  8
0
100
AcDbLine
 10
4.10417036
 20
-10.02567524
 30
0.0
 11
4.10417036
 21
-9.88440204
 31
0.0
  0
LINE
  5
1256
330
785
100
AcDbEntity
  8
0
100
AcDbLine
 10
4.48431471
 20
-9.99340747
 30
0.0
 11
4.10417036
 21
-9.88440204
 31
0.0
  0
ARC
  5
1257
330
785
100
AcDbEntity
  8
0
100
AcDbCircle
 10
4.24846205
 20
-10.14651752
 30
0.0
 40
0.5516986083984456
100
AcDbArc
 50
253.9997507
 51
34.96387329
  0
LINE
  5
1258
330
785
100
AcDbEntity
  8
0
100
AcDbLine
 10
5.05478457
 20
-10.35042458
 30
0.0
 11
4.88503115
 21
-10.18067117
 31
0.0
  0
LINE
  5
1259
330
785
100
AcDbEntity
  8
0
100
AcDbLine
 10
5.05478457
 20
-10.1618392
 30
0.0
 11
4.88503115
 21
-9.99208579
 31
0.0
  0
LINE
  5
125A
330
785
100
AcDbEntity
  8
0
100
AcDbLine
 10
4.73458391
 20
-10.40739468
 30
0.0
 11
4.58635937
 21
-10.25917014
 31
0.0
  0
LINE
  5
125B
330
785
100
AcDbEntity
  8
0
100
AcDbLine
 10
4.78609123
 20
-10.27031662
 30
0.0
 11
4.58679794
 21
-10.07102332
 31
0.0
  0
LINE
  5
125C
330
785
100
AcDbEntity
  8
0
100
AcDbLine
 10
4.38605665
 20
-10.3360802
 30
0.0
 11
3.58821943
 21
-10.10730273
 31
0.0
  0
LINE
  5
125D
330
785
100
AcDbEntity
  8
0
100
AcDbLine
 10
4.10417036
 20
-10.02567524
 30
0.0
 11
3.93441694
 21
-9.97700122
 31
0.0
  0
ARC
  5
125E
330
785
100
AcDbEntity
  8
0
100
AcDbCircle
 10
4.43518568
 20
-10.16474384
 30
0.0
 40
0.1782408785820033
100
AcDbArc
 50
254.00027306
 51
74.00027306
  0
ARC
  5
125F
330
785
100
AcDbEntity
  8
0
100
AcDbCircle
 10
3.8240785
 20
-10.02482929
 30
0.0
 40
0.5516930007934647
100
AcDbArc
 50
143.4440122
 51
254.00018439
  0
LINE
  5
1260
330
785
100
AcDbEntity
  8
240
100
AcDbLine
 10
11.0
 20
-11.7
 30
0.0
 11
10.0
 21
-11.7
 31
0.0
  0
LINE
  5
1261
330
785
100
AcDbEntity
  8
240
100
AcDbLine
 10
10.0
 20
-11.7
 30
0.0
 11
10.0
 21
-15.0
 31
0.0
  0
LINE
  5
1262
330
785
100
AcDbEntity
  8
240
100
AcDbLine
 10
11.0
 20
-11.7
 30
0.0
 11
11.0
 21
-15.15
 31
0.0
  0
LINE
  5
1263
330
785
100
AcDbEntity
  8
240
100
AcDbLine
 10
13.25980762
 20
-15.0
 30
0.0
 11
13.0
 21
-15.15
 31
0.0
  0
LINE
  5
1264
330
785
100
AcDbEntity
  8
240
100
AcDbLine
 10
-19.0
 20
15.0
 30
0.0
 11
-14.5
 21
15.0
 31
0.0
  0
LINE
  5
1265
330
785
100
AcDbEntity
  8
240
100
AcDbLine
 10
-38.0
 20
12.5
 30
0.0
 11
-35.5
 21
15.0
 31
0.0
  0
LINE
  5
1266
330
785
100
AcDbEntity
  8
240
100
AcDbLine
 10
-46.0
 20
12.5
 30
0.0
 11
-38.0
 21
12.5
 31
0.0
  0
LINE
  5
1267
330
785
100
AcDbEntity
  8
240
100
AcDbLine
 10
-54.0
 20
12.5
 30
0.0
 11
-46.0
 21
12.5
 31
0.0
  0
LINE
  5
1268
330
785
100
AcDbEntity
  8
241
100
AcDbLine
 10
-21.5
 20
13.75
 30
0.0
 11
-21.5
 21
0.0
 31
0.0
  0
LINE
  5
1269
330
785
100
AcDbEntity
  8
241
100
AcDbLine
 10
-19.0
 20
13.75
 30
0.0
 11
-19.0
 21
0.0
 31
0.0
  0
LINE
  5
126A
330
785
100
AcDbEntity
  8
241
100
AcDbLine
 10
-32.0
 20
13.75
 30
0.0
 11
-32.0
 21
0.0
 31
0.0
  0
LINE
  5
126B
330
785
100
AcDbEntity
  8
241
100
AcDbLine
 10
-29.5
 20
13.75
 30
0.0
 11
-29.5
 21
0.0
 31
0.0
  0
ELLIPSE
  5
126C
330
785
100
AcDbEntity
  8
241
100
AcDbEllipse
 10
-25.5000349
 20
-5.08449496
 30
0.0
 11
-2.000524505802109
 21
0.0
 31
0.0
210
0.0
220
0.0
230
1.0
 40
0.93944625
 41
0.0
 42
6.283185307179584
  0
LINE
  5
126D
330
785
100
AcDbEntity
  8
245
100
AcDbLine
 10
-27.4999651
 20
-5.13030215
 30
0.0
 11
-23.5000349
 21
-5.13030215
 31
0.0
  0
LINE
  5
126E
330
785
100
AcDbEntity
  8
245
100
AcDbLine
 10
-25.5000349
 20
-3.20510972
 30
0.0
 11
-25.5000349
 21
-6.96388021
 31
0.0
  0
LINE
  5
126F
330
785
100
AcDbEntity
  8
240
100
AcDbLine
 10
-29.5
 20
15.0
 30
0.0
 11
-21.5
 21
15.0
 31
0.0
  0
ARC
  5
1270
330
785
100
AcDbEntity
  8
240
100
AcDbCircle
 10
-30.75
 20
13.75
 30
0.0
 40
1.24999999999827
100
AcDbArc
 50
0.0
 51
180.0
  0
LINE
  5
1271
330
785
100
AcDbEntity
  8
240
100
AcDbLine
 10
-35.5
 20
15.0
 30
0.0
 11
-32.0
 21
15.0
 31
0.0
  0
LINE
  5
1272
330
785
100
AcDbEntity
  8
240
100
AcDbLine
 10
-32.0
 20
13.75
 30
0.0
 11
-32.0
 21
15.0
 31
0.0
  0
LINE
  5
1273
330
785
100
AcDbEntity
  8
240
100
AcDbLine
 10
-29.5
 20
13.75
 30
0.0
 11
-29.5
 21
15.0
 31
0.0
  0
ARC
  5
1274
330
785
100
AcDbEntity
  8
240
100
AcDbCircle
 10
-20.25
 20
13.75
 30
0.0
 40
1.249999999998089
100
AcDbArc
 50
0.0
 51
180.0
  0
LINE
  5
1275
330
785
100
AcDbEntity
  8
240
100
AcDbLine
 10
-21.5
 20
13.75
 30
0.0
 11
-21.5
 21
15.0
 31
0.0
  0
LINE
  5
1276
330
785
100
AcDbEntity
  8
240
100
AcDbLine
 10
-19.0
 20
13.75
 30
0.0
 11
-19.0
 21
15.0
 31
0.0
  0
LINE
  5
1277
330
785
100
AcDbEntity
  8
240
100
AcDbLine
 10
11.0
 20
11.7
 30
0.0
 11
11.0
 21
15.15
 31
0.0
  0
LINE
  5
1278
330
785
100
AcDbEntity
  8
240
100
AcDbLine
 10
13.25980762
 20
15.0
 30
0.0
 11
13.0
 21
15.15
 31
0.0
  0
LINE
  5
1279
330
785
100
AcDbEntity
  8
241
100
AcDbLine
 10
13.0
 20
15.15
 30
0.0
 11
13.0
 21
0.0
 31
0.0
  0
LINE
  5
127A
330
785
100
AcDbEntity
  8
241
100
AcDbLine
 10
-4.5
 20
18.25
 30
0.0
 11
-4.5
 21
0.0
 31
0.0
  0
LINE
  5
127B
330
785
100
AcDbEntity
  8
241
100
AcDbLine
 10
-2.0
 20
18.25
 30
0.0
 11
-2.0
 21
0.0
 31
0.0
  0
LINE
  5
127C
330
785
100
AcDbEntity
  8
241
100
AcDbLine
 10
0.0
 20
19.14125603
 30
0.0
 11
0.0
 21
0.0
 31
0.0
  0
LINE
  5
127D
330
785
100
AcDbEntity
  8
241
  6
CONTINUOUS
100
AcDbLine
 10
-7.5
 20
19.00000001
 30
0.0
 11
-7.5
 21
0.0
 31
0.0
  0
LINE
  5
127E
330
785
100
AcDbEntity
  8
241
100
AcDbLine
 10
-6.12626129
 20
19.5
 30
0.0
 11
-6.12626129
 21
0.0
 31
0.0
  0
LINE
  5
127F
330
785
100
AcDbEntity
  8
241
100
AcDbLine
 10
1.20577137
 20
15.35874397
 30
0.0
 11
1.20577137
 21
0.0
 31
0.0
  0
ARC
  5
1280
330
785
100
AcDbEntity
  8
240
100
AcDbCircle
 10
1.97309836
 20
16.0
 30
0.0
 40
1.0
100
AcDbArc
 50
194.99999998
 51
270.0
  0
LINE
  5
1281
330
785
100
AcDbEntity
  8
240
100
AcDbLine
 10
-13.0
 20
15.5
 30
0.0
 11
-13.0
 21
14.7
 31
0.0
  0
LINE
  5
1282
330
785
100
AcDbEntity
  8
240
100
AcDbLine
 10
10.0
 20
15.0
 30
0.0
 11
1.97309836
 21
15.0
 31
0.0
  0
LINE
  5
1283
330
785
100
AcDbEntity
  8
241
100
AcDbLine
 10
-14.5
 20
15.0
 30
0.0
 11
-14.5
 21
0.0
 31
0.0
  0
LINE
  5
1284
330
785
100
AcDbEntity
  8
240
100
AcDbLine
 10
-14.2
 20
14.7
 30
0.0
 11
-14.5
 21
15.0
 31
0.0
  0
LINE
  5
1285
330
785
100
AcDbEntity
  8
240
100
AcDbLine
 10
-14.2
 20
14.7
 30
0.0
 11
-13.0
 21
14.7
 31
0.0
  0
LINE
  5
1286
330
785
100
AcDbEntity
  8
241
  6
HIDDEN2
100
AcDbLine
 10
18.0
 20
6.75
 30
0.0
 11
18.0
 21
0.0
 31
0.0
  0
LINE
  5
1287
330
785
100
AcDbEntity
  8
241
  6
HIDDEN2
100
AcDbLine
 10
13.0
 20
6.75
 30
0.0
 11
13.0
 21
0.0
 31
0.0
  0
LINE
  5
1288
330
785
100
AcDbEntity
  8
242
  6
HIDDEN2
100
AcDbLine
 10
13.0
 20
6.43467171
 30
0.0
 11
5.0
 21
0.0
 31
0.0
  0
LINE
  5
1289
330
785
100
AcDbEntity
  8
242
  6
HIDDEN2
100
AcDbLine
 10
5.0
 20
6.43467171
 30
0.0
 11
13.0
 21
0.0
 31
0.0
  0
LINE
  5
128A
330
785
100
AcDbEntity
  8
241
  6
HIDDEN2
100
AcDbLine
 10
5.0
 20
6.43467171
 30
0.0
 11
5.0
 21
0.0
 31
0.0
  0
LINE
  5
128B
330
785
100
AcDbEntity
  8
241
100
AcDbLine
 10
10.0
 20
11.7
 30
0.0
 11
10.0
 21
0.0
 31
0.0
  0
LINE
  5
128C
330
785
100
AcDbEntity
  8
241
100
AcDbLine
 10
14.2
 20
15.0
 30
0.0
 11
14.2
 21
0.0
 31
0.0
  0
LINE
  5
128D
330
785
100
AcDbEntity
  8
241
100
AcDbLine
 10
11.0
 20
11.7
 30
0.0
 11
11.0
 21
0.0
 31
0.0
  0
LINE
  5
128E
330
785
100
AcDbEntity
  8
0
100
AcDbLine
 10
5.05478457
 20
-9.59608307
 30
0.0
 11
4.88503115
 21
-9.42632965
 31
0.0
  0
LINE
  5
128F
330
785
100
AcDbEntity
  8
0
100
AcDbLine
 10
5.05478457
 20
-9.40749769
 30
0.0
 11
4.88427464
 21
-9.23698776
 31
0.0
  0
LINE
  5
1290
330
785
100
AcDbEntity
  8
0
100
AcDbLine
 10
5.05322729
 20
-9.21735502
 30
0.0
 11
4.83033549
 21
-8.99446323
 31
0.0
  0
LINE
  5
1291
330
785
100
AcDbEntity
  8
0
100
AcDbLine
 10
3.75615709
 20
-8.67462634
 30
0.0
 11
3.63443909
 21
-8.55290834
 31
0.0
  0
LINE
  5
1292
330
785
100
AcDbEntity
  8
0
100
AcDbLine
 10
3.65313317
 20
-8.7601878
 30
0.0
 11
3.53309936
 21
-8.64015398
 31
0.0
  0
LINE
  5
1293
330
785
100
AcDbEntity
  8
0
100
AcDbLine
 10
3.50080998
 20
-8.98503537
 30
0.0
 11
3.37349197
 21
-8.85771736
 31
0.0
  0
LINE
  5
1294
330
785
100
AcDbEntity
  8
0
100
AcDbLine
 10
3.56768952
 20
-8.86332952
 30
0.0
 11
3.4459485
 21
-8.74158851
 31
0.0
  0
LINE
  5
1295
330
785
100
AcDbEntity
  8
0
100
AcDbLine
 10
3.4639549
 20
-9.44610522
 30
0.0
 11
3.4639549
 21
-9.44610522
 31
0.0
  0
LINE
  5
1296
330
785
100
AcDbEntity
  8
0
100
AcDbLine
 10
3.30183424
 20
-9.49722735
 30
0.0
 11
3.4639549
 21
-9.44610522
 31
0.0
  0
LINE
  5
1297
330
785
100
AcDbEntity
  8
0
100
AcDbLine
 10
3.30183424
 20
-9.49722735
 30
0.0
 11
3.30183424
 21
-9.49722735
 31
0.0
  0
LINE
  5
1298
330
785
100
AcDbEntity
  8
0
100
AcDbLine
 10
3.4639549
 20
-9.44610522
 30
0.0
 11
3.30183424
 21
-9.49722735
 31
0.0
  0
LINE
  5
1299
330
785
100
AcDbEntity
  8
0
100
AcDbLine
 10
3.4639549
 20
-9.44610522
 30
0.0
 11
3.4639549
 21
-9.44610522
 31
0.0
1001
HATCH_DISTANCE
1040
1.0
1001
HATCH_DISPLAY
1070
     0
1001
HATCH_TYPE
1070
     7
  0
LINE
  5
129A
330
785
100
AcDbEntity
  8
0
100
AcDbLine
 10
3.30183424
 20
-9.49722735
 30
0.0
 11
3.4639549
 21
-9.44610522
 31
0.0
1001
HATCH_DISTANCE
1040
1.0
1001
HATCH_DISPLAY
1070
     0
1001
HATCH_TYPE
1070
     7
  0
LINE
  5
129B
330
785
100
AcDbEntity
  8
0
100
AcDbLine
 10
3.30183424
 20
-9.49722735
 30
0.0
 11
3.30183424
 21
-9.49722735
 31
0.0
1001
HATCH_DISTANCE
1040
1.0
1001
HATCH_DISPLAY
1070
     0
1001
HATCH_TYPE
1070
     7
  0
LINE
  5
129C
330
785
100
AcDbEntity
  8
0
100
AcDbLine
 10
3.4639549
 20
-9.44610522
 30
0.0
 11
3.30183424
 21
-9.49722735
 31
0.0
1001
HATCH_DISTANCE
1040
1.0
1001
HATCH_DISPLAY
1070
     0
1001
HATCH_TYPE
1070
     7
  0
LINE
  5
129D
330
785
100
AcDbEntity
  8
0
100
AcDbLine
 10
3.4639549
 20
-9.44610522
 30
0.0
 11
3.4639549
 21
-9.44610522
 31
0.0
  0
LINE
  5
129E
330
785
100
AcDbEntity
  8
0
100
AcDbLine
 10
3.30183424
 20
-9.49722735
 30
0.0
 11
3.4639549
 21
-9.44610522
 31
0.0
  0
LINE
  5
129F
330
785
100
AcDbEntity
  8
0
100
AcDbLine
 10
3.30183424
 20
-9.49722735
 30
0.0
 11
3.30183424
 21
-9.49722735
 31
0.0
  0
LINE
  5
12A0
330
785
100
AcDbEntity
  8
0
100
AcDbLine
 10
3.4639549
 20
-9.44610522
 30
0.0
 11
3.30183424
 21
-9.49722735
 31
0.0
  0
LINE
  5
12A1
330
785
100
AcDbEntity
  8
0
100
AcDbLine
 10
3.4639549
 20
-9.44610522
 30
0.0
 11
3.4639549
 21
-9.44610522
 31
0.0
1001
HATCH_DISTANCE
1040
1.0
1001
HATCH_DISPLAY
1070
     0
1001
HATCH_TYPE
1070
     7
  0
LINE
  5
12A2
330
785
100
AcDbEntity
  8
0
100
AcDbLine
 10
3.30183424
 20
-9.49722735
 30
0.0
 11
3.4639549
 21
-9.44610522
 31
0.0
1001
HATCH_DISTANCE
1040
1.0
1001
HATCH_DISPLAY
1070
     0
1001
HATCH_TYPE
1070
     7
  0
LINE
  5
12A3
330
785
100
AcDbEntity
  8
0
100
AcDbLine
 10
3.30183424
 20
-9.49722735
 30
0.0
 11
3.30183424
 21
-9.49722735
 31
0.0
1001
HATCH_DISTANCE
1040
1.0
1001
HATCH_DISPLAY
1070
     0
1001
HATCH_TYPE
1070
     7
  0
LINE
  5
12A4
330
785
100
AcDbEntity
  8
0
100
AcDbLine
 10
3.4639549
 20
-9.44610522
 30
0.0
 11
3.30183424
 21
-9.49722735
 31
0.0
1001
HATCH_DISTANCE
1040
1.0
1001
HATCH_DISPLAY
1070
     0
1001
HATCH_TYPE
1070
     7
  0
LINE
  5
12A5
330
785
100
AcDbEntity
  8
0
100
AcDbLine
 10
3.49772071
 20
-9.54770224
 30
0.0
 11
3.48004674
 21
-9.53002826
 31
0.0
  0
LINE
  5
12A6
330
785
100
AcDbEntity
  8
0
100
AcDbLine
 10
3.48948072
 20
-9.52705341
 30
0.0
 11
3.32736006
 21
-9.57817554
 31
0.0
  0
LINE
  5
12A7
330
785
100
AcDbEntity
  8
0
100
AcDbLine
 10
3.4639549
 20
-9.44610522
 30
0.0
 11
3.30183424
 21
-9.49722735
 31
0.0
  0
LINE
  5
12A8
330
785
100
AcDbEntity
  8
0
100
AcDbLine
 10
3.41238533
 20
-9.46236686
 30
0.0
 11
3.27402327
 21
-9.32400479
 31
0.0
  0
LINE
  5
12A9
330
785
100
AcDbEntity
  8
0
100
AcDbLine
 10
3.44295746
 20
-9.3043536
 30
0.0
 11
3.28149885
 21
-9.14289499
 31
0.0
  0
LINE
  5
12AA
330
785
100
AcDbEntity
  8
0
100
AcDbLine
 10
3.45607746
 20
-9.12888822
 30
0.0
 11
3.3174371
 21
-8.99024786
 31
0.0
  0
LINE
  5
12AB
330
785
100
AcDbEntity
  8
0
100
AcDbLine
 10
3.87773153
 20
-8.60761541
 30
0.0
 11
3.75046629
 21
-8.48035016
 31
0.0
  0
LINE
  5
12AC
330
785
100
AcDbEntity
  8
0
100
AcDbLine
 10
4.02141622
 20
-8.56271472
 30
0.0
 11
3.88287858
 21
-8.42417708
 31
0.0
  0
LINE
  5
12AD
330
785
100
AcDbEntity
  8
0
100
AcDbLine
 10
4.19661119
 20
-8.54932431
 30
0.0
 11
4.0353724
 21
-8.38808552
 31
0.0
  0
LINE
  5
12AE
330
785
100
AcDbEntity
  8
0
100
AcDbLine
 10
4.43913572
 20
-8.60326346
 30
0.0
 11
4.21624392
 21
-8.38037166
 31
0.0
  0
LINE
  5
12AF
330
785
100
AcDbEntity
  8
0
100
AcDbLine
 10
5.00722269
 20
-8.98276505
 30
0.0
 11
4.4508339
 21
-8.42637626
 31
0.0
  0
LINE
  5
12B0
330
785
100
AcDbEntity
  8
241
  6
HIDDEN2
100
AcDbLine
 10
5.0
 20
6.43467171
 30
0.0
 11
13.0
 21
6.43467171
 31
0.0
  0
LINE
  5
12B1
330
785
100
AcDbEntity
  8
240
100
AcDbLine
 10
11.0
 20
11.7
 30
0.0
 11
10.0
 21
11.7
 31
0.0
  0
LINE
  5
12B2
330
785
100
AcDbEntity
  8
240
100
AcDbLine
 10
10.0
 20
11.7
 30
0.0
 11
10.0
 21
15.0
 31
0.0
  0
LINE
  5
12B3
330
785
100
AcDbEntity
  8
241
  6
HIDDEN2
100
AcDbLine
 10
13.0
 20
6.75
 30
0.0
 11
18.0
 21
6.75
 31
0.0
  0
LINE
  5
12B4
330
785
100
AcDbEntity
  8
240
100
AcDbLine
 10
-7.5
 20
19.00000001
 30
0.0
 11
-6.12626128
 21
19.5
 31
0.0
  0
LINE
  5
12B5
330
785
100
AcDbEntity
  8
241
  6
CONTINUOUS
100
AcDbLine
 10
-7.5
 20
15.2
 30
0.0
 11
-13.0
 21
15.2
 31
0.0
  0
LINE
  5
12B6
330
785
100
AcDbEntity
  8
240
100
AcDbLine
 10
-7.50000001
 20
19.0
 30
0.0
 11
-13.5
 21
19.0
 31
0.0
  0
LINE
  5
12B7
330
785
100
AcDbEntity
  8
240
100
AcDbLine
 10
-13.5
 20
19.0
 30
0.0
 11
-13.5
 21
16.0
 31
0.0
  0
LINE
  5
12B8
330
785
100
AcDbEntity
  8
240
100
AcDbLine
 10
-13.0
 20
15.5
 30
0.0
 11
-13.5
 21
16.0
 31
0.0
  0
ARC
  5
12B9
330
785
100
AcDbEntity
  8
240
100
AcDbCircle
 10
-3.25
 20
18.25
 30
0.0
 40
1.250000000000339
100
AcDbArc
 50
0.0
 51
180.0
  0
LINE
  5
12BA
330
785
100
AcDbEntity
  8
240
100
AcDbLine
 10
-4.5
 20
18.25
 30
0.0
 11
-4.5
 21
19.5
 31
0.0
  0
LINE
  5
12BB
330
785
100
AcDbEntity
  8
240
100
AcDbLine
 10
-4.5
 20
19.5
 30
0.0
 11
-6.12626129
 21
19.5
 31
0.0
  0
LINE
  5
12BC
330
785
100
AcDbEntity
  8
240
100
AcDbLine
 10
-0.63567449
 20
19.5
 30
0.0
 11
-2.0
 21
19.5
 31
0.0
  0
LINE
  5
12BD
330
785
100
AcDbEntity
  8
240
100
AcDbLine
 10
0.19859884
 20
18.75881905
 30
0.0
 11
1.00717253
 21
15.74118096
 31
0.0
  0
LINE
  5
12BE
330
785
100
AcDbEntity
  8
240
100
AcDbLine
 10
-0.50850794
 20
19.46592583
 30
0.0
 11
-0.63567449
 21
19.5
 31
0.0
  0
ARC
  5
12BF
330
785
100
AcDbEntity
  8
240
100
AcDbCircle
 10
-0.76732699
 20
18.5
 30
0.0
 40
1.0
100
AcDbArc
 50
15.0
 51
75.0
1001
GENIUS_GENOBJ-N-FIL_13
1002
{
1000
OWNER
1000
GEN
1002
}
1001
GENIUS_GENODEF_13
1002
{
1000
HIER
1070
     0
1002
}
1002
{
1000
MANEDIT
1070
     0
1002
}
1002
{
1000
NOSEL
1070
     0
1002
}
1002
{
1000
BEHIND
1070
     0
1002
}
1002
{
1000
OTHER
1070
     0
1002
}
1002
{
1000
REACTOR
1002
}
  0
LINE
  5
12C0
330
785
100
AcDbEntity
  8
240
100
AcDbLine
 10
-2.0
 20
18.25
 30
0.0
 11
-2.0
 21
19.5
 31
0.0
  0
LINE
  5
12C1
330
785
100
AcDbEntity
  8
240
100
AcDbLine
 10
11.0
 20
15.15
 30
0.0
 11
13.0
 21
15.15
 31
0.0
  0
LINE
  5
12C2
330
785
100
AcDbEntity
  8
240
100
AcDbLine
 10
35.0
 20
-14.0
 30
0.0
 11
35.0
 21
0.0
 31
0.0
  0
ARC
  5
12C3
330
785
100
AcDbEntity
  8
240
100
AcDbCircle
 10
34.0
 20
-14.0
 30
0.0
 40
1.0
100
AcDbArc
 50
270.0
 51
0.0
1001
GENIUS_GENOBJ-N-FIL_13
1002
{
1000
OWNER
1000
GEN
1002
}
1001
GENIUS_GENODEF_13
1002
{
1000
HIER
1070
     0
1002
}
1002
{
1000
MANEDIT
1070
     0
1002
}
1002
{
1000
NOSEL
1070
     0
1002
}
1002
{
1000
BEHIND
1070
     0
1002
}
1002
{
1000
OTHER
1070
     0
1002
}
1002
{
1000
REACTOR
1002
}
  0
ARC
  5
12C4
330
785
100
AcDbEntity
  8
240
100
AcDbCircle
 10
34.0
 20
14.0
 30
0.0
 40
1.0
100
AcDbArc
 50
0.0
 51
90.0
1001
GENIUS_GENOBJ-N-FIL_13
1002
{
1000
OWNER
1000
GEN
1002
}
1001
GENIUS_GENODEF_13
1002
{
1000
HIER
1070
     0
1002
}
1002
{
1000
MANEDIT
1070
     0
1002
}
1002
{
1000
NOSEL
1070
     0
1002
}
1002
{
1000
BEHIND
1070
     0
1002
}
1002
{
1000
OTHER
1070
     0
1002
}
1002
{
1000
REACTOR
1002
}
  0
LINE
  5
12C5
330
785
100
AcDbEntity
  8
240
100
AcDbLine
 10
35.0
 20
14.0
 30
0.0
 11
35.0
 21
0.0
 31
0.0
  0
ENDBLK
  5
8C2
330
785
100
AcDbEntity
  8
0
100
AcDbBlockEnd
  0
BLOCK
  5
1151
330
1147
100
AcDbEntity
  8
0
100
AcDbBlockBegin
  2
*D10
 70
     1
 10
0.0
 20
0.0
 30
0.0
  3
*D10
  1

  0
LINE
  5
1197
330
1147
100
AcDbEntity
  8
AM_5
100
AcDbLine
 10
34.5
 20
15.0
 30
0.0
 11
54.5
 21
15.0
 31
0.0
  0
LINE
  5
1198
330
1147
100
AcDbEntity
  8
AM_5
100
AcDbLine
 10
34.5
 20
-15.0
 30
0.0
 11
54.5
 21
-15.0
 31
0.0
  0
LINE
  5
1199
330
1147
100
AcDbEntity
  8
AM_5
100
AcDbLine
 10
53.5
 20
12.77
 30
0.0
 11
53.5
 21
-12.77
 31
0.0
  0
INSERT
  5
119A
330
1147
100
AcDbEntity
  8
AM_5
100
AcDbBlockReference
  2
_OPEN
 10
53.5
 20
15.0
 30
0.0
 41
2.23
 42
2.23
 43
2.23
 50
90.0
  0
INSERT
  5
119B
330
1147
100
AcDbEntity
  8
AM_5
100
AcDbBlockReference
  2
_OPEN
 10
53.5
 20
-15.0
 30
0.0
 41
2.23
 42
2.23
 43
2.23
 50
270.0
  0
MTEXT
  5
119C
330
1147
100
AcDbEntity
  8
AM_5
 62
    40
100
AcDbMText
 10
51.1
 20
-1.48621162
 30
0.0
 40
2.8
 41
0.0
 71
     5
 72
     1
  1
\A1;%%c30
 11
0.0
 21
1.0
 31
0.0
1001
ACAD
1000
MTEXTBEGIN
1070
    73
1070
     1
1070
    44
1040
1.0
1070
    74
1070
     0
1000
MTEXTEND
  0
POINT
  5
119D
330
1147
100
AcDbEntity
  8
DEFPOINTS
 62
     0
100
AcDbPoint
 10
34.0
 20
15.0
 30
0.0
  0
POINT
  5
119E
330
1147
100
AcDbEntity
  8
DEFPOINTS
 62
     0
100
AcDbPoint
 10
34.0
 20
-15.0
 30
0.0
  0
POINT
  5
119F
330
1147
100
AcDbEntity
  8
DEFPOINTS
 62
     0
100
AcDbPoint
 10
53.5
 20
-15.0
 30
0.0
  0
ENDBLK
  5
1152
330
1147
100
AcDbEntity
  8
0
100
AcDbBlockEnd
  0
BLOCK
  5
115C
330
1153
100
AcDbEntity
  8
0
100
AcDbBlockBegin
  2
*D11
 70
     1
 10
0.0
 20
0.0
 30
0.0
  3
*D11
  1

  0
LINE
  5
11A0
330
1153
100
AcDbEntity
  8
250
  6
CONTINUOUS
100
AcDbLine
 10
35.5
 20
6.0
 30
0.0
 11
47.5
 21
6.0
 31
0.0
  0
LINE
  5
11A1
330
1153
100
AcDbEntity
  8
250
  6
CONTINUOUS
100
AcDbLine
 10
46.5
 20
-3.77
 30
0.0
 11
46.5
 21
3.77
 31
0.0
  0
INSERT
  5
11A2
330
1153
100
AcDbEntity
  8
250
  6
CONTINUOUS
100
AcDbBlockReference
  2
矢印なし
 10
46.5
 20
-6.0
 30
0.0
 41
2.23
 42
2.23
 43
2.23
 50
270.0
  0
INSERT
  5
11A3
330
1153
100
AcDbEntity
  8
250
  6
CONTINUOUS
100
AcDbBlockReference
  2
_OPEN
 10
46.5
 20
6.0
 30
0.0
 41
2.23
 42
2.23
 43
2.23
 50
90.0
  0
MTEXT
  5
11A4
330
1153
100
AcDbEntity
  8
250
  6
CONTINUOUS
 62
    40
100
AcDbMText
 10
44.1
 20
-1.46522202
 30
0.0
 40
2.8
 41
0.0
 71
     5
 72
     1
  1
\A1;{\H2.8;\U+2205}12
 11
0.0
 21
1.0
 31
0.0
1001
ACAD
1000
MTEXTBEGIN
1070
    73
1070
     1
1070
    44
1040
1.0
1070
    74
1070
     0
1000
MTEXTEND
  0
POINT
  5
11A5
330
1153
100
AcDbEntity
  8
DEFPOINTS
  6
CONTINUOUS
 62
     0
100
AcDbPoint
 10
35.0
 20
-6.0
 30
0.0
  0
POINT
  5
11A6
330
1153
100
AcDbEntity
  8
DEFPOINTS
  6
CONTINUOUS
 62
     0
100
AcDbPoint
 10
35.0
 20
6.0
 30
0.0
  0
POINT
  5
11A7
330
1153
100
AcDbEntity
  8
DEFPOINTS
  6
CONTINUOUS
 62
     0
100
AcDbPoint
 10
46.5
 20
6.0
 30
0.0
  0
ENDBLK
  5
115D
330
1153
100
AcDbEntity
  8
0
100
AcDbBlockEnd
  0
BLOCK
  5
1168
330
115E
100
AcDbEntity
  8
0
100
AcDbBlockBegin
  2
*D12
 70
     1
 10
0.0
 20
0.0
 30
0.0
  3
*D12
  1

  0
LINE
  5
118E
330
115E
100
AcDbEntity
  8
250
  6
CONTINUOUS
100
AcDbLine
 10
0.0
 20
19.64125603
 30
0.0
 11
0.0
 21
36.0
 31
0.0
  0
LINE
  5
118F
330
115E
100
AcDbEntity
  8
250
  6
CONTINUOUS
100
AcDbLine
 10
35.0
 20
14.5
 30
0.0
 11
35.0
 21
36.0
 31
0.0
  0
LINE
  5
1190
330
115E
100
AcDbEntity
  8
250
  6
CONTINUOUS
100
AcDbLine
 10
2.23
 20
35.0
 30
0.0
 11
32.77
 21
35.0
 31
0.0
  0
INSERT
  5
1191
330
115E
100
AcDbEntity
  8
250
  6
CONTINUOUS
100
AcDbBlockReference
  2
_OPEN
 10
0.0
 20
35.0
 30
0.0
 41
2.23
 42
2.23
 43
2.23
 50
180.0
  0
INSERT
  5
1192
330
115E
100
AcDbEntity
  8
250
  6
CONTINUOUS
100
AcDbBlockReference
  2
_OPEN
 10
35.0
 20
35.0
 30
0.0
 41
2.23
 42
2.23
 43
2.23
  0
MTEXT
  5
1193
330
115E
100
AcDbEntity
  8
250
  6
CONTINUOUS
 62
    40
100
AcDbMText
 10
17.5
 20
37.4
 30
0.0
 40
2.8
 41
0.0
 71
     5
 72
     1
  1
\A1;35
1001
ACAD
1000
MTEXTBEGIN
1070
    73
1070
     1
1070
    44
1040
1.0
1070
    74
1070
     0
1000
MTEXTEND
  0
POINT
  5
1194
330
115E
100
AcDbEntity
  8
DEFPOINTS
  6
CONTINUOUS
 62
     0
100
AcDbPoint
 10
0.0
 20
19.14125603
 30
0.0
  0
POINT
  5
1195
330
115E
100
AcDbEntity
  8
DEFPOINTS
  6
CONTINUOUS
 62
     0
100
AcDbPoint
 10
35.0
 20
14.0
 30
0.0
  0
POINT
  5
1196
330
115E
100
AcDbEntity
  8
DEFPOINTS
  6
CONTINUOUS
 62
     0
100
AcDbPoint
 10
35.0
 20
35.0
 30
0.0
  0
ENDBLK
  5
1169
330
115E
100
AcDbEntity
  8
0
100
AcDbBlockEnd
  0
ENDSEC
  0
SECTION
  2
ENTITIES
  0
INSERT
  5
6E6
330
1A
100
AcDbEntity
  8
245
100
AcDbBlockReference
  2
矢印なし
 10
175.62382697
 20
90.55123572
 30
0.0
  0
INSERT
  5
8EA
330
1A
100
AcDbEntity
  8
245
100
AcDbBlockReference
  2
矢印なし
 10
350.62382697
 20
230.55123572
 30
0.0
  0
INSERT
  5
8EB
330
1A
100
AcDbEntity
  8
245
100
AcDbBlockReference
  2
矢印なし
 10
532.62382697
 20
363.55123572
 30
0.0
  0
INSERT
  5
8EC
330
1A
100
AcDbEntity
  8
245
100
AcDbBlockReference
  2
矢印なし
 10
707.62382697
 20
510.55123572
 30
0.0
  0
INSERT
  5
8ED
330
1A
100
AcDbEntity
  8
245
100
AcDbBlockReference
  2
矢印なし
 10
896.62382697
 20
643.55123572
 30
0.0
  0
INSERT
  5
8EE
330
1A
100
AcDbEntity
  8
245
100
AcDbBlockReference
  2
矢印なし
 10
1085.62382697
 20
783.55123572
 30
0.0
  0
INSERT
  5
8EF
330
1A
100
AcDbEntity
  8
245
100
AcDbBlockReference
  2
矢印なし
 10
1260.62382697
 20
923.55123572
 30
0.0
  0
INSERT
  5
8F0
330
1A
100
AcDbEntity
  8
245
100
AcDbBlockReference
  2
矢印なし
 10
1435.62382697
 20
1063.55123572
 30
0.0
  0
INSERT
  5
8F1
330
1A
100
AcDbEntity
  8
245
100
AcDbBlockReference
  2
矢印なし
 10
1624.62382697
 20
1203.55123572
 30
0.0
  0
INSERT
  5
8F2
330
1A
100
AcDbEntity
  8
245
100
AcDbBlockReference
  2
矢印なし
 10
1806.62382697
 20
1343.55123572
 30
0.0
  0
INSERT
  5
8F3
330
1A
100
AcDbEntity
  8
245
100
AcDbBlockReference
  2
矢印なし
 10
1988.62382697
 20
1490.55123572
 30
0.0
  0
INSERT
  5
8F4
330
1A
100
AcDbEntity
  8
245
100
AcDbBlockReference
  2
矢印なし
 10
2170.62382697
 20
1637.55123572
 30
0.0
  0
INSERT
  5
8F5
330
1A
100
AcDbEntity
  8
245
100
AcDbBlockReference
  2
矢印なし
 10
2317.62382697
 20
1777.55123572
 30
0.0
  0
INSERT
  5
8F6
330
1A
100
AcDbEntity
  8
245
100
AcDbBlockReference
  2
矢印なし
 10
2492.62382697
 20
1931.55123572
 30
0.0
  0
INSERT
  5
8F7
330
1A
100
AcDbEntity
  8
245
100
AcDbBlockReference
  2
矢印なし
 10
2688.62382697
 20
2078.55123572
 30
0.0
  0
INSERT
  5
8F8
330
1A
100
AcDbEntity
  8
245
100
AcDbBlockReference
  2
矢印なし
 10
2877.62382697
 20
2211.55123572
 30
0.0
  0
INSERT
  5
8F9
330
1A
100
AcDbEntity
  8
245
100
AcDbBlockReference
  2
矢印なし
 10
3038.62382697
 20
2365.55123572
 30
0.0
  0
INSERT
  5
8FA
330
1A
100
AcDbEntity
  8
245
100
AcDbBlockReference
  2
矢印なし
 10
3213.62382697
 20
2519.55123572
 30
0.0
  0
INSERT
  5
8FB
330
1A
100
AcDbEntity
  8
245
100
AcDbBlockReference
  2
矢印なし
 10
3388.62382697
 20
2652.55123572
 30
0.0
  0
INSERT
  5
8FC
330
1A
100
AcDbEntity
  8
245
100
AcDbBlockReference
  2
矢印なし
 10
3542.62382697
 20
2799.55123572
 30
0.0
  0
TEXT
  5
8FD
330
1A
100
AcDbEntity
  8
241
100
AcDbText
 10
-69.0
 20
49.0
 30
0.0
 40
5.0
  1
MGT20-U5/8-35
  7
YOKO
 11
-69.0
 21
49.0
 31
0.0
100
AcDbText
 73
     1
  0
DIMENSION
  5
1026
330
1A
100
AcDbEntity
  8
250
  6
CONTINUOUS
100
AcDbDimension
  2
*D12
 10
35.0
 20
35.0
 30
0.0
 11
17.5
 21
37.4
 31
0.0
 70
    32
  3
BIGT$0
100
AcDbAlignedDimension
 13
0.0
 23
19.14125603
 33
0.0
 14
35.0
 24
14.0
 34
0.0
100
AcDbRotatedDimension
  0
DIMENSION
  5
1127
330
1A
100
AcDbEntity
  8
AM_5
100
AcDbDimension
  2
*D10
 10
53.5
 20
-15.0
 30
0.0
 11
53.5
 21
-1.48621162
 31
0.0
 70
   160
  1
%%c<>
  3
BIGT$0
100
AcDbAlignedDimension
 13
34.0
 23
15.0
 33
0.0
 14
34.0
 24
-15.0
 34
0.0
 50
90.0
100
AcDbRotatedDimension
  0
LEADER
  5
1131
330
1A
100
AcDbEntity
  8
250
  6
CONTINUOUS
100
AcDbLeader
  3
BIGT
 76
     2
 10
11.39695282
 20
6.43467171
 30
0.0
 10
22.0
 20
28.0
 30
0.0
1001
ACAD
1000
DSTYLE
1002
{
1070
     6
1000
OPEN
1070
   343
1005
594
1002
}
  0
DIMENSION
  5
1143
330
1A
100
AcDbEntity
  8
250
  6
CONTINUOUS
100
AcDbDimension
  2
*D11
 10
46.5
 20
6.0
 30
0.0
 11
46.5
 21
-1.46522202
 31
0.0
 70
   160
  1
{\H2.8;\U+2205}<>
  3
BIGT
100
AcDbAlignedDimension
 13
35.0
 23
-6.0
 33
0.0
 14
35.0
 24
6.0
 34
0.0
 50
90.0
100
AcDbRotatedDimension
1001
ACAD
1000
DSTYLE
1002
{
1070
   287
1070
     3
1070
   287
1070
     3
1070
   287
1070
     3
1070
   287
1070
     3
1070
    75
1070
     1
1070
    77
1070
     3
1070
   145
1040
1.0
1070
   279
1070
     0
1070
   289
1070
     3
1070
     6
1000
矢印なし
1002
}
  0
LINE
  5
1145
330
1A
100
AcDbEntity
  8
250
  6
CONTINUOUS
100
AcDbLine
 10
22.0
 20
28.0
 30
0.0
 11
34.37936977
 21
28.0
 31
0.0
1001
ITEMNAME
1000
LNSP2
  0
MTEXT
  5
1146
330
1A
100
AcDbEntity
  8
251
  6
CONTINUOUS
100
AcDbMText
 10
26.32603644
 20
29.0
 30
0.0
 40
2.8
 41
0.0
 71
     7
 72
     1
  1
\U+25A19
  7
YOKO
1001
ITEMNAME
1000
LNSP3
1001
ACAD
1000
MTEXTBEGIN
1070
    73
1070
     1
1070
    44
1040
1.0
1070
    74
1070
     0
1000
MTEXTEND
1000
MTEXTBEGIN
1070
    73
1070
     1
1070
    44
1040
1.0
1070
    74
1070
     0
1000
MTEXTEND
1000
MTEXTBEGIN
1070
    73
1070
     1
1070
    44
1040
1.0
1070
    74
1070
     0
1000
MTEXTEND
1000
MTEXTBEGIN
1070
    73
1070
     1
1070
    44
1040
1.0
1070
    74
1070
     0
1000
MTEXTEND
1000
MTEXTBEGIN
1070
    73
1070
     1
1070
    44
1040
1.0
1070
    74
1070
     0
1000
MTEXTEND
1000
MTEXTBEGIN
1070
    73
1070
     1
1070
    44
1040
1.0
1070
    74
1070
     0
1000
MTEXTEND
  0
INSERT
  5
12C6
330
1A
100
AcDbEntity
  8
245
100
AcDbBlockReference
  2
1
 10
0.0
 20
0.0
 30
0.0
  0
VIEWPORT
  5
22
330
17
100
AcDbEntity
 67
     1
  8
0
100
AcDbViewport
 10
261.51769912
 20
148.5
 30
0.0
 40
523.03539823
 41
297.0
 68
     1
 69
     1
1001
ACAD
1000
MVIEW
1002
{
1070
    16
1010
0.0
1020
0.0
1030
0.0
1010
0.0
1020
0.0
1030
1.0
1040
0.0
1040
297.0
1040
261.51769912
1040
148.5
1040
50.0
1040
0.0
1040
0.0
1070
     0
1070
   100
1070
     1
1070
     1
1070
     0
1070
     0
1070
     0
1070
     0
1040
0.0
1040
0.0
1040
0.0
1040
1.0
1040
1.0
1040
10.0
1040
10.0
1070
     0
1002
{
1002
}
1002
}
  0
ENDSEC
  0
SECTION
  2
OBJECTS
  0
DICTIONARY
  5
C
330
0
100
AcDbDictionary
  3
ACAD_GROUP
350
D
  3
ACAD_LAYOUT
350
565
  3
ACAD_MLINESTYLE
350
E
  3
ACAD_PLOTSETTINGS
350
566
  3
ACAD_PLOTSTYLENAME
350
563
  3
ACDBHEADERROUNDTRIPXREC
350
12C8
  3
GRADE_DWG
350
540
  0
DICTIONARY
  5
D87
330
1A
100
AcDbDictionary
280
     1
  3
ACAD_LAYOUTSELFREF
360
12EA
  0
DICTIONARY
  5
D85
330
17
100
AcDbDictionary
280
     1
  3
ACAD_LAYOUTSELFREF
360
12E9
  0
DICTIONARY
  5
D
102
{ACAD_REACTORS
330
C
102
}
330
C
100
AcDbDictionary
  3
*A1
350
6C7
  3
*A2
350
6C8
  3
*A3
350
6D4
  3
*A4
350
6D5
  3
DREC-1
350
5FC
  3
DREC-2
350
654
  3
DREC-3
350
673
  0
DICTIONARY
  5
565
102
{ACAD_REACTORS
330
C
102
}
330
C
100
AcDbDictionary
  0
DICTIONARY
  5
E
102
{ACAD_REACTORS
330
C
102
}
330
C
100
AcDbDictionary
  3
STANDARD
350
13
  0
DICTIONARY
  5
566
102
{ACAD_REACTORS
330
C
102
}
330
C
100
AcDbDictionary
  3
A3_0_5倍_
350
758
  3
A3_1倍_
350
757
  3
A3_1倍__2000_
350
707
  3
A3_2倍_
350
759
  3
A4_0_5倍_
350
755
  3
A4_1倍_
350
754
  3
A4_1倍__2000_
350
708
  3
A4_2倍_
350
756
  0
ACDBDICTIONARYWDFLT
  5
563
102
{ACAD_REACTORS
330
C
102
}
330
C
100
AcDbDictionary
281
     1
  3
Normal
350
564
100
AcDbDictionaryWithDefault
340
564
  0
DICTIONARY
  5
12C8
102
{ACAD_REACTORS
330
C
102
}
330
C
100
AcDbDictionary
  3
CEPSNTYPE
350
12D2
  3
DIMSTYLEDATA
350
12D6
  3
FINGERPRINTGUID
350
12D3
  3
HYPERLINKBASE
350
12CB
  3
INSUNITS
350
12D1
  3
LAYOUTDICT
350
12CD
  3
LWETCUNION
350
12D0
  3
PLOTSETDICT
350
12CE
  3
PLOTSTYLNAMDICT
350
12CF
  3
PSVPSCALE
350
12D5
  3
PUCSBASE
350
12D9
  3
PUCSORGBACK
350
12DF
  3
PUCSORGBOTTOM
350
12DB
  3
PUCSORGFRONT
350
12DE
  3
PUCSORGLEFT
350
12DC
  3
PUCSORGRIGHT
350
12DD
  3
PUCSORGTOP
350
12DA
  3
PUCSORTHOREF
350
12D7
  3
PUCSORTHOVIEW
350
12D8
  3
STYLESHEET
350
12CC
  3
TSTACKALIGN
350
12C9
  3
TSTACKSIZE
350
12CA
  3
UCSBASE
350
12E2
  3
UCSORGBACK
350
12E8
  3
UCSORGBOTTOM
350
12E4
  3
UCSORGFRONT
350
12E7
  3
UCSORGLEFT
350
12E5
  3
UCSORGRIGHT
350
12E6
  3
UCSORGTOP
350
12E3
  3
UCSORTHOREF
350
12E0
  3
UCSORTHOVIEW
350
12E1
  3
VERSIONGUID
350
12D4
  0
DICTIONARY
  5
540
102
{ACAD_REACTORS
330
C
102
}
330
C
100
AcDbDictionary
  3
VERSION
350
560
  0
XRECORD
  5
12EA
102
{ACAD_REACTORS
330
D87
102
}
330
D87
100
AcDbXrecord
340
1A
  0
XRECORD
  5
12E9
102
{ACAD_REACTORS
330
D85
102
}
330
D85
100
AcDbXrecord
340
17
  0
GROUP
  5
6C7
102
{ACAD_REACTORS
330
D
102
}
330
D
100
AcDbGroup
300

 70
     0
 71
     1
1001
GRPNAME
1000
DMA00
  0
GROUP
  5
6C8
102
{ACAD_REACTORS
330
D
102
}
330
D
100
AcDbGroup
300

 70
     0
 71
     1
1001
GRPNAME
1000
DMA00
  0
GROUP
  5
6D4
102
{ACAD_REACTORS
330
D
102
}
330
D
100
AcDbGroup
300

 70
     0
 71
     1
1001
GRPNAME
1000
DMA00
  0
GROUP
  5
6D5
102
{ACAD_REACTORS
330
D
102
}
330
D
100
AcDbGroup
300

 70
     0
 71
     1
1001
GRPNAME
1000
DMA00
  0
GROUP
  5
5FC
102
{ACAD_REACTORS
330
D
102
}
330
D
100
AcDbGroup
300

 70
     0
 71
     1
1001
GRPNAME
1000
DREC-
1001
GPARA
1000
xsiz
1000
44.182
1000
ysiz
1000
40.677
1000
angl
1000
0
1000
ctyp
1000
0
1000
csiz
1000
5
1000
lfnt
1000
cont
1000
hcnt
1000
hoff
1000
vcnt
1000
voff
1000
opnt
1000
4
1000
dxpt
1000
0
1000
dypt
1000
0
  0
GROUP
  5
654
102
{ACAD_REACTORS
330
D
102
}
330
D
100
AcDbGroup
300

 70
     0
 71
     1
1001
GRPNAME
1000
DREC-
1001
GPARA
1000
xsiz
1000
54.592
1000
ysiz
1000
53.036
1000
angl
1000
0
1000
ctyp
1000
0
1000
csiz
1000
5
1000
lfnt
1000
cont
1000
hcnt
1000
hoff
1000
vcnt
1000
voff
1000
opnt
1000
4
1000
dxpt
1000
0
1000
dypt
1000
0
  0
GROUP
  5
673
102
{ACAD_REACTORS
330
D
102
}
330
D
100
AcDbGroup
300

 70
     0
 71
     1
1001
GRPNAME
1000
DREC-
1001
GPARA
1000
xsiz
1000
30.363
1000
ysiz
1000
36.175
1000
angl
1000
0
1000
ctyp
1000
0
1000
csiz
1000
5
1000
lfnt
1000
cont
1000
hcnt
1000
hoff
1000
vcnt
1000
voff
1000
opnt
1000
4
1000
dxpt
1000
0
1000
dypt
1000
0
  0
MLINESTYLE
  5
13
102
{ACAD_REACTORS
330
E
102
}
330
E
100
AcDbMlineStyle
  2
STANDARD
 70
     0
  3

 62
     0
 51
90.0
 52
90.0
 71
     2
 49
0.5
 62
   256
  6
BYLAYER
 49
-0.5
 62
   256
  6
BYLAYER
  0
PLOTSETTINGS
  5
758
102
{ACAD_REACTORS
330
566
102
}
330
566
100
AcDbPlotSettings
  1
A3(0.5倍)
  2
\\AWTECPC05\HP DeskJet 1120C
  4
A3
  6

 40
5.95841646
 41
13.49375153
 42
6.04309082
 43
3.67242432
 44
296.92599487
 45
419.94665527
 46
89.96
 47
127.14
 48
0.0
 49
0.0
140
0.0
141
0.0
142
1.0
143
2.0
 70
  1716
 72
     1
 73
     1
 74
     2
  7
big.ctb
 75
    17
147
0.5
148
0.0
149
0.0
  0
PLOTSETTINGS
  5
757
102
{ACAD_REACTORS
330
566
102
}
330
566
100
AcDbPlotSettings
  1
A3(1倍)
  2
\\AWTECPC05\HP DeskJet 1120C
  4
A3
  6

 40
5.95841646
 41
13.49375153
 42
6.04309082
 43
3.67242432
 44
296.92599487
 45
419.94665527
 46
37.46
 47
52.89
 48
0.0
 49
0.0
140
0.0
141
0.0
142
1.0
143
1.0
 70
  1716
 72
     1
 73
     1
 74
     2
  7
big.ctb
 75
    16
147
1.0
148
0.0
149
0.0
  0
PLOTSETTINGS
  5
707
102
{ACAD_REACTORS
330
566
102
}
330
566
100
AcDbPlotSettings
  1
A3(1倍)(2000)
  2
SII LS-1300 (D-SCAN)
  4
User258
  6

 40
3.17499995
 41
3.17499995
 42
3.17498779
 43
3.17498779
 44
419.98898315
 45
296.98950195
 46
58.32
 47
40.32
 48
0.0
 49
0.0
140
0.0
141
0.0
142
1.0
143
1.0
 70
  1716
 72
     1
 73
     0
 74
     2
  7
big.ctb
 75
    16
147
1.0
148
0.0
149
0.0
  0
PLOTSETTINGS
  5
759
102
{ACAD_REACTORS
330
566
102
}
330
566
100
AcDbPlotSettings
  1
A3(2倍)
  2
\\AWTECPC05\HP DeskJet 1120C
  4
A3
  6

 40
5.95841646
 41
13.49375153
 42
6.04309082
 43
3.67242432
 44
296.92599487
 45
419.94665527
 46
-67.54
 47
-95.61
 48
0.0
 49
0.0
140
0.0
141
0.0
142
1.0
143
0.5
 70
  1716
 72
     1
 73
     1
 74
     2
  7
big.ctb
 75
    27
147
2.0
148
0.0
149
0.0
  0
PLOTSETTINGS
  5
755
102
{ACAD_REACTORS
330
566
102
}
330
566
100
AcDbPlotSettings
  1
A4(0.5倍)
  2
\\AWTECPC05\HP DeskJet 1120C
  4
A4
  6

 40
4.18041658
 41
13.49374962
 42
4.18040466
 43
3.92642212
 44
209.97332764
 45
296.92599487
 46
48.31
 47
65.5
 48
0.0
 49
0.0
140
0.0
141
0.0
142
1.0
143
2.0
 70
  1716
 72
     1
 73
     1
 74
     2
  7
big.ctb
 75
    17
147
0.5
148
0.0
149
0.0
  0
PLOTSETTINGS
  5
754
102
{ACAD_REACTORS
330
566
102
}
330
566
100
AcDbPlotSettings
  1
A4(1倍)
  2
\\AWTECPC05\HP DeskJet 1120C
  4
A4
  6

 40
4.18041658
 41
13.49374962
 42
4.18040466
 43
3.92642212
 44
209.97332764
 45
296.92599487
 46
-4.19
 47
-8.75
 48
0.0
 49
0.0
140
0.0
141
0.0
142
1.0
143
1.0
 70
  1716
 72
     1
 73
     1
 74
     2
  7
big.ctb
 75
    16
147
1.0
148
0.0
149
0.0
  0
PLOTSETTINGS
  5
708
102
{ACAD_REACTORS
330
566
102
}
330
566
100
AcDbPlotSettings
  1
A4(1倍)(2000)
  2
SII LS-1300 (D-SCAN)
  4
User259
  6

 40
3.17499995
 41
3.17499995
 42
3.17498779
 43
3.17500305
 44
296.98950195
 45
209.99449158
 46
-3.18
 47
-3.18
 48
0.0
 49
0.0
140
0.0
141
0.0
142
1.0
143
1.0
 70
  1716
 72
     1
 73
     0
 74
     2
  7
big.ctb
 75
    16
147
1.0
148
0.0
149
0.0
  0
PLOTSETTINGS
  5
756
102
{ACAD_REACTORS
330
566
102
}
330
566
100
AcDbPlotSettings
  1
A4(2倍)
  2
\\AWTECPC05\HP DeskJet 1120C
  4
A4
  6

 40
4.18041658
 41
13.49374962
 42
4.18040466
 43
3.92642212
 44
209.97332764
 45
296.92599487
 46
-109.19
 47
-157.25
 48
0.0
 49
0.0
140
0.0
141
0.0
142
1.0
143
0.5
 70
  1716
 72
     1
 73
     1
 74
     2
  7
big.ctb
 75
    27
147
2.0
148
0.0
149
0.0
  0
ACDBPLACEHOLDER
  5
564
102
{ACAD_REACTORS
330
563
102
}
330
563
100
AcDbPlaceHolder
280
     0
  0
XRECORD
  5
12D2
102
{ACAD_REACTORS
330
12C8
102
}
330
12C8
100
AcDbXrecord
 90
        0
  0
XRECORD
  5
12D6
102
{ACAD_REACTORS
330
12C8
102
}
330
12C8
100
AcDbXrecord
1000
DSTYLE
1002
{
1070
    79
 70
     2
1070
   179
 70
     3
1070
   341
340
594
1070
   343
340
594
1070
   344
340
594
1070
   371
 70
    -1
1070
   372
 70
    -1
1002
}
  0
XRECORD
  5
12D3
102
{ACAD_REACTORS
330
12C8
102
}
330
12C8
100
AcDbXrecord
  1
{51294030-9CB4-11D3-8E18-00A0C925D94D}
  0
XRECORD
  5
12CB
102
{ACAD_REACTORS
330
12C8
102
}
330
12C8
100
AcDbXrecord
  1

  0
XRECORD
  5
12D1
102
{ACAD_REACTORS
330
12C8
102
}
330
12C8
100
AcDbXrecord
 90
        0
  0
XRECORD
  5
12CD
102
{ACAD_REACTORS
330
12C8
102
}
330
12C8
100
AcDbXrecord
340
565
  0
XRECORD
  5
12D0
102
{ACAD_REACTORS
330
12C8
102
}
330
12C8
100
AcDbXrecord
 90
    10781
  0
XRECORD
  5
12CE
102
{ACAD_REACTORS
330
12C8
102
}
330
12C8
100
AcDbXrecord
340
566
  0
XRECORD
  5
12CF
102
{ACAD_REACTORS
330
12C8
102
}
330
12C8
100
AcDbXrecord
340
563
  0
XRECORD
  5
12D5
102
{ACAD_REACTORS
330
12C8
102
}
330
12C8
100
AcDbXrecord
 40
0.0
  0
XRECORD
  5
12D9
102
{ACAD_REACTORS
330
12C8
102
}
330
12C8
100
AcDbXrecord
340
0
  0
XRECORD
  5
12DF
102
{ACAD_REACTORS
330
12C8
102
}
330
12C8
100
AcDbXrecord
 10
0.0
 20
0.0
 30
0.0
  0
XRECORD
  5
12DB
102
{ACAD_REACTORS
330
12C8
102
}
330
12C8
100
AcDbXrecord
 10
0.0
 20
0.0
 30
0.0
  0
XRECORD
  5
12DE
102
{ACAD_REACTORS
330
12C8
102
}
330
12C8
100
AcDbXrecord
 10
0.0
 20
0.0
 30
0.0
  0
XRECORD
  5
12DC
102
{ACAD_REACTORS
330
12C8
102
}
330
12C8
100
AcDbXrecord
 10
0.0
 20
0.0
 30
0.0
  0
XRECORD
  5
12DD
102
{ACAD_REACTORS
330
12C8
102
}
330
12C8
100
AcDbXrecord
 10
0.0
 20
0.0
 30
0.0
  0
XRECORD
  5
12DA
102
{ACAD_REACTORS
330
12C8
102
}
330
12C8
100
AcDbXrecord
 10
0.0
 20
0.0
 30
0.0
  0
XRECORD
  5
12D7
102
{ACAD_REACTORS
330
12C8
102
}
330
12C8
100
AcDbXrecord
340
0
  0
XRECORD
  5
12D8
102
{ACAD_REACTORS
330
12C8
102
}
330
12C8
100
AcDbXrecord
 70
     0
  0
XRECORD
  5
12CC
102
{ACAD_REACTORS
330
12C8
102
}
330
12C8
100
AcDbXrecord
  1
big.ctb
  0
XRECORD
  5
12C9
102
{ACAD_REACTORS
330
12C8
102
}
330
12C8
100
AcDbXrecord
 90
        1
  0
XRECORD
  5
12CA
102
{ACAD_REACTORS
330
12C8
102
}
330
12C8
100
AcDbXrecord
 90
       70
  0
XRECORD
  5
12E2
102
{ACAD_REACTORS
330
12C8
102
}
330
12C8
100
AcDbXrecord
340
0
  0
XRECORD
  5
12E8
102
{ACAD_REACTORS
330
12C8
102
}
330
12C8
100
AcDbXrecord
 10
0.0
 20
0.0
 30
0.0
  0
XRECORD
  5
12E4
102
{ACAD_REACTORS
330
12C8
102
}
330
12C8
100
AcDbXrecord
 10
0.0
 20
0.0
 30
0.0
  0
XRECORD
  5
12E7
102
{ACAD_REACTORS
330
12C8
102
}
330
12C8
100
AcDbXrecord
 10
0.0
 20
0.0
 30
0.0
  0
XRECORD
  5
12E5
102
{ACAD_REACTORS
330
12C8
102
}
330
12C8
100
AcDbXrecord
 10
0.0
 20
0.0
 30
0.0
  0
XRECORD
  5
12E6
102
{ACAD_REACTORS
330
12C8
102
}
330
12C8
100
AcDbXrecord
 10
0.0
 20
0.0
 30
0.0
  0
XRECORD
  5
12E3
102
{ACAD_REACTORS
330
12C8
102
}
330
12C8
100
AcDbXrecord
 10
0.0
 20
0.0
 30
0.0
  0
XRECORD
  5
12E0
102
{ACAD_REACTORS
330
12C8
102
}
330
12C8
100
AcDbXrecord
340
0
  0
XRECORD
  5
12E1
102
{ACAD_REACTORS
330
12C8
102
}
330
12C8
100
AcDbXrecord
 70
     0
  0
XRECORD
  5
12D4
102
{ACAD_REACTORS
330
12C8
102
}
330
12C8
100
AcDbXrecord
  1
{D50A4772-F007-4E49-9D8F-024CEC89818A}
  0
XRECORD
  5
560
102
{ACAD_REACTORS
330
540
102
}
330
540
100
AcDbXrecord
  1
2.0.0
  0
ENDSEC
  0
EOF
