  0
SECTION
  2
HEADER
  9
$ACADVER
  1
AC1014
  9
$ACADMAINTVER
 70
     9
  9
$DWGCODEPAGE
  3
ANSI_932
  9
$INSBASE
 10
0.0
 20
0.0
 30
0.0
  9
$EXTMIN
 10
-70.01495247
 20
-19.5703201
 30
-0.00152582
  9
$EXTMAX
 10
169.50454797
 20
54.96170761
 30
0.00000003
  9
$LIMMIN
 10
0.0
 20
0.0
  9
$LIMMAX
 10
420.0
 20
297.0
  9
$ORTHOMODE
 70
     0
  9
$REGENMODE
 70
     1
  9
$FILLMODE
 70
     1
  9
$QTEXTMODE
 70
     0
  9
$MIRRTEXT
 70
     1
  9
$DRAGMODE
 70
     2
  9
$LTSCALE
 40
10.0
  9
$OSMODE
 70
   549
  9
$ATTMODE
 70
     1
  9
$TEXTSIZE
 40
3.0
  9
$TRACEWID
 40
1.0
  9
$TEXTSTYLE
  7
YOKO
  9
$CLAYER
  8
245
  9
$CELTYPE
  6
BYLAYER
  9
$CECOLOR
 62
   256
  9
$CELTSCALE
 40
1.0
  9
$DELOBJ
 70
     1
  9
$DISPSILH
 70
     0
  9
$DIMSCALE
 40
1.0
  9
$DIMASZ
 40
2.0
  9
$DIMEXO
 40
2.0
  9
$DIMDLI
 40
2.5
  9
$DIMRND
 40
0.0
  9
$DIMDLE
 40
0.0
  9
$DIMEXE
 40
2.0
  9
$DIMTP
 40
0.0
  9
$DIMTM
 40
0.0
  9
$DIMTXT
 40
4.0
  9
$DIMCEN
 40
0.0
  9
$DIMTSZ
 40
0.0
  9
$DIMTOL
 70
     0
  9
$DIMLIM
 70
     0
  9
$DIMTIH
 70
     0
  9
$DIMTOH
 70
     0
  9
$DIMSE1
 70
     0
  9
$DIMSE2
 70
     0
  9
$DIMTAD
 70
     3
  9
$DIMZIN
 70
     8
  9
$DIMBLK
  1

  9
$DIMASO
 70
     1
  9
$DIMSHO
 70
     1
  9
$DIMPOST
  1

  9
$DIMAPOST
  1

  9
$DIMALT
 70
     0
  9
$DIMALTD
 70
     2
  9
$DIMALTF
 40
25.4
  9
$DIMLFAC
 40
1.0
  9
$DIMTOFL
 70
     1
  9
$DIMTVP
 40
0.0
  9
$DIMTIX
 70
     1
  9
$DIMSOXD
 70
     0
  9
$DIMSAH
 70
     1
  9
$DIMBLK1
  1
OPEN
  9
$DIMBLK2
  1
OPEN
  9
$DIMSTYLE
  2
BIGT
  9
$DIMCLRD
 70
   256
  9
$DIMCLRE
 70
   256
  9
$DIMCLRT
 70
    40
  9
$DIMTFAC
 40
1.0
  9
$DIMGAP
 40
1.0
  9
$DIMJUST
 70
     0
  9
$DIMSD1
 70
     0
  9
$DIMSD2
 70
     0
  9
$DIMTOLJ
 70
     1
  9
$DIMTZIN
 70
     8
  9
$DIMALTZ
 70
     0
  9
$DIMALTTZ
 70
     0
  9
$DIMFIT
 70
     3
  9
$DIMUPT
 70
     0
  9
$DIMUNIT
 70
     2
  9
$DIMDEC
 70
     3
  9
$DIMTDEC
 70
     3
  9
$DIMALTU
 70
     2
  9
$DIMALTTD
 70
     2
  9
$DIMTXSTY
  7
STANDARD
  9
$DIMAUNIT
 70
     0
  9
$LUNITS
 70
     2
  9
$LUPREC
 70
     3
  9
$SKETCHINC
 40
1.0
  9
$FILLETRAD
 40
0.0
  9
$AUNITS
 70
     0
  9
$AUPREC
 70
     3
  9
$MENU
  1
.
  9
$ELEVATION
 40
0.0
  9
$PELEVATION
 40
0.0
  9
$THICKNESS
 40
0.0
  9
$LIMCHECK
 70
     0
  9
$BLIPMODE
 70
     0
  9
$CHAMFERA
 40
10.0
  9
$CHAMFERB
 40
10.0
  9
$CHAMFERC
 40
0.0
  9
$CHAMFERD
 40
0.0
  9
$SKPOLY
 70
     0
  9
$TDCREATE
 40
2455128.616756724
  9
$TDUPDATE
 40
2455316.547303958
  9
$TDINDWG
 40
0.0025741435
  9
$TDUSRTIMER
 40
0.0025741435
  9
$USRTIMER
 70
     1
  9
$ANGBASE
 50
0.0
  9
$ANGDIR
 70
     0
  9
$PDMODE
 70
     1
  9
$PDSIZE
 40
-5.0
  9
$PLINEWID
 40
0.0
  9
$COORDS
 70
     0
  9
$SPLFRAME
 70
     0
  9
$SPLINETYPE
 70
     6
  9
$SPLINESEGS
 70
     8
  9
$ATTDIA
 70
     0
  9
$ATTREQ
 70
     1
  9
$HANDLING
 70
-16383
  9
$HANDSEED
  5
12CE
  9
$SURFTAB1
 70
     6
  9
$SURFTAB2
 70
     6
  9
$SURFTYPE
 70
     6
  9
$SURFU
 70
     6
  9
$SURFV
 70
     6
  9
$UCSNAME
  2

  9
$UCSORG
 10
0.0
 20
0.0
 30
0.0
  9
$UCSXDIR
 10
1.0
 20
0.0
 30
0.0
  9
$UCSYDIR
 10
0.0
 20
1.0
 30
0.0
  9
$PUCSNAME
  2

  9
$PUCSORG
 10
0.0
 20
0.0
 30
0.0
  9
$PUCSXDIR
 10
1.0
 20
0.0
 30
0.0
  9
$PUCSYDIR
 10
0.0
 20
1.0
 30
0.0
  9
$USERI1
 70
     1
  9
$USERI2
 70
     0
  9
$USERI3
 70
     0
  9
$USERI4
 70
     0
  9
$USERI5
 70
     0
  9
$USERR1
 40
0.0
  9
$USERR2
 40
0.0
  9
$USERR3
 40
0.0
  9
$USERR4
 40
0.0
  9
$USERR5
 40
0.0
  9
$WORLDVIEW
 70
     1
  9
$SHADEDGE
 70
     3
  9
$SHADEDIF
 70
    70
  9
$TILEMODE
 70
     1
  9
$MAXACTVP
 70
    16
  9
$PINSBASE
 10
0.0
 20
0.0
 30
0.0
  9
$PLIMCHECK
 70
     0
  9
$PEXTMIN
 10
1.00000000E+20
 20
1.00000000E+20
 30
1.00000000E+20
  9
$PEXTMAX
 10
-1.00000000E+20
 20
-1.00000000E+20
 30
-1.00000000E+20
  9
$PLIMMIN
 10
0.0
 20
0.0
  9
$PLIMMAX
 10
420.0
 20
297.0
  9
$UNITMODE
 70
     0
  9
$VISRETAIN
 70
     0
  9
$PLINEGEN
 70
     0
  9
$PSLTSCALE
 70
     1
  9
$TREEDEPTH
 70
  3020
  9
$PICKSTYLE
 70
     0
  9
$CMLSTYLE
  2
STANDARD
  9
$CMLJUST
 70
     0
  9
$CMLSCALE
 40
1.0
  9
$PROXYGRAPHICS
 70
     1
  9
$MEASUREMENT
 70
     1
  0
ENDSEC
  0
SECTION
  2
CLASSES
  0
CLASS
  1
XRECORD
  2
AcDbXrecord
  3
AutoCAD 2000
 90
        0
280
     0
281
     0
  0
CLASS
  1
ACDBDICTIONARYWDFLT
  2
AcDbDictionaryWithDefault
  3
AutoCAD 2000
 90
        0
280
     0
281
     0
  0
CLASS
  1
ACDBPLACEHOLDER
  2
AcDbPlaceHolder
  3
AutoCAD 2000
 90
        0
280
     0
281
     0
  0
CLASS
  1
LAYOUT
  2
AcDbLayout
  3
AutoCAD 2000
 90
        0
280
     0
281
     0
  0
CLASS
  1
PLOTSETTINGS
  2
AcDbPlotSettings
  3
AutoCAD 2000
 90
        0
280
     0
281
     0
  0
CLASS
  1
LONG_TRANSACTION
  2
AcDbLongTransaction
  3
AutoCAD 2000
 90
        0
280
     0
281
     0
  0
CLASS
  1
LWPOLYLINE
  2
AcDbPolyline
  3
AutoCAD 2000
 90
        0
280
     0
281
     1
  0
CLASS
  1
HATCH
  2
AcDbHatch
  3
AutoCAD 2000
 90
        0
280
     0
281
     1
  0
CLASS
  1
XRECORD
  2
AcDbXrecord
  3
AutoCAD 2000
 90
        0
280
     0
281
     0
  0
CLASS
  1
LONG_TRANSACTION
  2
AcDbLongTransaction
  3
AutoCAD 2000
 90
        0
280
     0
281
     0
  0
CLASS
  1
LWPOLYLINE
  2
AcDbPolyline
  3
AutoCAD 2000
 90
        0
280
     0
281
     1
  0
CLASS
  1
HATCH
  2
AcDbHatch
  3
AutoCAD 2000
 90
        0
280
     0
281
     1
  0
CLASS
  1
XRECORD
  2
AcDbXrecord
  3
AutoCAD 2000
 90
        0
280
     0
281
     0
  0
ENDSEC
  0
SECTION
  2
TABLES
  0
TABLE
  2
VPORT
  5
8
330
0
100
AcDbSymbolTable
 70
     2
  0
VPORT
  5
12A9
330
8
100
AcDbSymbolTableRecord
100
AcDbViewportTableRecord
  2
*ACTIVE
 70
     0
 10
0.0
 20
0.0
 11
1.0
 21
1.0
 12
49.74479775
 22
17.69569376
 13
0.0
 23
0.0
 14
7.0
 24
7.0
 15
7.0
 25
7.0
 16
0.0
 26
0.0
 36
1.0
 17
0.0
 27
0.0
 37
0.0
 40
168.17189623
 41
1.43184713
 42
50.0
 43
0.0
 44
0.0
 50
0.0
 51
0.0
 71
     0
 72
  2000
 73
     1
 74
     0
 75
     0
 76
     0
 77
     0
 78
     0
  0
ENDTAB
  0
TABLE
  2
LTYPE
  5
5
330
0
100
AcDbSymbolTable
 70
     3
  0
LTYPE
  5
14
330
5
100
AcDbSymbolTableRecord
100
AcDbLinetypeTableRecord
  2
BYBLOCK
 70
     0
  3

 72
    65
 73
     0
 40
0.0
  0
LTYPE
  5
15
330
5
100
AcDbSymbolTableRecord
100
AcDbLinetypeTableRecord
  2
BYLAYER
 70
     0
  3

 72
    65
 73
     0
 40
0.0
  0
LTYPE
  5
16
330
5
100
AcDbSymbolTableRecord
100
AcDbLinetypeTableRecord
  2
CONTINUOUS
 70
     0
  3
Solid line
 72
    65
 73
     0
 40
0.0
  0
LTYPE
  5
258
330
5
100
AcDbSymbolTableRecord
100
AcDbLinetypeTableRecord
  2
CENTER2
 70
     0
  3
___ _ ___ _ ___ _ ___ _ ___ _ ___ _ ___ _ ___ _
 72
    65
 73
     4
 40
1.125
 49
0.75
 74
     0
 49
-0.125
 74
     0
 49
0.125
 74
     0
 49
-0.125
 74
     0
  0
LTYPE
  5
25C
330
5
100
AcDbSymbolTableRecord
100
AcDbLinetypeTableRecord
  2
HIDDEN2
 70
     0
  3
_ _ _ _ _ _ _ _ _ _ _ _ _ _ _ _ _ _ _ _ _ _ _ _
 72
    65
 73
     2
 40
0.1875
 49
0.125
 74
     0
 49
-0.0625
 74
     0
  0
ENDTAB
  0
TABLE
  2
LAYER
  5
2
330
0
100
AcDbSymbolTable
 70
    11
  0
LAYER
  5
F
330
2
100
AcDbSymbolTableRecord
100
AcDbLayerTableRecord
  2
0
 70
     0
 62
     7
  6
CONTINUOUS
  0
LAYER
  5
1AA
330
2
100
AcDbSymbolTableRecord
100
AcDbLayerTableRecord
  2
240
 70
     0
 62
     4
  6
CONTINUOUS
  0
LAYER
  5
1AB
330
2
100
AcDbSymbolTableRecord
100
AcDbLayerTableRecord
  2
241
 70
     0
 62
   211
  6
CONTINUOUS
  0
LAYER
  5
1AC
330
2
100
AcDbSymbolTableRecord
100
AcDbLayerTableRecord
  2
242
 70
     0
 62
     3
  6
CONTINUOUS
  0
LAYER
  5
1AD
330
2
100
AcDbSymbolTableRecord
100
AcDbLayerTableRecord
  2
243
 70
     0
 62
   211
  6
HIDDEN2
  0
LAYER
  5
1AF
330
2
100
AcDbSymbolTableRecord
100
AcDbLayerTableRecord
  2
245
 70
     0
 62
     2
  6
CENTER2
  0
LAYER
  5
21E
330
2
100
AcDbSymbolTableRecord
100
AcDbLayerTableRecord
  2
250
 70
     0
 62
     3
  6
CONTINUOUS
  0
LAYER
  5
21F
330
2
100
AcDbSymbolTableRecord
100
AcDbLayerTableRecord
  2
251
 70
     0
 62
    40
  6
CONTINUOUS
  0
LAYER
  5
5C4
330
2
100
AcDbSymbolTableRecord
100
AcDbLayerTableRecord
  2
DEFPOINTS
 70
     0
 62
     7
  6
CONTINUOUS
  0
LAYER
  5
8C3
330
2
100
AcDbSymbolTableRecord
100
AcDbLayerTableRecord
  2
AM_5
 70
     0
 62
     3
  6
CONTINUOUS
  0
ENDTAB
  0
TABLE
  2
STYLE
  5
3
330
0
100
AcDbSymbolTable
 70
     2
  0
STYLE
  5
10
330
3
100
AcDbSymbolTableRecord
100
AcDbTextStyleTableRecord
  2
STANDARD
 70
     0
 40
0.0
 41
1.0
 50
0.0
 71
     0
 42
3.0
  3
romans.shx
  4
BIGFONT.SHX
  0
STYLE
  5
339
330
3
100
AcDbSymbolTableRecord
100
AcDbTextStyleTableRecord
  2
YOKO
 70
     0
 40
0.0
 41
1.0
 50
0.0
 71
     0
 42
3.0
  3
romans.shx
  4
extfont.shx
  0
ENDTAB
  0
TABLE
  2
VIEW
  5
6
330
0
100
AcDbSymbolTable
 70
     0
  0
ENDTAB
  0
TABLE
  2
UCS
  5
7
330
0
100
AcDbSymbolTable
 70
     0
  0
ENDTAB
  0
TABLE
  2
APPID
  5
9
330
0
100
AcDbSymbolTable
 70
    15
  0
APPID
  5
11
330
9
100
AcDbSymbolTableRecord
100
AcDbRegAppTableRecord
  2
ACAD
 70
     0
  0
APPID
  5
1B1
330
9
100
AcDbSymbolTableRecord
100
AcDbRegAppTableRecord
  2
GLOBAL
 70
     0
  0
APPID
  5
2A4
330
9
100
AcDbSymbolTableRecord
100
AcDbRegAppTableRecord
  2
DETAIL
 70
     0
  0
APPID
  5
5FD
330
9
100
AcDbSymbolTableRecord
100
AcDbRegAppTableRecord
  2
GRPNAME
 70
     0
  0
APPID
  5
5FE
330
9
100
AcDbSymbolTableRecord
100
AcDbRegAppTableRecord
  2
GPARA
 70
     0
  0
APPID
  5
6C4
330
9
100
AcDbSymbolTableRecord
100
AcDbRegAppTableRecord
  2
DCO15
 70
     0
  0
APPID
  5
6C5
330
9
100
AcDbSymbolTableRecord
100
AcDbRegAppTableRecord
  2
ITEMNAME
 70
     0
  0
APPID
  5
6C6
330
9
100
AcDbSymbolTableRecord
100
AcDbRegAppTableRecord
  2
GRADE_0
 70
     0
  0
APPID
  5
8C5
330
9
100
AcDbSymbolTableRecord
100
AcDbRegAppTableRecord
  2
GENIUS_GENODEF_13
 70
     0
  0
APPID
  5
8C6
330
9
100
AcDbSymbolTableRecord
100
AcDbRegAppTableRecord
  2
GENIUS_GENOREF_13
 70
     0
  0
APPID
  5
8C7
330
9
100
AcDbSymbolTableRecord
100
AcDbRegAppTableRecord
  2
GENIUS_GENOBJ-N-FIL_13
 70
     0
  0
APPID
  5
8C8
330
9
100
AcDbSymbolTableRecord
100
AcDbRegAppTableRecord
  2
HATCH_TYPE
 70
     0
  0
APPID
  5
8C9
330
9
100
AcDbSymbolTableRecord
100
AcDbRegAppTableRecord
  2
HATCH_DISPLAY
 70
     0
  0
APPID
  5
8CA
330
9
100
AcDbSymbolTableRecord
100
AcDbRegAppTableRecord
  2
HATCH_DISTANCE
 70
     0
  0
APPID
  5
E13
330
9
100
AcDbSymbolTableRecord
100
AcDbRegAppTableRecord
  2
CONTENTBLOCKICON
 70
     0
  0
ENDTAB
  0
TABLE
  2
DIMSTYLE
  5
A
330
0
100
AcDbSymbolTable
 70
     2
  0
DIMSTYLE
105
725
102
{ACAD_REACTORS
330
C17
102
}
330
A
100
AcDbSymbolTableRecord
100
AcDbDimStyleTableRecord
  2
BIGT
 70
     0
  3

  4

  5

  6
OPEN
  7
OPEN
 40
1.0
 41
2.23
 42
0.5
 43
2.5
 44
1.0
 45
0.0
 46
0.0
 47
0.0
 48
0.0
140
2.8
141
0.0
142
0.0
143
25.4
144
1.0
145
0.0
146
1.0
147
1.0
 71
     0
 72
     0
 73
     0
 74
     0
 75
     0
 76
     0
 77
     3
 78
     8
170
     0
171
     2
172
     1
173
     1
174
     1
175
     0
176
   256
177
   256
178
    40
270
     2
271
     3
272
     3
273
     2
274
     2
340
10
275
     0
280
     0
281
     0
282
     0
283
     1
284
     8
285
     0
286
     0
287
     3
288
     0
  0
DIMSTYLE
105
8C4
102
{ACAD_REACTORS
330
B6E
330
C18
102
}
330
A
100
AcDbSymbolTableRecord
100
AcDbDimStyleTableRecord
  2
BIGT$0
 70
     0
  3

  4

  5
OPEN
  6

  7

 40
1.0
 41
2.23
 42
0.5
 43
7.0
 44
1.0
 45
0.0
 46
0.0
 47
0.0
 48
0.01
140
2.8
141
0.0
142
0.0
143
25.4
144
1.0
145
0.0
146
1.0
147
1.0
 71
     0
 72
     0
 73
     0
 74
     0
 75
     0
 76
     0
 77
     3
 78
     9
170
     0
171
     2
172
     1
173
     0
174
     1
175
     0
176
   256
177
   256
178
    40
270
     2
271
     3
272
     3
273
     2
274
     2
340
10
275
     0
280
     0
281
     0
282
     0
283
     1
284
     8
285
     0
286
     0
287
     3
288
     0
  0
ENDTAB
  0
TABLE
  2
BLOCK_RECORD
  5
1
330
0
100
AcDbSymbolTable
 70
    11
  0
BLOCK_RECORD
  5
1A
102
{ACAD_XDICTIONARY
360
E11
102
}
330
1
100
AcDbSymbolTableRecord
100
AcDbBlockTableRecord
  2
*MODEL_SPACE
  0
BLOCK_RECORD
  5
17
102
{ACAD_XDICTIONARY
360
E0F
102
}
330
1
100
AcDbSymbolTableRecord
100
AcDbBlockTableRecord
  2
*PAPER_SPACE
  0
BLOCK_RECORD
  5
594
330
1
100
AcDbSymbolTableRecord
100
AcDbBlockTableRecord
  2
_OPEN
  0
BLOCK_RECORD
  5
6E3
330
1
100
AcDbSymbolTableRecord
100
AcDbBlockTableRecord
  2
矢印なし
  0
BLOCK_RECORD
  5
762
330
1
100
AcDbSymbolTableRecord
100
AcDbBlockTableRecord
  2
1
1001
CONTENTBLOCKICON
1071
        0
1004
2800000020000000200000000100080000000000000400000000000000000000000000000000000000000000000080000080000000808000800000008000800080800000C0C0C000C0DCC000F0CAA6000020400000206000002080000020A0000020C0000020E00000400000004020000040400000406000004080000040A0
1004
000040C0000040E00000600000006020000060400000606000006080000060A0000060C0000060E00000800000008020000080400000806000008080000080A0000080C0000080E00000A0000000A0200000A0400000A0600000A0800000A0A00000A0C00000A0E00000C0000000C0200000C0400000C0600000C0800000C0
1004
A00000C0C00000C0E00000E0000000E0200000E0400000E0600000E0800000E0A00000E0C00000E0E00040000000400020004000400040006000400080004000A0004000C0004000E00040200000402020004020400040206000402080004020A0004020C0004020E000404000004040200040404000404060004040800040
1004
40A0004040C0004040E00040600000406020004060400040606000406080004060A0004060C0004060E00040800000408020004080400040806000408080004080A0004080C0004080E00040A0000040A0200040A0400040A0600040A0800040A0A00040A0C00040A0E00040C0000040C0200040C0400040C0600040C08000
1004
40C0A00040C0C00040C0E00040E0000040E0200040E0400040E0600040E0800040E0A00040E0C00040E0E00080000000800020008000400080006000800080008000A0008000C0008000E00080200000802020008020400080206000802080008020A0008020C0008020E00080400000804020008040400080406000804080
1004
008040A0008040C0008040E00080600000806020008060400080606000806080008060A0008060C0008060E00080800000808020008080400080806000808080008080A0008080C0008080E00080A0000080A0200080A0400080A0600080A0800080A0A00080A0C00080A0E00080C0000080C0200080C0400080C0600080C0
1004
800080C0A00080C0C00080C0E00080E0000080E0200080E0400080E0600080E0800080E0A00080E0C00080E0E000C0000000C0002000C0004000C0006000C0008000C000A000C000C000C000E000C0200000C0202000C0204000C0206000C0208000C020A000C020C000C020E000C0400000C0402000C0404000C0406000C0
1004
408000C040A000C040C000C040E000C0600000C0602000C0604000C0606000C0608000C060A000C060C000C060E000C0800000C0802000C0804000C0806000C0808000C080A000C080C000C080E000C0A00000C0A02000C0A04000C0A06000C0A08000C0A0A000C0A0C000C0A0E000C0C00000C0C02000C0C04000C0C06000
1004
C0C08000C0C0A000F0FBFF00A4A0A000808080000000FF0000FF000000FFFF00FF000000FF00FF00FFFF0000FFFFFF0000000000000000000000000000000000000000000000000000000000000000000000000000000000000000000000000000000000000000000000000000000000000000000000000000000000000000
1004
00000000000000000000000000000000000000000000000000000000000000000000000000000000000000000000000000000000000000000000000000000000000000000000000000000000000000000000000000000000000000000000000000000000000000000000000000000000000000000000000000000000000000
1004
00000000000000000000000000000000000000000000000000000000000000000000000000000000000000000000000000000000000000000000000000000000000000000000000000000000000000000000000000000000000000000000000000000000000000000000000000000000000000000000000000000000000000
1004
0000000000000000000000000000000000000000000000000000000000000000000000000000000000000000000000000000000000000000000000000000000000000000000000000000000000000000000000000000000000000000FEFE0000000000000000000000000000000000000000000000FEFEFEFEFEFEFEFEE7FE
1004
FEFEFEFEFEFEFEFEFEFEFEFEFEFEFEFEFEFE00000000FE00FBE7E7FBE7E7E7000000000000000000000000000000E7E700FE000000FBFEFBFBE7E7E7E7E7E7FBFBFBFBFFFFFFFFFFFFFFFFFBFBFBE7E7E7FEFB000000FEFEFEFEFEFEFEFEE7FEFEFEFEFFFFFFFFFFFFFFFFFEFEFEFEFEFEFE0000000000000000000000FEFE
1004
00000000000000000000000000000000000000000000000000000000000000000000000000000000000000000000000000000000000000000000000000000000000000000000000000000000000000000000000000000000000000000000000000000000000000000000000000000000000000000000000000000000000000
1004
00000000000000000000000000000000000000000000000000000000000000000000000000000000000000000000000000000000000000000000000000000000000000000000000000000000000000000000000000000000000000000000000000000000000000000000000000000000000000000000000000000000000000
1004
00000000000000000000000000000000000000000000000000000000000000000000000000000000000000000000000000000000000000000000000000000000000000000000000000000000000000000000000000000000000000000000000000000000000000000000000000000000000000000000000000000000000000
1004
0000000000000000000000000000000000000000000000000000000000000000000000000000000000000000000000000000000000000000
  0
BLOCK_RECORD
  5
C19
330
1
100
AcDbSymbolTableRecord
100
AcDbBlockTableRecord
  2
*D3
  0
BLOCK_RECORD
  5
C25
330
1
100
AcDbSymbolTableRecord
100
AcDbBlockTableRecord
  2
*D4
  0
BLOCK_RECORD
  5
C30
330
1
100
AcDbSymbolTableRecord
100
AcDbBlockTableRecord
  2
*D5
  0
ENDTAB
  0
ENDSEC
  0
SECTION
  2
BLOCKS
  0
BLOCK
  5
1B
330
1A
100
AcDbEntity
  8
0
100
AcDbBlockBegin
  2
*MODEL_SPACE
 70
     0
 10
0.0
 20
0.0
 30
0.0
  3
*MODEL_SPACE
  1

  0
ENDBLK
  5
1C
330
1A
100
AcDbEntity
  8
0
100
AcDbBlockEnd
  0
BLOCK
  5
18
330
17
100
AcDbEntity
 67
     1
  8
0
100
AcDbBlockBegin
  2
*PAPER_SPACE
 70
     0
 10
0.0
 20
0.0
 30
0.0
  3
*PAPER_SPACE
  1

  0
ENDBLK
  5
19
330
17
100
AcDbEntity
 67
     1
  8
0
100
AcDbBlockEnd
  0
BLOCK
  5
598
330
594
100
AcDbEntity
  8
0
100
AcDbBlockBegin
  2
_OPEN
 70
     0
 10
0.0
 20
0.0
 30
0.0
  3
_OPEN
  1

  0
LINE
  5
595
330
594
100
AcDbEntity
  8
0
  6
BYBLOCK
 62
     0
100
AcDbLine
 10
-1.0
 20
0.16666667
 30
0.0
 11
0.0
 21
0.0
 31
0.0
  0
LINE
  5
596
330
594
100
AcDbEntity
  8
0
  6
BYBLOCK
 62
     0
100
AcDbLine
 10
-1.0
 20
-0.16666667
 30
0.0
 11
0.0
 21
0.0
 31
0.0
  0
LINE
  5
597
330
594
100
AcDbEntity
  8
0
  6
BYBLOCK
 62
     0
100
AcDbLine
 10
0.0
 20
0.0
 30
0.0
 11
-1.0
 21
0.0
 31
0.0
  0
ENDBLK
  5
599
330
594
100
AcDbEntity
  8
0
100
AcDbBlockEnd
  0
BLOCK
  5
6E4
330
6E3
100
AcDbEntity
  8
0
100
AcDbBlockBegin
  2
矢印なし
 70
     0
 10
0.0
 20
0.0
 30
0.0
  3
矢印なし
  1

  0
ENDBLK
  5
6E5
330
6E3
100
AcDbEntity
  8
0
100
AcDbBlockEnd
  0
BLOCK
  5
89E
330
762
100
AcDbEntity
  8
0
100
AcDbBlockBegin
  2
1
 70
     0
 10
0.0
 20
0.0
 30
0.0
  3
1
  1

  0
LINE
  5
118A
330
762
100
AcDbEntity
  8
240
100
AcDbLine
 10
125.0
 20
15.0
 30
0.0
 11
1.97309836
 21
15.0
 31
0.0
  0
LINE
  5
118B
330
762
100
AcDbEntity
  8
240
100
AcDbLine
 10
125.0
 20
-15.0
 30
0.0
 11
1.97309836
 21
-15.0
 31
0.0
  0
LINE
  5
118C
330
762
100
AcDbEntity
  8
245
100
AcDbLine
 10
-70.0
 20
0.0
 30
0.0
 11
151.0
 21
0.0
 31
0.0
  0
LINE
  5
118D
330
762
100
AcDbEntity
  8
240
100
AcDbLine
 10
-54.0
 20
12.5
 30
0.0
 11
-56.5
 21
15.0
 31
0.0
  0
LINE
  5
118E
330
762
100
AcDbEntity
  8
240
100
AcDbLine
 10
-54.0
 20
-12.5
 30
0.0
 11
-56.5
 21
-15.0
 31
0.0
  0
LINE
  5
118F
330
762
100
AcDbEntity
  8
240
100
AcDbLine
 10
-69.0
 20
-14.0
 30
0.0
 11
-69.0
 21
0.0
 31
0.0
  0
LINE
  5
1190
330
762
100
AcDbEntity
  8
240
100
AcDbLine
 10
-68.0
 20
-15.0
 30
0.0
 11
-56.5
 21
-15.0
 31
0.0
  0
ARC
  5
1191
330
762
100
AcDbEntity
  8
240
100
AcDbCircle
 10
-68.0
 20
-14.0
 30
0.0
 40
1.0
100
AcDbArc
 50
180.0
 51
270.0
  0
ARC
  5
1192
330
762
100
AcDbEntity
  8
240
100
AcDbCircle
 10
-68.0
 20
14.0
 30
0.0
 40
1.0
100
AcDbArc
 50
90.0
 51
180.0
  0
LINE
  5
1193
330
762
100
AcDbEntity
  8
240
100
AcDbLine
 10
-69.0
 20
14.0
 30
0.0
 11
-69.0
 21
0.0
 31
0.0
  0
LINE
  5
1194
330
762
100
AcDbEntity
  8
240
100
AcDbLine
 10
-68.0
 20
15.0
 30
0.0
 11
-56.5
 21
15.0
 31
0.0
  0
LINE
  5
1195
330
762
100
AcDbEntity
  8
241
100
AcDbLine
 10
1.20577137
 20
-15.35874397
 30
0.0
 11
1.20577137
 21
0.0
 31
0.0
  0
LINE
  5
1196
330
762
100
AcDbEntity
  8
241
100
AcDbLine
 10
-6.12626129
 20
-19.5
 30
0.0
 11
-6.12626129
 21
0.0
 31
0.0
  0
LINE
  5
1197
330
762
100
AcDbEntity
  8
241
  6
CONTINUOUS
100
AcDbLine
 10
-7.5
 20
-19.00000001
 30
0.0
 11
-7.5
 21
0.0
 31
0.0
  0
LINE
  5
1198
330
762
100
AcDbEntity
  8
241
100
AcDbLine
 10
0.0
 20
-19.14125603
 30
0.0
 11
0.0
 21
0.0
 31
0.0
  0
LINE
  5
1199
330
762
100
AcDbEntity
  8
241
100
AcDbLine
 10
-2.0
 20
-18.25
 30
0.0
 11
-2.0
 21
0.0
 31
0.0
  0
LINE
  5
119A
330
762
100
AcDbEntity
  8
241
100
AcDbLine
 10
-4.5
 20
-18.25
 30
0.0
 11
-4.5
 21
0.0
 31
0.0
  0
LINE
  5
119B
330
762
100
AcDbEntity
  8
241
100
AcDbLine
 10
-14.5
 20
-15.0
 30
0.0
 11
-14.5
 21
0.0
 31
0.0
  0
LINE
  5
119C
330
762
100
AcDbEntity
  8
241
100
AcDbLine
 10
-19.0
 20
-13.75
 30
0.0
 11
-19.0
 21
0.0
 31
0.0
  0
LINE
  5
119D
330
762
100
AcDbEntity
  8
241
100
AcDbLine
 10
-21.5
 20
-13.75
 30
0.0
 11
-21.5
 21
0.0
 31
0.0
  0
LINE
  5
119E
330
762
100
AcDbEntity
  8
241
100
AcDbLine
 10
-29.5
 20
-13.75
 30
0.0
 11
-29.5
 21
0.0
 31
0.0
  0
LINE
  5
119F
330
762
100
AcDbEntity
  8
241
100
AcDbLine
 10
-32.0
 20
-13.75
 30
0.0
 11
-32.0
 21
0.0
 31
0.0
  0
LINE
  5
11A0
330
762
100
AcDbEntity
  8
243
100
AcDbLine
 10
-42.0
 20
-12.5
 30
0.0
 11
-42.0
 21
12.5
 31
0.0
1001
GENIUS_GENOREF_13
1005
0
  0
LINE
  5
11A1
330
762
100
AcDbEntity
  8
243
100
AcDbLine
 10
-50.0
 20
-12.5
 30
0.0
 11
-50.0
 21
12.5
 31
0.0
1001
GENIUS_GENOREF_13
1005
0
  0
LINE
  5
11A2
330
762
100
AcDbEntity
  8
245
100
AcDbLine
 10
-46.0
 20
-15.0
 30
0.0
 11
-46.0
 21
15.0
 31
0.0
1001
GENIUS_GENOREF_13
1005
0
  0
LINE
  5
11A3
330
762
100
AcDbEntity
  8
240
100
AcDbLine
 10
-19.0
 20
-15.0
 30
0.0
 11
-14.5
 21
-15.0
 31
0.0
  0
LINE
  5
11A4
330
762
100
AcDbEntity
  8
240
100
AcDbLine
 10
-38.0
 20
-12.5
 30
0.0
 11
-35.5
 21
-15.0
 31
0.0
  0
LINE
  5
11A5
330
762
100
AcDbEntity
  8
240
100
AcDbLine
 10
-46.0
 20
-12.5
 30
0.0
 11
-38.0
 21
-12.5
 31
0.0
  0
LINE
  5
11A6
330
762
100
AcDbEntity
  8
240
100
AcDbLine
 10
-54.0
 20
-12.5
 30
0.0
 11
-46.0
 21
-12.5
 31
0.0
  0
LINE
  5
11A7
330
762
100
AcDbEntity
  8
240
100
AcDbLine
 10
-29.5
 20
-15.0
 30
0.0
 11
-21.5
 21
-15.0
 31
0.0
  0
ARC
  5
11A8
330
762
100
AcDbEntity
  8
240
100
AcDbCircle
 10
-30.75
 20
-13.75
 30
0.0
 40
1.24999999999827
100
AcDbArc
 50
180.0
 51
0.0
  0
LINE
  5
11A9
330
762
100
AcDbEntity
  8
240
100
AcDbLine
 10
-35.5
 20
-15.0
 30
0.0
 11
-32.0
 21
-15.0
 31
0.0
  0
LINE
  5
11AA
330
762
100
AcDbEntity
  8
240
100
AcDbLine
 10
-32.0
 20
-13.75
 30
0.0
 11
-32.0
 21
-15.0
 31
0.0
  0
LINE
  5
11AB
330
762
100
AcDbEntity
  8
240
100
AcDbLine
 10
-29.5
 20
-13.75
 30
0.0
 11
-29.5
 21
-15.0
 31
0.0
  0
ARC
  5
11AC
330
762
100
AcDbEntity
  8
240
100
AcDbCircle
 10
-20.25
 20
-13.75
 30
0.0
 40
1.249999999998089
100
AcDbArc
 50
180.0
 51
0.0
  0
LINE
  5
11AD
330
762
100
AcDbEntity
  8
240
100
AcDbLine
 10
-21.5
 20
-13.75
 30
0.0
 11
-21.5
 21
-15.0
 31
0.0
  0
LINE
  5
11AE
330
762
100
AcDbEntity
  8
240
100
AcDbLine
 10
-19.0
 20
-13.75
 30
0.0
 11
-19.0
 21
-15.0
 31
0.0
  0
LINE
  5
11AF
330
762
100
AcDbEntity
  8
240
100
AcDbLine
 10
-7.5
 20
-19.00000001
 30
0.0
 11
-6.12626128
 21
-19.5
 31
0.0
  0
LINE
  5
11B0
330
762
100
AcDbEntity
  8
240
100
AcDbLine
 10
-13.0
 20
-15.5
 30
0.0
 11
-13.5
 21
-16.0
 31
0.0
  0
LINE
  5
11B1
330
762
100
AcDbEntity
  8
240
100
AcDbLine
 10
-7.50000001
 20
-19.0
 30
0.0
 11
-13.5
 21
-19.0
 31
0.0
  0
LINE
  5
11B2
330
762
100
AcDbEntity
  8
240
100
AcDbLine
 10
-13.5
 20
-19.0
 30
0.0
 11
-13.5
 21
-16.0
 31
0.0
  0
LINE
  5
11B3
330
762
100
AcDbEntity
  8
241
  6
CONTINUOUS
100
AcDbLine
 10
-7.5
 20
-15.2
 30
0.0
 11
-13.0
 21
-15.2
 31
0.0
  0
LINE
  5
11B4
330
762
100
AcDbEntity
  8
240
100
AcDbLine
 10
-13.0
 20
-15.5
 30
0.0
 11
-13.0
 21
-14.7
 31
0.0
  0
LINE
  5
11B5
330
762
100
AcDbEntity
  8
240
100
AcDbLine
 10
-14.2
 20
-14.7
 30
0.0
 11
-13.0
 21
-14.7
 31
0.0
  0
LINE
  5
11B6
330
762
100
AcDbEntity
  8
240
100
AcDbLine
 10
-14.2
 20
-14.7
 30
0.0
 11
-14.5
 21
-15.0
 31
0.0
  0
LINE
  5
11B7
330
762
100
AcDbEntity
  8
240
100
AcDbLine
 10
0.19859884
 20
-18.75881905
 30
0.0
 11
1.00717253
 21
-15.74118096
 31
0.0
  0
ARC
  5
11B8
330
762
100
AcDbEntity
  8
240
100
AcDbCircle
 10
-3.25
 20
-18.25
 30
0.0
 40
1.250000000000339
100
AcDbArc
 50
180.0
 51
0.0
  0
LINE
  5
11B9
330
762
100
AcDbEntity
  8
240
100
AcDbLine
 10
-4.5
 20
-19.5
 30
0.0
 11
-6.12626129
 21
-19.5
 31
0.0
  0
LINE
  5
11BA
330
762
100
AcDbEntity
  8
240
100
AcDbLine
 10
-4.5
 20
-18.25
 30
0.0
 11
-4.5
 21
-19.5
 31
0.0
  0
LINE
  5
11BB
330
762
100
AcDbEntity
  8
240
100
AcDbLine
 10
-0.63567449
 20
-19.5
 30
0.0
 11
-2.0
 21
-19.5
 31
0.0
  0
LINE
  5
11BC
330
762
100
AcDbEntity
  8
240
100
AcDbLine
 10
-2.0
 20
-18.25
 30
0.0
 11
-2.0
 21
-19.5
 31
0.0
  0
ARC
  5
11BD
330
762
100
AcDbEntity
  8
240
100
AcDbCircle
 10
-0.76732699
 20
-18.5
 30
0.0
 40
1.0
100
AcDbArc
 50
285.0
 51
345.0
1001
GENIUS_GENOBJ-N-FIL_13
1002
{
1000
OWNER
1000
GEN
1002
}
1001
GENIUS_GENODEF_13
1002
{
1000
HIER
1070
     0
1002
}
1002
{
1000
MANEDIT
1070
     0
1002
}
1002
{
1000
NOSEL
1070
     0
1002
}
1002
{
1000
BEHIND
1070
     0
1002
}
1002
{
1000
OTHER
1070
     0
1002
}
1002
{
1000
REACTOR
1002
}
  0
LINE
  5
11BE
330
762
100
AcDbEntity
  8
240
100
AcDbLine
 10
-0.50850794
 20
-19.46592583
 30
0.0
 11
-0.63567449
 21
-19.5
 31
0.0
  0
ARC
  5
11BF
330
762
100
AcDbEntity
  8
240
100
AcDbCircle
 10
1.97309836
 20
-16.0
 30
0.0
 40
1.0
100
AcDbArc
 50
90.0
 51
165.00000002
  0
LINE
  5
11C0
330
762
100
AcDbEntity
  8
240
100
AcDbLine
 10
-19.0
 20
15.0
 30
0.0
 11
-14.5
 21
15.0
 31
0.0
  0
LINE
  5
11C1
330
762
100
AcDbEntity
  8
240
100
AcDbLine
 10
-38.0
 20
12.5
 30
0.0
 11
-35.5
 21
15.0
 31
0.0
  0
LINE
  5
11C2
330
762
100
AcDbEntity
  8
240
100
AcDbLine
 10
-46.0
 20
12.5
 30
0.0
 11
-38.0
 21
12.5
 31
0.0
  0
LINE
  5
11C3
330
762
100
AcDbEntity
  8
240
100
AcDbLine
 10
-54.0
 20
12.5
 30
0.0
 11
-46.0
 21
12.5
 31
0.0
  0
LINE
  5
11C4
330
762
100
AcDbEntity
  8
241
100
AcDbLine
 10
-21.5
 20
13.75
 30
0.0
 11
-21.5
 21
0.0
 31
0.0
  0
LINE
  5
11C5
330
762
100
AcDbEntity
  8
241
100
AcDbLine
 10
-19.0
 20
13.75
 30
0.0
 11
-19.0
 21
0.0
 31
0.0
  0
LINE
  5
11C6
330
762
100
AcDbEntity
  8
241
100
AcDbLine
 10
-32.0
 20
13.75
 30
0.0
 11
-32.0
 21
0.0
 31
0.0
  0
LINE
  5
11C7
330
762
100
AcDbEntity
  8
241
100
AcDbLine
 10
-29.5
 20
13.75
 30
0.0
 11
-29.5
 21
0.0
 31
0.0
  0
ELLIPSE
  5
11C8
330
762
100
AcDbEntity
  8
241
100
AcDbEllipse
 10
-25.5000349
 20
-5.08449496
 30
0.0
 11
-2.000524505802109
 21
0.0
 31
0.0
210
0.0
220
0.0
230
1.0
 40
0.93944625
 41
0.0
 42
6.283185307179584
  0
LINE
  5
11C9
330
762
100
AcDbEntity
  8
245
100
AcDbLine
 10
-27.4999651
 20
-5.13030215
 30
0.0
 11
-23.5000349
 21
-5.13030215
 31
0.0
  0
LINE
  5
11CA
330
762
100
AcDbEntity
  8
245
100
AcDbLine
 10
-25.5000349
 20
-3.20510972
 30
0.0
 11
-25.5000349
 21
-6.96388021
 31
0.0
  0
LINE
  5
11CB
330
762
100
AcDbEntity
  8
240
100
AcDbLine
 10
-29.5
 20
15.0
 30
0.0
 11
-21.5
 21
15.0
 31
0.0
  0
ARC
  5
11CC
330
762
100
AcDbEntity
  8
240
100
AcDbCircle
 10
-30.75
 20
13.75
 30
0.0
 40
1.24999999999827
100
AcDbArc
 50
0.0
 51
180.0
  0
LINE
  5
11CD
330
762
100
AcDbEntity
  8
240
100
AcDbLine
 10
-35.5
 20
15.0
 30
0.0
 11
-32.0
 21
15.0
 31
0.0
  0
LINE
  5
11CE
330
762
100
AcDbEntity
  8
240
100
AcDbLine
 10
-32.0
 20
13.75
 30
0.0
 11
-32.0
 21
15.0
 31
0.0
  0
LINE
  5
11CF
330
762
100
AcDbEntity
  8
240
100
AcDbLine
 10
-29.5
 20
13.75
 30
0.0
 11
-29.5
 21
15.0
 31
0.0
  0
ARC
  5
11D0
330
762
100
AcDbEntity
  8
240
100
AcDbCircle
 10
-20.25
 20
13.75
 30
0.0
 40
1.249999999998089
100
AcDbArc
 50
0.0
 51
180.0
  0
LINE
  5
11D1
330
762
100
AcDbEntity
  8
240
100
AcDbLine
 10
-21.5
 20
13.75
 30
0.0
 11
-21.5
 21
15.0
 31
0.0
  0
LINE
  5
11D2
330
762
100
AcDbEntity
  8
240
100
AcDbLine
 10
-19.0
 20
13.75
 30
0.0
 11
-19.0
 21
15.0
 31
0.0
  0
LINE
  5
11D3
330
762
100
AcDbEntity
  8
241
100
AcDbLine
 10
-4.5
 20
18.25
 30
0.0
 11
-4.5
 21
0.0
 31
0.0
  0
LINE
  5
11D4
330
762
100
AcDbEntity
  8
241
100
AcDbLine
 10
-2.0
 20
18.25
 30
0.0
 11
-2.0
 21
0.0
 31
0.0
  0
LINE
  5
11D5
330
762
100
AcDbEntity
  8
241
100
AcDbLine
 10
0.0
 20
19.14125603
 30
0.0
 11
0.0
 21
0.0
 31
0.0
  0
LINE
  5
11D6
330
762
100
AcDbEntity
  8
241
  6
CONTINUOUS
100
AcDbLine
 10
-7.5
 20
19.00000001
 30
0.0
 11
-7.5
 21
0.0
 31
0.0
  0
LINE
  5
11D7
330
762
100
AcDbEntity
  8
241
100
AcDbLine
 10
-6.12626129
 20
19.5
 30
0.0
 11
-6.12626129
 21
0.0
 31
0.0
  0
LINE
  5
11D8
330
762
100
AcDbEntity
  8
241
100
AcDbLine
 10
1.20577137
 20
15.35874397
 30
0.0
 11
1.20577137
 21
0.0
 31
0.0
  0
ARC
  5
11D9
330
762
100
AcDbEntity
  8
240
100
AcDbCircle
 10
1.97309836
 20
16.0
 30
0.0
 40
1.0
100
AcDbArc
 50
194.99999998
 51
270.0
  0
LINE
  5
11DA
330
762
100
AcDbEntity
  8
240
100
AcDbLine
 10
-13.0
 20
15.5
 30
0.0
 11
-13.0
 21
14.7
 31
0.0
  0
LINE
  5
11DB
330
762
100
AcDbEntity
  8
241
100
AcDbLine
 10
-14.5
 20
15.0
 30
0.0
 11
-14.5
 21
0.0
 31
0.0
  0
LINE
  5
11DC
330
762
100
AcDbEntity
  8
240
100
AcDbLine
 10
-14.2
 20
14.7
 30
0.0
 11
-14.5
 21
15.0
 31
0.0
  0
LINE
  5
11DD
330
762
100
AcDbEntity
  8
240
100
AcDbLine
 10
-14.2
 20
14.7
 30
0.0
 11
-13.0
 21
14.7
 31
0.0
  0
LINE
  5
11DE
330
762
100
AcDbEntity
  8
240
100
AcDbLine
 10
-7.5
 20
19.00000001
 30
0.0
 11
-6.12626128
 21
19.5
 31
0.0
  0
LINE
  5
11DF
330
762
100
AcDbEntity
  8
241
  6
CONTINUOUS
100
AcDbLine
 10
-7.5
 20
15.2
 30
0.0
 11
-13.0
 21
15.2
 31
0.0
  0
LINE
  5
11E0
330
762
100
AcDbEntity
  8
240
100
AcDbLine
 10
-7.50000001
 20
19.0
 30
0.0
 11
-13.5
 21
19.0
 31
0.0
  0
LINE
  5
11E1
330
762
100
AcDbEntity
  8
240
100
AcDbLine
 10
-13.5
 20
19.0
 30
0.0
 11
-13.5
 21
16.0
 31
0.0
  0
LINE
  5
11E2
330
762
100
AcDbEntity
  8
240
100
AcDbLine
 10
-13.0
 20
15.5
 30
0.0
 11
-13.5
 21
16.0
 31
0.0
  0
ARC
  5
11E3
330
762
100
AcDbEntity
  8
240
100
AcDbCircle
 10
-3.25
 20
18.25
 30
0.0
 40
1.250000000000339
100
AcDbArc
 50
0.0
 51
180.0
  0
LINE
  5
11E4
330
762
100
AcDbEntity
  8
240
100
AcDbLine
 10
-4.5
 20
18.25
 30
0.0
 11
-4.5
 21
19.5
 31
0.0
  0
LINE
  5
11E5
330
762
100
AcDbEntity
  8
240
100
AcDbLine
 10
-4.5
 20
19.5
 30
0.0
 11
-6.12626129
 21
19.5
 31
0.0
  0
LINE
  5
11E6
330
762
100
AcDbEntity
  8
240
100
AcDbLine
 10
-0.50850794
 20
19.46592583
 30
0.0
 11
-0.63567449
 21
19.5
 31
0.0
  0
ARC
  5
11E7
330
762
100
AcDbEntity
  8
240
100
AcDbCircle
 10
-0.76732699
 20
18.5
 30
0.0
 40
1.0
100
AcDbArc
 50
15.0
 51
75.0
1001
GENIUS_GENOBJ-N-FIL_13
1002
{
1000
OWNER
1000
GEN
1002
}
1001
GENIUS_GENODEF_13
1002
{
1000
HIER
1070
     0
1002
}
1002
{
1000
MANEDIT
1070
     0
1002
}
1002
{
1000
NOSEL
1070
     0
1002
}
1002
{
1000
BEHIND
1070
     0
1002
}
1002
{
1000
OTHER
1070
     0
1002
}
1002
{
1000
REACTOR
1002
}
  0
LINE
  5
11E8
330
762
100
AcDbEntity
  8
240
100
AcDbLine
 10
-2.0
 20
18.25
 30
0.0
 11
-2.0
 21
19.5
 31
0.0
  0
LINE
  5
11E9
330
762
100
AcDbEntity
  8
240
100
AcDbLine
 10
-0.63567449
 20
19.5
 30
0.0
 11
-2.0
 21
19.5
 31
0.0
  0
LINE
  5
11EA
330
762
100
AcDbEntity
  8
240
100
AcDbLine
 10
0.19859884
 20
18.75881905
 30
0.0
 11
1.00717253
 21
15.74118096
 31
0.0
  0
TEXT
  5
11EB
330
762
100
AcDbEntity
  8
0
100
AcDbText
 10
48.08937247
 20
5.23022323
 30
0.0
 40
3.0
  1
MGT20-U5/8-150
  7
YOKO
100
AcDbText
  0
LINE
  5
11EC
330
762
100
AcDbEntity
  8
0
100
AcDbLine
 10
40.81927062
 20
4.7983782
 30
0.0
 11
41.18302792
 21
5.16213552
 31
0.0
  0
LINE
  5
11ED
330
762
100
AcDbEntity
  8
0
100
AcDbLine
 10
40.55668354
 20
5.34401418
 30
0.0
 11
41.15323086
 21
5.94056149
 31
0.0
  0
LINE
  5
11EE
330
762
100
AcDbEntity
  8
0
100
AcDbLine
 10
40.1750181
 20
5.36646025
 30
0.0
 11
41.31569254
 21
6.5071347
 31
0.0
  0
LINE
  5
11EF
330
762
100
AcDbEntity
  8
0
100
AcDbLine
 10
37.36665608
 20
4.7983782
 30
0.0
 11
44.75088308
 21
4.7983782
 31
0.0
  0
LINE
  5
11F0
330
762
100
AcDbEntity
  8
0
100
AcDbLine
 10
37.36665608
 20
5.16213552
 30
0.0
 11
44.75088308
 21
5.16213552
 31
0.0
  0
LINE
  5
11F1
330
762
100
AcDbEntity
  8
0
100
AcDbLine
 10
40.49994589
 20
6.4996111
 30
0.0
 11
41.6406159
 21
7.6402811
 31
0.0
  0
LINE
  5
11F2
330
762
100
AcDbEntity
  8
0
100
AcDbLine
 10
40.33748199
 20
5.93303568
 30
0.0
 11
41.47815422
 21
7.07370791
 31
0.0
  0
LINE
  5
11F3
330
762
100
AcDbEntity
  8
0
100
AcDbLine
 10
40.98217428
 20
5.34401418
 30
0.0
 11
41.92091481
 21
8.61780306
 31
0.0
  0
LINE
  5
11F4
330
762
100
AcDbEntity
  8
0
100
AcDbLine
 10
40.98217428
 20
5.34401418
 30
0.0
 11
41.92091481
 21
8.61780306
 31
0.0
1001
HATCH_DISTANCE
1040
1.0
1001
HATCH_DISPLAY
1070
     0
1001
HATCH_TYPE
1070
     7
  0
LINE
  5
11F5
330
762
100
AcDbEntity
  8
0
100
AcDbLine
 10
40.98217428
 20
5.34401418
 30
0.0
 11
41.92091481
 21
8.61780306
 31
0.0
  0
LINE
  5
11F6
330
762
100
AcDbEntity
  8
0
100
AcDbLine
 10
40.66240978
 20
7.06618651
 30
0.0
 11
41.80307757
 21
8.20685431
 31
0.0
  0
LINE
  5
11F7
330
762
100
AcDbEntity
  8
0
100
AcDbLine
 10
40.98733756
 20
8.19933736
 30
0.0
 11
41.40580327
 21
8.61780306
 31
0.0
  0
LINE
  5
11F8
330
762
100
AcDbEntity
  8
0
100
AcDbLine
 10
40.82487367
 20
7.63276194
 30
0.0
 11
41.8099148
 21
8.61780306
 31
0.0
  0
LINE
  5
11F9
330
762
100
AcDbEntity
  8
0
100
AcDbLine
 10
41.92091481
 20
8.61780306
 30
0.0
 11
40.9748821
 21
8.61780306
 31
0.0
  0
LINE
  5
11FA
330
762
100
AcDbEntity
  8
0
100
AcDbLine
 10
41.92091481
 20
8.61780306
 30
0.0
 11
40.9748821
 21
8.61780306
 31
0.0
1001
HATCH_DISTANCE
1040
1.0
1001
HATCH_DISPLAY
1070
     0
1001
HATCH_TYPE
1070
     7
  0
LINE
  5
11FB
330
762
100
AcDbEntity
  8
0
100
AcDbLine
 10
40.9748821
 20
8.61780306
 30
0.0
 11
41.92091481
 21
8.61780306
 31
0.0
  0
LINE
  5
11FC
330
762
100
AcDbEntity
  8
0
100
AcDbLine
 10
36.07182206
 20
5.30437948
 30
0.0
 11
36.32929592
 21
5.56185334
 31
0.0
  0
ARC
  5
11FD
330
762
100
AcDbEntity
  8
0
100
AcDbCircle
 10
37.36665608
 20
6.70809084
 30
0.0
 40
1.909712219238279
100
AcDbArc
 50
90.0
 51
270.0
  0
ARC
  5
11FE
330
762
100
AcDbEntity
  8
0
100
AcDbCircle
 10
37.36665608
 20
6.70809084
 30
0.0
 40
1.545954895019525
100
AcDbArc
 50
90.0
 51
270.0
  0
LINE
  5
11FF
330
762
100
AcDbEntity
  8
0
100
AcDbLine
 10
35.51393829
 20
7.17116486
 30
0.0
 11
36.90358206
 21
8.56080863
 31
0.0
  0
LINE
  5
1200
330
762
100
AcDbEntity
  8
0
100
AcDbLine
 10
35.58241137
 20
6.02730337
 30
0.0
 11
35.87121999
 21
6.31611198
 31
0.0
  0
LINE
  5
1201
330
762
100
AcDbEntity
  8
0
100
AcDbLine
 10
35.71267143
 20
5.7534519
 30
0.0
 11
35.98126263
 21
6.0220431
 31
0.0
  0
LINE
  5
1202
330
762
100
AcDbEntity
  8
0
100
AcDbLine
 10
35.87676123
 20
5.51343018
 30
0.0
 11
36.13589659
 21
5.77256554
 31
0.0
  0
LINE
  5
1203
330
762
100
AcDbEntity
  8
0
100
AcDbLine
 10
35.49246576
 20
6.34146928
 30
0.0
 11
35.82116635
 21
6.67016987
 31
0.0
  0
LINE
  5
1204
330
762
100
AcDbEntity
  8
0
100
AcDbLine
 10
35.45694488
 20
6.71005992
 30
0.0
 11
35.88038415
 21
7.13349919
 31
0.0
  0
LINE
  5
1205
330
762
100
AcDbEntity
  8
0
100
AcDbLine
 10
38.39460146
 20
4.7983782
 30
0.0
 11
38.75835878
 21
5.16213552
 31
0.0
  0
LINE
  5
1206
330
762
100
AcDbEntity
  8
0
100
AcDbLine
 10
38.79871299
 20
4.7983782
 30
0.0
 11
39.1624703
 21
5.16213552
 31
0.0
  0
LINE
  5
1207
330
762
100
AcDbEntity
  8
0
100
AcDbLine
 10
39.20282451
 20
4.7983782
 30
0.0
 11
39.56658183
 21
5.16213552
 31
0.0
  0
LINE
  5
1208
330
762
100
AcDbEntity
  8
0
100
AcDbLine
 10
39.60693603
 20
4.7983782
 30
0.0
 11
39.97069335
 21
5.16213552
 31
0.0
  0
LINE
  5
1209
330
762
100
AcDbEntity
  8
0
100
AcDbLine
 10
40.01104756
 20
4.7983782
 30
0.0
 11
40.37480488
 21
5.16213552
 31
0.0
  0
LINE
  5
120A
330
762
100
AcDbEntity
  8
0
100
AcDbLine
 10
40.41515908
 20
4.7983782
 30
0.0
 11
40.7789164
 21
5.16213552
 31
0.0
  0
LINE
  5
120B
330
762
100
AcDbEntity
  8
0
100
AcDbLine
 10
40.16858174
 20
5.34401418
 30
0.0
 11
40.98217428
 21
5.34401418
 31
0.0
  0
LINE
  5
120C
330
762
100
AcDbEntity
  8
0
100
AcDbLine
 10
40.16858174
 20
5.34401418
 30
0.0
 11
40.98217428
 21
5.34401418
 31
0.0
1001
HATCH_DISTANCE
1040
1.0
1001
HATCH_DISPLAY
1070
     0
1001
HATCH_TYPE
1070
     7
  0
LINE
  5
120D
330
762
100
AcDbEntity
  8
0
100
AcDbLine
 10
40.16858174
 20
5.34401418
 30
0.0
 11
40.98217428
 21
5.34401418
 31
0.0
  0
LINE
  5
120E
330
762
100
AcDbEntity
  8
0
100
AcDbLine
 10
38.94023744
 20
5.34401418
 30
0.0
 11
39.9686119
 21
6.37238863
 31
0.0
  0
LINE
  5
120F
330
762
100
AcDbEntity
  8
0
100
AcDbLine
 10
39.41253003
 20
5.41219524
 30
0.0
 11
39.90825022
 21
5.90791544
 31
0.0
  0
LINE
  5
1210
330
762
100
AcDbEntity
  8
0
100
AcDbLine
 10
40.96079506
 20
5.34401418
 30
0.0
 11
40.99076918
 21
5.3739883
 31
0.0
  0
LINE
  5
1211
330
762
100
AcDbEntity
  8
0
100
AcDbLine
 10
37.19041688
 20
4.80652819
 30
0.0
 11
37.5460242
 21
5.16213552
 31
0.0
  0
LINE
  5
1212
330
762
100
AcDbEntity
  8
0
100
AcDbLine
 10
37.58637841
 20
4.7983782
 30
0.0
 11
37.95013573
 21
5.16213552
 31
0.0
  0
LINE
  5
1213
330
762
100
AcDbEntity
  8
0
100
AcDbLine
 10
36.84950989
 20
4.86973272
 30
0.0
 11
37.15629244
 21
5.17651529
 31
0.0
  0
LINE
  5
1214
330
762
100
AcDbEntity
  8
0
100
AcDbLine
 10
36.29736358
 20
5.12580948
 30
0.0
 11
36.56051282
 21
5.38895872
 31
0.0
  0
LINE
  5
1215
330
762
100
AcDbEntity
  8
0
100
AcDbLine
 10
36.55507554
 20
4.9794099
 30
0.0
 11
36.83287569
 21
5.25721006
 31
0.0
  0
LINE
  5
1216
330
762
100
AcDbEntity
  8
0
100
AcDbLine
 10
37.99048994
 20
4.7983782
 30
0.0
 11
38.35424725
 21
5.16213552
 31
0.0
  0
LINE
  5
1217
330
762
100
AcDbEntity
  8
0
100
AcDbLine
 10
37.72790287
 20
5.34401418
 30
0.0
 11
38.76234175
 21
6.37845306
 31
0.0
  0
LINE
  5
1218
330
762
100
AcDbEntity
  8
0
100
AcDbLine
 10
37.55752981
 20
5.34401418
 30
0.0
 11
39.06705129
 21
5.34401418
 31
0.0
  0
LINE
  5
1219
330
762
100
AcDbEntity
  8
0
100
AcDbLine
 10
38.13201439
 20
5.34401418
 30
0.0
 11
38.59988738
 21
5.81188716
 31
0.0
  0
LINE
  5
121A
330
762
100
AcDbEntity
  8
0
100
AcDbLine
 10
40.99259755
 20
8.21768099
 30
0.0
 11
40.16858174
 21
5.34401418
 31
0.0
  0
LINE
  5
121B
330
762
100
AcDbEntity
  8
0
100
AcDbLine
 10
40.99259755
 20
8.21768099
 30
0.0
 11
40.16858174
 21
5.34401418
 31
0.0
1001
HATCH_DISTANCE
1040
1.0
1001
HATCH_DISPLAY
1070
     0
1001
HATCH_TYPE
1070
     7
  0
LINE
  5
121C
330
762
100
AcDbEntity
  8
0
100
AcDbLine
 10
40.16858174
 20
5.34401418
 30
0.0
 11
40.99259755
 21
8.21768099
 31
0.0
  0
LINE
  5
121D
330
762
100
AcDbEntity
  8
0
100
AcDbLine
 10
37.55752981
 20
5.34401418
 30
0.0
 11
38.39196889
 21
8.25404574
 31
0.0
  0
LINE
  5
121E
330
762
100
AcDbEntity
  8
0
100
AcDbLine
 10
37.6514984
 20
5.67172124
 30
0.0
 11
39.19059376
 21
7.21081661
 31
0.0
  0
LINE
  5
121F
330
762
100
AcDbEntity
  8
0
100
AcDbLine
 10
39.19428223
 20
6.40628202
 30
0.0
 11
40.38705783
 21
7.59905762
 31
0.0
  0
LINE
  5
1220
330
762
100
AcDbEntity
  8
0
100
AcDbLine
 10
38.53612591
 20
5.34401418
 30
0.0
 11
39.87083424
 21
6.67872251
 31
0.0
  0
ARC
  5
1221
330
762
100
AcDbEntity
  8
0
100
AcDbCircle
 10
38.66123006
 20
6.28977266
 30
0.0
 40
0.5456363618373872
100
AcDbArc
 50
261.66285421
 51
66.33819216
  0
LINE
  5
1222
330
762
100
AcDbEntity
  8
0
100
AcDbLine
 10
37.81396114
 20
6.23829551
 30
0.0
 11
39.0872682
 21
7.51160256
 31
0.0
  0
LINE
  5
1223
330
762
100
AcDbEntity
  8
0
100
AcDbLine
 10
38.88021415
 20
6.78953761
 30
0.0
 11
38.58211422
 21
5.74990256
 31
0.0
  0
ARC
  5
1224
330
762
100
AcDbEntity
  8
0
100
AcDbCircle
 10
39.06705129
 20
6.25339418
 30
0.0
 40
0.9093795776367187
100
AcDbArc
 50
270.0
 51
40.32984065
  0
LINE
  5
1225
330
762
100
AcDbEntity
  8
0
100
AcDbLine
 10
39.05321881
 20
6.66933012
 30
0.0
 11
40.35491665
 21
7.97102797
 31
0.0
  0
LINE
  5
1226
330
762
100
AcDbEntity
  8
0
100
AcDbLine
 10
39.61242122
 20
7.63264406
 30
0.0
 11
40.22113399
 21
8.24135683
 31
0.0
  0
ARC
  5
1227
330
762
100
AcDbEntity
  8
0
100
AcDbCircle
 10
39.0784496
 20
7.74478823
 30
0.0
 40
0.5456207513809207
100
AcDbArc
 50
261.66260169
 51
66.3381551
  0
LINE
  5
1228
330
762
100
AcDbEntity
  8
0
100
AcDbLine
 10
39.29742936
 20
8.24453803
 30
0.0
 11
38.99933432
 21
7.20493382
 31
0.0
  0
LINE
  5
1229
330
762
100
AcDbEntity
  8
0
100
AcDbLine
 10
39.56579786
 20
7.99013222
 30
0.0
 11
40.01937637
 21
8.44371073
 31
0.0
  0
LINE
  5
122A
330
762
100
AcDbEntity
  8
0
100
AcDbLine
 10
38.3070583
 20
8.61780306
 30
0.0
 11
39.48052256
 21
8.61780306
 31
0.0
  0
LINE
  5
122B
330
762
100
AcDbEntity
  8
0
100
AcDbLine
 10
38.30134939
 20
7.93801832
 30
0.0
 11
38.98113411
 21
8.61780306
 31
0.0
  0
LINE
  5
122C
330
762
100
AcDbEntity
  8
0
100
AcDbLine
 10
39.37459792
 20
8.20304381
 30
0.0
 11
39.7497509
 21
8.57819678
 31
0.0
  0
ARC
  5
122D
330
762
100
AcDbEntity
  8
0
100
AcDbCircle
 10
39.48427083
 20
7.70842348
 30
0.0
 40
0.9093873023986816
100
AcDbArc
 50
287.66957755
 51
90.23615984
  0
LINE
  5
122E
330
762
100
AcDbEntity
  8
0
100
AcDbLine
 10
40.96410328
 20
8.5802146
 30
0.0
 11
41.00169175
 21
8.61780306
 31
0.0
  0
LINE
  5
122F
330
762
100
AcDbEntity
  8
0
100
AcDbLine
 10
40.86014364
 20
8.21768099
 30
0.0
 11
40.99259755
 21
8.21768099
 31
0.0
  0
LINE
  5
1230
330
762
100
AcDbEntity
  8
0
100
AcDbLine
 10
40.9748821
 20
8.61780306
 30
0.0
 11
40.86014364
 21
8.21768099
 31
0.0
  0
LINE
  5
1231
330
762
100
AcDbEntity
  8
0
100
AcDbLine
 10
40.86014364
 20
8.21768099
 30
0.0
 11
40.99259755
 21
8.21768099
 31
0.0
1001
HATCH_DISTANCE
1040
1.0
1001
HATCH_DISPLAY
1070
     0
1001
HATCH_TYPE
1070
     7
  0
LINE
  5
1232
330
762
100
AcDbEntity
  8
0
100
AcDbLine
 10
40.9748821
 20
8.61780306
 30
0.0
 11
40.86014364
 21
8.21768099
 31
0.0
1001
HATCH_DISTANCE
1040
1.0
1001
HATCH_DISPLAY
1070
     0
1001
HATCH_TYPE
1070
     7
  0
LINE
  5
1233
330
762
100
AcDbEntity
  8
0
100
AcDbLine
 10
40.86014364
 20
8.21768099
 30
0.0
 11
40.9748821
 21
8.61780306
 31
0.0
  0
LINE
  5
1234
330
762
100
AcDbEntity
  8
0
100
AcDbLine
 10
40.86014364
 20
8.21768099
 30
0.0
 11
40.99259755
 21
8.21768099
 31
0.0
  0
LINE
  5
1235
330
762
100
AcDbEntity
  8
0
100
AcDbLine
 10
37.36665608
 20
8.61780306
 30
0.0
 11
38.11786
 21
8.61780306
 31
0.0
  0
LINE
  5
1236
330
762
100
AcDbEntity
  8
0
100
AcDbLine
 10
37.36665608
 20
8.25404574
 30
0.0
 11
38.01355855
 21
8.25404574
 31
0.0
  0
LINE
  5
1237
330
762
100
AcDbEntity
  8
0
100
AcDbLine
 10
37.80915374
 20
8.25404574
 30
0.0
 11
38.09572944
 21
8.54062142
 31
0.0
  0
LINE
  5
1238
330
762
100
AcDbEntity
  8
0
100
AcDbLine
 10
36.94124773
 20
8.19436278
 30
0.0
 11
37.364687
 21
8.61780204
 31
0.0
  0
LINE
  5
1239
330
762
100
AcDbEntity
  8
0
100
AcDbLine
 10
37.40504222
 20
8.25404574
 30
0.0
 11
37.76879954
 21
8.61780306
 31
0.0
  0
LINE
  5
123A
330
762
100
AcDbEntity
  8
0
100
AcDbLine
 10
38.11786
 20
8.61780306
 30
0.0
 11
38.01355855
 21
8.25404574
 31
0.0
  0
LINE
  5
123B
330
762
100
AcDbEntity
  8
0
100
AcDbLine
 10
37.97642389
 20
6.80486978
 30
0.0
 11
39.24972558
 21
8.07817147
 31
0.0
  0
LINE
  5
123C
330
762
100
AcDbEntity
  8
0
100
AcDbLine
 10
38.13888664
 20
7.37144406
 30
0.0
 11
39.38524564
 21
8.61780306
 31
0.0
  0
LINE
  5
123D
330
762
100
AcDbEntity
  8
0
100
AcDbLine
 10
38.21326527
 20
8.25404574
 30
0.0
 11
38.57702259
 21
8.61780306
 31
0.0
  0
LINE
  5
123E
330
762
100
AcDbEntity
  8
0
100
AcDbLine
 10
38.3070583
 20
8.61780306
 30
0.0
 11
38.20275686
 21
8.25404574
 31
0.0
  0
LINE
  5
123F
330
762
100
AcDbEntity
  8
0
100
AcDbLine
 10
38.20275686
 20
8.25404574
 30
0.0
 11
38.39196889
 21
8.25404574
 31
0.0
  0
ARC
  5
1240
330
762
100
AcDbEntity
  8
0
100
AcDbCircle
 10
44.75088308
 20
6.70809084
 30
0.0
 40
1.909712219238279
100
AcDbArc
 50
270.0
 51
104.77079397
  0
ARC
  5
1241
330
762
100
AcDbEntity
  8
0
100
AcDbCircle
 10
44.75088308
 20
6.70809084
 30
0.0
 40
1.545954895019525
100
AcDbArc
 50
270.0
 51
104.1274365
  0
LINE
  5
1242
330
762
100
AcDbEntity
  8
0
100
AcDbLine
 10
45.62234898
 20
7.98501046
 30
0.0
 11
45.88322258
 21
8.24588406
 31
0.0
  0
LINE
  5
1243
330
762
100
AcDbEntity
  8
0
100
AcDbLine
 10
45.3664157
 20
4.9002965
 30
0.0
 11
46.5586774
 21
6.09255821
 31
0.0
  0
LINE
  5
1244
330
762
100
AcDbEntity
  8
0
100
AcDbLine
 10
43.64805129
 20
4.7983782
 30
0.0
 11
44.01180861
 21
5.16213552
 31
0.0
  0
LINE
  5
1245
330
762
100
AcDbEntity
  8
0
100
AcDbLine
 10
42.98686892
 20
5.34953041
 30
0.0
 11
44.07796342
 21
6.44062492
 31
0.0
  0
LINE
  5
1246
330
762
100
AcDbEntity
  8
0
100
AcDbLine
 10
43.57448318
 20
5.53303314
 30
0.0
 11
43.91550018
 21
5.87405014
 31
0.0
  0
LINE
  5
1247
330
762
100
AcDbEntity
  8
0
100
AcDbLine
 10
43.55013235
 20
5.5573824
 30
0.0
 11
43.7635143
 21
5.34401418
 31
0.0
  0
LINE
  5
1248
330
762
100
AcDbEntity
  8
0
100
AcDbLine
 10
41.88993426
 20
5.86904184
 30
0.0
 11
42.55256714
 21
6.53167472
 31
0.0
  0
LINE
  5
1249
330
762
100
AcDbEntity
  8
0
100
AcDbLine
 10
42.0769119
 20
5.65190796
 30
0.0
 11
42.46215798
 21
6.03715404
 31
0.0
  0
LINE
  5
124A
330
762
100
AcDbEntity
  8
0
100
AcDbLine
 10
42.31363794
 20
5.48452248
 30
0.0
 11
42.63126195
 21
5.80214648
 31
0.0
  0
LINE
  5
124B
330
762
100
AcDbEntity
  8
0
100
AcDbLine
 10
42.60737664
 20
5.37414965
 30
0.0
 11
43.03443369
 21
5.80120669
 31
0.0
  0
ARC
  5
124C
330
762
100
AcDbEntity
  8
0
100
AcDbCircle
 10
42.83360402
 20
6.12609011
 30
0.0
 40
0.3819447398185731
100
AcDbArc
 50
164.00027306
 51
344.00027306
  0
LINE
  5
124D
330
762
100
AcDbEntity
  8
0
100
AcDbLine
 10
44.05216281
 20
4.7983782
 30
0.0
 11
44.41592013
 21
5.16213552
 31
0.0
  0
LINE
  5
124E
330
762
100
AcDbEntity
  8
0
100
AcDbLine
 10
43.34179456
 20
6.5126791
 30
0.0
 11
44.02828144
 21
7.19916598
 31
0.0
  0
LINE
  5
124F
330
762
100
AcDbEntity
  8
0
100
AcDbLine
 10
43.15848744
 20
5.92526044
 30
0.0
 11
44.24042667
 21
7.00719968
 31
0.0
  0
LINE
  5
1250
330
762
100
AcDbEntity
  8
0
100
AcDbLine
 10
41.6914029
 20
6.47873353
 30
0.0
 11
42.87749474
 21
7.66482538
 31
0.0
  0
LINE
  5
1251
330
762
100
AcDbEntity
  8
0
100
AcDbLine
 10
41.755691
 20
6.13891012
 30
0.0
 11
42.71503094
 21
7.09825006
 31
0.0
  0
LINE
  5
1252
330
762
100
AcDbEntity
  8
0
100
AcDbLine
 10
42.46645467
 20
6.2313666
 30
0.0
 11
42.9566921
 21
7.94101778
 31
0.0
  0
LINE
  5
1253
330
762
100
AcDbEntity
  8
0
100
AcDbLine
 10
43.20075338
 20
6.02081362
 30
0.0
 11
43.43433644
 21
6.83540864
 31
0.0
  0
ARC
  5
1254
330
762
100
AcDbEntity
  8
0
100
AcDbCircle
 10
42.87266042
 20
6.52621218
 30
0.0
 40
1.182211303710936
100
AcDbArc
 50
163.9997507
 51
304.96387329
  0
LINE
  5
1255
330
762
100
AcDbEntity
  8
0
100
AcDbLine
 10
43.7635143
 20
5.34401418
 30
0.0
 11
44.2954723
 21
7.19916598
 31
0.0
  0
LINE
  5
1256
330
762
100
AcDbEntity
  8
0
100
AcDbLine
 10
44.67729739
 20
8.25229344
 30
0.0
 11
45.02328012
 21
8.59827618
 31
0.0
  0
LINE
  5
1257
330
762
100
AcDbEntity
  8
0
100
AcDbLine
 10
45.05329462
 20
8.22417916
 30
0.0
 11
45.35038111
 21
8.52126564
 31
0.0
  0
LINE
  5
1258
330
762
100
AcDbEntity
  8
0
100
AcDbLine
 10
45.36155074
 20
8.12832376
 30
0.0
 11
45.63437504
 21
8.40114805
 31
0.0
  0
LINE
  5
1259
330
762
100
AcDbEntity
  8
0
100
AcDbLine
 10
44.37354391
 20
8.20729891
 30
0.0
 11
44.37354391
 21
8.20729891
 31
0.0
  0
LINE
  5
125A
330
762
100
AcDbEntity
  8
0
100
AcDbLine
 10
44.26399648
 20
8.55470034
 30
0.0
 11
44.37354391
 21
8.20729891
 31
0.0
  0
LINE
  5
125B
330
762
100
AcDbEntity
  8
0
100
AcDbLine
 10
44.26399648
 20
8.55470034
 30
0.0
 11
44.26399648
 21
8.55470034
 31
0.0
  0
LINE
  5
125C
330
762
100
AcDbEntity
  8
0
100
AcDbLine
 10
44.37354391
 20
8.20729891
 30
0.0
 11
44.26399648
 21
8.55470034
 31
0.0
  0
LINE
  5
125D
330
762
100
AcDbEntity
  8
0
100
AcDbLine
 10
44.37354391
 20
8.20729891
 30
0.0
 11
44.37354391
 21
8.20729891
 31
0.0
1001
HATCH_DISTANCE
1040
1.0
1001
HATCH_DISPLAY
1070
     0
1001
HATCH_TYPE
1070
     7
  0
LINE
  5
125E
330
762
100
AcDbEntity
  8
0
100
AcDbLine
 10
44.26399648
 20
8.55470034
 30
0.0
 11
44.37354391
 21
8.20729891
 31
0.0
1001
HATCH_DISTANCE
1040
1.0
1001
HATCH_DISPLAY
1070
     0
1001
HATCH_TYPE
1070
     7
  0
LINE
  5
125F
330
762
100
AcDbEntity
  8
0
100
AcDbLine
 10
44.26399648
 20
8.55470034
 30
0.0
 11
44.26399648
 21
8.55470034
 31
0.0
1001
HATCH_DISTANCE
1040
1.0
1001
HATCH_DISPLAY
1070
     0
1001
HATCH_TYPE
1070
     7
  0
LINE
  5
1260
330
762
100
AcDbEntity
  8
0
100
AcDbLine
 10
44.37354391
 20
8.20729891
 30
0.0
 11
44.26399648
 21
8.55470034
 31
0.0
1001
HATCH_DISTANCE
1040
1.0
1001
HATCH_DISPLAY
1070
     0
1001
HATCH_TYPE
1070
     7
  0
LINE
  5
1261
330
762
100
AcDbEntity
  8
0
100
AcDbLine
 10
44.37354391
 20
8.20729891
 30
0.0
 11
44.37354391
 21
8.20729891
 31
0.0
  0
LINE
  5
1262
330
762
100
AcDbEntity
  8
0
100
AcDbLine
 10
44.26399648
 20
8.55470034
 30
0.0
 11
44.37354391
 21
8.20729891
 31
0.0
  0
LINE
  5
1263
330
762
100
AcDbEntity
  8
0
100
AcDbLine
 10
44.26399648
 20
8.55470034
 30
0.0
 11
44.26399648
 21
8.55470034
 31
0.0
  0
LINE
  5
1264
330
762
100
AcDbEntity
  8
0
100
AcDbLine
 10
44.37354391
 20
8.20729891
 30
0.0
 11
44.26399648
 21
8.55470034
 31
0.0
  0
LINE
  5
1265
330
762
100
AcDbEntity
  8
0
100
AcDbLine
 10
44.37354391
 20
8.20729891
 30
0.0
 11
44.37354391
 21
8.20729891
 31
0.0
1001
HATCH_DISTANCE
1040
1.0
1001
HATCH_DISPLAY
1070
     0
1001
HATCH_TYPE
1070
     7
  0
LINE
  5
1266
330
762
100
AcDbEntity
  8
0
100
AcDbLine
 10
44.26399648
 20
8.55470034
 30
0.0
 11
44.37354391
 21
8.20729891
 31
0.0
1001
HATCH_DISTANCE
1040
1.0
1001
HATCH_DISPLAY
1070
     0
1001
HATCH_TYPE
1070
     7
  0
LINE
  5
1267
330
762
100
AcDbEntity
  8
0
100
AcDbLine
 10
44.26399648
 20
8.55470034
 30
0.0
 11
44.26399648
 21
8.55470034
 31
0.0
1001
HATCH_DISTANCE
1040
1.0
1001
HATCH_DISPLAY
1070
     0
1001
HATCH_TYPE
1070
     7
  0
LINE
  5
1268
330
762
100
AcDbEntity
  8
0
100
AcDbLine
 10
44.37354391
 20
8.20729891
 30
0.0
 11
44.26399648
 21
8.55470034
 31
0.0
1001
HATCH_DISTANCE
1040
1.0
1001
HATCH_DISPLAY
1070
     0
1001
HATCH_TYPE
1070
     7
  0
LINE
  5
1269
330
762
100
AcDbEntity
  8
0
100
AcDbLine
 10
44.15583602
 20
8.1349436
 30
0.0
 11
44.19370882
 21
8.17281641
 31
0.0
  0
LINE
  5
126A
330
762
100
AcDbEntity
  8
0
100
AcDbLine
 10
44.20008351
 20
8.15260073
 30
0.0
 11
44.09053609
 21
8.50000216
 31
0.0
  0
LINE
  5
126B
330
762
100
AcDbEntity
  8
0
100
AcDbLine
 10
44.37354391
 20
8.20729891
 30
0.0
 11
44.26399648
 21
8.55470034
 31
0.0
  0
LINE
  5
126C
330
762
100
AcDbEntity
  8
0
100
AcDbLine
 10
44.33869755
 20
8.31780514
 30
0.0
 11
44.63518768
 21
8.61429527
 31
0.0
  0
LINE
  5
126D
330
762
100
AcDbEntity
  8
0
100
AcDbLine
 10
43.41844131
 20
8.20577195
 30
0.0
 11
43.69082032
 21
8.47815096
 31
0.0
  0
LINE
  5
126E
330
762
100
AcDbEntity
  8
0
100
AcDbLine
 10
43.26041259
 20
6.83540864
 30
0.0
 11
43.62416991
 21
7.19916598
 31
0.0
  0
ARC
  5
126F
330
762
100
AcDbEntity
  8
0
100
AcDbCircle
 10
43.13342091
 20
7.43560549
 30
0.0
 40
1.182199287414549
100
AcDbArc
 50
53.4440122
 51
164.00018439
  0
ARC
  5
1270
330
762
100
AcDbEntity
  8
0
100
AcDbCircle
 10
43.32384145
 20
7.83572755
 30
0.0
 40
0.3819450080394744
100
AcDbArc
 50
1.71012138
 51
163.99839835
  0
LINE
  5
1271
330
762
100
AcDbEntity
  8
0
100
AcDbLine
 10
41.88282553
 20
7.47837922
 30
0.0
 11
43.01645011
 21
8.6120038
 31
0.0
  0
LINE
  5
1272
330
762
100
AcDbEntity
  8
0
100
AcDbLine
 10
41.7486634
 20
6.94010556
 30
0.0
 11
43.39667828
 21
8.58812044
 31
0.0
  0
ARC
  5
1273
330
762
100
AcDbEntity
  8
0
100
AcDbCircle
 10
44.80551259
 20
6.46405703
 30
0.0
 40
3.093695068359374
100
AcDbArc
 50
155.20517737
 51
172.79482596
  0
LINE
  5
1274
330
762
100
AcDbEntity
  8
0
100
AcDbLine
 10
43.13160817
 20
6.83540864
 30
0.0
 11
43.23590962
 21
7.19916598
 31
0.0
  0
LINE
  5
1275
330
762
100
AcDbEntity
  8
0
100
AcDbLine
 10
43.13160817
 20
6.83540864
 30
0.0
 11
43.43433644
 21
6.83540864
 31
0.0
  0
LINE
  5
1276
330
762
100
AcDbEntity
  8
0
100
AcDbLine
 10
43.23590962
 20
7.19916598
 30
0.0
 11
44.2954723
 21
7.19916598
 31
0.0
  0
LINE
  5
1277
330
762
100
AcDbEntity
  8
0
100
AcDbLine
 10
43.65047667
 20
8.03369579
 30
0.0
 11
44.09682844
 21
8.48004756
 31
0.0
  0
ARC
  5
1278
330
762
100
AcDbEntity
  8
0
100
AcDbCircle
 10
44.75088308
 20
6.70809084
 30
0.0
 40
1.545959186553949
100
AcDbArc
 50
110.8721834
 51
132.54194894
  0
ARC
  5
1279
330
762
100
AcDbEntity
  8
0
100
AcDbCircle
 10
44.75088308
 20
6.70809084
 30
0.0
 40
1.909713077545161
100
AcDbArc
 50
110.22964506
 51
118.57168892
  0
LINE
  5
127A
330
762
100
AcDbEntity
  8
0
100
AcDbLine
 10
44.45627434
 20
4.7983782
 30
0.0
 11
44.82165276
 21
5.16375661
 31
0.0
  0
LINE
  5
127B
330
762
100
AcDbEntity
  8
0
100
AcDbLine
 10
44.86372291
 20
4.80171523
 30
0.0
 11
45.34134818
 21
5.27934052
 31
0.0
  0
LINE
  5
127C
330
762
100
AcDbEntity
  8
0
100
AcDbLine
 10
41.22338214
 20
4.7983782
 30
0.0
 11
41.58713946
 21
5.16213552
 31
0.0
  0
LINE
  5
127D
330
762
100
AcDbEntity
  8
0
100
AcDbLine
 10
41.62749367
 20
4.7983782
 30
0.0
 11
41.99125098
 21
5.16213552
 31
0.0
  0
LINE
  5
127E
330
762
100
AcDbEntity
  8
0
100
AcDbLine
 10
42.03160519
 20
4.7983782
 30
0.0
 11
42.39536251
 21
5.16213552
 31
0.0
  0
LINE
  5
127F
330
762
100
AcDbEntity
  8
0
100
AcDbLine
 10
42.43571672
 20
4.7983782
 30
0.0
 11
42.79947403
 21
5.16213552
 31
0.0
  0
LINE
  5
1280
330
762
100
AcDbEntity
  8
0
100
AcDbLine
 10
42.83982824
 20
4.7983782
 30
0.0
 11
43.20358556
 21
5.16213552
 31
0.0
  0
LINE
  5
1281
330
762
100
AcDbEntity
  8
0
100
AcDbLine
 10
43.24393977
 20
4.7983782
 30
0.0
 11
43.60769708
 21
5.16213552
 31
0.0
  0
LINE
  5
1282
330
762
100
AcDbEntity
  8
0
100
AcDbLine
 10
46.1796334
 20
6.11762573
 30
0.0
 11
46.65725868
 21
6.59525101
 31
0.0
  0
LINE
  5
1283
330
762
100
AcDbEntity
  8
0
100
AcDbLine
 10
46.26652356
 20
7.01273894
 30
0.0
 11
46.56338992
 21
7.30960531
 31
0.0
  0
LINE
  5
1284
330
762
100
AcDbEntity
  8
0
100
AcDbLine
 10
46.2952173
 20
6.63732115
 30
0.0
 11
46.64072899
 21
6.98283284
 31
0.0
  0
LINE
  5
1285
330
762
100
AcDbEntity
  8
0
100
AcDbLine
 10
45.84336696
 20
7.80191692
 30
0.0
 11
46.10058228
 21
8.05913222
 31
0.0
  0
LINE
  5
1286
330
762
100
AcDbEntity
  8
0
100
AcDbLine
 10
46.02671294
 20
7.58115137
 30
0.0
 11
46.28753722
 21
7.84197566
 31
0.0
  0
LINE
  5
1287
330
762
100
AcDbEntity
  8
0
100
AcDbLine
 10
46.1703078
 20
7.3206347
 30
0.0
 11
46.44301904
 21
7.59334595
 31
0.0
  0
LINE
  5
1288
330
762
100
AcDbEntity
  8
241
100
AcDbLine
 10
125.0
 20
-11.7
 30
0.0
 11
125.0
 21
0.0
 31
0.0
  0
LINE
  5
1289
330
762
100
AcDbEntity
  8
240
100
AcDbLine
 10
150.0
 20
-14.0
 30
0.0
 11
150.0
 21
0.0
 31
0.0
  0
LINE
  5
128A
330
762
100
AcDbEntity
  8
241
100
AcDbLine
 10
129.2
 20
-15.0
 30
0.0
 11
129.2
 21
0.0
 31
0.0
  0
LINE
  5
128B
330
762
100
AcDbEntity
  8
241
100
AcDbLine
 10
128.0
 20
-15.15
 30
0.0
 11
128.0
 21
0.0
 31
0.0
  0
LINE
  5
128C
330
762
100
AcDbEntity
  8
241
100
AcDbLine
 10
126.0
 20
-11.7
 30
0.0
 11
126.0
 21
0.0
 31
0.0
  0
LINE
  5
128D
330
762
100
AcDbEntity
  8
240
100
AcDbLine
 10
128.25980762
 20
-15.0
 30
0.0
 11
149.0
 21
-15.0
 31
0.0
  0
LINE
  5
128E
330
762
100
AcDbEntity
  8
240
100
AcDbLine
 10
126.0
 20
-15.15
 30
0.0
 11
128.0
 21
-15.15
 31
0.0
  0
LINE
  5
128F
330
762
100
AcDbEntity
  8
240
100
AcDbLine
 10
126.0
 20
-11.7
 30
0.0
 11
126.0
 21
-15.15
 31
0.0
  0
LINE
  5
1290
330
762
100
AcDbEntity
  8
240
100
AcDbLine
 10
125.0
 20
-11.7
 30
0.0
 11
125.0
 21
-15.0
 31
0.0
  0
LINE
  5
1291
330
762
100
AcDbEntity
  8
240
100
AcDbLine
 10
126.0
 20
-11.7
 30
0.0
 11
125.0
 21
-11.7
 31
0.0
  0
LINE
  5
1292
330
762
100
AcDbEntity
  8
240
100
AcDbLine
 10
128.25980762
 20
-15.0
 30
0.0
 11
128.0
 21
-15.15
 31
0.0
  0
ARC
  5
1293
330
762
100
AcDbEntity
  8
240
100
AcDbCircle
 10
149.0
 20
-14.0
 30
0.0
 40
1.0
100
AcDbArc
 50
270.0
 51
0.0
1001
GENIUS_GENOBJ-N-FIL_13
1002
{
1000
OWNER
1000
GEN
1002
}
1001
GENIUS_GENODEF_13
1002
{
1000
HIER
1070
     0
1002
}
1002
{
1000
MANEDIT
1070
     0
1002
}
1002
{
1000
NOSEL
1070
     0
1002
}
1002
{
1000
BEHIND
1070
     0
1002
}
1002
{
1000
OTHER
1070
     0
1002
}
1002
{
1000
REACTOR
1002
}
  0
LINE
  5
1294
330
762
100
AcDbEntity
  8
240
100
AcDbLine
 10
128.25980762
 20
15.0
 30
0.0
 11
149.0
 21
15.0
 31
0.0
  0
LINE
  5
1295
330
762
100
AcDbEntity
  8
241
  6
HIDDEN2
100
AcDbLine
 10
133.0
 20
6.0
 30
0.0
 11
150.0
 21
6.0
 31
0.0
  0
LINE
  5
1296
330
762
100
AcDbEntity
  8
241
100
AcDbLine
 10
128.0
 20
15.15
 30
0.0
 11
128.0
 21
0.0
 31
0.0
  0
LINE
  5
1297
330
762
100
AcDbEntity
  8
240
100
AcDbLine
 10
128.25980762
 20
15.0
 30
0.0
 11
128.0
 21
15.15
 31
0.0
  0
LINE
  5
1298
330
762
100
AcDbEntity
  8
240
100
AcDbLine
 10
126.0
 20
11.7
 30
0.0
 11
126.0
 21
15.15
 31
0.0
  0
LINE
  5
1299
330
762
100
AcDbEntity
  8
241
100
AcDbLine
 10
126.0
 20
11.7
 30
0.0
 11
126.0
 21
0.0
 31
0.0
  0
LINE
  5
129A
330
762
100
AcDbEntity
  8
241
100
AcDbLine
 10
129.2
 20
15.0
 30
0.0
 11
129.2
 21
0.0
 31
0.0
  0
LINE
  5
129B
330
762
100
AcDbEntity
  8
241
100
AcDbLine
 10
125.0
 20
11.7
 30
0.0
 11
125.0
 21
0.0
 31
0.0
  0
LINE
  5
129C
330
762
100
AcDbEntity
  8
241
  6
HIDDEN2
100
AcDbLine
 10
120.0
 20
6.43467171
 30
0.0
 11
120.0
 21
0.0
 31
0.0
  0
LINE
  5
129D
330
762
100
AcDbEntity
  8
242
  6
HIDDEN2
100
AcDbLine
 10
120.0
 20
6.43467171
 30
0.0
 11
128.0
 21
0.0
 31
0.0
  0
LINE
  5
129E
330
762
100
AcDbEntity
  8
242
  6
HIDDEN2
100
AcDbLine
 10
128.0
 20
6.43467171
 30
0.0
 11
120.0
 21
0.0
 31
0.0
  0
LINE
  5
129F
330
762
100
AcDbEntity
  8
241
  6
HIDDEN2
100
AcDbLine
 10
128.0
 20
6.75
 30
0.0
 11
128.0
 21
0.0
 31
0.0
  0
LINE
  5
12A0
330
762
100
AcDbEntity
  8
241
  6
HIDDEN2
100
AcDbLine
 10
133.0
 20
6.75
 30
0.0
 11
133.0
 21
0.0
 31
0.0
  0
LINE
  5
12A1
330
762
100
AcDbEntity
  8
241
  6
HIDDEN2
100
AcDbLine
 10
120.0
 20
6.43467171
 30
0.0
 11
128.0
 21
6.43467171
 31
0.0
  0
LINE
  5
12A2
330
762
100
AcDbEntity
  8
240
100
AcDbLine
 10
125.0
 20
11.7
 30
0.0
 11
125.0
 21
15.0
 31
0.0
  0
LINE
  5
12A3
330
762
100
AcDbEntity
  8
240
100
AcDbLine
 10
126.0
 20
11.7
 30
0.0
 11
125.0
 21
11.7
 31
0.0
  0
LINE
  5
12A4
330
762
100
AcDbEntity
  8
241
  6
HIDDEN2
100
AcDbLine
 10
128.0
 20
6.75
 30
0.0
 11
133.0
 21
6.75
 31
0.0
  0
LINE
  5
12A5
330
762
100
AcDbEntity
  8
240
100
AcDbLine
 10
126.0
 20
15.15
 30
0.0
 11
128.0
 21
15.15
 31
0.0
  0
ARC
  5
12A6
330
762
100
AcDbEntity
  8
240
100
AcDbCircle
 10
149.0
 20
14.0
 30
0.0
 40
1.0
100
AcDbArc
 50
0.0
 51
90.0
1001
GENIUS_GENOBJ-N-FIL_13
1002
{
1000
OWNER
1000
GEN
1002
}
1001
GENIUS_GENODEF_13
1002
{
1000
HIER
1070
     0
1002
}
1002
{
1000
MANEDIT
1070
     0
1002
}
1002
{
1000
NOSEL
1070
     0
1002
}
1002
{
1000
BEHIND
1070
     0
1002
}
1002
{
1000
OTHER
1070
     0
1002
}
1002
{
1000
REACTOR
1002
}
  0
LINE
  5
12A7
330
762
100
AcDbEntity
  8
240
100
AcDbLine
 10
150.0
 20
14.0
 30
0.0
 11
150.0
 21
0.0
 31
0.0
  0
ENDBLK
  5
89F
330
762
100
AcDbEntity
  8
0
100
AcDbBlockEnd
  0
BLOCK
  5
C23
330
C19
100
AcDbEntity
  8
0
100
AcDbBlockBegin
  2
*D3
 70
     1
 10
0.0
 20
0.0
 30
0.0
  3
*D3
  1

  0
LINE
  5
C68
330
C19
100
AcDbEntity
  8
250
  6
CONTINUOUS
100
AcDbLine
 10
0.0
 20
19.64125603
 30
0.0
 11
0.0
 21
36.0
 31
0.0
  0
LINE
  5
C69
330
C19
100
AcDbEntity
  8
250
  6
CONTINUOUS
100
AcDbLine
 10
150.0
 20
14.5
 30
0.0
 11
150.0
 21
36.0
 31
0.0
  0
LINE
  5
C6A
330
C19
100
AcDbEntity
  8
250
  6
CONTINUOUS
100
AcDbLine
 10
2.23
 20
35.0
 30
0.0
 11
147.77
 21
35.0
 31
0.0
  0
INSERT
  5
C6B
330
C19
100
AcDbEntity
  8
250
  6
CONTINUOUS
100
AcDbBlockReference
  2
_OPEN
 10
0.0
 20
35.0
 30
0.0
 41
2.23
 42
2.23
 43
2.23
 50
180.0
  0
INSERT
  5
C6C
330
C19
100
AcDbEntity
  8
250
  6
CONTINUOUS
100
AcDbBlockReference
  2
_OPEN
 10
150.0
 20
35.0
 30
0.0
 41
2.23
 42
2.23
 43
2.23
  0
MTEXT
  5
C6D
330
C19
100
AcDbEntity
  8
250
  6
CONTINUOUS
 62
    40
100
AcDbMText
 10
75.0
 20
37.4
 30
0.0
 40
2.8
 41
0.0
 71
     5
 72
     1
  1
\A1;150
1001
ACAD
1000
MTEXTBEGIN
1070
    73
1070
     1
1070
    44
1040
1.0
1070
    74
1070
     0
1000
MTEXTEND
1000
MTEXTBEGIN
1070
    73
1070
     1
1070
    44
1040
1.0
1070
    74
1070
     0
1000
MTEXTEND
  0
POINT
  5
C6E
330
C19
100
AcDbEntity
  8
DEFPOINTS
  6
CONTINUOUS
 62
     0
100
AcDbPoint
 10
0.0
 20
19.14125603
 30
0.0
  0
POINT
  5
C6F
330
C19
100
AcDbEntity
  8
DEFPOINTS
  6
CONTINUOUS
 62
     0
100
AcDbPoint
 10
150.0
 20
14.0
 30
0.0
  0
POINT
  5
C70
330
C19
100
AcDbEntity
  8
DEFPOINTS
  6
CONTINUOUS
 62
     0
100
AcDbPoint
 10
150.0
 20
35.0
 30
0.0
  0
ENDBLK
  5
C24
330
C19
100
AcDbEntity
  8
0
100
AcDbBlockEnd
  0
BLOCK
  5
C2E
330
C25
100
AcDbEntity
  8
0
100
AcDbBlockBegin
  2
*D4
 70
     1
 10
0.0
 20
0.0
 30
0.0
  3
*D4
  1

  0
LINE
  5
E14
330
C25
100
AcDbEntity
  8
250
  6
CONTINUOUS
100
AcDbLine
 10
150.5
 20
6.0
 30
0.0
 11
162.5
 21
6.0
 31
0.0
  0
LINE
  5
E15
330
C25
100
AcDbEntity
  8
250
  6
CONTINUOUS
100
AcDbLine
 10
161.5
 20
-3.77
 30
0.0
 11
161.5
 21
3.77
 31
0.0
  0
INSERT
  5
E16
330
C25
100
AcDbEntity
  8
250
  6
CONTINUOUS
100
AcDbBlockReference
  2
矢印なし
 10
161.5
 20
-6.0
 30
0.0
 41
2.23
 42
2.23
 43
2.23
 50
270.0
  0
INSERT
  5
E17
330
C25
100
AcDbEntity
  8
250
  6
CONTINUOUS
100
AcDbBlockReference
  2
_OPEN
 10
161.5
 20
6.0
 30
0.0
 41
2.23
 42
2.23
 43
2.23
 50
90.0
  0
MTEXT
  5
E18
330
C25
100
AcDbEntity
  8
250
  6
CONTINUOUS
 62
    40
100
AcDbMText
 10
159.1
 20
-1.46522202
 30
0.0
 40
2.8
 41
0.0
 71
     5
 72
     1
  1
\A1;{\H2.8;\U+2205}12
 11
0.0
 21
1.0
 31
0.0
1001
ACAD
1000
MTEXTBEGIN
1070
    73
1070
     1
1070
    44
1040
1.0
1070
    74
1070
     0
1000
MTEXTEND
  0
POINT
  5
E19
330
C25
100
AcDbEntity
  8
DEFPOINTS
  6
CONTINUOUS
 62
     0
100
AcDbPoint
 10
150.0
 20
-6.0
 30
0.0
  0
POINT
  5
E1A
330
C25
100
AcDbEntity
  8
DEFPOINTS
  6
CONTINUOUS
 62
     0
100
AcDbPoint
 10
150.0
 20
6.0
 30
0.0
  0
POINT
  5
E1B
330
C25
100
AcDbEntity
  8
DEFPOINTS
  6
CONTINUOUS
 62
     0
100
AcDbPoint
 10
161.5
 20
6.0
 30
0.0
  0
ENDBLK
  5
C2F
330
C25
100
AcDbEntity
  8
0
100
AcDbBlockEnd
  0
BLOCK
  5
C3A
330
C30
100
AcDbEntity
  8
0
100
AcDbBlockBegin
  2
*D5
 70
     1
 10
0.0
 20
0.0
 30
0.0
  3
*D5
  1

  0
LINE
  5
C71
330
C30
100
AcDbEntity
  8
AM_5
100
AcDbLine
 10
149.5
 20
15.0
 30
0.0
 11
169.5
 21
15.0
 31
0.0
  0
LINE
  5
C72
330
C30
100
AcDbEntity
  8
AM_5
100
AcDbLine
 10
149.5
 20
-15.0
 30
0.0
 11
169.5
 21
-15.0
 31
0.0
  0
LINE
  5
C73
330
C30
100
AcDbEntity
  8
AM_5
100
AcDbLine
 10
168.5
 20
12.77
 30
0.0
 11
168.5
 21
-12.77
 31
0.0
  0
INSERT
  5
C74
330
C30
100
AcDbEntity
  8
AM_5
100
AcDbBlockReference
  2
_OPEN
 10
168.5
 20
15.0
 30
0.0
 41
2.23
 42
2.23
 43
2.23
 50
90.0
  0
INSERT
  5
C75
330
C30
100
AcDbEntity
  8
AM_5
100
AcDbBlockReference
  2
_OPEN
 10
168.5
 20
-15.0
 30
0.0
 41
2.23
 42
2.23
 43
2.23
 50
270.0
  0
MTEXT
  5
C76
330
C30
100
AcDbEntity
  8
AM_5
 62
    40
100
AcDbMText
 10
166.1
 20
-1.48621162
 30
0.0
 40
2.8
 41
0.0
 71
     5
 72
     1
  1
\A1;%%c30
 11
0.0
 21
1.0
 31
0.0
1001
ACAD
1000
MTEXTBEGIN
1070
    73
1070
     1
1070
    44
1040
1.0
1070
    74
1070
     0
1000
MTEXTEND
1000
MTEXTBEGIN
1070
    73
1070
     1
1070
    44
1040
1.0
1070
    74
1070
     0
1000
MTEXTEND
  0
POINT
  5
C77
330
C30
100
AcDbEntity
  8
DEFPOINTS
 62
     0
100
AcDbPoint
 10
149.0
 20
15.0
 30
0.0
  0
POINT
  5
C78
330
C30
100
AcDbEntity
  8
DEFPOINTS
 62
     0
100
AcDbPoint
 10
149.0
 20
-15.0
 30
0.0
  0
POINT
  5
C79
330
C30
100
AcDbEntity
  8
DEFPOINTS
 62
     0
100
AcDbPoint
 10
168.5
 20
-15.0
 30
0.0
  0
ENDBLK
  5
C3B
330
C30
100
AcDbEntity
  8
0
100
AcDbBlockEnd
  0
ENDSEC
  0
SECTION
  2
ENTITIES
  0
INSERT
  5
6E6
330
1A
100
AcDbEntity
  8
245
100
AcDbBlockReference
  2
矢印なし
 10
175.62382697
 20
90.55123572
 30
0.0
  0
INSERT
  5
8E7
330
1A
100
AcDbEntity
  8
245
100
AcDbBlockReference
  2
矢印なし
 10
364.62382697
 20
223.55123572
 30
0.0
  0
INSERT
  5
8E8
330
1A
100
AcDbEntity
  8
245
100
AcDbBlockReference
  2
矢印なし
 10
553.62382697
 20
363.55123572
 30
0.0
  0
INSERT
  5
8E9
330
1A
100
AcDbEntity
  8
245
100
AcDbBlockReference
  2
矢印なし
 10
728.62382697
 20
503.55123572
 30
0.0
  0
INSERT
  5
8EA
330
1A
100
AcDbEntity
  8
245
100
AcDbBlockReference
  2
矢印なし
 10
903.62382697
 20
643.55123572
 30
0.0
  0
INSERT
  5
8EB
330
1A
100
AcDbEntity
  8
245
100
AcDbBlockReference
  2
矢印なし
 10
1092.62382697
 20
783.55123572
 30
0.0
  0
INSERT
  5
8EC
330
1A
100
AcDbEntity
  8
245
100
AcDbBlockReference
  2
矢印なし
 10
1274.62382697
 20
923.55123572
 30
0.0
  0
INSERT
  5
8ED
330
1A
100
AcDbEntity
  8
245
100
AcDbBlockReference
  2
矢印なし
 10
1456.62382697
 20
1070.55123572
 30
0.0
  0
INSERT
  5
8EE
330
1A
100
AcDbEntity
  8
245
100
AcDbBlockReference
  2
矢印なし
 10
1638.62382697
 20
1217.55123572
 30
0.0
  0
INSERT
  5
8EF
330
1A
100
AcDbEntity
  8
245
100
AcDbBlockReference
  2
矢印なし
 10
1785.62382697
 20
1357.55123572
 30
0.0
  0
INSERT
  5
8F0
330
1A
100
AcDbEntity
  8
245
100
AcDbBlockReference
  2
矢印なし
 10
1960.62382697
 20
1511.55123572
 30
0.0
  0
INSERT
  5
8F1
330
1A
100
AcDbEntity
  8
245
100
AcDbBlockReference
  2
矢印なし
 10
2156.62382697
 20
1658.55123572
 30
0.0
  0
INSERT
  5
8F2
330
1A
100
AcDbEntity
  8
245
100
AcDbBlockReference
  2
矢印なし
 10
2345.62382697
 20
1791.55123572
 30
0.0
  0
INSERT
  5
8F3
330
1A
100
AcDbEntity
  8
245
100
AcDbBlockReference
  2
矢印なし
 10
2506.62382697
 20
1945.55123572
 30
0.0
  0
INSERT
  5
8F4
330
1A
100
AcDbEntity
  8
245
100
AcDbBlockReference
  2
矢印なし
 10
2681.62382697
 20
2099.55123572
 30
0.0
  0
INSERT
  5
8F5
330
1A
100
AcDbEntity
  8
245
100
AcDbBlockReference
  2
矢印なし
 10
2856.62382697
 20
2232.55123572
 30
0.0
  0
INSERT
  5
8F6
330
1A
100
AcDbEntity
  8
245
100
AcDbBlockReference
  2
矢印なし
 10
3010.62382697
 20
2379.55123572
 30
0.0
  0
TEXT
  5
B6D
330
1A
100
AcDbEntity
  8
241
100
AcDbText
 10
-69.0
 20
49.0
 30
0.0
 40
5.0
  1
MGT20-U5/8-150
  7
YOKO
 11
-69.0
 21
49.0
 31
0.0
100
AcDbText
 73
     1
  0
DIMENSION
  5
B6E
330
1A
100
AcDbEntity
  8
250
  6
CONTINUOUS
100
AcDbDimension
  2
*D3
 10
150.0
 20
35.0
 30
0.0
 11
75.0
 21
37.4
 31
0.0
 70
    32
  3
BIGT$0
100
AcDbAlignedDimension
 13
0.0
 23
19.14125603
 33
0.0
 14
150.0
 24
14.0
 34
0.0
100
AcDbRotatedDimension
  0
LEADER
  5
C0C
330
1A
100
AcDbEntity
  8
250
  6
CONTINUOUS
100
AcDbLeader
  3
BIGT
 76
     2
 10
126.39695282
 20
6.43467171
 30
0.0
 10
137.0
 20
28.0
 30
0.0
1001
ACAD
1000
DSTYLE
1002
{
1070
     6
1000
OPEN
1070
   343
1005
594
1002
}
  0
MTEXT
  5
C0D
330
1A
100
AcDbEntity
  8
251
  6
CONTINUOUS
100
AcDbMText
 10
141.32603644
 20
29.0
 30
0.0
 40
2.8
 41
0.0
 71
     7
 72
     1
  1
\U+25A19
  7
YOKO
1001
ITEMNAME
1000
LNSP3
1001
ACAD
1000
MTEXTBEGIN
1070
    73
1070
     1
1070
    44
1040
1.0
1070
    74
1070
     0
1000
MTEXTEND
1000
MTEXTBEGIN
1070
    73
1070
     1
1070
    44
1040
1.0
1070
    74
1070
     0
1000
MTEXTEND
1000
MTEXTBEGIN
1070
    73
1070
     1
1070
    44
1040
1.0
1070
    74
1070
     0
1000
MTEXTEND
1000
MTEXTBEGIN
1070
    73
1070
     1
1070
    44
1040
1.0
1070
    74
1070
     0
1000
MTEXTEND
1000
MTEXTBEGIN
1070
    73
1070
     1
1070
    44
1040
1.0
1070
    74
1070
     0
1000
MTEXTEND
  0
LINE
  5
C0E
330
1A
100
AcDbEntity
  8
250
  6
CONTINUOUS
100
AcDbLine
 10
137.0
 20
28.0
 30
0.0
 11
149.37936977
 21
28.0
 31
0.0
1001
ITEMNAME
1000
LNSP2
  0
DIMENSION
  5
C17
330
1A
100
AcDbEntity
  8
250
  6
CONTINUOUS
100
AcDbDimension
  2
*D4
 10
161.5
 20
6.0
 30
0.0
 11
161.5
 21
-1.46522202
 31
0.0
 70
   160
  1
{\H2.8;\U+2205}<>
  3
BIGT
100
AcDbAlignedDimension
 13
150.0
 23
-6.0
 33
0.0
 14
150.0
 24
6.0
 34
0.0
 50
90.0
100
AcDbRotatedDimension
1001
ACAD
1000
DSTYLE
1002
{
1070
   287
1070
     3
1070
   287
1070
     3
1070
   287
1070
     3
1070
   287
1070
     3
1070
    75
1070
     1
1070
    77
1070
     3
1070
   145
1040
1.0
1070
   279
1070
     0
1070
   289
1070
     3
1070
     6
1000
矢印なし
1002
}
  0
DIMENSION
  5
C18
330
1A
100
AcDbEntity
  8
AM_5
100
AcDbDimension
  2
*D5
 10
168.5
 20
-15.0
 30
0.0
 11
168.5
 21
-1.48621162
 31
0.0
 70
   160
  1
%%c<>
  3
BIGT$0
100
AcDbAlignedDimension
 13
149.0
 23
15.0
 33
0.0
 14
149.0
 24
-15.0
 34
0.0
 50
90.0
100
AcDbRotatedDimension
  0
INSERT
  5
12A8
330
1A
100
AcDbEntity
  8
245
100
AcDbBlockReference
  2
1
 10
0.0
 20
0.0
 30
0.0
  0
VIEWPORT
  5
22
330
17
100
AcDbEntity
 67
     1
  8
0
100
AcDbViewport
 10
261.51769912
 20
148.5
 30
0.0
 40
523.03539823
 41
297.0
 68
     1
 69
     1
1001
ACAD
1000
MVIEW
1002
{
1070
    16
1010
0.0
1020
0.0
1030
0.0
1010
0.0
1020
0.0
1030
1.0
1040
0.0
1040
297.0
1040
261.51769912
1040
148.5
1040
50.0
1040
0.0
1040
0.0
1070
     0
1070
   100
1070
     1
1070
     1
1070
     0
1070
     0
1070
     0
1070
     0
1040
0.0
1040
0.0
1040
0.0
1040
1.0
1040
1.0
1040
10.0
1040
10.0
1070
     0
1002
{
1002
}
1002
}
  0
ENDSEC
  0
SECTION
  2
OBJECTS
  0
DICTIONARY
  5
C
330
0
100
AcDbDictionary
  3
ACAD_GROUP
350
D
  3
ACAD_LAYOUT
350
565
  3
ACAD_MLINESTYLE
350
E
  3
ACAD_PLOTSETTINGS
350
566
  3
ACAD_PLOTSTYLENAME
350
563
  3
ACDBHEADERROUNDTRIPXREC
350
12AA
  3
GRADE_DWG
350
540
  0
DICTIONARY
  5
E11
330
1A
100
AcDbDictionary
280
     1
  3
ACAD_LAYOUTSELFREF
360
12CC
  0
DICTIONARY
  5
E0F
330
17
100
AcDbDictionary
280
     1
  3
ACAD_LAYOUTSELFREF
360
12CB
  0
DICTIONARY
  5
D
102
{ACAD_REACTORS
330
C
102
}
330
C
100
AcDbDictionary
  3
*A1
350
6C7
  3
*A2
350
6C8
  3
*A3
350
6D4
  3
*A4
350
6D5
  3
DREC-1
350
5FC
  3
DREC-2
350
654
  3
DREC-3
350
673
  0
DICTIONARY
  5
565
102
{ACAD_REACTORS
330
C
102
}
330
C
100
AcDbDictionary
  0
DICTIONARY
  5
E
102
{ACAD_REACTORS
330
C
102
}
330
C
100
AcDbDictionary
  3
STANDARD
350
13
  0
DICTIONARY
  5
566
102
{ACAD_REACTORS
330
C
102
}
330
C
100
AcDbDictionary
  3
A3_0_5倍_
350
758
  3
A3_1倍_
350
757
  3
A3_1倍__2000_
350
707
  3
A3_2倍_
350
759
  3
A4_0_5倍_
350
755
  3
A4_1倍_
350
754
  3
A4_1倍__2000_
350
708
  3
A4_2倍_
350
756
  0
ACDBDICTIONARYWDFLT
  5
563
102
{ACAD_REACTORS
330
C
102
}
330
C
100
AcDbDictionary
281
     1
  3
Normal
350
564
100
AcDbDictionaryWithDefault
340
564
  0
DICTIONARY
  5
12AA
102
{ACAD_REACTORS
330
C
102
}
330
C
100
AcDbDictionary
  3
CEPSNTYPE
350
12B4
  3
DIMSTYLEDATA
350
12B8
  3
FINGERPRINTGUID
350
12B5
  3
HYPERLINKBASE
350
12AD
  3
INSUNITS
350
12B3
  3
LAYOUTDICT
350
12AF
  3
LWETCUNION
350
12B2
  3
PLOTSETDICT
350
12B0
  3
PLOTSTYLNAMDICT
350
12B1
  3
PSVPSCALE
350
12B7
  3
PUCSBASE
350
12BB
  3
PUCSORGBACK
350
12C1
  3
PUCSORGBOTTOM
350
12BD
  3
PUCSORGFRONT
350
12C0
  3
PUCSORGLEFT
350
12BE
  3
PUCSORGRIGHT
350
12BF
  3
PUCSORGTOP
350
12BC
  3
PUCSORTHOREF
350
12B9
  3
PUCSORTHOVIEW
350
12BA
  3
STYLESHEET
350
12AE
  3
TSTACKALIGN
350
12AB
  3
TSTACKSIZE
350
12AC
  3
UCSBASE
350
12C4
  3
UCSORGBACK
350
12CA
  3
UCSORGBOTTOM
350
12C6
  3
UCSORGFRONT
350
12C9
  3
UCSORGLEFT
350
12C7
  3
UCSORGRIGHT
350
12C8
  3
UCSORGTOP
350
12C5
  3
UCSORTHOREF
350
12C2
  3
UCSORTHOVIEW
350
12C3
  3
VERSIONGUID
350
12B6
  0
DICTIONARY
  5
540
102
{ACAD_REACTORS
330
C
102
}
330
C
100
AcDbDictionary
  3
VERSION
350
560
  0
XRECORD
  5
12CC
102
{ACAD_REACTORS
330
E11
102
}
330
E11
100
AcDbXrecord
340
1A
  0
XRECORD
  5
12CB
102
{ACAD_REACTORS
330
E0F
102
}
330
E0F
100
AcDbXrecord
340
17
  0
GROUP
  5
6C7
102
{ACAD_REACTORS
330
D
102
}
330
D
100
AcDbGroup
300

 70
     0
 71
     1
1001
GRPNAME
1000
DMA00
  0
GROUP
  5
6C8
102
{ACAD_REACTORS
330
D
102
}
330
D
100
AcDbGroup
300

 70
     0
 71
     1
1001
GRPNAME
1000
DMA00
  0
GROUP
  5
6D4
102
{ACAD_REACTORS
330
D
102
}
330
D
100
AcDbGroup
300

 70
     0
 71
     1
1001
GRPNAME
1000
DMA00
  0
GROUP
  5
6D5
102
{ACAD_REACTORS
330
D
102
}
330
D
100
AcDbGroup
300

 70
     0
 71
     1
1001
GRPNAME
1000
DMA00
  0
GROUP
  5
5FC
102
{ACAD_REACTORS
330
D
102
}
330
D
100
AcDbGroup
300

 70
     0
 71
     1
1001
GRPNAME
1000
DREC-
1001
GPARA
1000
xsiz
1000
44.182
1000
ysiz
1000
40.677
1000
angl
1000
0
1000
ctyp
1000
0
1000
csiz
1000
5
1000
lfnt
1000
cont
1000
hcnt
1000
hoff
1000
vcnt
1000
voff
1000
opnt
1000
4
1000
dxpt
1000
0
1000
dypt
1000
0
  0
GROUP
  5
654
102
{ACAD_REACTORS
330
D
102
}
330
D
100
AcDbGroup
300

 70
     0
 71
     1
1001
GRPNAME
1000
DREC-
1001
GPARA
1000
xsiz
1000
54.592
1000
ysiz
1000
53.036
1000
angl
1000
0
1000
ctyp
1000
0
1000
csiz
1000
5
1000
lfnt
1000
cont
1000
hcnt
1000
hoff
1000
vcnt
1000
voff
1000
opnt
1000
4
1000
dxpt
1000
0
1000
dypt
1000
0
  0
GROUP
  5
673
102
{ACAD_REACTORS
330
D
102
}
330
D
100
AcDbGroup
300

 70
     0
 71
     1
1001
GRPNAME
1000
DREC-
1001
GPARA
1000
xsiz
1000
30.363
1000
ysiz
1000
36.175
1000
angl
1000
0
1000
ctyp
1000
0
1000
csiz
1000
5
1000
lfnt
1000
cont
1000
hcnt
1000
hoff
1000
vcnt
1000
voff
1000
opnt
1000
4
1000
dxpt
1000
0
1000
dypt
1000
0
  0
MLINESTYLE
  5
13
102
{ACAD_REACTORS
330
E
102
}
330
E
100
AcDbMlineStyle
  2
STANDARD
 70
     0
  3

 62
     0
 51
90.0
 52
90.0
 71
     2
 49
0.5
 62
   256
  6
BYLAYER
 49
-0.5
 62
   256
  6
BYLAYER
  0
PLOTSETTINGS
  5
758
102
{ACAD_REACTORS
330
566
102
}
330
566
100
AcDbPlotSettings
  1
A3(0.5倍)
  2
\\AWTECPC05\HP DeskJet 1120C
  4
A3
  6

 40
5.95841646
 41
13.49375153
 42
6.04309082
 43
3.67242432
 44
296.92599487
 45
419.94665527
 46
89.96
 47
127.14
 48
0.0
 49
0.0
140
0.0
141
0.0
142
1.0
143
2.0
 70
  1716
 72
     1
 73
     1
 74
     2
  7
big.ctb
 75
    17
147
0.5
148
0.0
149
0.0
  0
PLOTSETTINGS
  5
757
102
{ACAD_REACTORS
330
566
102
}
330
566
100
AcDbPlotSettings
  1
A3(1倍)
  2
\\AWTECPC05\HP DeskJet 1120C
  4
A3
  6

 40
5.95841646
 41
13.49375153
 42
6.04309082
 43
3.67242432
 44
296.92599487
 45
419.94665527
 46
37.46
 47
52.89
 48
0.0
 49
0.0
140
0.0
141
0.0
142
1.0
143
1.0
 70
  1716
 72
     1
 73
     1
 74
     2
  7
big.ctb
 75
    16
147
1.0
148
0.0
149
0.0
  0
PLOTSETTINGS
  5
707
102
{ACAD_REACTORS
330
566
102
}
330
566
100
AcDbPlotSettings
  1
A3(1倍)(2000)
  2
SII LS-1300 (D-SCAN)
  4
User258
  6

 40
3.17499995
 41
3.17499995
 42
3.17498779
 43
3.17498779
 44
419.98898315
 45
296.98950195
 46
58.32
 47
40.32
 48
0.0
 49
0.0
140
0.0
141
0.0
142
1.0
143
1.0
 70
  1716
 72
     1
 73
     0
 74
     2
  7
big.ctb
 75
    16
147
1.0
148
0.0
149
0.0
  0
PLOTSETTINGS
  5
759
102
{ACAD_REACTORS
330
566
102
}
330
566
100
AcDbPlotSettings
  1
A3(2倍)
  2
\\AWTECPC05\HP DeskJet 1120C
  4
A3
  6

 40
5.95841646
 41
13.49375153
 42
6.04309082
 43
3.67242432
 44
296.92599487
 45
419.94665527
 46
-67.54
 47
-95.61
 48
0.0
 49
0.0
140
0.0
141
0.0
142
1.0
143
0.5
 70
  1716
 72
     1
 73
     1
 74
     2
  7
big.ctb
 75
    27
147
2.0
148
0.0
149
0.0
  0
PLOTSETTINGS
  5
755
102
{ACAD_REACTORS
330
566
102
}
330
566
100
AcDbPlotSettings
  1
A4(0.5倍)
  2
\\AWTECPC05\HP DeskJet 1120C
  4
A4
  6

 40
4.18041658
 41
13.49374962
 42
4.18040466
 43
3.92642212
 44
209.97332764
 45
296.92599487
 46
48.31
 47
65.5
 48
0.0
 49
0.0
140
0.0
141
0.0
142
1.0
143
2.0
 70
  1716
 72
     1
 73
     1
 74
     2
  7
big.ctb
 75
    17
147
0.5
148
0.0
149
0.0
  0
PLOTSETTINGS
  5
754
102
{ACAD_REACTORS
330
566
102
}
330
566
100
AcDbPlotSettings
  1
A4(1倍)
  2
\\AWTECPC05\HP DeskJet 1120C
  4
A4
  6

 40
4.18041658
 41
13.49374962
 42
4.18040466
 43
3.92642212
 44
209.97332764
 45
296.92599487
 46
-4.19
 47
-8.75
 48
0.0
 49
0.0
140
0.0
141
0.0
142
1.0
143
1.0
 70
  1716
 72
     1
 73
     1
 74
     2
  7
big.ctb
 75
    16
147
1.0
148
0.0
149
0.0
  0
PLOTSETTINGS
  5
708
102
{ACAD_REACTORS
330
566
102
}
330
566
100
AcDbPlotSettings
  1
A4(1倍)(2000)
  2
SII LS-1300 (D-SCAN)
  4
User259
  6

 40
3.17499995
 41
3.17499995
 42
3.17498779
 43
3.17500305
 44
296.98950195
 45
209.99449158
 46
-3.18
 47
-3.18
 48
0.0
 49
0.0
140
0.0
141
0.0
142
1.0
143
1.0
 70
  1716
 72
     1
 73
     0
 74
     2
  7
big.ctb
 75
    16
147
1.0
148
0.0
149
0.0
  0
PLOTSETTINGS
  5
756
102
{ACAD_REACTORS
330
566
102
}
330
566
100
AcDbPlotSettings
  1
A4(2倍)
  2
\\AWTECPC05\HP DeskJet 1120C
  4
A4
  6

 40
4.18041658
 41
13.49374962
 42
4.18040466
 43
3.92642212
 44
209.97332764
 45
296.92599487
 46
-109.19
 47
-157.25
 48
0.0
 49
0.0
140
0.0
141
0.0
142
1.0
143
0.5
 70
  1716
 72
     1
 73
     1
 74
     2
  7
big.ctb
 75
    27
147
2.0
148
0.0
149
0.0
  0
ACDBPLACEHOLDER
  5
564
102
{ACAD_REACTORS
330
563
102
}
330
563
100
AcDbPlaceHolder
280
     0
  0
XRECORD
  5
12B4
102
{ACAD_REACTORS
330
12AA
102
}
330
12AA
100
AcDbXrecord
 90
        0
  0
XRECORD
  5
12B8
102
{ACAD_REACTORS
330
12AA
102
}
330
12AA
100
AcDbXrecord
1000
DSTYLE
1002
{
1070
    79
 70
     2
1070
   179
 70
     3
1070
   341
340
594
1070
   343
340
594
1070
   344
340
594
1070
   371
 70
    -1
1070
   372
 70
    -1
1002
}
  0
XRECORD
  5
12B5
102
{ACAD_REACTORS
330
12AA
102
}
330
12AA
100
AcDbXrecord
  1
{51294030-9CB4-11D3-8E18-00A0C925D94D}
  0
XRECORD
  5
12AD
102
{ACAD_REACTORS
330
12AA
102
}
330
12AA
100
AcDbXrecord
  1

  0
XRECORD
  5
12B3
102
{ACAD_REACTORS
330
12AA
102
}
330
12AA
100
AcDbXrecord
 90
        0
  0
XRECORD
  5
12AF
102
{ACAD_REACTORS
330
12AA
102
}
330
12AA
100
AcDbXrecord
340
565
  0
XRECORD
  5
12B2
102
{ACAD_REACTORS
330
12AA
102
}
330
12AA
100
AcDbXrecord
 90
    10781
  0
XRECORD
  5
12B0
102
{ACAD_REACTORS
330
12AA
102
}
330
12AA
100
AcDbXrecord
340
566
  0
XRECORD
  5
12B1
102
{ACAD_REACTORS
330
12AA
102
}
330
12AA
100
AcDbXrecord
340
563
  0
XRECORD
  5
12B7
102
{ACAD_REACTORS
330
12AA
102
}
330
12AA
100
AcDbXrecord
 40
0.0
  0
XRECORD
  5
12BB
102
{ACAD_REACTORS
330
12AA
102
}
330
12AA
100
AcDbXrecord
340
0
  0
XRECORD
  5
12C1
102
{ACAD_REACTORS
330
12AA
102
}
330
12AA
100
AcDbXrecord
 10
0.0
 20
0.0
 30
0.0
  0
XRECORD
  5
12BD
102
{ACAD_REACTORS
330
12AA
102
}
330
12AA
100
AcDbXrecord
 10
0.0
 20
0.0
 30
0.0
  0
XRECORD
  5
12C0
102
{ACAD_REACTORS
330
12AA
102
}
330
12AA
100
AcDbXrecord
 10
0.0
 20
0.0
 30
0.0
  0
XRECORD
  5
12BE
102
{ACAD_REACTORS
330
12AA
102
}
330
12AA
100
AcDbXrecord
 10
0.0
 20
0.0
 30
0.0
  0
XRECORD
  5
12BF
102
{ACAD_REACTORS
330
12AA
102
}
330
12AA
100
AcDbXrecord
 10
0.0
 20
0.0
 30
0.0
  0
XRECORD
  5
12BC
102
{ACAD_REACTORS
330
12AA
102
}
330
12AA
100
AcDbXrecord
 10
0.0
 20
0.0
 30
0.0
  0
XRECORD
  5
12B9
102
{ACAD_REACTORS
330
12AA
102
}
330
12AA
100
AcDbXrecord
340
0
  0
XRECORD
  5
12BA
102
{ACAD_REACTORS
330
12AA
102
}
330
12AA
100
AcDbXrecord
 70
     0
  0
XRECORD
  5
12AE
102
{ACAD_REACTORS
330
12AA
102
}
330
12AA
100
AcDbXrecord
  1
big.ctb
  0
XRECORD
  5
12AB
102
{ACAD_REACTORS
330
12AA
102
}
330
12AA
100
AcDbXrecord
 90
        1
  0
XRECORD
  5
12AC
102
{ACAD_REACTORS
330
12AA
102
}
330
12AA
100
AcDbXrecord
 90
       70
  0
XRECORD
  5
12C4
102
{ACAD_REACTORS
330
12AA
102
}
330
12AA
100
AcDbXrecord
340
0
  0
XRECORD
  5
12CA
102
{ACAD_REACTORS
330
12AA
102
}
330
12AA
100
AcDbXrecord
 10
0.0
 20
0.0
 30
0.0
  0
XRECORD
  5
12C6
102
{ACAD_REACTORS
330
12AA
102
}
330
12AA
100
AcDbXrecord
 10
0.0
 20
0.0
 30
0.0
  0
XRECORD
  5
12C9
102
{ACAD_REACTORS
330
12AA
102
}
330
12AA
100
AcDbXrecord
 10
0.0
 20
0.0
 30
0.0
  0
XRECORD
  5
12C7
102
{ACAD_REACTORS
330
12AA
102
}
330
12AA
100
AcDbXrecord
 10
0.0
 20
0.0
 30
0.0
  0
XRECORD
  5
12C8
102
{ACAD_REACTORS
330
12AA
102
}
330
12AA
100
AcDbXrecord
 10
0.0
 20
0.0
 30
0.0
  0
XRECORD
  5
12C5
102
{ACAD_REACTORS
330
12AA
102
}
330
12AA
100
AcDbXrecord
 10
0.0
 20
0.0
 30
0.0
  0
XRECORD
  5
12C2
102
{ACAD_REACTORS
330
12AA
102
}
330
12AA
100
AcDbXrecord
340
0
  0
XRECORD
  5
12C3
102
{ACAD_REACTORS
330
12AA
102
}
330
12AA
100
AcDbXrecord
 70
     0
  0
XRECORD
  5
12B6
102
{ACAD_REACTORS
330
12AA
102
}
330
12AA
100
AcDbXrecord
  1
{EBE663B6-E4C6-4EFA-A258-0973CAE7D764}
  0
XRECORD
  5
560
102
{ACAD_REACTORS
330
540
102
}
330
540
100
AcDbXrecord
  1
2.0.0
  0
ENDSEC
  0
EOF
