  0
SECTION
  2
HEADER
  9
$ACADVER
  1
AC1014
  9
$ACADMAINTVER
 70
     9
  9
$DWGCODEPAGE
  3
ANSI_932
  9
$INSBASE
 10
0.0
 20
0.0
 30
0.0
  9
$EXTMIN
 10
-70.01495247
 20
-19.5703201
 30
-0.00152582
  9
$EXTMAX
 10
54.5112617
 20
54.96170761
 30
0.00000003
  9
$LIMMIN
 10
0.0
 20
0.0
  9
$LIMMAX
 10
420.0
 20
297.0
  9
$ORTHOMODE
 70
     1
  9
$REGENMODE
 70
     1
  9
$FILLMODE
 70
     1
  9
$QTEXTMODE
 70
     0
  9
$MIRRTEXT
 70
     1
  9
$DRAGMODE
 70
     2
  9
$LTSCALE
 40
10.0
  9
$OSMODE
 70
   549
  9
$ATTMODE
 70
     1
  9
$TEXTSIZE
 40
3.0
  9
$TRACEWID
 40
1.0
  9
$TEXTSTYLE
  7
YOKO
  9
$CLAYER
  8
245
  9
$CELTYPE
  6
BYLAYER
  9
$CECOLOR
 62
   256
  9
$CELTSCALE
 40
1.0
  9
$DELOBJ
 70
     1
  9
$DISPSILH
 70
     0
  9
$DIMSCALE
 40
1.0
  9
$DIMASZ
 40
2.0
  9
$DIMEXO
 40
2.0
  9
$DIMDLI
 40
2.5
  9
$DIMRND
 40
0.0
  9
$DIMDLE
 40
0.0
  9
$DIMEXE
 40
2.0
  9
$DIMTP
 40
0.0
  9
$DIMTM
 40
0.0
  9
$DIMTXT
 40
4.0
  9
$DIMCEN
 40
0.0
  9
$DIMTSZ
 40
0.0
  9
$DIMTOL
 70
     0
  9
$DIMLIM
 70
     0
  9
$DIMTIH
 70
     0
  9
$DIMTOH
 70
     0
  9
$DIMSE1
 70
     0
  9
$DIMSE2
 70
     0
  9
$DIMTAD
 70
     3
  9
$DIMZIN
 70
     8
  9
$DIMBLK
  1

  9
$DIMASO
 70
     1
  9
$DIMSHO
 70
     1
  9
$DIMPOST
  1

  9
$DIMAPOST
  1

  9
$DIMALT
 70
     0
  9
$DIMALTD
 70
     2
  9
$DIMALTF
 40
25.4
  9
$DIMLFAC
 40
1.0
  9
$DIMTOFL
 70
     1
  9
$DIMTVP
 40
0.0
  9
$DIMTIX
 70
     1
  9
$DIMSOXD
 70
     0
  9
$DIMSAH
 70
     1
  9
$DIMBLK1
  1
OPEN
  9
$DIMBLK2
  1
OPEN
  9
$DIMSTYLE
  2
BIGT
  9
$DIMCLRD
 70
   256
  9
$DIMCLRE
 70
   256
  9
$DIMCLRT
 70
    40
  9
$DIMTFAC
 40
1.0
  9
$DIMGAP
 40
1.0
  9
$DIMJUST
 70
     0
  9
$DIMSD1
 70
     0
  9
$DIMSD2
 70
     0
  9
$DIMTOLJ
 70
     1
  9
$DIMTZIN
 70
     8
  9
$DIMALTZ
 70
     0
  9
$DIMALTTZ
 70
     0
  9
$DIMFIT
 70
     3
  9
$DIMUPT
 70
     0
  9
$DIMUNIT
 70
     2
  9
$DIMDEC
 70
     3
  9
$DIMTDEC
 70
     3
  9
$DIMALTU
 70
     2
  9
$DIMALTTD
 70
     2
  9
$DIMTXSTY
  7
STANDARD
  9
$DIMAUNIT
 70
     0
  9
$LUNITS
 70
     2
  9
$LUPREC
 70
     3
  9
$SKETCHINC
 40
1.0
  9
$FILLETRAD
 40
0.0
  9
$AUNITS
 70
     0
  9
$AUPREC
 70
     3
  9
$MENU
  1
.
  9
$ELEVATION
 40
0.0
  9
$PELEVATION
 40
0.0
  9
$THICKNESS
 40
0.0
  9
$LIMCHECK
 70
     0
  9
$BLIPMODE
 70
     0
  9
$CHAMFERA
 40
10.0
  9
$CHAMFERB
 40
10.0
  9
$CHAMFERC
 40
0.0
  9
$CHAMFERD
 40
0.0
  9
$SKPOLY
 70
     0
  9
$TDCREATE
 40
2455128.597227639
  9
$TDUPDATE
 40
2455316.535866609
  9
$TDINDWG
 40
0.0388784028
  9
$TDUSRTIMER
 40
0.0388784028
  9
$USRTIMER
 70
     1
  9
$ANGBASE
 50
0.0
  9
$ANGDIR
 70
     0
  9
$PDMODE
 70
     1
  9
$PDSIZE
 40
-5.0
  9
$PLINEWID
 40
0.0
  9
$COORDS
 70
     0
  9
$SPLFRAME
 70
     0
  9
$SPLINETYPE
 70
     6
  9
$SPLINESEGS
 70
     8
  9
$ATTDIA
 70
     0
  9
$ATTREQ
 70
     1
  9
$HANDLING
 70
-16383
  9
$HANDSEED
  5
1826
  9
$SURFTAB1
 70
     6
  9
$SURFTAB2
 70
     6
  9
$SURFTYPE
 70
     6
  9
$SURFU
 70
     6
  9
$SURFV
 70
     6
  9
$UCSNAME
  2

  9
$UCSORG
 10
0.0
 20
0.0
 30
0.0
  9
$UCSXDIR
 10
1.0
 20
0.0
 30
0.0
  9
$UCSYDIR
 10
0.0
 20
1.0
 30
0.0
  9
$PUCSNAME
  2

  9
$PUCSORG
 10
0.0
 20
0.0
 30
0.0
  9
$PUCSXDIR
 10
1.0
 20
0.0
 30
0.0
  9
$PUCSYDIR
 10
0.0
 20
1.0
 30
0.0
  9
$USERI1
 70
     1
  9
$USERI2
 70
     0
  9
$USERI3
 70
     0
  9
$USERI4
 70
     0
  9
$USERI5
 70
     0
  9
$USERR1
 40
0.0
  9
$USERR2
 40
0.0
  9
$USERR3
 40
0.0
  9
$USERR4
 40
0.0
  9
$USERR5
 40
0.0
  9
$WORLDVIEW
 70
     1
  9
$SHADEDGE
 70
     3
  9
$SHADEDIF
 70
    70
  9
$TILEMODE
 70
     1
  9
$MAXACTVP
 70
    16
  9
$PINSBASE
 10
0.0
 20
0.0
 30
0.0
  9
$PLIMCHECK
 70
     0
  9
$PEXTMIN
 10
1.00000000E+20
 20
1.00000000E+20
 30
1.00000000E+20
  9
$PEXTMAX
 10
-1.00000000E+20
 20
-1.00000000E+20
 30
-1.00000000E+20
  9
$PLIMMIN
 10
0.0
 20
0.0
  9
$PLIMMAX
 10
420.0
 20
297.0
  9
$UNITMODE
 70
     0
  9
$VISRETAIN
 70
     0
  9
$PLINEGEN
 70
     0
  9
$PSLTSCALE
 70
     1
  9
$TREEDEPTH
 70
  3020
  9
$PICKSTYLE
 70
     0
  9
$CMLSTYLE
  2
STANDARD
  9
$CMLJUST
 70
     0
  9
$CMLSCALE
 40
1.0
  9
$PROXYGRAPHICS
 70
     1
  9
$MEASUREMENT
 70
     1
  0
ENDSEC
  0
SECTION
  2
CLASSES
  0
CLASS
  1
XRECORD
  2
AcDbXrecord
  3
AutoCAD 2000
 90
        0
280
     0
281
     0
  0
CLASS
  1
ACDBDICTIONARYWDFLT
  2
AcDbDictionaryWithDefault
  3
AutoCAD 2000
 90
        0
280
     0
281
     0
  0
CLASS
  1
ACDBPLACEHOLDER
  2
AcDbPlaceHolder
  3
AutoCAD 2000
 90
        0
280
     0
281
     0
  0
CLASS
  1
LAYOUT
  2
AcDbLayout
  3
AutoCAD 2000
 90
        0
280
     0
281
     0
  0
CLASS
  1
PLOTSETTINGS
  2
AcDbPlotSettings
  3
AutoCAD 2000
 90
        0
280
     0
281
     0
  0
CLASS
  1
LONG_TRANSACTION
  2
AcDbLongTransaction
  3
AutoCAD 2000
 90
        0
280
     0
281
     0
  0
CLASS
  1
LWPOLYLINE
  2
AcDbPolyline
  3
AutoCAD 2000
 90
        0
280
     0
281
     1
  0
CLASS
  1
HATCH
  2
AcDbHatch
  3
AutoCAD 2000
 90
        0
280
     0
281
     1
  0
CLASS
  1
XRECORD
  2
AcDbXrecord
  3
AutoCAD 2000
 90
        0
280
     0
281
     0
  0
CLASS
  1
LONG_TRANSACTION
  2
AcDbLongTransaction
  3
AutoCAD 2000
 90
        0
280
     0
281
     0
  0
CLASS
  1
LWPOLYLINE
  2
AcDbPolyline
  3
AutoCAD 2000
 90
        0
280
     0
281
     1
  0
CLASS
  1
HATCH
  2
AcDbHatch
  3
AutoCAD 2000
 90
        0
280
     0
281
     1
  0
CLASS
  1
XRECORD
  2
AcDbXrecord
  3
AutoCAD 2000
 90
        0
280
     0
281
     0
  0
ENDSEC
  0
SECTION
  2
TABLES
  0
TABLE
  2
VPORT
  5
8
330
0
100
AcDbSymbolTable
 70
     2
  0
VPORT
  5
1801
330
8
100
AcDbSymbolTableRecord
100
AcDbViewportTableRecord
  2
*ACTIVE
 70
     0
 10
0.0
 20
0.0
 11
1.0
 21
1.0
 12
-7.75184539
 22
17.69569376
 13
0.0
 23
0.0
 14
7.0
 24
7.0
 15
7.0
 25
7.0
 16
0.0
 26
0.0
 36
1.0
 17
0.0
 27
0.0
 37
0.0
 40
87.43258703
 41
1.43184713
 42
50.0
 43
0.0
 44
0.0
 50
0.0
 51
0.0
 71
     0
 72
  2000
 73
     1
 74
     0
 75
     0
 76
     0
 77
     0
 78
     0
  0
ENDTAB
  0
TABLE
  2
LTYPE
  5
5
330
0
100
AcDbSymbolTable
 70
     3
  0
LTYPE
  5
14
330
5
100
AcDbSymbolTableRecord
100
AcDbLinetypeTableRecord
  2
BYBLOCK
 70
     0
  3

 72
    65
 73
     0
 40
0.0
  0
LTYPE
  5
15
330
5
100
AcDbSymbolTableRecord
100
AcDbLinetypeTableRecord
  2
BYLAYER
 70
     0
  3

 72
    65
 73
     0
 40
0.0
  0
LTYPE
  5
16
330
5
100
AcDbSymbolTableRecord
100
AcDbLinetypeTableRecord
  2
CONTINUOUS
 70
     0
  3
Solid line
 72
    65
 73
     0
 40
0.0
  0
LTYPE
  5
258
330
5
100
AcDbSymbolTableRecord
100
AcDbLinetypeTableRecord
  2
CENTER2
 70
     0
  3
___ _ ___ _ ___ _ ___ _ ___ _ ___ _ ___ _ ___ _
 72
    65
 73
     4
 40
1.125
 49
0.75
 74
     0
 49
-0.125
 74
     0
 49
0.125
 74
     0
 49
-0.125
 74
     0
  0
LTYPE
  5
25C
330
5
100
AcDbSymbolTableRecord
100
AcDbLinetypeTableRecord
  2
HIDDEN2
 70
     0
  3
_ _ _ _ _ _ _ _ _ _ _ _ _ _ _ _ _ _ _ _ _ _ _ _
 72
    65
 73
     2
 40
0.1875
 49
0.125
 74
     0
 49
-0.0625
 74
     0
  0
ENDTAB
  0
TABLE
  2
LAYER
  5
2
330
0
100
AcDbSymbolTable
 70
    12
  0
LAYER
  5
F
330
2
100
AcDbSymbolTableRecord
100
AcDbLayerTableRecord
  2
0
 70
     0
 62
     7
  6
CONTINUOUS
  0
LAYER
  5
1AA
330
2
100
AcDbSymbolTableRecord
100
AcDbLayerTableRecord
  2
240
 70
     0
 62
     4
  6
CONTINUOUS
  0
LAYER
  5
1AB
330
2
100
AcDbSymbolTableRecord
100
AcDbLayerTableRecord
  2
241
 70
     0
 62
   211
  6
CONTINUOUS
  0
LAYER
  5
1AC
330
2
100
AcDbSymbolTableRecord
100
AcDbLayerTableRecord
  2
242
 70
     0
 62
     3
  6
CONTINUOUS
  0
LAYER
  5
1AD
330
2
100
AcDbSymbolTableRecord
100
AcDbLayerTableRecord
  2
243
 70
     0
 62
   211
  6
HIDDEN2
  0
LAYER
  5
1AF
330
2
100
AcDbSymbolTableRecord
100
AcDbLayerTableRecord
  2
245
 70
     0
 62
     2
  6
CENTER2
  0
LAYER
  5
21E
330
2
100
AcDbSymbolTableRecord
100
AcDbLayerTableRecord
  2
250
 70
     0
 62
     3
  6
CONTINUOUS
  0
LAYER
  5
21F
330
2
100
AcDbSymbolTableRecord
100
AcDbLayerTableRecord
  2
251
 70
     0
 62
    40
  6
CONTINUOUS
  0
LAYER
  5
5C4
330
2
100
AcDbSymbolTableRecord
100
AcDbLayerTableRecord
  2
DEFPOINTS
 70
     0
 62
     7
  6
CONTINUOUS
  0
LAYER
  5
8C3
330
2
100
AcDbSymbolTableRecord
100
AcDbLayerTableRecord
  2
AM_5
 70
     0
 62
     3
  6
CONTINUOUS
  0
ENDTAB
  0
TABLE
  2
STYLE
  5
3
330
0
100
AcDbSymbolTable
 70
     2
  0
STYLE
  5
10
330
3
100
AcDbSymbolTableRecord
100
AcDbTextStyleTableRecord
  2
STANDARD
 70
     0
 40
0.0
 41
1.0
 50
0.0
 71
     0
 42
3.0
  3
romans.shx
  4
BIGFONT.SHX
  0
STYLE
  5
339
330
3
100
AcDbSymbolTableRecord
100
AcDbTextStyleTableRecord
  2
YOKO
 70
     0
 40
0.0
 41
1.0
 50
0.0
 71
     0
 42
3.0
  3
romans.shx
  4
extfont.shx
  0
ENDTAB
  0
TABLE
  2
VIEW
  5
6
330
0
100
AcDbSymbolTable
 70
     0
  0
ENDTAB
  0
TABLE
  2
UCS
  5
7
330
0
100
AcDbSymbolTable
 70
     0
  0
ENDTAB
  0
TABLE
  2
APPID
  5
9
330
0
100
AcDbSymbolTable
 70
    15
  0
APPID
  5
11
330
9
100
AcDbSymbolTableRecord
100
AcDbRegAppTableRecord
  2
ACAD
 70
     0
  0
APPID
  5
1B1
330
9
100
AcDbSymbolTableRecord
100
AcDbRegAppTableRecord
  2
GLOBAL
 70
     0
  0
APPID
  5
2A4
330
9
100
AcDbSymbolTableRecord
100
AcDbRegAppTableRecord
  2
DETAIL
 70
     0
  0
APPID
  5
5FD
330
9
100
AcDbSymbolTableRecord
100
AcDbRegAppTableRecord
  2
GRPNAME
 70
     0
  0
APPID
  5
5FE
330
9
100
AcDbSymbolTableRecord
100
AcDbRegAppTableRecord
  2
GPARA
 70
     0
  0
APPID
  5
6C4
330
9
100
AcDbSymbolTableRecord
100
AcDbRegAppTableRecord
  2
DCO15
 70
     0
  0
APPID
  5
6C5
330
9
100
AcDbSymbolTableRecord
100
AcDbRegAppTableRecord
  2
ITEMNAME
 70
     0
  0
APPID
  5
6C6
330
9
100
AcDbSymbolTableRecord
100
AcDbRegAppTableRecord
  2
GRADE_0
 70
     0
  0
APPID
  5
8C5
330
9
100
AcDbSymbolTableRecord
100
AcDbRegAppTableRecord
  2
GENIUS_GENODEF_13
 70
     0
  0
APPID
  5
8C6
330
9
100
AcDbSymbolTableRecord
100
AcDbRegAppTableRecord
  2
GENIUS_GENOREF_13
 70
     0
  0
APPID
  5
8C7
330
9
100
AcDbSymbolTableRecord
100
AcDbRegAppTableRecord
  2
GENIUS_GENOBJ-N-FIL_13
 70
     0
  0
APPID
  5
8C8
330
9
100
AcDbSymbolTableRecord
100
AcDbRegAppTableRecord
  2
HATCH_TYPE
 70
     0
  0
APPID
  5
8C9
330
9
100
AcDbSymbolTableRecord
100
AcDbRegAppTableRecord
  2
HATCH_DISPLAY
 70
     0
  0
APPID
  5
8CA
330
9
100
AcDbSymbolTableRecord
100
AcDbRegAppTableRecord
  2
HATCH_DISTANCE
 70
     0
  0
APPID
  5
1017
330
9
100
AcDbSymbolTableRecord
100
AcDbRegAppTableRecord
  2
CONTENTBLOCKICON
 70
     0
  0
ENDTAB
  0
TABLE
  2
DIMSTYLE
  5
A
330
0
100
AcDbSymbolTable
 70
     2
  0
DIMSTYLE
105
725
102
{ACAD_REACTORS
330
15F6
102
}
330
A
100
AcDbSymbolTableRecord
100
AcDbDimStyleTableRecord
  2
BIGT
 70
     0
  3

  4

  5

  6
OPEN
  7
OPEN
 40
1.0
 41
2.23
 42
0.5
 43
2.5
 44
1.0
 45
0.0
 46
0.0
 47
0.0
 48
0.0
140
2.8
141
0.0
142
0.0
143
25.4
144
1.0
145
0.0
146
1.0
147
1.0
 71
     0
 72
     0
 73
     0
 74
     0
 75
     0
 76
     0
 77
     3
 78
     8
170
     0
171
     2
172
     1
173
     1
174
     1
175
     0
176
   256
177
   256
178
    40
270
     2
271
     3
272
     3
273
     2
274
     2
340
10
275
     0
280
     0
281
     0
282
     0
283
     1
284
     8
285
     0
286
     0
287
     3
288
     0
  0
DIMSTYLE
105
8C4
102
{ACAD_REACTORS
330
1560
330
15D4
102
}
330
A
100
AcDbSymbolTableRecord
100
AcDbDimStyleTableRecord
  2
BIGT$0
 70
     0
  3

  4

  5
OPEN
  6

  7

 40
1.0
 41
2.23
 42
0.5
 43
7.0
 44
1.0
 45
0.0
 46
0.0
 47
0.0
 48
0.01
140
2.8
141
0.0
142
0.0
143
25.4
144
1.0
145
0.0
146
1.0
147
1.0
 71
     0
 72
     0
 73
     0
 74
     0
 75
     0
 76
     0
 77
     3
 78
     9
170
     0
171
     2
172
     1
173
     0
174
     1
175
     0
176
   256
177
   256
178
    40
270
     2
271
     3
272
     3
273
     2
274
     2
340
10
275
     0
280
     0
281
     0
282
     0
283
     1
284
     8
285
     0
286
     0
287
     3
288
     0
  0
ENDTAB
  0
TABLE
  2
BLOCK_RECORD
  5
1
330
0
100
AcDbSymbolTable
 70
    13
  0
BLOCK_RECORD
  5
1A
102
{ACAD_XDICTIONARY
360
1015
102
}
330
1
100
AcDbSymbolTableRecord
100
AcDbBlockTableRecord
  2
*MODEL_SPACE
  0
BLOCK_RECORD
  5
17
102
{ACAD_XDICTIONARY
360
1013
102
}
330
1
100
AcDbSymbolTableRecord
100
AcDbBlockTableRecord
  2
*PAPER_SPACE
  0
BLOCK_RECORD
  5
594
330
1
100
AcDbSymbolTableRecord
100
AcDbBlockTableRecord
  2
_OPEN
  0
BLOCK_RECORD
  5
6E3
330
1
100
AcDbSymbolTableRecord
100
AcDbBlockTableRecord
  2
矢印なし
  0
BLOCK_RECORD
  5
762
330
1
100
AcDbSymbolTableRecord
100
AcDbBlockTableRecord
  2
1
1001
CONTENTBLOCKICON
1071
        0
1004
2800000020000000200000000100080000000000000400000000000000000000000000000000000000000000000080000080000000808000800000008000800080800000C0C0C000C0DCC000F0CAA6000020400000206000002080000020A0000020C0000020E00000400000004020000040400000406000004080000040A0
1004
000040C0000040E00000600000006020000060400000606000006080000060A0000060C0000060E00000800000008020000080400000806000008080000080A0000080C0000080E00000A0000000A0200000A0400000A0600000A0800000A0A00000A0C00000A0E00000C0000000C0200000C0400000C0600000C0800000C0
1004
A00000C0C00000C0E00000E0000000E0200000E0400000E0600000E0800000E0A00000E0C00000E0E00040000000400020004000400040006000400080004000A0004000C0004000E00040200000402020004020400040206000402080004020A0004020C0004020E000404000004040200040404000404060004040800040
1004
40A0004040C0004040E00040600000406020004060400040606000406080004060A0004060C0004060E00040800000408020004080400040806000408080004080A0004080C0004080E00040A0000040A0200040A0400040A0600040A0800040A0A00040A0C00040A0E00040C0000040C0200040C0400040C0600040C08000
1004
40C0A00040C0C00040C0E00040E0000040E0200040E0400040E0600040E0800040E0A00040E0C00040E0E00080000000800020008000400080006000800080008000A0008000C0008000E00080200000802020008020400080206000802080008020A0008020C0008020E00080400000804020008040400080406000804080
1004
008040A0008040C0008040E00080600000806020008060400080606000806080008060A0008060C0008060E00080800000808020008080400080806000808080008080A0008080C0008080E00080A0000080A0200080A0400080A0600080A0800080A0A00080A0C00080A0E00080C0000080C0200080C0400080C0600080C0
1004
800080C0A00080C0C00080C0E00080E0000080E0200080E0400080E0600080E0800080E0A00080E0C00080E0E000C0000000C0002000C0004000C0006000C0008000C000A000C000C000C000E000C0200000C0202000C0204000C0206000C0208000C020A000C020C000C020E000C0400000C0402000C0404000C0406000C0
1004
408000C040A000C040C000C040E000C0600000C0602000C0604000C0606000C0608000C060A000C060C000C060E000C0800000C0802000C0804000C0806000C0808000C080A000C080C000C080E000C0A00000C0A02000C0A04000C0A06000C0A08000C0A0A000C0A0C000C0A0E000C0C00000C0C02000C0C04000C0C06000
1004
C0C08000C0C0A000F0FBFF00A4A0A000808080000000FF0000FF000000FFFF00FF000000FF00FF00FFFF0000FFFFFF0000000000000000000000000000000000000000000000000000000000000000000000000000000000000000000000000000000000000000000000000000000000000000000000000000000000000000
1004
00000000000000000000000000000000000000000000000000000000000000000000000000000000000000000000000000000000000000000000000000000000000000000000000000000000000000000000000000000000000000000000000000000000000000000000000000000000000000000000000000000000000000
1004
00000000000000000000000000000000000000000000000000000000000000000000000000000000000000000000000000000000000000000000000000000000000000000000000000000000000000000000000000000000000000000000000000000000000000000000000000000000000000000000000000000000000000
1004
000000FEFEFEFEFE000000000000000000000000000000000000000000000000000000FEFEE7FEFE0000FE00000000000000000000FEFEFEFEFEFEFEFEFEFEFEFEFEFEFEFEE7E7E7FFFFFEFEFEFEFEFEFE00000000FE00000000E7FBE70000E700E7E7E700E7E7E7FFFFE7E700000000FE00000000FE00000000E7FBE70000
1004
E7FBE7E7E700E7E7E7FFFFE7E700000000FE00000000FE00000000E7FBE70000E7FBE7E7E700E7E7E7FFFFE7E700000000FE000000FBFEFBFBFBFBE7FBE7FBFBE7FBE7E7E7FBE7E7E7FFFFE7E7E7FBFBFBFEFB000000FE00000000E7FBE70000E700E7E7E700E7E7E7FFE7E7E7E7E7E7E7FE00000000FE00000000E7FBE700
1004
00E700E7E7E700E7E7E7FFFFE7E700000000FE00000000FEFEFEFEFEFEFEFEFEFEFEFEFEFEFEFEE7E7E7FFFFFEE7FEFEFEFEFE000000000000000000000000000000000000FEFEE7FEFE0000FE000000000000000000000000000000000000000000000000FEFEFEFEFE000000000000000000000000000000000000000000
1004
00000000000000000000000000000000000000000000000000000000000000000000000000000000000000000000000000000000000000000000000000000000000000000000000000000000000000000000000000000000000000000000000000000000000000000000000000000000000000000000000000000000000000
1004
00000000000000000000000000000000000000000000000000000000000000000000000000000000000000000000000000000000000000000000000000000000000000000000000000000000000000000000000000000000000000000000000000000000000000000000000000000000000000000000000000000000000000
1004
0000000000000000000000000000000000000000000000000000000000000000000000000000000000000000000000000000000000000000
  0
BLOCK_RECORD
  5
1681
330
1
100
AcDbSymbolTableRecord
100
AcDbBlockTableRecord
  2
*D10
  0
BLOCK_RECORD
  5
168D
330
1
100
AcDbSymbolTableRecord
100
AcDbBlockTableRecord
  2
*D11
  0
BLOCK_RECORD
  5
1699
330
1
100
AcDbSymbolTableRecord
100
AcDbBlockTableRecord
  2
*D12
  0
ENDTAB
  0
ENDSEC
  0
SECTION
  2
BLOCKS
  0
BLOCK
  5
1B
330
1A
100
AcDbEntity
  8
0
100
AcDbBlockBegin
  2
*MODEL_SPACE
 70
     0
 10
0.0
 20
0.0
 30
0.0
  3
*MODEL_SPACE
  1

  0
ENDBLK
  5
1C
330
1A
100
AcDbEntity
  8
0
100
AcDbBlockEnd
  0
BLOCK
  5
18
330
17
100
AcDbEntity
 67
     1
  8
0
100
AcDbBlockBegin
  2
*PAPER_SPACE
 70
     0
 10
0.0
 20
0.0
 30
0.0
  3
*PAPER_SPACE
  1

  0
ENDBLK
  5
19
330
17
100
AcDbEntity
 67
     1
  8
0
100
AcDbBlockEnd
  0
BLOCK
  5
598
330
594
100
AcDbEntity
  8
0
100
AcDbBlockBegin
  2
_OPEN
 70
     0
 10
0.0
 20
0.0
 30
0.0
  3
_OPEN
  1

  0
LINE
  5
595
330
594
100
AcDbEntity
  8
0
  6
BYBLOCK
 62
     0
100
AcDbLine
 10
-1.0
 20
0.16666667
 30
0.0
 11
0.0
 21
0.0
 31
0.0
  0
LINE
  5
596
330
594
100
AcDbEntity
  8
0
  6
BYBLOCK
 62
     0
100
AcDbLine
 10
-1.0
 20
-0.16666667
 30
0.0
 11
0.0
 21
0.0
 31
0.0
  0
LINE
  5
597
330
594
100
AcDbEntity
  8
0
  6
BYBLOCK
 62
     0
100
AcDbLine
 10
0.0
 20
0.0
 30
0.0
 11
-1.0
 21
0.0
 31
0.0
  0
ENDBLK
  5
599
330
594
100
AcDbEntity
  8
0
100
AcDbBlockEnd
  0
BLOCK
  5
6E4
330
6E3
100
AcDbEntity
  8
0
100
AcDbBlockBegin
  2
矢印なし
 70
     0
 10
0.0
 20
0.0
 30
0.0
  3
矢印なし
  1

  0
ENDBLK
  5
6E5
330
6E3
100
AcDbEntity
  8
0
100
AcDbBlockEnd
  0
BLOCK
  5
89E
330
762
100
AcDbEntity
  8
0
100
AcDbBlockBegin
  2
1
 70
     0
 10
0.0
 20
0.0
 30
0.0
  3
1
  1

  0
LINE
  5
16E2
330
762
100
AcDbEntity
  8
241
  6
HIDDEN2
100
AcDbLine
 10
20.0
 20
4.5
 30
0.0
 11
35.0
 21
4.5
 31
0.0
  0
LINE
  5
16E3
330
762
100
AcDbEntity
  8
240
100
AcDbLine
 10
13.25980762
 20
15.0
 30
0.0
 11
34.0
 21
15.0
 31
0.0
  0
LINE
  5
16E4
330
762
100
AcDbEntity
  8
240
100
AcDbLine
 10
13.25980762
 20
-15.0
 30
0.0
 11
34.0
 21
-15.0
 31
0.0
  0
LINE
  5
16E5
330
762
100
AcDbEntity
  8
245
100
AcDbLine
 10
-70.0
 20
0.0
 30
0.0
 11
36.0
 21
0.0
 31
0.0
  0
LINE
  5
16E6
330
762
100
AcDbEntity
  8
240
100
AcDbLine
 10
-54.0
 20
12.5
 30
0.0
 11
-56.5
 21
15.0
 31
0.0
  0
LINE
  5
16E7
330
762
100
AcDbEntity
  8
240
100
AcDbLine
 10
-54.0
 20
-12.5
 30
0.0
 11
-56.5
 21
-15.0
 31
0.0
  0
LINE
  5
16E8
330
762
100
AcDbEntity
  8
240
100
AcDbLine
 10
-69.0
 20
-14.0
 30
0.0
 11
-69.0
 21
0.0
 31
0.0
  0
LINE
  5
16E9
330
762
100
AcDbEntity
  8
240
100
AcDbLine
 10
-68.0
 20
-15.0
 30
0.0
 11
-56.5
 21
-15.0
 31
0.0
  0
ARC
  5
16EA
330
762
100
AcDbEntity
  8
240
100
AcDbCircle
 10
-68.0
 20
-14.0
 30
0.0
 40
1.0
100
AcDbArc
 50
180.0
 51
270.0
  0
ARC
  5
16EB
330
762
100
AcDbEntity
  8
240
100
AcDbCircle
 10
-68.0
 20
14.0
 30
0.0
 40
1.0
100
AcDbArc
 50
90.0
 51
180.0
  0
LINE
  5
16EC
330
762
100
AcDbEntity
  8
240
100
AcDbLine
 10
-69.0
 20
14.0
 30
0.0
 11
-69.0
 21
0.0
 31
0.0
  0
LINE
  5
16ED
330
762
100
AcDbEntity
  8
240
100
AcDbLine
 10
-68.0
 20
15.0
 30
0.0
 11
-56.5
 21
15.0
 31
0.0
  0
LINE
  5
16EE
330
762
100
AcDbEntity
  8
241
100
AcDbLine
 10
14.2
 20
-15.0
 30
0.0
 11
14.2
 21
0.0
 31
0.0
  0
LINE
  5
16EF
330
762
100
AcDbEntity
  8
241
100
AcDbLine
 10
13.0
 20
-15.15
 30
0.0
 11
13.0
 21
0.0
 31
0.0
  0
LINE
  5
16F0
330
762
100
AcDbEntity
  8
241
100
AcDbLine
 10
11.0
 20
-11.7
 30
0.0
 11
11.0
 21
0.0
 31
0.0
  0
LINE
  5
16F1
330
762
100
AcDbEntity
  8
241
100
AcDbLine
 10
10.0
 20
-11.7
 30
0.0
 11
10.0
 21
0.0
 31
0.0
  0
LINE
  5
16F2
330
762
100
AcDbEntity
  8
241
100
AcDbLine
 10
-14.5
 20
-15.0
 30
0.0
 11
-14.5
 21
0.0
 31
0.0
  0
LINE
  5
16F3
330
762
100
AcDbEntity
  8
241
100
AcDbLine
 10
-4.5
 20
-18.25
 30
0.0
 11
-4.5
 21
0.0
 31
0.0
  0
LINE
  5
16F4
330
762
100
AcDbEntity
  8
241
100
AcDbLine
 10
-2.0
 20
-18.25
 30
0.0
 11
-2.0
 21
0.0
 31
0.0
  0
LINE
  5
16F5
330
762
100
AcDbEntity
  8
241
100
AcDbLine
 10
0.0
 20
-19.14125603
 30
0.0
 11
0.0
 21
0.0
 31
0.0
  0
LINE
  5
16F6
330
762
100
AcDbEntity
  8
241
  6
CONTINUOUS
100
AcDbLine
 10
-7.5
 20
-19.00000001
 30
0.0
 11
-7.5
 21
0.0
 31
0.0
  0
LINE
  5
16F7
330
762
100
AcDbEntity
  8
241
100
AcDbLine
 10
-6.12626129
 20
-19.5
 30
0.0
 11
-6.12626129
 21
0.0
 31
0.0
  0
LINE
  5
16F8
330
762
100
AcDbEntity
  8
241
100
AcDbLine
 10
1.20577137
 20
-15.35874397
 30
0.0
 11
1.20577137
 21
0.0
 31
0.0
  0
LINE
  5
16F9
330
762
100
AcDbEntity
  8
241
100
AcDbLine
 10
-32.0
 20
-13.75
 30
0.0
 11
-32.0
 21
0.0
 31
0.0
  0
LINE
  5
16FA
330
762
100
AcDbEntity
  8
241
100
AcDbLine
 10
-29.5
 20
-13.75
 30
0.0
 11
-29.5
 21
0.0
 31
0.0
  0
LINE
  5
16FB
330
762
100
AcDbEntity
  8
241
100
AcDbLine
 10
-21.5
 20
-13.75
 30
0.0
 11
-21.5
 21
0.0
 31
0.0
  0
LINE
  5
16FC
330
762
100
AcDbEntity
  8
241
100
AcDbLine
 10
-19.0
 20
-13.75
 30
0.0
 11
-19.0
 21
0.0
 31
0.0
  0
LINE
  5
16FD
330
762
100
AcDbEntity
  8
245
100
AcDbLine
 10
-46.0
 20
-15.0
 30
0.0
 11
-46.0
 21
15.0
 31
0.0
1001
GENIUS_GENOREF_13
1005
0
  0
LINE
  5
16FE
330
762
100
AcDbEntity
  8
243
100
AcDbLine
 10
-50.0
 20
-12.5
 30
0.0
 11
-50.0
 21
12.5
 31
0.0
1001
GENIUS_GENOREF_13
1005
0
  0
LINE
  5
16FF
330
762
100
AcDbEntity
  8
243
100
AcDbLine
 10
-42.0
 20
-12.5
 30
0.0
 11
-42.0
 21
12.5
 31
0.0
1001
GENIUS_GENOREF_13
1005
0
  0
LINE
  5
1700
330
762
100
AcDbEntity
  8
0
100
AcDbLine
 10
6.47364367
 20
-9.96753897
 30
0.0
 11
5.91725488
 21
-9.41115018
 31
0.0
  0
ARC
  5
1701
330
762
100
AcDbEntity
  8
0
100
AcDbCircle
 10
5.63000632
 20
-10.25478753
 30
0.0
 40
0.8911990356445432
100
AcDbArc
 50
0.0
 51
194.77079397
  0
ARC
  5
1702
330
762
100
AcDbEntity
  8
0
100
AcDbCircle
 10
5.63000632
 20
-10.25478753
 30
0.0
 40
0.7214456176757899
100
AcDbArc
 50
0.0
 51
194.1274365
  0
LINE
  5
1703
330
762
100
AcDbEntity
  8
0
100
AcDbLine
 10
5.11955415
 20
-9.74496172
 30
0.0
 11
4.99952034
 21
-9.6249279
 31
0.0
  0
LINE
  5
1704
330
762
100
AcDbEntity
  8
240
100
AcDbLine
 10
-19.0
 20
-15.0
 30
0.0
 11
-14.5
 21
-15.0
 31
0.0
  0
LINE
  5
1705
330
762
100
AcDbEntity
  8
240
100
AcDbLine
 10
-38.0
 20
-12.5
 30
0.0
 11
-35.5
 21
-15.0
 31
0.0
  0
LINE
  5
1706
330
762
100
AcDbEntity
  8
240
100
AcDbLine
 10
-46.0
 20
-12.5
 30
0.0
 11
-38.0
 21
-12.5
 31
0.0
  0
LINE
  5
1707
330
762
100
AcDbEntity
  8
240
100
AcDbLine
 10
-54.0
 20
-12.5
 30
0.0
 11
-46.0
 21
-12.5
 31
0.0
  0
LINE
  5
1708
330
762
100
AcDbEntity
  8
240
100
AcDbLine
 10
-29.5
 20
-15.0
 30
0.0
 11
-21.5
 21
-15.0
 31
0.0
  0
ARC
  5
1709
330
762
100
AcDbEntity
  8
240
100
AcDbCircle
 10
-30.75
 20
-13.75
 30
0.0
 40
1.24999999999827
100
AcDbArc
 50
180.0
 51
0.0
  0
LINE
  5
170A
330
762
100
AcDbEntity
  8
240
100
AcDbLine
 10
-32.0
 20
-13.75
 30
0.0
 11
-32.0
 21
-15.0
 31
0.0
  0
LINE
  5
170B
330
762
100
AcDbEntity
  8
240
100
AcDbLine
 10
-35.5
 20
-15.0
 30
0.0
 11
-32.0
 21
-15.0
 31
0.0
  0
LINE
  5
170C
330
762
100
AcDbEntity
  8
240
100
AcDbLine
 10
-29.5
 20
-13.75
 30
0.0
 11
-29.5
 21
-15.0
 31
0.0
  0
ARC
  5
170D
330
762
100
AcDbEntity
  8
240
100
AcDbCircle
 10
-20.25
 20
-13.75
 30
0.0
 40
1.249999999998089
100
AcDbArc
 50
180.0
 51
0.0
  0
LINE
  5
170E
330
762
100
AcDbEntity
  8
240
100
AcDbLine
 10
-21.5
 20
-13.75
 30
0.0
 11
-21.5
 21
-15.0
 31
0.0
  0
LINE
  5
170F
330
762
100
AcDbEntity
  8
240
100
AcDbLine
 10
-19.0
 20
-13.75
 30
0.0
 11
-19.0
 21
-15.0
 31
0.0
  0
LINE
  5
1710
330
762
100
AcDbEntity
  8
240
100
AcDbLine
 10
10.0
 20
-15.0
 30
0.0
 11
1.97309836
 21
-15.0
 31
0.0
  0
LINE
  5
1711
330
762
100
AcDbEntity
  8
240
100
AcDbLine
 10
-7.5
 20
-19.00000001
 30
0.0
 11
-6.12626128
 21
-19.5
 31
0.0
  0
LINE
  5
1712
330
762
100
AcDbEntity
  8
240
100
AcDbLine
 10
-13.0
 20
-15.5
 30
0.0
 11
-13.5
 21
-16.0
 31
0.0
  0
LINE
  5
1713
330
762
100
AcDbEntity
  8
240
100
AcDbLine
 10
-7.50000001
 20
-19.0
 30
0.0
 11
-13.5
 21
-19.0
 31
0.0
  0
LINE
  5
1714
330
762
100
AcDbEntity
  8
240
100
AcDbLine
 10
-13.5
 20
-19.0
 30
0.0
 11
-13.5
 21
-16.0
 31
0.0
  0
LINE
  5
1715
330
762
100
AcDbEntity
  8
241
  6
CONTINUOUS
100
AcDbLine
 10
-7.5
 20
-15.2
 30
0.0
 11
-13.0
 21
-15.2
 31
0.0
  0
LINE
  5
1716
330
762
100
AcDbEntity
  8
240
100
AcDbLine
 10
-14.2
 20
-14.7
 30
0.0
 11
-14.5
 21
-15.0
 31
0.0
  0
LINE
  5
1717
330
762
100
AcDbEntity
  8
240
100
AcDbLine
 10
-14.2
 20
-14.7
 30
0.0
 11
-13.0
 21
-14.7
 31
0.0
  0
LINE
  5
1718
330
762
100
AcDbEntity
  8
240
100
AcDbLine
 10
-13.0
 20
-15.5
 30
0.0
 11
-13.0
 21
-14.7
 31
0.0
  0
LINE
  5
1719
330
762
100
AcDbEntity
  8
240
100
AcDbLine
 10
0.19859884
 20
-18.75881905
 30
0.0
 11
1.00717253
 21
-15.74118096
 31
0.0
  0
ARC
  5
171A
330
762
100
AcDbEntity
  8
240
100
AcDbCircle
 10
-3.25
 20
-18.25
 30
0.0
 40
1.250000000000339
100
AcDbArc
 50
180.0
 51
0.0
  0
LINE
  5
171B
330
762
100
AcDbEntity
  8
240
100
AcDbLine
 10
-4.5
 20
-18.25
 30
0.0
 11
-4.5
 21
-19.5
 31
0.0
  0
LINE
  5
171C
330
762
100
AcDbEntity
  8
240
100
AcDbLine
 10
-4.5
 20
-19.5
 30
0.0
 11
-6.12626129
 21
-19.5
 31
0.0
  0
LINE
  5
171D
330
762
100
AcDbEntity
  8
240
100
AcDbLine
 10
-0.50850794
 20
-19.46592583
 30
0.0
 11
-0.63567449
 21
-19.5
 31
0.0
  0
ARC
  5
171E
330
762
100
AcDbEntity
  8
240
100
AcDbCircle
 10
-0.76732699
 20
-18.5
 30
0.0
 40
1.0
100
AcDbArc
 50
285.0
 51
345.0
1001
GENIUS_GENOBJ-N-FIL_13
1002
{
1000
OWNER
1000
GEN
1002
}
1001
GENIUS_GENODEF_13
1002
{
1000
HIER
1070
     0
1002
}
1002
{
1000
MANEDIT
1070
     0
1002
}
1002
{
1000
NOSEL
1070
     0
1002
}
1002
{
1000
BEHIND
1070
     0
1002
}
1002
{
1000
OTHER
1070
     0
1002
}
1002
{
1000
REACTOR
1002
}
  0
LINE
  5
171F
330
762
100
AcDbEntity
  8
240
100
AcDbLine
 10
-2.0
 20
-18.25
 30
0.0
 11
-2.0
 21
-19.5
 31
0.0
  0
LINE
  5
1720
330
762
100
AcDbEntity
  8
240
100
AcDbLine
 10
-0.63567449
 20
-19.5
 30
0.0
 11
-2.0
 21
-19.5
 31
0.0
  0
ARC
  5
1721
330
762
100
AcDbEntity
  8
240
100
AcDbCircle
 10
1.97309836
 20
-16.0
 30
0.0
 40
1.0
100
AcDbArc
 50
90.0
 51
165.00000002
  0
LINE
  5
1722
330
762
100
AcDbEntity
  8
240
100
AcDbLine
 10
11.0
 20
-15.15
 30
0.0
 11
13.0
 21
-15.15
 31
0.0
  0
LINE
  5
1723
330
762
100
AcDbEntity
  8
0
100
AcDbLine
 10
5.99169873
 20
-12.3143747
 30
0.0
 11
5.45938502
 21
-11.782061
 31
0.0
  0
LINE
  5
1724
330
762
100
AcDbEntity
  8
0
100
AcDbLine
 10
6.26657543
 20
-12.39319482
 30
0.0
 11
6.26657543
 21
-12.0135183
 31
0.0
  0
LINE
  5
1725
330
762
100
AcDbEntity
  8
0
100
AcDbLine
 10
6.26657543
 20
-12.39319482
 30
0.0
 11
6.26657543
 21
-12.0135183
 31
0.0
1001
HATCH_DISTANCE
1040
1.0
1001
HATCH_DISPLAY
1070
     0
1001
HATCH_TYPE
1070
     7
  0
LINE
  5
1726
330
762
100
AcDbEntity
  8
0
100
AcDbLine
 10
6.26657543
 20
-12.39319482
 30
0.0
 11
6.26657543
 21
-12.0135183
 31
0.0
  0
LINE
  5
1727
330
762
100
AcDbEntity
  8
0
100
AcDbLine
 10
6.26657543
 20
-12.02349527
 30
0.0
 11
6.25258751
 21
-12.00950735
 31
0.0
  0
LINE
  5
1728
330
762
100
AcDbEntity
  8
0
100
AcDbLine
 10
6.16700359
 20
-10.81513787
 30
0.0
 11
6.26657543
 21
-10.71555963
 31
0.0
  0
LINE
  5
1729
330
762
100
AcDbEntity
  8
0
100
AcDbLine
 10
6.26400118
 20
-11.07799414
 30
0.0
 11
5.75482375
 21
-10.5688167
 31
0.0
  0
LINE
  5
172A
330
762
100
AcDbEntity
  8
0
100
AcDbLine
 10
6.25251221
 20
-11.25509054
 30
0.0
 11
6.05321892
 21
-11.05579724
 31
0.0
  0
ARC
  5
172B
330
762
100
AcDbEntity
  8
0
100
AcDbCircle
 10
5.90160666
 20
-11.14951776
 30
0.0
 40
0.1782408785820033
100
AcDbArc
 50
254.00027306
 51
74.00027306
  0
LINE
  5
172C
330
762
100
AcDbEntity
  8
0
100
AcDbLine
 10
5.95073569
 20
-10.97818139
 30
0.0
 11
5.57059134
 21
-10.86917596
 31
0.0
  0
LINE
  5
172D
330
762
100
AcDbEntity
  8
0
100
AcDbLine
 10
5.57059134
 20
-11.01044916
 30
0.0
 11
5.57059134
 21
-10.86917596
 31
0.0
  0
LINE
  5
172E
330
762
100
AcDbEntity
  8
0
100
AcDbLine
 10
6.17836658
 20
-10.80377415
 30
0.0
 11
6.01922531
 21
-10.64463288
 31
0.0
  0
LINE
  5
172F
330
762
100
AcDbEntity
  8
0
100
AcDbLine
 10
5.99532717
 20
-10.9979055
 30
0.0
 11
5.49042219
 21
-10.49300052
 31
0.0
  0
LINE
  5
1730
330
762
100
AcDbEntity
  8
0
100
AcDbLine
 10
6.20100489
 20
-11.3921686
 30
0.0
 11
6.05278035
 21
-11.24394406
 31
0.0
  0
LINE
  5
1731
330
762
100
AcDbEntity
  8
0
100
AcDbLine
 10
6.12289166
 20
-11.50264075
 30
0.0
 11
5.94311016
 21
-11.32285924
 31
0.0
  0
LINE
  5
1732
330
762
100
AcDbEntity
  8
0
100
AcDbLine
 10
6.02156252
 20
-11.58989698
 30
0.0
 11
5.71233384
 21
-11.2806683
 31
0.0
  0
LINE
  5
1733
330
762
100
AcDbEntity
  8
0
100
AcDbLine
 10
5.89562399
 20
-11.65254383
 30
0.0
 11
5.44793202
 21
-11.20485186
 31
0.0
  0
LINE
  5
1734
330
762
100
AcDbEntity
  8
0
100
AcDbLine
 10
4.92553092
 20
-12.07046594
 30
0.0
 11
4.92553092
 21
-12.00865411
 31
0.0
  0
LINE
  5
1735
330
762
100
AcDbEntity
  8
0
100
AcDbLine
 10
4.92553092
 20
-12.07046594
 30
0.0
 11
4.73880728
 21
-12.01692132
 31
0.0
  0
LINE
  5
1736
330
762
100
AcDbEntity
  8
0
100
AcDbLine
 10
4.73880728
 20
-12.01692132
 30
0.0
 11
4.92553092
 21
-12.07046594
 31
0.0
1001
HATCH_DISTANCE
1040
1.0
1001
HATCH_DISPLAY
1070
     0
1001
HATCH_TYPE
1070
     7
  0
LINE
  5
1737
330
762
100
AcDbEntity
  8
0
100
AcDbLine
 10
4.92553092
 20
-12.07046594
 30
0.0
 11
4.92553092
 21
-12.00865411
 31
0.0
1001
HATCH_DISTANCE
1040
1.0
1001
HATCH_DISPLAY
1070
     0
1001
HATCH_TYPE
1070
     7
  0
LINE
  5
1738
330
762
100
AcDbEntity
  8
0
100
AcDbLine
 10
4.73880728
 20
-12.01692132
 30
0.0
 11
4.92553092
 21
-12.07046594
 31
0.0
  0
LINE
  5
1739
330
762
100
AcDbEntity
  8
0
100
AcDbLine
 10
6.52120555
 20
-11.90095464
 30
0.0
 11
6.35145213
 21
-11.73120122
 31
0.0
  0
LINE
  5
173A
330
762
100
AcDbEntity
  8
0
100
AcDbLine
 10
6.51964827
 20
-10.20212894
 30
0.0
 11
6.29675647
 21
-9.97923715
 31
0.0
  0
ARC
  5
173B
330
762
100
AcDbEntity
  8
0
100
AcDbCircle
 10
5.71488303
 20
-11.13129144
 30
0.0
 40
0.5516986083984456
100
AcDbArc
 50
253.9997507
 51
34.96387329
  0
LINE
  5
173C
330
762
100
AcDbEntity
  8
0
100
AcDbLine
 10
6.52120555
 20
-10.39227161
 30
0.0
 11
6.35069562
 21
-10.22176168
 31
0.0
  0
LINE
  5
173D
330
762
100
AcDbEntity
  8
0
100
AcDbLine
 10
6.52120555
 20
-10.58085699
 30
0.0
 11
6.35145213
 21
-10.41110357
 31
0.0
  0
LINE
  5
173E
330
762
100
AcDbEntity
  8
0
100
AcDbLine
 10
6.52120555
 20
-10.76944236
 30
0.0
 11
6.35145213
 21
-10.59968895
 31
0.0
  0
LINE
  5
173F
330
762
100
AcDbEntity
  8
0
100
AcDbLine
 10
6.52120555
 20
-10.95802774
 30
0.0
 11
6.35145213
 21
-10.78827433
 31
0.0
  0
LINE
  5
1740
330
762
100
AcDbEntity
  8
0
100
AcDbLine
 10
6.52120555
 20
-11.14661312
 30
0.0
 11
6.35145213
 21
-10.97685971
 31
0.0
  0
LINE
  5
1741
330
762
100
AcDbEntity
  8
0
100
AcDbLine
 10
6.52120555
 20
-11.3351985
 30
0.0
 11
6.35145213
 21
-11.16544509
 31
0.0
  0
LINE
  5
1742
330
762
100
AcDbEntity
  8
0
100
AcDbLine
 10
6.52120555
 20
-11.52378388
 30
0.0
 11
6.35145213
 21
-11.35403046
 31
0.0
  0
LINE
  5
1743
330
762
100
AcDbEntity
  8
0
100
AcDbLine
 10
6.52120555
 20
-11.71236926
 30
0.0
 11
6.35145213
 21
-11.54261584
 31
0.0
  0
LINE
  5
1744
330
762
100
AcDbEntity
  8
0
100
AcDbLine
 10
6.52120555
 20
-12.46671077
 30
0.0
 11
6.35145213
 21
-12.29695735
 31
0.0
  0
LINE
  5
1745
330
762
100
AcDbEntity
  8
0
100
AcDbLine
 10
6.52120555
 20
-12.65529615
 30
0.0
 11
6.35145213
 21
-12.48554274
 31
0.0
  0
LINE
  5
1746
330
762
100
AcDbEntity
  8
0
100
AcDbLine
 10
6.52120555
 20
-12.84388153
 30
0.0
 11
6.35145213
 21
-12.67412811
 31
0.0
  0
LINE
  5
1747
330
762
100
AcDbEntity
  8
0
100
AcDbLine
 10
6.52120555
 20
-13.0324669
 30
0.0
 11
6.35145213
 21
-12.86271349
 31
0.0
  0
LINE
  5
1748
330
762
100
AcDbEntity
  8
0
100
AcDbLine
 10
6.52120555
 20
-13.22105229
 30
0.0
 11
6.35145213
 21
-13.05129887
 31
0.0
  0
LINE
  5
1749
330
762
100
AcDbEntity
  8
0
100
AcDbLine
 10
6.52120555
 20
-13.40963766
 30
0.0
 11
6.35145213
 21
-13.23988425
 31
0.0
  0
LINE
  5
174A
330
762
100
AcDbEntity
  8
0
100
AcDbLine
 10
6.52120555
 20
-13.59822304
 30
0.0
 11
6.35145213
 21
-13.42846963
 31
0.0
  0
LINE
  5
174B
330
762
100
AcDbEntity
  8
0
100
AcDbLine
 10
6.51740222
 20
-13.78300509
 30
0.0
 11
6.35145213
 21
-13.61705501
 31
0.0
  0
LINE
  5
174C
330
762
100
AcDbEntity
  8
0
100
AcDbLine
 10
6.48790677
 20
-13.94209502
 30
0.0
 11
6.34474158
 21
-13.79892983
 31
0.0
  0
LINE
  5
174D
330
762
100
AcDbEntity
  8
0
100
AcDbLine
 10
6.52120555
 20
-12.27812539
 30
0.0
 11
6.35145213
 21
-12.10837198
 31
0.0
  0
LINE
  5
174E
330
762
100
AcDbEntity
  8
0
100
AcDbLine
 10
6.52120555
 20
-12.08954001
 30
0.0
 11
6.35145213
 21
-11.9197866
 31
0.0
  0
LINE
  5
174F
330
762
100
AcDbEntity
  8
0
100
AcDbLine
 10
6.28507162
 20
-14.30501601
 30
0.0
 11
6.16491715
 21
-14.18486154
 31
0.0
  0
LINE
  5
1750
330
762
100
AcDbEntity
  8
0
100
AcDbLine
 10
6.07550449
 20
-14.47261963
 30
0.0
 11
5.95016193
 21
-14.34727707
 31
0.0
  0
LINE
  5
1751
330
762
100
AcDbEntity
  8
0
100
AcDbLine
 10
5.94770714
 20
-14.53340766
 30
0.0
 11
5.81292979
 21
-14.3986303
 31
0.0
  0
LINE
  5
1752
330
762
100
AcDbEntity
  8
0
100
AcDbLine
 10
5.80109638
 20
-14.57538228
 30
0.0
 11
5.64770277
 21
-14.42198867
 31
0.0
  0
LINE
  5
1753
330
762
100
AcDbEntity
  8
0
100
AcDbLine
 10
5.62908741
 20
-14.59195869
 30
0.0
 11
5.43148242
 21
-14.3943537
 31
0.0
  0
LINE
  5
1754
330
762
100
AcDbEntity
  8
0
100
AcDbLine
 10
6.18751463
 20
-14.39604439
 30
0.0
 11
6.06658479
 21
-14.27511456
 31
0.0
  0
LINE
  5
1755
330
762
100
AcDbEntity
  8
0
100
AcDbLine
 10
6.36840429
 20
-14.19976329
 30
0.0
 11
6.24560131
 21
-14.07696032
 31
0.0
  0
LINE
  5
1756
330
762
100
AcDbEntity
  8
0
100
AcDbLine
 10
6.43672409
 20
-14.07949772
 30
0.0
 11
6.30708402
 21
-13.94985764
 31
0.0
  0
ARC
  5
1757
330
762
100
AcDbEntity
  8
0
100
AcDbCircle
 10
5.63000632
 20
-13.70076013
 30
0.0
 40
0.8911990356445432
100
AcDbArc
 50
180.0
 51
0.0
  0
ARC
  5
1758
330
762
100
AcDbEntity
  8
0
100
AcDbCircle
 10
5.63000632
 20
-13.70076013
 30
0.0
 40
0.7214456176757899
100
AcDbArc
 50
180.0
 51
0.0
  0
LINE
  5
1759
330
762
100
AcDbEntity
  8
0
100
AcDbLine
 10
5.41390511
 20
-14.56536176
 30
0.0
 11
4.76540468
 21
-13.91686134
 31
0.0
  0
LINE
  5
175A
330
762
100
AcDbEntity
  8
0
100
AcDbLine
 10
5.0341105
 20
-9.84810344
 30
0.0
 11
4.91236948
 21
-9.72636243
 31
0.0
  0
LINE
  5
175B
330
762
100
AcDbEntity
  8
0
100
AcDbLine
 10
4.96723096
 20
-9.96980929
 30
0.0
 11
4.83991295
 21
-9.84249128
 31
0.0
  0
LINE
  5
175C
330
762
100
AcDbEntity
  8
0
100
AcDbLine
 10
6.52120555
 20
-13.70076013
 30
0.0
 11
6.52120555
 21
-10.25478753
 31
0.0
  0
LINE
  5
175D
330
762
100
AcDbEntity
  8
0
100
AcDbLine
 10
4.92553092
 20
-12.07046594
 30
0.0
 11
4.92553092
 21
-12.00865411
 31
0.0
  0
LINE
  5
175E
330
762
100
AcDbEntity
  8
0
100
AcDbLine
 10
4.93409128
 20
-12.01110877
 30
0.0
 11
4.73880728
 21
-11.81582478
 31
0.0
  0
LINE
  5
175F
330
762
100
AcDbEntity
  8
0
100
AcDbLine
 10
4.75634857
 20
-12.02195143
 30
0.0
 11
4.73880728
 21
-12.00441015
 31
0.0
  0
LINE
  5
1760
330
762
100
AcDbEntity
  8
0
100
AcDbLine
 10
4.92249844
 20
-10.11366214
 30
0.0
 11
4.78385808
 21
-9.97502178
 31
0.0
  0
LINE
  5
1761
330
762
100
AcDbEntity
  8
0
100
AcDbLine
 10
4.90937844
 20
-10.28912752
 30
0.0
 11
4.74791983
 21
-10.12766891
 31
0.0
  0
LINE
  5
1762
330
762
100
AcDbEntity
  8
0
100
AcDbLine
 10
4.87880631
 20
-10.44714078
 30
0.0
 11
4.74044425
 21
-10.30877871
 31
0.0
  0
ARC
  5
1763
330
762
100
AcDbEntity
  8
0
100
AcDbCircle
 10
5.29049948
 20
-11.00960321
 30
0.0
 40
0.5516930007934647
100
AcDbArc
 50
143.4440122
 51
254.00018439
  0
ARC
  5
1764
330
762
100
AcDbEntity
  8
0
100
AcDbCircle
 10
5.10377585
 20
-10.92074029
 30
0.0
 40
0.1782410037517573
100
AcDbArc
 50
91.71012138
 51
253.99839835
  0
ARC
  5
1765
330
762
100
AcDbEntity
  8
0
100
AcDbCircle
 10
5.63000632
 20
-10.25478753
 30
0.0
 40
0.7214476203918543
100
AcDbArc
 50
200.8721834
 51
222.54194894
  0
LINE
  5
1766
330
762
100
AcDbEntity
  8
0
100
AcDbLine
 10
5.27053841
 20
-11.59321439
 30
0.0
 11
4.74151361
 21
-11.06418958
 31
0.0
  0
LINE
  5
1767
330
762
100
AcDbEntity
  8
0
100
AcDbLine
 10
5.40083792
 20
-10.96177514
 30
0.0
 11
5.40083792
 21
-10.46731256
 31
0.0
  0
LINE
  5
1768
330
762
100
AcDbEntity
  8
0
100
AcDbLine
 10
4.93037588
 20
-10.43087914
 30
0.0
 11
4.76825522
 21
-10.48200127
 31
0.0
  0
ARC
  5
1769
330
762
100
AcDbEntity
  8
0
100
AcDbCircle
 10
5.63000632
 20
-10.25478753
 30
0.0
 40
0.8911994361877553
100
AcDbArc
 50
200.22964506
 51
208.57168892
  0
LINE
  5
176A
330
762
100
AcDbEntity
  8
0
100
AcDbLine
 10
4.9559017
 20
-10.51182733
 30
0.0
 11
4.79378104
 21
-10.56294946
 31
0.0
  0
LINE
  5
176B
330
762
100
AcDbEntity
  8
0
100
AcDbLine
 10
4.73880728
 20
-12.01692132
 30
0.0
 11
4.73880728
 21
-11.57543939
 31
0.0
  0
LINE
  5
176C
330
762
100
AcDbEntity
  8
0
100
AcDbLine
 10
4.96414169
 20
-10.53247616
 30
0.0
 11
4.94646772
 21
-10.51480218
 31
0.0
  0
LINE
  5
176D
330
762
100
AcDbEntity
  8
0
100
AcDbLine
 10
5.01139068
 20
-10.76831052
 30
0.0
 11
4.80309318
 21
-10.56001303
 31
0.0
  0
LINE
  5
176E
330
762
100
AcDbEntity
  8
0
100
AcDbLine
 10
4.93108847
 20
-10.87659369
 30
0.0
 11
4.80397826
 21
-10.74948348
 31
0.0
  0
LINE
  5
176F
330
762
100
AcDbEntity
  8
0
100
AcDbLine
 10
4.93037588
 20
-10.43087914
 30
0.0
 11
4.76825522
 21
-10.48200127
 31
0.0
1001
HATCH_DISTANCE
1040
1.0
1001
HATCH_DISPLAY
1070
     0
1001
HATCH_TYPE
1070
     7
  0
LINE
  5
1770
330
762
100
AcDbEntity
  8
0
100
AcDbLine
 10
4.76825522
 20
-10.48200127
 30
0.0
 11
4.76825522
 21
-10.48200127
 31
0.0
1001
HATCH_DISTANCE
1040
1.0
1001
HATCH_DISPLAY
1070
     0
1001
HATCH_TYPE
1070
     7
  0
LINE
  5
1771
330
762
100
AcDbEntity
  8
0
100
AcDbLine
 10
4.76825522
 20
-10.48200127
 30
0.0
 11
4.93037588
 21
-10.43087914
 31
0.0
1001
HATCH_DISTANCE
1040
1.0
1001
HATCH_DISPLAY
1070
     0
1001
HATCH_TYPE
1070
     7
  0
LINE
  5
1772
330
762
100
AcDbEntity
  8
0
100
AcDbLine
 10
4.93037588
 20
-10.43087914
 30
0.0
 11
4.93037588
 21
-10.43087914
 31
0.0
1001
HATCH_DISTANCE
1040
1.0
1001
HATCH_DISPLAY
1070
     0
1001
HATCH_TYPE
1070
     7
  0
LINE
  5
1773
330
762
100
AcDbEntity
  8
0
100
AcDbLine
 10
4.93037588
 20
-10.43087914
 30
0.0
 11
4.76825522
 21
-10.48200127
 31
0.0
  0
LINE
  5
1774
330
762
100
AcDbEntity
  8
0
100
AcDbLine
 10
4.76825522
 20
-10.48200127
 30
0.0
 11
4.76825522
 21
-10.48200127
 31
0.0
  0
LINE
  5
1775
330
762
100
AcDbEntity
  8
0
100
AcDbLine
 10
4.76825522
 20
-10.48200127
 30
0.0
 11
4.93037588
 21
-10.43087914
 31
0.0
  0
LINE
  5
1776
330
762
100
AcDbEntity
  8
0
100
AcDbLine
 10
4.93037588
 20
-10.43087914
 30
0.0
 11
4.93037588
 21
-10.43087914
 31
0.0
  0
LINE
  5
1777
330
762
100
AcDbEntity
  8
0
100
AcDbLine
 10
4.93037588
 20
-10.43087914
 30
0.0
 11
4.76825522
 21
-10.48200127
 31
0.0
1001
HATCH_DISTANCE
1040
1.0
1001
HATCH_DISPLAY
1070
     0
1001
HATCH_TYPE
1070
     7
  0
LINE
  5
1778
330
762
100
AcDbEntity
  8
0
100
AcDbLine
 10
4.76825522
 20
-10.48200127
 30
0.0
 11
4.76825522
 21
-10.48200127
 31
0.0
1001
HATCH_DISTANCE
1040
1.0
1001
HATCH_DISPLAY
1070
     0
1001
HATCH_TYPE
1070
     7
  0
LINE
  5
1779
330
762
100
AcDbEntity
  8
0
100
AcDbLine
 10
4.76825522
 20
-10.48200127
 30
0.0
 11
4.93037588
 21
-10.43087914
 31
0.0
1001
HATCH_DISTANCE
1040
1.0
1001
HATCH_DISPLAY
1070
     0
1001
HATCH_TYPE
1070
     7
  0
LINE
  5
177A
330
762
100
AcDbEntity
  8
0
100
AcDbLine
 10
4.93037588
 20
-10.43087914
 30
0.0
 11
4.93037588
 21
-10.43087914
 31
0.0
1001
HATCH_DISTANCE
1040
1.0
1001
HATCH_DISPLAY
1070
     0
1001
HATCH_TYPE
1070
     7
  0
LINE
  5
177B
330
762
100
AcDbEntity
  8
0
100
AcDbLine
 10
4.93037588
 20
-10.43087914
 30
0.0
 11
4.76825522
 21
-10.48200127
 31
0.0
  0
LINE
  5
177C
330
762
100
AcDbEntity
  8
0
100
AcDbLine
 10
4.76825522
 20
-10.48200127
 30
0.0
 11
4.76825522
 21
-10.48200127
 31
0.0
  0
LINE
  5
177D
330
762
100
AcDbEntity
  8
0
100
AcDbLine
 10
4.76825522
 20
-10.48200127
 30
0.0
 11
4.93037588
 21
-10.43087914
 31
0.0
  0
LINE
  5
177E
330
762
100
AcDbEntity
  8
0
100
AcDbLine
 10
4.93037588
 20
-10.43087914
 30
0.0
 11
4.93037588
 21
-10.43087914
 31
0.0
  0
LINE
  5
177F
330
762
100
AcDbEntity
  8
0
100
AcDbLine
 10
4.73880728
 20
-11.57543939
 30
0.0
 11
4.73880728
 21
-12.01692132
 31
0.0
1001
HATCH_DISTANCE
1040
1.0
1001
HATCH_DISPLAY
1070
     0
1001
HATCH_TYPE
1070
     7
  0
LINE
  5
1780
330
762
100
AcDbEntity
  8
0
100
AcDbLine
 10
4.73880728
 20
-11.57543939
 30
0.0
 11
4.73880728
 21
-12.01692132
 31
0.0
  0
LINE
  5
1781
330
762
100
AcDbEntity
  8
0
100
AcDbLine
 10
6.26657543
 20
-12.0135183
 30
0.0
 11
4.73880728
 21
-11.57543939
 31
0.0
  0
LINE
  5
1782
330
762
100
AcDbEntity
  8
0
100
AcDbLine
 10
6.26657543
 20
-12.0135183
 30
0.0
 11
4.73880728
 21
-11.57543939
 31
0.0
1001
HATCH_DISTANCE
1040
1.0
1001
HATCH_DISPLAY
1070
     0
1001
HATCH_TYPE
1070
     7
  0
LINE
  5
1783
330
762
100
AcDbEntity
  8
0
100
AcDbLine
 10
6.26657543
 20
-12.0135183
 30
0.0
 11
4.73880728
 21
-11.57543939
 31
0.0
  0
LINE
  5
1784
330
762
100
AcDbEntity
  8
0
100
AcDbLine
 10
6.26657543
 20
-10.71555963
 30
0.0
 11
5.40083792
 21
-10.46731256
 31
0.0
  0
LINE
  5
1785
330
762
100
AcDbEntity
  8
0
100
AcDbLine
 10
5.85247763
 20
-11.32085412
 30
0.0
 11
5.05464041
 21
-11.09207665
 31
0.0
  0
LINE
  5
1786
330
762
100
AcDbEntity
  8
0
100
AcDbLine
 10
5.52173278
 20
-11.65582338
 30
0.0
 11
4.75265917
 21
-10.88674977
 31
0.0
  0
LINE
  5
1787
330
762
100
AcDbEntity
  8
0
100
AcDbLine
 10
5.57059134
 20
-11.01044916
 30
0.0
 11
5.40083792
 21
-10.96177514
 31
0.0
  0
ARC
  5
1788
330
762
100
AcDbEntity
  8
0
100
AcDbCircle
 10
5.74388876
 20
-10.22929376
 30
0.0
 40
1.443724365234395
100
AcDbArc
 50
245.20517737
 51
262.79482596
  0
LINE
  5
1789
330
762
100
AcDbEntity
  8
0
100
AcDbLine
 10
5.72119847
 20
-10.91236217
 30
0.0
 11
5.40083792
 21
-10.59200163
 31
0.0
  0
LINE
  5
178A
330
762
100
AcDbEntity
  8
0
100
AcDbLine
 10
5.57059134
 20
-10.95034042
 30
0.0
 11
5.40083792
 21
-10.78058701
 31
0.0
  0
LINE
  5
178B
330
762
100
AcDbEntity
  8
0
100
AcDbLine
 10
5.73703973
 20
-11.68254495
 30
0.0
 11
5.1835302
 21
-11.12903542
 31
0.0
  0
ARC
  5
178C
330
762
100
AcDbEntity
  8
0
100
AcDbCircle
 10
5.84219809
 20
-12.90724236
 30
0.0
 40
0.4243771362304749
100
AcDbArc
 50
0.0
 51
130.32984065
  0
LINE
  5
178D
330
762
100
AcDbEntity
  8
0
100
AcDbLine
 10
6.2347576
 20
-12.74601895
 30
0.0
 11
6.0034215
 21
-12.51468286
 31
0.0
  0
LINE
  5
178E
330
762
100
AcDbEntity
  8
0
100
AcDbLine
 10
6.26657543
 20
-13.34359292
 30
0.0
 11
6.0482347
 21
-13.12525219
 31
0.0
  0
LINE
  5
178F
330
762
100
AcDbEntity
  8
0
100
AcDbLine
 10
6.26657543
 20
-13.5321783
 30
0.0
 11
5.78383728
 21
-13.04944015
 31
0.0
  0
LINE
  5
1790
330
762
100
AcDbEntity
  8
0
100
AcDbLine
 10
6.26657543
 20
-13.15500754
 30
0.0
 11
5.64371154
 21
-12.53214366
 31
0.0
  0
LINE
  5
1791
330
762
100
AcDbEntity
  8
0
100
AcDbLine
 10
6.26657543
 20
-12.96642216
 30
0.0
 11
5.78666735
 21
-12.48651408
 31
0.0
  0
LINE
  5
1792
330
762
100
AcDbEntity
  8
0
100
AcDbLine
 10
5.59199782
 20
-12.99443303
 30
0.0
 11
6.07716085
 21
-13.13354633
 31
0.0
  0
ARC
  5
1793
330
762
100
AcDbEntity
  8
0
100
AcDbCircle
 10
5.82522147
 20
-13.09662561
 30
0.0
 40
0.2546303021907843
100
AcDbArc
 50
351.66285421
 51
156.33819216
  0
LINE
  5
1794
330
762
100
AcDbEntity
  8
0
100
AcDbLine
 10
6.26657543
 20
-13.61168572
 30
0.0
 11
6.26657543
 21
-12.90724236
 31
0.0
  0
LINE
  5
1795
330
762
100
AcDbEntity
  8
0
100
AcDbLine
 10
5.03172034
 20
-12.67449397
 30
0.0
 11
4.82005037
 21
-12.462824
 31
0.0
  0
LINE
  5
1796
330
762
100
AcDbEntity
  8
0
100
AcDbLine
 10
5.19854815
 20
-12.6527364
 30
0.0
 11
4.91448219
 21
-12.36867044
 31
0.0
  0
LINE
  5
1797
330
762
100
AcDbEntity
  8
0
100
AcDbLine
 10
4.9323616
 20
-12.7637206
 30
0.0
 11
4.75729021
 21
-12.58864921
 31
0.0
  0
LINE
  5
1798
330
762
100
AcDbEntity
  8
0
100
AcDbLine
 10
4.73880728
 20
-13.3501983
 30
0.0
 11
4.9085607
 21
-13.39887231
 31
0.0
  0
LINE
  5
1799
330
762
100
AcDbEntity
  8
0
100
AcDbLine
 10
4.9085607
 20
-13.70076013
 30
0.0
 11
4.9085607
 21
-13.39887231
 31
0.0
  0
LINE
  5
179A
330
762
100
AcDbEntity
  8
0
100
AcDbLine
 10
4.73880728
 20
-13.70076013
 30
0.0
 11
4.73880728
 21
-13.3501983
 31
0.0
  0
LINE
  5
179B
330
762
100
AcDbEntity
  8
0
100
AcDbLine
 10
4.9085607
 20
-13.31057977
 30
0.0
 11
4.9085607
 21
-13.22228082
 31
0.0
  0
LINE
  5
179C
330
762
100
AcDbEntity
  8
0
100
AcDbLine
 10
4.73880728
 20
-13.26190576
 30
0.0
 11
4.9085607
 21
-13.31057977
 31
0.0
  0
LINE
  5
179D
330
762
100
AcDbEntity
  8
0
100
AcDbLine
 10
5.05604016
 20
-13.26456992
 30
0.0
 11
4.73880728
 21
-12.94733705
 31
0.0
  0
LINE
  5
179E
330
762
100
AcDbEntity
  8
0
100
AcDbLine
 10
4.9085607
 20
-13.30567584
 30
0.0
 11
4.73880728
 21
-13.13592242
 31
0.0
  0
LINE
  5
179F
330
762
100
AcDbEntity
  8
0
100
AcDbLine
 10
4.73880728
 20
-13.26190576
 30
0.0
 11
4.73880728
 21
-12.71428911
 31
0.0
  0
LINE
  5
17A0
330
762
100
AcDbEntity
  8
0
100
AcDbLine
 10
4.9085607
 20
-13.49426122
 30
0.0
 11
4.77482538
 21
-13.3605259
 31
0.0
  0
LINE
  5
17A1
330
762
100
AcDbEntity
  8
0
100
AcDbLine
 10
4.9085607
 20
-13.6828466
 30
0.0
 11
4.73880728
 21
-13.51309318
 31
0.0
  0
LINE
  5
17A2
330
762
100
AcDbEntity
  8
0
100
AcDbLine
 10
4.93641275
 20
-13.89928403
 30
0.0
 11
4.73880776
 21
-13.70167903
 31
0.0
  0
LINE
  5
17A3
330
762
100
AcDbEntity
  8
0
100
AcDbLine
 10
4.91299763
 20
-12.7997326
 30
0.0
 11
5.39814626
 21
-12.93884362
 31
0.0
  0
LINE
  5
17A4
330
762
100
AcDbEntity
  8
0
100
AcDbLine
 10
5.32044148
 20
-13.34038587
 30
0.0
 11
4.73880728
 21
-12.75875167
 31
0.0
  0
ARC
  5
17A5
330
762
100
AcDbEntity
  8
0
100
AcDbCircle
 10
5.16318442
 20
-12.71253991
 30
0.0
 40
0.4243807411193908
100
AcDbArc
 50
17.66957755
 51
180.23615984
  0
LINE
  5
17A6
330
762
100
AcDbEntity
  8
0
100
AcDbLine
 10
5.64809465
 20
-12.91369752
 30
0.0
 11
5.04063566
 21
-12.30623853
 31
0.0
  0
LINE
  5
17A7
330
762
100
AcDbEntity
  8
0
100
AcDbLine
 10
5.77085043
 20
-12.84786793
 30
0.0
 11
5.21422182
 21
-12.29123931
 31
0.0
  0
LINE
  5
17A8
330
762
100
AcDbEntity
  8
0
100
AcDbLine
 10
6.26657543
 20
-13.61168572
 30
0.0
 11
4.9085607
 21
-13.22228082
 31
0.0
  0
LINE
  5
17A9
330
762
100
AcDbEntity
  8
0
100
AcDbLine
 10
5.58484281
 20
-13.41620182
 30
0.0
 11
4.99063536
 21
-12.82199436
 31
0.0
  0
ARC
  5
17AA
330
762
100
AcDbEntity
  8
0
100
AcDbCircle
 10
5.1462142
 20
-12.90192315
 30
0.0
 40
0.2546230173110999
100
AcDbArc
 50
351.66260169
 51
156.3381551
  0
LINE
  5
17AB
330
762
100
AcDbEntity
  8
0
100
AcDbLine
 10
5.84924414
 20
-13.49201777
 30
0.0
 11
5.25503418
 21
-12.89780781
 31
0.0
  0
LINE
  5
17AC
330
762
100
AcDbEntity
  8
0
100
AcDbLine
 10
6.11364546
 20
-13.56783371
 30
0.0
 11
5.39540096
 21
-12.84958921
 31
0.0
  0
LINE
  5
17AD
330
762
100
AcDbEntity
  8
0
100
AcDbLine
 10
6.35145213
 20
-13.70076013
 30
0.0
 11
6.35145213
 21
-10.25478753
 31
0.0
  0
LINE
  5
17AE
330
762
100
AcDbEntity
  8
0
100
AcDbLine
 10
6.26657543
 20
-12.39319482
 30
0.0
 11
4.92553092
 21
-12.00865411
 31
0.0
  0
LINE
  5
17AF
330
762
100
AcDbEntity
  8
0
100
AcDbLine
 10
4.92553092
 20
-12.00865411
 30
0.0
 11
6.26657543
 21
-12.39319482
 31
0.0
1001
HATCH_DISTANCE
1040
1.0
1001
HATCH_DISPLAY
1070
     0
1001
HATCH_TYPE
1070
     7
  0
LINE
  5
17B0
330
762
100
AcDbEntity
  8
0
100
AcDbLine
 10
4.92553092
 20
-12.00865411
 30
0.0
 11
6.26657543
 21
-12.39319482
 31
0.0
  0
LINE
  5
17B1
330
762
100
AcDbEntity
  8
0
100
AcDbLine
 10
5.462895
 20
-12.16274173
 30
0.0
 11
4.93058336
 21
-11.6304301
 31
0.0
  0
LINE
  5
17B2
330
762
100
AcDbEntity
  8
0
100
AcDbLine
 10
5.72729687
 20
-12.23855822
 30
0.0
 11
5.19498419
 21
-11.70624555
 31
0.0
  0
LINE
  5
17B3
330
762
100
AcDbEntity
  8
0
100
AcDbLine
 10
5.19849314
 20
-12.08692526
 30
0.0
 11
4.73880728
 21
-11.62723939
 31
0.0
  0
LINE
  5
17B4
330
762
100
AcDbEntity
  8
0
100
AcDbLine
 10
6.26657543
 20
-12.21208065
 30
0.0
 11
5.98818668
 21
-11.9336919
 31
0.0
  0
LINE
  5
17B5
330
762
100
AcDbEntity
  8
0
100
AcDbLine
 10
6.25610059
 20
-12.39019119
 30
0.0
 11
5.72378585
 21
-11.85787645
 31
0.0
  0
LINE
  5
17B6
330
762
100
AcDbEntity
  8
240
100
AcDbLine
 10
10.0
 20
-11.7
 30
0.0
 11
10.0
 21
-15.0
 31
0.0
  0
LINE
  5
17B7
330
762
100
AcDbEntity
  8
240
100
AcDbLine
 10
11.0
 20
-11.7
 30
0.0
 11
10.0
 21
-11.7
 31
0.0
  0
LINE
  5
17B8
330
762
100
AcDbEntity
  8
240
100
AcDbLine
 10
11.0
 20
-11.7
 30
0.0
 11
11.0
 21
-15.15
 31
0.0
  0
LINE
  5
17B9
330
762
100
AcDbEntity
  8
240
100
AcDbLine
 10
13.25980762
 20
-15.0
 30
0.0
 11
13.0
 21
-15.15
 31
0.0
  0
LINE
  5
17BA
330
762
100
AcDbEntity
  8
240
100
AcDbLine
 10
-19.0
 20
15.0
 30
0.0
 11
-14.5
 21
15.0
 31
0.0
  0
LINE
  5
17BB
330
762
100
AcDbEntity
  8
240
100
AcDbLine
 10
-38.0
 20
12.5
 30
0.0
 11
-35.5
 21
15.0
 31
0.0
  0
LINE
  5
17BC
330
762
100
AcDbEntity
  8
240
100
AcDbLine
 10
-46.0
 20
12.5
 30
0.0
 11
-38.0
 21
12.5
 31
0.0
  0
LINE
  5
17BD
330
762
100
AcDbEntity
  8
240
100
AcDbLine
 10
-54.0
 20
12.5
 30
0.0
 11
-46.0
 21
12.5
 31
0.0
  0
LINE
  5
17BE
330
762
100
AcDbEntity
  8
241
100
AcDbLine
 10
-19.0
 20
13.75
 30
0.0
 11
-19.0
 21
0.0
 31
0.0
  0
LINE
  5
17BF
330
762
100
AcDbEntity
  8
241
100
AcDbLine
 10
-21.5
 20
13.75
 30
0.0
 11
-21.5
 21
0.0
 31
0.0
  0
LINE
  5
17C0
330
762
100
AcDbEntity
  8
241
100
AcDbLine
 10
-29.5
 20
13.75
 30
0.0
 11
-29.5
 21
0.0
 31
0.0
  0
LINE
  5
17C1
330
762
100
AcDbEntity
  8
241
100
AcDbLine
 10
-32.0
 20
13.75
 30
0.0
 11
-32.0
 21
0.0
 31
0.0
  0
LINE
  5
17C2
330
762
100
AcDbEntity
  8
245
100
AcDbLine
 10
-27.4999651
 20
-5.13030215
 30
0.0
 11
-23.5000349
 21
-5.13030215
 31
0.0
  0
ELLIPSE
  5
17C3
330
762
100
AcDbEntity
  8
241
100
AcDbEllipse
 10
-25.5000349
 20
-5.08449496
 30
0.0
 11
-2.000524505802109
 21
0.0
 31
0.0
210
0.0
220
0.0
230
1.0
 40
0.93944625
 41
0.0
 42
6.283185307179584
  0
LINE
  5
17C4
330
762
100
AcDbEntity
  8
245
100
AcDbLine
 10
-25.5000349
 20
-3.20510972
 30
0.0
 11
-25.5000349
 21
-6.96388021
 31
0.0
  0
LINE
  5
17C5
330
762
100
AcDbEntity
  8
240
100
AcDbLine
 10
-29.5
 20
15.0
 30
0.0
 11
-21.5
 21
15.0
 31
0.0
  0
ARC
  5
17C6
330
762
100
AcDbEntity
  8
240
100
AcDbCircle
 10
-30.75
 20
13.75
 30
0.0
 40
1.24999999999827
100
AcDbArc
 50
0.0
 51
180.0
  0
LINE
  5
17C7
330
762
100
AcDbEntity
  8
240
100
AcDbLine
 10
-32.0
 20
13.75
 30
0.0
 11
-32.0
 21
15.0
 31
0.0
  0
LINE
  5
17C8
330
762
100
AcDbEntity
  8
240
100
AcDbLine
 10
-35.5
 20
15.0
 30
0.0
 11
-32.0
 21
15.0
 31
0.0
  0
LINE
  5
17C9
330
762
100
AcDbEntity
  8
240
100
AcDbLine
 10
-29.5
 20
13.75
 30
0.0
 11
-29.5
 21
15.0
 31
0.0
  0
ARC
  5
17CA
330
762
100
AcDbEntity
  8
240
100
AcDbCircle
 10
-20.25
 20
13.75
 30
0.0
 40
1.249999999998089
100
AcDbArc
 50
0.0
 51
180.0
  0
LINE
  5
17CB
330
762
100
AcDbEntity
  8
240
100
AcDbLine
 10
-21.5
 20
13.75
 30
0.0
 11
-21.5
 21
15.0
 31
0.0
  0
LINE
  5
17CC
330
762
100
AcDbEntity
  8
240
100
AcDbLine
 10
-19.0
 20
13.75
 30
0.0
 11
-19.0
 21
15.0
 31
0.0
  0
LINE
  5
17CD
330
762
100
AcDbEntity
  8
241
100
AcDbLine
 10
13.0
 20
15.15
 30
0.0
 11
13.0
 21
0.0
 31
0.0
  0
LINE
  5
17CE
330
762
100
AcDbEntity
  8
240
100
AcDbLine
 10
11.0
 20
11.7
 30
0.0
 11
11.0
 21
15.15
 31
0.0
  0
LINE
  5
17CF
330
762
100
AcDbEntity
  8
240
100
AcDbLine
 10
13.25980762
 20
15.0
 30
0.0
 11
13.0
 21
15.15
 31
0.0
  0
ARC
  5
17D0
330
762
100
AcDbEntity
  8
240
100
AcDbCircle
 10
1.97309836
 20
16.0
 30
0.0
 40
1.0
100
AcDbArc
 50
194.99999998
 51
270.0
  0
LINE
  5
17D1
330
762
100
AcDbEntity
  8
240
100
AcDbLine
 10
-13.0
 20
15.5
 30
0.0
 11
-13.0
 21
14.7
 31
0.0
  0
LINE
  5
17D2
330
762
100
AcDbEntity
  8
241
100
AcDbLine
 10
1.20577137
 20
15.35874397
 30
0.0
 11
1.20577137
 21
0.0
 31
0.0
  0
LINE
  5
17D3
330
762
100
AcDbEntity
  8
241
100
AcDbLine
 10
-6.12626129
 20
19.5
 30
0.0
 11
-6.12626129
 21
0.0
 31
0.0
  0
LINE
  5
17D4
330
762
100
AcDbEntity
  8
241
  6
CONTINUOUS
100
AcDbLine
 10
-7.5
 20
19.00000001
 30
0.0
 11
-7.5
 21
0.0
 31
0.0
  0
LINE
  5
17D5
330
762
100
AcDbEntity
  8
241
100
AcDbLine
 10
0.0
 20
19.14125603
 30
0.0
 11
0.0
 21
0.0
 31
0.0
  0
LINE
  5
17D6
330
762
100
AcDbEntity
  8
241
100
AcDbLine
 10
-2.0
 20
18.25
 30
0.0
 11
-2.0
 21
0.0
 31
0.0
  0
LINE
  5
17D7
330
762
100
AcDbEntity
  8
241
100
AcDbLine
 10
-4.5
 20
18.25
 30
0.0
 11
-4.5
 21
0.0
 31
0.0
  0
LINE
  5
17D8
330
762
100
AcDbEntity
  8
240
100
AcDbLine
 10
10.0
 20
15.0
 30
0.0
 11
1.97309836
 21
15.0
 31
0.0
  0
LINE
  5
17D9
330
762
100
AcDbEntity
  8
241
100
AcDbLine
 10
-14.5
 20
15.0
 30
0.0
 11
-14.5
 21
0.0
 31
0.0
  0
LINE
  5
17DA
330
762
100
AcDbEntity
  8
240
100
AcDbLine
 10
-14.2
 20
14.7
 30
0.0
 11
-13.0
 21
14.7
 31
0.0
  0
LINE
  5
17DB
330
762
100
AcDbEntity
  8
240
100
AcDbLine
 10
-14.2
 20
14.7
 30
0.0
 11
-14.5
 21
15.0
 31
0.0
  0
LINE
  5
17DC
330
762
100
AcDbEntity
  8
241
100
AcDbLine
 10
10.0
 20
11.7
 30
0.0
 11
10.0
 21
0.0
 31
0.0
  0
LINE
  5
17DD
330
762
100
AcDbEntity
  8
241
100
AcDbLine
 10
11.0
 20
11.7
 30
0.0
 11
11.0
 21
0.0
 31
0.0
  0
LINE
  5
17DE
330
762
100
AcDbEntity
  8
241
100
AcDbLine
 10
14.2
 20
15.0
 30
0.0
 11
14.2
 21
0.0
 31
0.0
  0
LINE
  5
17DF
330
762
100
AcDbEntity
  8
242
  6
HIDDEN2
100
AcDbLine
 10
8.0
 20
5.02045815
 30
0.0
 11
15.0
 21
0.0
 31
0.0
  0
LINE
  5
17E0
330
762
100
AcDbEntity
  8
242
  6
HIDDEN2
100
AcDbLine
 10
8.0
 20
0.0
 30
0.0
 11
15.0
 21
5.02045815
 31
0.0
  0
LINE
  5
17E1
330
762
100
AcDbEntity
  8
241
  6
HIDDEN2
100
AcDbLine
 10
8.0
 20
5.02045815
 30
0.0
 11
8.0
 21
0.0
 31
0.0
  0
LINE
  5
17E2
330
762
100
AcDbEntity
  8
241
  6
HIDDEN2
100
AcDbLine
 10
15.0
 20
5.25
 30
0.0
 11
15.0
 21
0.0
 31
0.0
  0
LINE
  5
17E3
330
762
100
AcDbEntity
  8
241
  6
HIDDEN2
100
AcDbLine
 10
20.0
 20
5.25
 30
0.0
 11
20.0
 21
0.0
 31
0.0
  0
TEXT
  5
17E4
330
762
100
AcDbEntity
  8
0
100
AcDbText
 10
6.38000125
 20
-8.89756092
 30
0.0
 40
1.8
  1
MGT20-U1/2-35
 50
90.0
  7
YOKO
100
AcDbText
  0
LINE
  5
17E5
330
762
100
AcDbEntity
  8
0
100
AcDbLine
 10
5.9055567
 20
-9.58803738
 30
0.0
 11
5.6826649
 21
-9.36514558
 31
0.0
  0
LINE
  5
17E6
330
762
100
AcDbEntity
  8
0
100
AcDbLine
 10
5.66303217
 20
-9.53409823
 30
0.0
 11
5.50179338
 21
-9.37285944
 31
0.0
  0
LINE
  5
17E7
330
762
100
AcDbEntity
  8
0
100
AcDbLine
 10
5.34415251
 20
-9.59238933
 30
0.0
 11
5.21688727
 21
-9.46512408
 31
0.0
  0
LINE
  5
17E8
330
762
100
AcDbEntity
  8
0
100
AcDbLine
 10
5.22257807
 20
-9.65940026
 30
0.0
 11
5.10086007
 21
-9.53768226
 31
0.0
  0
LINE
  5
17E9
330
762
100
AcDbEntity
  8
0
100
AcDbLine
 10
5.4878372
 20
-9.54748864
 30
0.0
 11
5.34929956
 21
-9.408951
 31
0.0
  0
LINE
  5
17EA
330
762
100
AcDbEntity
  8
241
  6
HIDDEN2
100
AcDbLine
 10
8.0
 20
5.02045815
 30
0.0
 11
15.0
 21
5.02045815
 31
0.0
  0
LINE
  5
17EB
330
762
100
AcDbEntity
  8
240
100
AcDbLine
 10
10.0
 20
11.7
 30
0.0
 11
10.0
 21
15.0
 31
0.0
  0
LINE
  5
17EC
330
762
100
AcDbEntity
  8
240
100
AcDbLine
 10
11.0
 20
11.7
 30
0.0
 11
10.0
 21
11.7
 31
0.0
  0
LINE
  5
17ED
330
762
100
AcDbEntity
  8
241
  6
HIDDEN2
100
AcDbLine
 10
15.0
 20
5.25
 30
0.0
 11
20.0
 21
5.25
 31
0.0
  0
LINE
  5
17EE
330
762
100
AcDbEntity
  8
240
100
AcDbLine
 10
-7.5
 20
19.00000001
 30
0.0
 11
-6.12626128
 21
19.5
 31
0.0
  0
LINE
  5
17EF
330
762
100
AcDbEntity
  8
240
100
AcDbLine
 10
-7.50000001
 20
19.0
 30
0.0
 11
-13.5
 21
19.0
 31
0.0
  0
LINE
  5
17F0
330
762
100
AcDbEntity
  8
241
  6
CONTINUOUS
100
AcDbLine
 10
-7.5
 20
15.2
 30
0.0
 11
-13.0
 21
15.2
 31
0.0
  0
LINE
  5
17F1
330
762
100
AcDbEntity
  8
240
100
AcDbLine
 10
-13.0
 20
15.5
 30
0.0
 11
-13.5
 21
16.0
 31
0.0
  0
LINE
  5
17F2
330
762
100
AcDbEntity
  8
240
100
AcDbLine
 10
-13.5
 20
19.0
 30
0.0
 11
-13.5
 21
16.0
 31
0.0
  0
ARC
  5
17F3
330
762
100
AcDbEntity
  8
240
100
AcDbCircle
 10
-3.25
 20
18.25
 30
0.0
 40
1.250000000000339
100
AcDbArc
 50
0.0
 51
180.0
  0
LINE
  5
17F4
330
762
100
AcDbEntity
  8
240
100
AcDbLine
 10
-4.5
 20
19.5
 30
0.0
 11
-6.12626129
 21
19.5
 31
0.0
  0
LINE
  5
17F5
330
762
100
AcDbEntity
  8
240
100
AcDbLine
 10
-4.5
 20
18.25
 30
0.0
 11
-4.5
 21
19.5
 31
0.0
  0
LINE
  5
17F6
330
762
100
AcDbEntity
  8
240
100
AcDbLine
 10
-0.63567449
 20
19.5
 30
0.0
 11
-2.0
 21
19.5
 31
0.0
  0
LINE
  5
17F7
330
762
100
AcDbEntity
  8
240
100
AcDbLine
 10
-0.50850794
 20
19.46592583
 30
0.0
 11
-0.63567449
 21
19.5
 31
0.0
  0
LINE
  5
17F8
330
762
100
AcDbEntity
  8
240
100
AcDbLine
 10
0.19859884
 20
18.75881905
 30
0.0
 11
1.00717253
 21
15.74118096
 31
0.0
  0
LINE
  5
17F9
330
762
100
AcDbEntity
  8
240
100
AcDbLine
 10
-2.0
 20
18.25
 30
0.0
 11
-2.0
 21
19.5
 31
0.0
  0
ARC
  5
17FA
330
762
100
AcDbEntity
  8
240
100
AcDbCircle
 10
-0.76732699
 20
18.5
 30
0.0
 40
1.0
100
AcDbArc
 50
15.0
 51
75.0
1001
GENIUS_GENOBJ-N-FIL_13
1002
{
1000
OWNER
1000
GEN
1002
}
1001
GENIUS_GENODEF_13
1002
{
1000
HIER
1070
     0
1002
}
1002
{
1000
MANEDIT
1070
     0
1002
}
1002
{
1000
NOSEL
1070
     0
1002
}
1002
{
1000
BEHIND
1070
     0
1002
}
1002
{
1000
OTHER
1070
     0
1002
}
1002
{
1000
REACTOR
1002
}
  0
LINE
  5
17FB
330
762
100
AcDbEntity
  8
240
100
AcDbLine
 10
11.0
 20
15.15
 30
0.0
 11
13.0
 21
15.15
 31
0.0
  0
LINE
  5
17FC
330
762
100
AcDbEntity
  8
240
100
AcDbLine
 10
35.0
 20
-14.0
 30
0.0
 11
35.0
 21
0.0
 31
0.0
  0
ARC
  5
17FD
330
762
100
AcDbEntity
  8
240
100
AcDbCircle
 10
34.0
 20
-14.0
 30
0.0
 40
1.0
100
AcDbArc
 50
270.0
 51
0.0
1001
GENIUS_GENOBJ-N-FIL_13
1002
{
1000
OWNER
1000
GEN
1002
}
1001
GENIUS_GENODEF_13
1002
{
1000
HIER
1070
     0
1002
}
1002
{
1000
MANEDIT
1070
     0
1002
}
1002
{
1000
NOSEL
1070
     0
1002
}
1002
{
1000
BEHIND
1070
     0
1002
}
1002
{
1000
OTHER
1070
     0
1002
}
1002
{
1000
REACTOR
1002
}
  0
ARC
  5
17FE
330
762
100
AcDbEntity
  8
240
100
AcDbCircle
 10
34.0
 20
14.0
 30
0.0
 40
1.0
100
AcDbArc
 50
0.0
 51
90.0
1001
GENIUS_GENOBJ-N-FIL_13
1002
{
1000
OWNER
1000
GEN
1002
}
1001
GENIUS_GENODEF_13
1002
{
1000
HIER
1070
     0
1002
}
1002
{
1000
MANEDIT
1070
     0
1002
}
1002
{
1000
NOSEL
1070
     0
1002
}
1002
{
1000
BEHIND
1070
     0
1002
}
1002
{
1000
OTHER
1070
     0
1002
}
1002
{
1000
REACTOR
1002
}
  0
LINE
  5
17FF
330
762
100
AcDbEntity
  8
240
100
AcDbLine
 10
35.0
 20
14.0
 30
0.0
 11
35.0
 21
0.0
 31
0.0
  0
ENDBLK
  5
89F
330
762
100
AcDbEntity
  8
0
100
AcDbBlockEnd
  0
BLOCK
  5
168B
330
1681
100
AcDbEntity
  8
0
100
AcDbBlockBegin
  2
*D10
 70
     1
 10
0.0
 20
0.0
 30
0.0
  3
*D10
  1

  0
LINE
  5
16C8
330
1681
100
AcDbEntity
  8
250
  6
CONTINUOUS
100
AcDbLine
 10
0.0
 20
19.64125603
 30
0.0
 11
0.0
 21
36.0
 31
0.0
  0
LINE
  5
16C9
330
1681
100
AcDbEntity
  8
250
  6
CONTINUOUS
100
AcDbLine
 10
35.0
 20
14.5
 30
0.0
 11
35.0
 21
36.0
 31
0.0
  0
LINE
  5
16CA
330
1681
100
AcDbEntity
  8
250
  6
CONTINUOUS
100
AcDbLine
 10
2.23
 20
35.0
 30
0.0
 11
32.77
 21
35.0
 31
0.0
  0
INSERT
  5
16CB
330
1681
100
AcDbEntity
  8
250
  6
CONTINUOUS
100
AcDbBlockReference
  2
_OPEN
 10
0.0
 20
35.0
 30
0.0
 41
2.23
 42
2.23
 43
2.23
 50
180.0
  0
INSERT
  5
16CC
330
1681
100
AcDbEntity
  8
250
  6
CONTINUOUS
100
AcDbBlockReference
  2
_OPEN
 10
35.0
 20
35.0
 30
0.0
 41
2.23
 42
2.23
 43
2.23
  0
MTEXT
  5
16CD
330
1681
100
AcDbEntity
  8
250
  6
CONTINUOUS
 62
    40
100
AcDbMText
 10
17.5
 20
37.4
 30
0.0
 40
2.8
 41
0.0
 71
     5
 72
     1
  1
\A1;35
1001
ACAD
1000
MTEXTBEGIN
1070
    73
1070
     1
1070
    44
1040
1.0
1070
    74
1070
     0
1000
MTEXTEND
  0
POINT
  5
16CE
330
1681
100
AcDbEntity
  8
DEFPOINTS
  6
CONTINUOUS
 62
     0
100
AcDbPoint
 10
0.0
 20
19.14125603
 30
0.0
  0
POINT
  5
16CF
330
1681
100
AcDbEntity
  8
DEFPOINTS
  6
CONTINUOUS
 62
     0
100
AcDbPoint
 10
35.0
 20
14.0
 30
0.0
  0
POINT
  5
16D0
330
1681
100
AcDbEntity
  8
DEFPOINTS
  6
CONTINUOUS
 62
     0
100
AcDbPoint
 10
35.0
 20
35.0
 30
0.0
  0
ENDBLK
  5
168C
330
1681
100
AcDbEntity
  8
0
100
AcDbBlockEnd
  0
BLOCK
  5
1697
330
168D
100
AcDbEntity
  8
0
100
AcDbBlockBegin
  2
*D11
 70
     1
 10
0.0
 20
0.0
 30
0.0
  3
*D11
  1

  0
LINE
  5
16D1
330
168D
100
AcDbEntity
  8
AM_5
100
AcDbLine
 10
34.5
 20
15.0
 30
0.0
 11
54.5
 21
15.0
 31
0.0
  0
LINE
  5
16D2
330
168D
100
AcDbEntity
  8
AM_5
100
AcDbLine
 10
34.5
 20
-15.0
 30
0.0
 11
54.5
 21
-15.0
 31
0.0
  0
LINE
  5
16D3
330
168D
100
AcDbEntity
  8
AM_5
100
AcDbLine
 10
53.5
 20
12.77
 30
0.0
 11
53.5
 21
-12.77
 31
0.0
  0
INSERT
  5
16D4
330
168D
100
AcDbEntity
  8
AM_5
100
AcDbBlockReference
  2
_OPEN
 10
53.5
 20
15.0
 30
0.0
 41
2.23
 42
2.23
 43
2.23
 50
90.0
  0
INSERT
  5
16D5
330
168D
100
AcDbEntity
  8
AM_5
100
AcDbBlockReference
  2
_OPEN
 10
53.5
 20
-15.0
 30
0.0
 41
2.23
 42
2.23
 43
2.23
 50
270.0
  0
MTEXT
  5
16D6
330
168D
100
AcDbEntity
  8
AM_5
 62
    40
100
AcDbMText
 10
51.1
 20
-1.48621162
 30
0.0
 40
2.8
 41
0.0
 71
     5
 72
     1
  1
\A1;%%c30
 11
0.0
 21
1.0
 31
0.0
1001
ACAD
1000
MTEXTBEGIN
1070
    73
1070
     1
1070
    44
1040
1.0
1070
    74
1070
     0
1000
MTEXTEND
  0
POINT
  5
16D7
330
168D
100
AcDbEntity
  8
DEFPOINTS
 62
     0
100
AcDbPoint
 10
34.0
 20
15.0
 30
0.0
  0
POINT
  5
16D8
330
168D
100
AcDbEntity
  8
DEFPOINTS
 62
     0
100
AcDbPoint
 10
34.0
 20
-15.0
 30
0.0
  0
POINT
  5
16D9
330
168D
100
AcDbEntity
  8
DEFPOINTS
 62
     0
100
AcDbPoint
 10
53.5
 20
-15.0
 30
0.0
  0
ENDBLK
  5
1698
330
168D
100
AcDbEntity
  8
0
100
AcDbBlockEnd
  0
BLOCK
  5
16A2
330
1699
100
AcDbEntity
  8
0
100
AcDbBlockBegin
  2
*D12
 70
     1
 10
0.0
 20
0.0
 30
0.0
  3
*D12
  1

  0
LINE
  5
16DA
330
1699
100
AcDbEntity
  8
250
  6
CONTINUOUS
100
AcDbLine
 10
35.5
 20
4.5
 30
0.0
 11
47.5
 21
4.5
 31
0.0
  0
LINE
  5
16DB
330
1699
100
AcDbEntity
  8
250
  6
CONTINUOUS
100
AcDbLine
 10
46.5
 20
-2.27
 30
0.0
 11
46.5
 21
2.27
 31
0.0
  0
INSERT
  5
16DC
330
1699
100
AcDbEntity
  8
250
  6
CONTINUOUS
100
AcDbBlockReference
  2
矢印なし
 10
46.5
 20
-4.5
 30
0.0
 41
2.23
 42
2.23
 43
2.23
 50
270.0
  0
INSERT
  5
16DD
330
1699
100
AcDbEntity
  8
250
  6
CONTINUOUS
100
AcDbBlockReference
  2
_OPEN
 10
46.5
 20
4.5
 30
0.0
 41
2.23
 42
2.23
 43
2.23
 50
90.0
  0
MTEXT
  5
16DE
330
1699
100
AcDbEntity
  8
250
  6
CONTINUOUS
 62
    40
100
AcDbMText
 10
44.1
 20
-1.06545661
 30
0.0
 40
2.8
 41
0.0
 71
     5
 72
     1
  1
\A1;{\H2.8;\U+2205}9
 11
0.0
 21
1.0
 31
0.0
1001
ACAD
1000
MTEXTBEGIN
1070
    73
1070
     1
1070
    44
1040
1.0
1070
    74
1070
     0
1000
MTEXTEND
  0
POINT
  5
16DF
330
1699
100
AcDbEntity
  8
DEFPOINTS
  6
CONTINUOUS
 62
     0
100
AcDbPoint
 10
35.0
 20
-4.5
 30
0.0
  0
POINT
  5
16E0
330
1699
100
AcDbEntity
  8
DEFPOINTS
  6
CONTINUOUS
 62
     0
100
AcDbPoint
 10
35.0
 20
4.5
 30
0.0
  0
POINT
  5
16E1
330
1699
100
AcDbEntity
  8
DEFPOINTS
  6
CONTINUOUS
 62
     0
100
AcDbPoint
 10
46.5
 20
4.5
 30
0.0
  0
ENDBLK
  5
16A3
330
1699
100
AcDbEntity
  8
0
100
AcDbBlockEnd
  0
ENDSEC
  0
SECTION
  2
ENTITIES
  0
INSERT
  5
6E6
330
1A
100
AcDbEntity
  8
245
100
AcDbBlockReference
  2
矢印なし
 10
175.62382697
 20
90.55123572
 30
0.0
  0
INSERT
  5
8DE
330
1A
100
AcDbEntity
  8
245
100
AcDbBlockReference
  2
矢印なし
 10
350.62382697
 20
244.55123572
 30
0.0
  0
INSERT
  5
8DF
330
1A
100
AcDbEntity
  8
245
100
AcDbBlockReference
  2
矢印なし
 10
546.62382697
 20
391.55123572
 30
0.0
  0
INSERT
  5
8E0
330
1A
100
AcDbEntity
  8
245
100
AcDbBlockReference
  2
矢印なし
 10
735.62382697
 20
524.55123572
 30
0.0
  0
INSERT
  5
8E1
330
1A
100
AcDbEntity
  8
245
100
AcDbBlockReference
  2
矢印なし
 10
896.62382697
 20
678.55123572
 30
0.0
  0
INSERT
  5
8E2
330
1A
100
AcDbEntity
  8
245
100
AcDbBlockReference
  2
矢印なし
 10
1071.62382697
 20
832.55123572
 30
0.0
  0
INSERT
  5
8E3
330
1A
100
AcDbEntity
  8
245
100
AcDbBlockReference
  2
矢印なし
 10
1246.62382697
 20
965.55123572
 30
0.0
  0
INSERT
  5
8E4
330
1A
100
AcDbEntity
  8
245
100
AcDbBlockReference
  2
矢印なし
 10
1400.62382697
 20
1112.55123572
 30
0.0
  0
TEXT
  5
8E6
330
1A
100
AcDbEntity
  8
241
100
AcDbText
 10
-69.0
 20
49.0
 30
0.0
 40
5.0
  1
MGT20-U1/2-35
  7
YOKO
 11
-69.0
 21
49.0
 31
0.0
100
AcDbText
 73
     1
  0
DIMENSION
  5
1560
330
1A
100
AcDbEntity
  8
250
  6
CONTINUOUS
100
AcDbDimension
  2
*D10
 10
35.0
 20
35.0
 30
0.0
 11
17.5
 21
37.4
 31
0.0
 70
    32
  3
BIGT$0
100
AcDbAlignedDimension
 13
0.0
 23
19.14125603
 33
0.0
 14
35.0
 24
14.0
 34
0.0
100
AcDbRotatedDimension
  0
DIMENSION
  5
15D4
330
1A
100
AcDbEntity
  8
AM_5
100
AcDbDimension
  2
*D11
 10
53.5
 20
-15.0
 30
0.0
 11
53.5
 21
-1.48621162
 31
0.0
 70
   160
  1
%%c<>
  3
BIGT$0
100
AcDbAlignedDimension
 13
34.0
 23
15.0
 33
0.0
 14
34.0
 24
-15.0
 34
0.0
 50
90.0
100
AcDbRotatedDimension
  0
DIMENSION
  5
15F6
330
1A
100
AcDbEntity
  8
250
  6
CONTINUOUS
100
AcDbDimension
  2
*D12
 10
46.5
 20
4.5
 30
0.0
 11
46.5
 21
-1.06545661
 31
0.0
 70
   160
  1
{\H2.8;\U+2205}<>
  3
BIGT
100
AcDbAlignedDimension
 13
35.0
 23
-4.5
 33
0.0
 14
35.0
 24
4.5
 34
0.0
 50
90.0
100
AcDbRotatedDimension
1001
ACAD
1000
DSTYLE
1002
{
1070
   287
1070
     3
1070
   287
1070
     3
1070
   287
1070
     3
1070
   287
1070
     3
1070
    75
1070
     1
1070
    77
1070
     3
1070
   145
1040
1.0
1070
   279
1070
     0
1070
   289
1070
     3
1070
     6
1000
矢印なし
1002
}
  0
LEADER
  5
1676
330
1A
100
AcDbEntity
  8
250
  6
CONTINUOUS
100
AcDbLeader
  3
BIGT
 76
     2
 10
11.91674761
 20
5.02045815
 30
0.0
 10
22.0
 20
28.0
 30
0.0
1001
ACAD
1000
DSTYLE
1002
{
1070
     6
1000
OPEN
1070
   343
1005
594
1002
}
  0
LINE
  5
167F
330
1A
100
AcDbEntity
  8
250
  6
CONTINUOUS
100
AcDbLine
 10
22.0
 20
28.0
 30
0.0
 11
34.37936977
 21
28.0
 31
0.0
1001
ITEMNAME
1000
LNSP2
  0
MTEXT
  5
1680
330
1A
100
AcDbEntity
  8
251
  6
CONTINUOUS
100
AcDbMText
 10
26.32603644
 20
29.0
 30
0.0
 40
2.8
 41
0.0
 71
     7
 72
     1
  1
□7
  7
YOKO
1001
ITEMNAME
1000
LNSP3
1001
ACAD
1000
MTEXTBEGIN
1070
    73
1070
     1
1070
    44
1040
1.0
1070
    74
1070
     0
1000
MTEXTEND
1000
MTEXTBEGIN
1070
    73
1070
     1
1070
    44
1040
1.0
1070
    74
1070
     0
1000
MTEXTEND
1000
MTEXTBEGIN
1070
    73
1070
     1
1070
    44
1040
1.0
1070
    74
1070
     0
1000
MTEXTEND
1000
MTEXTBEGIN
1070
    73
1070
     1
1070
    44
1040
1.0
1070
    74
1070
     0
1000
MTEXTEND
1000
MTEXTBEGIN
1070
    73
1070
     1
1070
    44
1040
1.0
1070
    74
1070
     0
1000
MTEXTEND
1000
MTEXTBEGIN
1070
    73
1070
     1
1070
    44
1040
1.0
1070
    74
1070
     0
1000
MTEXTEND
  0
INSERT
  5
1800
330
1A
100
AcDbEntity
  8
245
100
AcDbBlockReference
  2
1
 10
0.0
 20
0.0
 30
0.0
  0
VIEWPORT
  5
22
330
17
100
AcDbEntity
 67
     1
  8
0
100
AcDbViewport
 10
261.51769912
 20
148.5
 30
0.0
 40
523.03539823
 41
297.0
 68
     1
 69
     1
1001
ACAD
1000
MVIEW
1002
{
1070
    16
1010
0.0
1020
0.0
1030
0.0
1010
0.0
1020
0.0
1030
1.0
1040
0.0
1040
297.0
1040
261.51769912
1040
148.5
1040
50.0
1040
0.0
1040
0.0
1070
     0
1070
   100
1070
     1
1070
     1
1070
     0
1070
     0
1070
     0
1070
     0
1040
0.0
1040
0.0
1040
0.0
1040
1.0
1040
1.0
1040
10.0
1040
10.0
1070
     0
1002
{
1002
}
1002
}
  0
ENDSEC
  0
SECTION
  2
OBJECTS
  0
DICTIONARY
  5
C
330
0
100
AcDbDictionary
  3
ACAD_GROUP
350
D
  3
ACAD_LAYOUT
350
565
  3
ACAD_MLINESTYLE
350
E
  3
ACAD_PLOTSETTINGS
350
566
  3
ACAD_PLOTSTYLENAME
350
563
  3
ACDBHEADERROUNDTRIPXREC
350
1802
  3
GRADE_DWG
350
540
  0
DICTIONARY
  5
1015
330
1A
100
AcDbDictionary
280
     1
  3
ACAD_LAYOUTSELFREF
360
1824
  0
DICTIONARY
  5
1013
330
17
100
AcDbDictionary
280
     1
  3
ACAD_LAYOUTSELFREF
360
1823
  0
DICTIONARY
  5
D
102
{ACAD_REACTORS
330
C
102
}
330
C
100
AcDbDictionary
  3
*A1
350
6C7
  3
*A2
350
6C8
  3
*A3
350
6D4
  3
*A4
350
6D5
  3
DREC-1
350
5FC
  3
DREC-2
350
654
  3
DREC-3
350
673
  0
DICTIONARY
  5
565
102
{ACAD_REACTORS
330
C
102
}
330
C
100
AcDbDictionary
  0
DICTIONARY
  5
E
102
{ACAD_REACTORS
330
C
102
}
330
C
100
AcDbDictionary
  3
STANDARD
350
13
  0
DICTIONARY
  5
566
102
{ACAD_REACTORS
330
C
102
}
330
C
100
AcDbDictionary
  3
A3_0_5倍_
350
758
  3
A3_1倍_
350
757
  3
A3_1倍__2000_
350
707
  3
A3_2倍_
350
759
  3
A4_0_5倍_
350
755
  3
A4_1倍_
350
754
  3
A4_1倍__2000_
350
708
  3
A4_2倍_
350
756
  0
ACDBDICTIONARYWDFLT
  5
563
102
{ACAD_REACTORS
330
C
102
}
330
C
100
AcDbDictionary
281
     1
  3
Normal
350
564
100
AcDbDictionaryWithDefault
340
564
  0
DICTIONARY
  5
1802
102
{ACAD_REACTORS
330
C
102
}
330
C
100
AcDbDictionary
  3
CEPSNTYPE
350
180C
  3
DIMSTYLEDATA
350
1810
  3
FINGERPRINTGUID
350
180D
  3
HYPERLINKBASE
350
1805
  3
INSUNITS
350
180B
  3
LAYOUTDICT
350
1807
  3
LWETCUNION
350
180A
  3
PLOTSETDICT
350
1808
  3
PLOTSTYLNAMDICT
350
1809
  3
PSVPSCALE
350
180F
  3
PUCSBASE
350
1813
  3
PUCSORGBACK
350
1819
  3
PUCSORGBOTTOM
350
1815
  3
PUCSORGFRONT
350
1818
  3
PUCSORGLEFT
350
1816
  3
PUCSORGRIGHT
350
1817
  3
PUCSORGTOP
350
1814
  3
PUCSORTHOREF
350
1811
  3
PUCSORTHOVIEW
350
1812
  3
STYLESHEET
350
1806
  3
TSTACKALIGN
350
1803
  3
TSTACKSIZE
350
1804
  3
UCSBASE
350
181C
  3
UCSORGBACK
350
1822
  3
UCSORGBOTTOM
350
181E
  3
UCSORGFRONT
350
1821
  3
UCSORGLEFT
350
181F
  3
UCSORGRIGHT
350
1820
  3
UCSORGTOP
350
181D
  3
UCSORTHOREF
350
181A
  3
UCSORTHOVIEW
350
181B
  3
VERSIONGUID
350
180E
  0
DICTIONARY
  5
540
102
{ACAD_REACTORS
330
C
102
}
330
C
100
AcDbDictionary
  3
VERSION
350
560
  0
XRECORD
  5
1824
102
{ACAD_REACTORS
330
1015
102
}
330
1015
100
AcDbXrecord
340
1A
  0
XRECORD
  5
1823
102
{ACAD_REACTORS
330
1013
102
}
330
1013
100
AcDbXrecord
340
17
  0
GROUP
  5
6C7
102
{ACAD_REACTORS
330
D
102
}
330
D
100
AcDbGroup
300

 70
     0
 71
     1
1001
GRPNAME
1000
DMA00
  0
GROUP
  5
6C8
102
{ACAD_REACTORS
330
D
102
}
330
D
100
AcDbGroup
300

 70
     0
 71
     1
1001
GRPNAME
1000
DMA00
  0
GROUP
  5
6D4
102
{ACAD_REACTORS
330
D
102
}
330
D
100
AcDbGroup
300

 70
     0
 71
     1
1001
GRPNAME
1000
DMA00
  0
GROUP
  5
6D5
102
{ACAD_REACTORS
330
D
102
}
330
D
100
AcDbGroup
300

 70
     0
 71
     1
1001
GRPNAME
1000
DMA00
  0
GROUP
  5
5FC
102
{ACAD_REACTORS
330
D
102
}
330
D
100
AcDbGroup
300

 70
     0
 71
     1
1001
GRPNAME
1000
DREC-
1001
GPARA
1000
xsiz
1000
44.182
1000
ysiz
1000
40.677
1000
angl
1000
0
1000
ctyp
1000
0
1000
csiz
1000
5
1000
lfnt
1000
cont
1000
hcnt
1000
hoff
1000
vcnt
1000
voff
1000
opnt
1000
4
1000
dxpt
1000
0
1000
dypt
1000
0
  0
GROUP
  5
654
102
{ACAD_REACTORS
330
D
102
}
330
D
100
AcDbGroup
300

 70
     0
 71
     1
1001
GRPNAME
1000
DREC-
1001
GPARA
1000
xsiz
1000
54.592
1000
ysiz
1000
53.036
1000
angl
1000
0
1000
ctyp
1000
0
1000
csiz
1000
5
1000
lfnt
1000
cont
1000
hcnt
1000
hoff
1000
vcnt
1000
voff
1000
opnt
1000
4
1000
dxpt
1000
0
1000
dypt
1000
0
  0
GROUP
  5
673
102
{ACAD_REACTORS
330
D
102
}
330
D
100
AcDbGroup
300

 70
     0
 71
     1
1001
GRPNAME
1000
DREC-
1001
GPARA
1000
xsiz
1000
30.363
1000
ysiz
1000
36.175
1000
angl
1000
0
1000
ctyp
1000
0
1000
csiz
1000
5
1000
lfnt
1000
cont
1000
hcnt
1000
hoff
1000
vcnt
1000
voff
1000
opnt
1000
4
1000
dxpt
1000
0
1000
dypt
1000
0
  0
MLINESTYLE
  5
13
102
{ACAD_REACTORS
330
E
102
}
330
E
100
AcDbMlineStyle
  2
STANDARD
 70
     0
  3

 62
     0
 51
90.0
 52
90.0
 71
     2
 49
0.5
 62
   256
  6
BYLAYER
 49
-0.5
 62
   256
  6
BYLAYER
  0
PLOTSETTINGS
  5
758
102
{ACAD_REACTORS
330
566
102
}
330
566
100
AcDbPlotSettings
  1
A3(0.5倍)
  2
\\AWTECPC05\HP DeskJet 1120C
  4
A3
  6

 40
5.95841646
 41
13.49375153
 42
6.04309082
 43
3.67242432
 44
296.92599487
 45
419.94665527
 46
89.96
 47
127.14
 48
0.0
 49
0.0
140
0.0
141
0.0
142
1.0
143
2.0
 70
  1716
 72
     1
 73
     1
 74
     2
  7
big.ctb
 75
    17
147
0.5
148
0.0
149
0.0
  0
PLOTSETTINGS
  5
757
102
{ACAD_REACTORS
330
566
102
}
330
566
100
AcDbPlotSettings
  1
A3(1倍)
  2
\\AWTECPC05\HP DeskJet 1120C
  4
A3
  6

 40
5.95841646
 41
13.49375153
 42
6.04309082
 43
3.67242432
 44
296.92599487
 45
419.94665527
 46
37.46
 47
52.89
 48
0.0
 49
0.0
140
0.0
141
0.0
142
1.0
143
1.0
 70
  1716
 72
     1
 73
     1
 74
     2
  7
big.ctb
 75
    16
147
1.0
148
0.0
149
0.0
  0
PLOTSETTINGS
  5
707
102
{ACAD_REACTORS
330
566
102
}
330
566
100
AcDbPlotSettings
  1
A3(1倍)(2000)
  2
SII LS-1300 (D-SCAN)
  4
User258
  6

 40
3.17499995
 41
3.17499995
 42
3.17498779
 43
3.17498779
 44
419.98898315
 45
296.98950195
 46
58.32
 47
40.32
 48
0.0
 49
0.0
140
0.0
141
0.0
142
1.0
143
1.0
 70
  1716
 72
     1
 73
     0
 74
     2
  7
big.ctb
 75
    16
147
1.0
148
0.0
149
0.0
  0
PLOTSETTINGS
  5
759
102
{ACAD_REACTORS
330
566
102
}
330
566
100
AcDbPlotSettings
  1
A3(2倍)
  2
\\AWTECPC05\HP DeskJet 1120C
  4
A3
  6

 40
5.95841646
 41
13.49375153
 42
6.04309082
 43
3.67242432
 44
296.92599487
 45
419.94665527
 46
-67.54
 47
-95.61
 48
0.0
 49
0.0
140
0.0
141
0.0
142
1.0
143
0.5
 70
  1716
 72
     1
 73
     1
 74
     2
  7
big.ctb
 75
    27
147
2.0
148
0.0
149
0.0
  0
PLOTSETTINGS
  5
755
102
{ACAD_REACTORS
330
566
102
}
330
566
100
AcDbPlotSettings
  1
A4(0.5倍)
  2
\\AWTECPC05\HP DeskJet 1120C
  4
A4
  6

 40
4.18041658
 41
13.49374962
 42
4.18040466
 43
3.92642212
 44
209.97332764
 45
296.92599487
 46
48.31
 47
65.5
 48
0.0
 49
0.0
140
0.0
141
0.0
142
1.0
143
2.0
 70
  1716
 72
     1
 73
     1
 74
     2
  7
big.ctb
 75
    17
147
0.5
148
0.0
149
0.0
  0
PLOTSETTINGS
  5
754
102
{ACAD_REACTORS
330
566
102
}
330
566
100
AcDbPlotSettings
  1
A4(1倍)
  2
\\AWTECPC05\HP DeskJet 1120C
  4
A4
  6

 40
4.18041658
 41
13.49374962
 42
4.18040466
 43
3.92642212
 44
209.97332764
 45
296.92599487
 46
-4.19
 47
-8.75
 48
0.0
 49
0.0
140
0.0
141
0.0
142
1.0
143
1.0
 70
  1716
 72
     1
 73
     1
 74
     2
  7
big.ctb
 75
    16
147
1.0
148
0.0
149
0.0
  0
PLOTSETTINGS
  5
708
102
{ACAD_REACTORS
330
566
102
}
330
566
100
AcDbPlotSettings
  1
A4(1倍)(2000)
  2
SII LS-1300 (D-SCAN)
  4
User259
  6

 40
3.17499995
 41
3.17499995
 42
3.17498779
 43
3.17500305
 44
296.98950195
 45
209.99449158
 46
-3.18
 47
-3.18
 48
0.0
 49
0.0
140
0.0
141
0.0
142
1.0
143
1.0
 70
  1716
 72
     1
 73
     0
 74
     2
  7
big.ctb
 75
    16
147
1.0
148
0.0
149
0.0
  0
PLOTSETTINGS
  5
756
102
{ACAD_REACTORS
330
566
102
}
330
566
100
AcDbPlotSettings
  1
A4(2倍)
  2
\\AWTECPC05\HP DeskJet 1120C
  4
A4
  6

 40
4.18041658
 41
13.49374962
 42
4.18040466
 43
3.92642212
 44
209.97332764
 45
296.92599487
 46
-109.19
 47
-157.25
 48
0.0
 49
0.0
140
0.0
141
0.0
142
1.0
143
0.5
 70
  1716
 72
     1
 73
     1
 74
     2
  7
big.ctb
 75
    27
147
2.0
148
0.0
149
0.0
  0
ACDBPLACEHOLDER
  5
564
102
{ACAD_REACTORS
330
563
102
}
330
563
100
AcDbPlaceHolder
280
     0
  0
XRECORD
  5
180C
102
{ACAD_REACTORS
330
1802
102
}
330
1802
100
AcDbXrecord
 90
        0
  0
XRECORD
  5
1810
102
{ACAD_REACTORS
330
1802
102
}
330
1802
100
AcDbXrecord
1000
DSTYLE
1002
{
1070
    79
 70
     2
1070
   179
 70
     3
1070
   341
340
594
1070
   343
340
594
1070
   344
340
594
1070
   371
 70
    -1
1070
   372
 70
    -1
1002
}
  0
XRECORD
  5
180D
102
{ACAD_REACTORS
330
1802
102
}
330
1802
100
AcDbXrecord
  1
{51294030-9CB4-11D3-8E18-00A0C925D94D}
  0
XRECORD
  5
1805
102
{ACAD_REACTORS
330
1802
102
}
330
1802
100
AcDbXrecord
  1

  0
XRECORD
  5
180B
102
{ACAD_REACTORS
330
1802
102
}
330
1802
100
AcDbXrecord
 90
        0
  0
XRECORD
  5
1807
102
{ACAD_REACTORS
330
1802
102
}
330
1802
100
AcDbXrecord
340
565
  0
XRECORD
  5
180A
102
{ACAD_REACTORS
330
1802
102
}
330
1802
100
AcDbXrecord
 90
    10781
  0
XRECORD
  5
1808
102
{ACAD_REACTORS
330
1802
102
}
330
1802
100
AcDbXrecord
340
566
  0
XRECORD
  5
1809
102
{ACAD_REACTORS
330
1802
102
}
330
1802
100
AcDbXrecord
340
563
  0
XRECORD
  5
180F
102
{ACAD_REACTORS
330
1802
102
}
330
1802
100
AcDbXrecord
 40
0.0
  0
XRECORD
  5
1813
102
{ACAD_REACTORS
330
1802
102
}
330
1802
100
AcDbXrecord
340
0
  0
XRECORD
  5
1819
102
{ACAD_REACTORS
330
1802
102
}
330
1802
100
AcDbXrecord
 10
0.0
 20
0.0
 30
0.0
  0
XRECORD
  5
1815
102
{ACAD_REACTORS
330
1802
102
}
330
1802
100
AcDbXrecord
 10
0.0
 20
0.0
 30
0.0
  0
XRECORD
  5
1818
102
{ACAD_REACTORS
330
1802
102
}
330
1802
100
AcDbXrecord
 10
0.0
 20
0.0
 30
0.0
  0
XRECORD
  5
1816
102
{ACAD_REACTORS
330
1802
102
}
330
1802
100
AcDbXrecord
 10
0.0
 20
0.0
 30
0.0
  0
XRECORD
  5
1817
102
{ACAD_REACTORS
330
1802
102
}
330
1802
100
AcDbXrecord
 10
0.0
 20
0.0
 30
0.0
  0
XRECORD
  5
1814
102
{ACAD_REACTORS
330
1802
102
}
330
1802
100
AcDbXrecord
 10
0.0
 20
0.0
 30
0.0
  0
XRECORD
  5
1811
102
{ACAD_REACTORS
330
1802
102
}
330
1802
100
AcDbXrecord
340
0
  0
XRECORD
  5
1812
102
{ACAD_REACTORS
330
1802
102
}
330
1802
100
AcDbXrecord
 70
     0
  0
XRECORD
  5
1806
102
{ACAD_REACTORS
330
1802
102
}
330
1802
100
AcDbXrecord
  1
big.ctb
  0
XRECORD
  5
1803
102
{ACAD_REACTORS
330
1802
102
}
330
1802
100
AcDbXrecord
 90
        1
  0
XRECORD
  5
1804
102
{ACAD_REACTORS
330
1802
102
}
330
1802
100
AcDbXrecord
 90
       70
  0
XRECORD
  5
181C
102
{ACAD_REACTORS
330
1802
102
}
330
1802
100
AcDbXrecord
340
0
  0
XRECORD
  5
1822
102
{ACAD_REACTORS
330
1802
102
}
330
1802
100
AcDbXrecord
 10
0.0
 20
0.0
 30
0.0
  0
XRECORD
  5
181E
102
{ACAD_REACTORS
330
1802
102
}
330
1802
100
AcDbXrecord
 10
0.0
 20
0.0
 30
0.0
  0
XRECORD
  5
1821
102
{ACAD_REACTORS
330
1802
102
}
330
1802
100
AcDbXrecord
 10
0.0
 20
0.0
 30
0.0
  0
XRECORD
  5
181F
102
{ACAD_REACTORS
330
1802
102
}
330
1802
100
AcDbXrecord
 10
0.0
 20
0.0
 30
0.0
  0
XRECORD
  5
1820
102
{ACAD_REACTORS
330
1802
102
}
330
1802
100
AcDbXrecord
 10
0.0
 20
0.0
 30
0.0
  0
XRECORD
  5
181D
102
{ACAD_REACTORS
330
1802
102
}
330
1802
100
AcDbXrecord
 10
0.0
 20
0.0
 30
0.0
  0
XRECORD
  5
181A
102
{ACAD_REACTORS
330
1802
102
}
330
1802
100
AcDbXrecord
340
0
  0
XRECORD
  5
181B
102
{ACAD_REACTORS
330
1802
102
}
330
1802
100
AcDbXrecord
 70
     0
  0
XRECORD
  5
180E
102
{ACAD_REACTORS
330
1802
102
}
330
1802
100
AcDbXrecord
  1
{DB83D5CB-021B-49C7-B0FE-D7C219970ABA}
  0
XRECORD
  5
560
102
{ACAD_REACTORS
330
540
102
}
330
540
100
AcDbXrecord
  1
2.0.0
  0
ENDSEC
  0
EOF
