  0
SECTION
  2
HEADER
  9
$ACADVER
  1
AC1014
  9
$ACADMAINTVER
 70
     9
  9
$DWGCODEPAGE
  3
ANSI_932
  9
$INSBASE
 10
0.0
 20
0.0
 30
0.0
  9
$EXTMIN
 10
-70.01627236
 20
-19.56602343
 30
-0.00152582
  9
$EXTMAX
 10
169.51797158
 20
54.96461863
 30
0.00000003
  9
$LIMMIN
 10
0.0
 20
0.0
  9
$LIMMAX
 10
420.0
 20
297.0
  9
$ORTHOMODE
 70
     0
  9
$REGENMODE
 70
     1
  9
$FILLMODE
 70
     1
  9
$QTEXTMODE
 70
     0
  9
$MIRRTEXT
 70
     1
  9
$DRAGMODE
 70
     2
  9
$LTSCALE
 40
10.0
  9
$OSMODE
 70
   549
  9
$ATTMODE
 70
     1
  9
$TEXTSIZE
 40
3.0
  9
$TRACEWID
 40
1.0
  9
$TEXTSTYLE
  7
YOKO
  9
$CLAYER
  8
245
  9
$CELTYPE
  6
BYLAYER
  9
$CECOLOR
 62
   256
  9
$CELTSCALE
 40
1.0
  9
$DELOBJ
 70
     1
  9
$DISPSILH
 70
     0
  9
$DIMSCALE
 40
1.0
  9
$DIMASZ
 40
2.0
  9
$DIMEXO
 40
2.0
  9
$DIMDLI
 40
2.5
  9
$DIMRND
 40
0.0
  9
$DIMDLE
 40
0.0
  9
$DIMEXE
 40
2.0
  9
$DIMTP
 40
0.0
  9
$DIMTM
 40
0.0
  9
$DIMTXT
 40
4.0
  9
$DIMCEN
 40
0.0
  9
$DIMTSZ
 40
0.0
  9
$DIMTOL
 70
     0
  9
$DIMLIM
 70
     0
  9
$DIMTIH
 70
     0
  9
$DIMTOH
 70
     0
  9
$DIMSE1
 70
     0
  9
$DIMSE2
 70
     0
  9
$DIMTAD
 70
     3
  9
$DIMZIN
 70
     8
  9
$DIMBLK
  1

  9
$DIMASO
 70
     1
  9
$DIMSHO
 70
     1
  9
$DIMPOST
  1

  9
$DIMAPOST
  1

  9
$DIMALT
 70
     0
  9
$DIMALTD
 70
     2
  9
$DIMALTF
 40
25.4
  9
$DIMLFAC
 40
1.0
  9
$DIMTOFL
 70
     1
  9
$DIMTVP
 40
0.0
  9
$DIMTIX
 70
     1
  9
$DIMSOXD
 70
     0
  9
$DIMSAH
 70
     1
  9
$DIMBLK1
  1
OPEN
  9
$DIMBLK2
  1
OPEN
  9
$DIMSTYLE
  2
BIGT
  9
$DIMCLRD
 70
   256
  9
$DIMCLRE
 70
   256
  9
$DIMCLRT
 70
    40
  9
$DIMTFAC
 40
1.0
  9
$DIMGAP
 40
1.0
  9
$DIMJUST
 70
     0
  9
$DIMSD1
 70
     0
  9
$DIMSD2
 70
     0
  9
$DIMTOLJ
 70
     1
  9
$DIMTZIN
 70
     8
  9
$DIMALTZ
 70
     0
  9
$DIMALTTZ
 70
     0
  9
$DIMFIT
 70
     3
  9
$DIMUPT
 70
     0
  9
$DIMUNIT
 70
     2
  9
$DIMDEC
 70
     3
  9
$DIMTDEC
 70
     3
  9
$DIMALTU
 70
     2
  9
$DIMALTTD
 70
     2
  9
$DIMTXSTY
  7
STANDARD
  9
$DIMAUNIT
 70
     0
  9
$LUNITS
 70
     2
  9
$LUPREC
 70
     3
  9
$SKETCHINC
 40
1.0
  9
$FILLETRAD
 40
0.0
  9
$AUNITS
 70
     0
  9
$AUPREC
 70
     3
  9
$MENU
  1
.
  9
$ELEVATION
 40
0.0
  9
$PELEVATION
 40
0.0
  9
$THICKNESS
 40
0.0
  9
$LIMCHECK
 70
     0
  9
$BLIPMODE
 70
     0
  9
$CHAMFERA
 40
10.0
  9
$CHAMFERB
 40
10.0
  9
$CHAMFERC
 40
0.0
  9
$CHAMFERD
 40
0.0
  9
$SKPOLY
 70
     0
  9
$TDCREATE
 40
2455128.591631214
  9
$TDUPDATE
 40
2455316.501361400
  9
$TDINDWG
 40
0.0042017593
  9
$TDUSRTIMER
 40
0.0042017593
  9
$USRTIMER
 70
     1
  9
$ANGBASE
 50
0.0
  9
$ANGDIR
 70
     0
  9
$PDMODE
 70
    35
  9
$PDSIZE
 40
-5.0
  9
$PLINEWID
 40
0.0
  9
$COORDS
 70
     0
  9
$SPLFRAME
 70
     0
  9
$SPLINETYPE
 70
     6
  9
$SPLINESEGS
 70
     8
  9
$ATTDIA
 70
     0
  9
$ATTREQ
 70
     1
  9
$HANDLING
 70
-16383
  9
$HANDSEED
  5
16A6
  9
$SURFTAB1
 70
     6
  9
$SURFTAB2
 70
     6
  9
$SURFTYPE
 70
     6
  9
$SURFU
 70
     6
  9
$SURFV
 70
     6
  9
$UCSNAME
  2

  9
$UCSORG
 10
0.0
 20
0.0
 30
0.0
  9
$UCSXDIR
 10
1.0
 20
0.0
 30
0.0
  9
$UCSYDIR
 10
0.0
 20
1.0
 30
0.0
  9
$PUCSNAME
  2

  9
$PUCSORG
 10
0.0
 20
0.0
 30
0.0
  9
$PUCSXDIR
 10
1.0
 20
0.0
 30
0.0
  9
$PUCSYDIR
 10
0.0
 20
1.0
 30
0.0
  9
$USERI1
 70
     1
  9
$USERI2
 70
     0
  9
$USERI3
 70
     0
  9
$USERI4
 70
     0
  9
$USERI5
 70
     0
  9
$USERR1
 40
0.0
  9
$USERR2
 40
0.0
  9
$USERR3
 40
0.0
  9
$USERR4
 40
0.0
  9
$USERR5
 40
0.0
  9
$WORLDVIEW
 70
     1
  9
$SHADEDGE
 70
     3
  9
$SHADEDIF
 70
    70
  9
$TILEMODE
 70
     1
  9
$MAXACTVP
 70
    16
  9
$PINSBASE
 10
0.0
 20
0.0
 30
0.0
  9
$PLIMCHECK
 70
     0
  9
$PEXTMIN
 10
1.00000000E+20
 20
1.00000000E+20
 30
1.00000000E+20
  9
$PEXTMAX
 10
-1.00000000E+20
 20
-1.00000000E+20
 30
-1.00000000E+20
  9
$PLIMMIN
 10
0.0
 20
0.0
  9
$PLIMMAX
 10
420.0
 20
297.0
  9
$UNITMODE
 70
     0
  9
$VISRETAIN
 70
     0
  9
$PLINEGEN
 70
     0
  9
$PSLTSCALE
 70
     1
  9
$TREEDEPTH
 70
  3020
  9
$PICKSTYLE
 70
     0
  9
$CMLSTYLE
  2
STANDARD
  9
$CMLJUST
 70
     0
  9
$CMLSCALE
 40
1.0
  9
$PROXYGRAPHICS
 70
     1
  9
$MEASUREMENT
 70
     1
  0
ENDSEC
  0
SECTION
  2
CLASSES
  0
CLASS
  1
XRECORD
  2
AcDbXrecord
  3
AutoCAD 2000
 90
        0
280
     0
281
     0
  0
CLASS
  1
ACDBDICTIONARYWDFLT
  2
AcDbDictionaryWithDefault
  3
AutoCAD 2000
 90
        0
280
     0
281
     0
  0
CLASS
  1
ACDBPLACEHOLDER
  2
AcDbPlaceHolder
  3
AutoCAD 2000
 90
        0
280
     0
281
     0
  0
CLASS
  1
LAYOUT
  2
AcDbLayout
  3
AutoCAD 2000
 90
        0
280
     0
281
     0
  0
CLASS
  1
PLOTSETTINGS
  2
AcDbPlotSettings
  3
AutoCAD 2000
 90
        0
280
     0
281
     0
  0
CLASS
  1
LONG_TRANSACTION
  2
AcDbLongTransaction
  3
AutoCAD 2000
 90
        0
280
     0
281
     0
  0
CLASS
  1
LWPOLYLINE
  2
AcDbPolyline
  3
AutoCAD 2000
 90
        0
280
     0
281
     1
  0
CLASS
  1
HATCH
  2
AcDbHatch
  3
AutoCAD 2000
 90
        0
280
     0
281
     1
  0
CLASS
  1
XRECORD
  2
AcDbXrecord
  3
AutoCAD 2000
 90
        0
280
     0
281
     0
  0
CLASS
  1
LONG_TRANSACTION
  2
AcDbLongTransaction
  3
AutoCAD 2000
 90
        0
280
     0
281
     0
  0
CLASS
  1
LWPOLYLINE
  2
AcDbPolyline
  3
AutoCAD 2000
 90
        0
280
     0
281
     1
  0
CLASS
  1
HATCH
  2
AcDbHatch
  3
AutoCAD 2000
 90
        0
280
     0
281
     1
  0
CLASS
  1
XRECORD
  2
AcDbXrecord
  3
AutoCAD 2000
 90
        0
280
     0
281
     0
  0
CLASS
  1
LONG_TRANSACTION
  2
AcDbLongTransaction
  3
AutoCAD 2000
 90
        0
280
     0
281
     0
  0
CLASS
  1
LWPOLYLINE
  2
AcDbPolyline
  3
AutoCAD 2000
 90
        0
280
     0
281
     1
  0
CLASS
  1
HATCH
  2
AcDbHatch
  3
AutoCAD 2000
 90
        0
280
     0
281
     1
  0
CLASS
  1
XRECORD
  2
AcDbXrecord
  3
AutoCAD 2000
 90
        0
280
     0
281
     0
  0
ENDSEC
  0
SECTION
  2
TABLES
  0
TABLE
  2
VPORT
  5
8
330
0
100
AcDbSymbolTable
 70
     3
  0
VPORT
  5
1681
330
8
100
AcDbSymbolTableRecord
100
AcDbViewportTableRecord
  2
*ACTIVE
 70
     0
 10
0.0
 20
0.0
 11
1.0
 21
1.0
 12
49.75084961
 22
17.6992976
 13
0.0
 23
0.0
 14
7.0
 24
7.0
 15
7.0
 25
7.0
 16
0.0
 26
0.0
 36
1.0
 17
0.0
 27
0.0
 37
0.0
 40
168.18224796
 41
1.43184713
 42
50.0
 43
0.0
 44
0.0
 50
0.0
 51
0.0
 71
     0
 72
  2000
 73
     1
 74
     0
 75
     0
 76
     0
 77
     0
 78
     0
  0
ENDTAB
  0
TABLE
  2
LTYPE
  5
5
330
0
100
AcDbSymbolTable
 70
     3
  0
LTYPE
  5
14
330
5
100
AcDbSymbolTableRecord
100
AcDbLinetypeTableRecord
  2
BYBLOCK
 70
     0
  3

 72
    65
 73
     0
 40
0.0
  0
LTYPE
  5
15
330
5
100
AcDbSymbolTableRecord
100
AcDbLinetypeTableRecord
  2
BYLAYER
 70
     0
  3

 72
    65
 73
     0
 40
0.0
  0
LTYPE
  5
16
330
5
100
AcDbSymbolTableRecord
100
AcDbLinetypeTableRecord
  2
CONTINUOUS
 70
     0
  3
Solid line
 72
    65
 73
     0
 40
0.0
  0
LTYPE
  5
258
330
5
100
AcDbSymbolTableRecord
100
AcDbLinetypeTableRecord
  2
CENTER2
 70
     0
  3
___ _ ___ _ ___ _ ___ _ ___ _ ___ _ ___ _ ___ _
 72
    65
 73
     4
 40
1.125
 49
0.75
 74
     0
 49
-0.125
 74
     0
 49
0.125
 74
     0
 49
-0.125
 74
     0
  0
LTYPE
  5
25C
330
5
100
AcDbSymbolTableRecord
100
AcDbLinetypeTableRecord
  2
HIDDEN2
 70
     0
  3
_ _ _ _ _ _ _ _ _ _ _ _ _ _ _ _ _ _ _ _ _ _ _ _
 72
    65
 73
     2
 40
0.1875
 49
0.125
 74
     0
 49
-0.0625
 74
     0
  0
ENDTAB
  0
TABLE
  2
LAYER
  5
2
330
0
100
AcDbSymbolTable
 70
    10
  0
LAYER
  5
F
330
2
100
AcDbSymbolTableRecord
100
AcDbLayerTableRecord
  2
0
 70
     0
 62
     7
  6
CONTINUOUS
  0
LAYER
  5
1AA
330
2
100
AcDbSymbolTableRecord
100
AcDbLayerTableRecord
  2
240
 70
     0
 62
     4
  6
CONTINUOUS
  0
LAYER
  5
1AB
330
2
100
AcDbSymbolTableRecord
100
AcDbLayerTableRecord
  2
241
 70
     0
 62
   211
  6
CONTINUOUS
  0
LAYER
  5
1AC
330
2
100
AcDbSymbolTableRecord
100
AcDbLayerTableRecord
  2
242
 70
     0
 62
     3
  6
CONTINUOUS
  0
LAYER
  5
1AD
330
2
100
AcDbSymbolTableRecord
100
AcDbLayerTableRecord
  2
243
 70
     0
 62
   211
  6
HIDDEN2
  0
LAYER
  5
1AF
330
2
100
AcDbSymbolTableRecord
100
AcDbLayerTableRecord
  2
245
 70
     0
 62
     2
  6
CENTER2
  0
LAYER
  5
21E
330
2
100
AcDbSymbolTableRecord
100
AcDbLayerTableRecord
  2
250
 70
     0
 62
     3
  6
CONTINUOUS
  0
LAYER
  5
21F
330
2
100
AcDbSymbolTableRecord
100
AcDbLayerTableRecord
  2
251
 70
     0
 62
    40
  6
CONTINUOUS
  0
LAYER
  5
5C4
330
2
100
AcDbSymbolTableRecord
100
AcDbLayerTableRecord
  2
DEFPOINTS
 70
     0
 62
     7
  6
CONTINUOUS
  0
LAYER
  5
A8B
330
2
100
AcDbSymbolTableRecord
100
AcDbLayerTableRecord
  2
AM_5
 70
     0
 62
     3
  6
CONTINUOUS
  0
ENDTAB
  0
TABLE
  2
STYLE
  5
3
330
0
100
AcDbSymbolTable
 70
     2
  0
STYLE
  5
10
330
3
100
AcDbSymbolTableRecord
100
AcDbTextStyleTableRecord
  2
STANDARD
 70
     0
 40
0.0
 41
1.0
 50
0.0
 71
     0
 42
3.0
  3
romans.shx
  4
BIGFONT.SHX
  0
STYLE
  5
339
330
3
100
AcDbSymbolTableRecord
100
AcDbTextStyleTableRecord
  2
YOKO
 70
     0
 40
0.0
 41
1.0
 50
0.0
 71
     0
 42
3.0
  3
romans.shx
  4
extfont.shx
  0
ENDTAB
  0
TABLE
  2
VIEW
  5
6
330
0
100
AcDbSymbolTable
 70
     0
  0
ENDTAB
  0
TABLE
  2
UCS
  5
7
330
0
100
AcDbSymbolTable
 70
     0
  0
ENDTAB
  0
TABLE
  2
APPID
  5
9
330
0
100
AcDbSymbolTable
 70
    15
  0
APPID
  5
11
330
9
100
AcDbSymbolTableRecord
100
AcDbRegAppTableRecord
  2
ACAD
 70
     0
  0
APPID
  5
1B1
330
9
100
AcDbSymbolTableRecord
100
AcDbRegAppTableRecord
  2
GLOBAL
 70
     0
  0
APPID
  5
2A4
330
9
100
AcDbSymbolTableRecord
100
AcDbRegAppTableRecord
  2
DETAIL
 70
     0
  0
APPID
  5
5FD
330
9
100
AcDbSymbolTableRecord
100
AcDbRegAppTableRecord
  2
GRPNAME
 70
     0
  0
APPID
  5
5FE
330
9
100
AcDbSymbolTableRecord
100
AcDbRegAppTableRecord
  2
GPARA
 70
     0
  0
APPID
  5
6C4
330
9
100
AcDbSymbolTableRecord
100
AcDbRegAppTableRecord
  2
DCO15
 70
     0
  0
APPID
  5
6C5
330
9
100
AcDbSymbolTableRecord
100
AcDbRegAppTableRecord
  2
ITEMNAME
 70
     0
  0
APPID
  5
6C6
330
9
100
AcDbSymbolTableRecord
100
AcDbRegAppTableRecord
  2
GRADE_0
 70
     0
  0
APPID
  5
8C4
330
9
100
AcDbSymbolTableRecord
100
AcDbRegAppTableRecord
  2
GENIUS_GENODEF_13
 70
     0
  0
APPID
  5
8C5
330
9
100
AcDbSymbolTableRecord
100
AcDbRegAppTableRecord
  2
GENIUS_GENOREF_13
 70
     0
  0
APPID
  5
8C6
330
9
100
AcDbSymbolTableRecord
100
AcDbRegAppTableRecord
  2
GENIUS_GENOBJ-N-FIL_13
 70
     0
  0
APPID
  5
8C7
330
9
100
AcDbSymbolTableRecord
100
AcDbRegAppTableRecord
  2
HATCH_TYPE
 70
     0
  0
APPID
  5
8C8
330
9
100
AcDbSymbolTableRecord
100
AcDbRegAppTableRecord
  2
HATCH_DISPLAY
 70
     0
  0
APPID
  5
8C9
330
9
100
AcDbSymbolTableRecord
100
AcDbRegAppTableRecord
  2
HATCH_DISTANCE
 70
     0
  0
APPID
  5
DD1
330
9
100
AcDbSymbolTableRecord
100
AcDbRegAppTableRecord
  2
CONTENTBLOCKICON
 70
     0
  0
ENDTAB
  0
TABLE
  2
DIMSTYLE
  5
A
330
0
100
AcDbSymbolTable
 70
     2
  0
DIMSTYLE
105
725
102
{ACAD_REACTORS
330
BE7
102
}
330
A
100
AcDbSymbolTableRecord
100
AcDbDimStyleTableRecord
  2
BIGT
 70
     0
  3

  4

  5

  6
OPEN
  7
OPEN
 40
1.0
 41
2.23
 42
0.5
 43
2.5
 44
1.0
 45
0.0
 46
0.0
 47
0.0
 48
0.0
140
2.8
141
0.0
142
0.0
143
25.4
144
1.0
145
0.0
146
1.0
147
1.0
 71
     0
 72
     0
 73
     0
 74
     0
 75
     0
 76
     0
 77
     3
 78
     8
170
     0
171
     2
172
     1
173
     1
174
     1
175
     0
176
   256
177
   256
178
    40
270
     2
271
     3
272
     3
273
     2
274
     2
340
10
275
     0
280
     0
281
     0
282
     0
283
     1
284
     8
285
     0
286
     0
287
     3
288
     0
  0
DIMSTYLE
105
A8C
102
{ACAD_REACTORS
330
BDA
330
BE8
102
}
330
A
100
AcDbSymbolTableRecord
100
AcDbDimStyleTableRecord
  2
BIGT$0
 70
     0
  3

  4

  5
OPEN
  6

  7

 40
1.0
 41
2.23
 42
0.5
 43
7.0
 44
1.0
 45
0.0
 46
0.0
 47
0.0
 48
0.01
140
2.8
141
0.0
142
0.0
143
25.4
144
1.0
145
0.0
146
1.0
147
1.0
 71
     0
 72
     0
 73
     0
 74
     0
 75
     0
 76
     0
 77
     3
 78
     9
170
     0
171
     2
172
     1
173
     0
174
     1
175
     0
176
   256
177
   256
178
    40
270
     2
271
     3
272
     3
273
     2
274
     2
340
10
275
     0
280
     0
281
     0
282
     0
283
     1
284
     8
285
     0
286
     0
287
     3
288
     0
  0
ENDTAB
  0
TABLE
  2
BLOCK_RECORD
  5
1
330
0
100
AcDbSymbolTable
 70
     7
  0
BLOCK_RECORD
  5
1A
102
{ACAD_XDICTIONARY
360
DCF
102
}
330
1
100
AcDbSymbolTableRecord
100
AcDbBlockTableRecord
  2
*MODEL_SPACE
  0
BLOCK_RECORD
  5
17
102
{ACAD_XDICTIONARY
360
DCD
102
}
330
1
100
AcDbSymbolTableRecord
100
AcDbBlockTableRecord
  2
*PAPER_SPACE
  0
BLOCK_RECORD
  5
594
330
1
100
AcDbSymbolTableRecord
100
AcDbBlockTableRecord
  2
_OPEN
  0
BLOCK_RECORD
  5
6E3
330
1
100
AcDbSymbolTableRecord
100
AcDbBlockTableRecord
  2
矢印なし
  0
BLOCK_RECORD
  5
762
330
1
100
AcDbSymbolTableRecord
100
AcDbBlockTableRecord
  2
1
1001
CONTENTBLOCKICON
1071
        0
1004
2800000020000000200000000100080000000000000400000000000000000000000000000000000000000000000080000080000000808000800000008000800080800000C0C0C000C0DCC000F0CAA6000020400000206000002080000020A0000020C0000020E00000400000004020000040400000406000004080000040A0
1004
000040C0000040E00000600000006020000060400000606000006080000060A0000060C0000060E00000800000008020000080400000806000008080000080A0000080C0000080E00000A0000000A0200000A0400000A0600000A0800000A0A00000A0C00000A0E00000C0000000C0200000C0400000C0600000C0800000C0
1004
A00000C0C00000C0E00000E0000000E0200000E0400000E0600000E0800000E0A00000E0C00000E0E00040000000400020004000400040006000400080004000A0004000C0004000E00040200000402020004020400040206000402080004020A0004020C0004020E000404000004040200040404000404060004040800040
1004
40A0004040C0004040E00040600000406020004060400040606000406080004060A0004060C0004060E00040800000408020004080400040806000408080004080A0004080C0004080E00040A0000040A0200040A0400040A0600040A0800040A0A00040A0C00040A0E00040C0000040C0200040C0400040C0600040C08000
1004
40C0A00040C0C00040C0E00040E0000040E0200040E0400040E0600040E0800040E0A00040E0C00040E0E00080000000800020008000400080006000800080008000A0008000C0008000E00080200000802020008020400080206000802080008020A0008020C0008020E00080400000804020008040400080406000804080
1004
008040A0008040C0008040E00080600000806020008060400080606000806080008060A0008060C0008060E00080800000808020008080400080806000808080008080A0008080C0008080E00080A0000080A0200080A0400080A0600080A0800080A0A00080A0C00080A0E00080C0000080C0200080C0400080C0600080C0
1004
800080C0A00080C0C00080C0E00080E0000080E0200080E0400080E0600080E0800080E0A00080E0C00080E0E000C0000000C0002000C0004000C0006000C0008000C000A000C000C000C000E000C0200000C0202000C0204000C0206000C0208000C020A000C020C000C020E000C0400000C0402000C0404000C0406000C0
1004
408000C040A000C040C000C040E000C0600000C0602000C0604000C0606000C0608000C060A000C060C000C060E000C0800000C0802000C0804000C0806000C0808000C080A000C080C000C080E000C0A00000C0A02000C0A04000C0A06000C0A08000C0A0A000C0A0C000C0A0E000C0C00000C0C02000C0C04000C0C06000
1004
C0C08000C0C0A000F0FBFF00A4A0A000808080000000FF0000FF000000FFFF00FF000000FF00FF00FFFF0000FFFFFF0000000000000000000000000000000000000000000000000000000000000000000000000000000000000000000000000000000000000000000000000000000000000000000000000000000000000000
1004
00000000000000000000000000000000000000000000000000000000000000000000000000000000000000000000000000000000000000000000000000000000000000000000000000000000000000000000000000000000000000000000000000000000000000000000000000000000000000000000000000000000000000
1004
00000000000000000000000000000000000000000000000000000000000000000000000000000000000000000000000000000000000000000000000000000000000000000000000000000000000000000000000000000000000000000000000000000000000000000000000000000000000000000000000000000000000000
1004
0000000000000000000000000000000000000000000000000000000000000000000000000000000000000000000000000000000000000000000000000000000000000000000000000000000000000000000000000000000000000000FEFE0000000000000000000000000000000000000000000000FEFEFEFEFEFEFEFEE7FE
1004
FEFEFEFEFEFEFEFEFEFEFEFEFEFEFEFEFEFE00000000FE00FBE7E7FBE7E7E7000000000000000000000000000000E7E700FE000000FBFEFBFBE7E7E7E7E7E7FBFBFBFBFFFFFFFFFFFFFFFFFBFBFBE7E7E7FEFB000000FEFEFEFEFEFEFEFEE7FEFEFEFEFFFFFFFFFFFFFFFFFEFEFEFEFEFEFE0000000000000000000000FEFE
1004
00000000000000000000000000000000000000000000000000000000000000000000000000000000000000000000000000000000000000000000000000000000000000000000000000000000000000000000000000000000000000000000000000000000000000000000000000000000000000000000000000000000000000
1004
00000000000000000000000000000000000000000000000000000000000000000000000000000000000000000000000000000000000000000000000000000000000000000000000000000000000000000000000000000000000000000000000000000000000000000000000000000000000000000000000000000000000000
1004
00000000000000000000000000000000000000000000000000000000000000000000000000000000000000000000000000000000000000000000000000000000000000000000000000000000000000000000000000000000000000000000000000000000000000000000000000000000000000000000000000000000000000
1004
0000000000000000000000000000000000000000000000000000000000000000000000000000000000000000000000000000000000000000
  0
BLOCK_RECORD
  5
BE9
330
1
100
AcDbSymbolTableRecord
100
AcDbBlockTableRecord
  2
*D3
  0
BLOCK_RECORD
  5
BF5
330
1
100
AcDbSymbolTableRecord
100
AcDbBlockTableRecord
  2
*D4
  0
BLOCK_RECORD
  5
C00
330
1
100
AcDbSymbolTableRecord
100
AcDbBlockTableRecord
  2
*D5
  0
ENDTAB
  0
ENDSEC
  0
SECTION
  2
BLOCKS
  0
BLOCK
  5
1B
330
1A
100
AcDbEntity
  8
0
100
AcDbBlockBegin
  2
*MODEL_SPACE
 70
     0
 10
0.0
 20
0.0
 30
0.0
  3
*MODEL_SPACE
  1

  0
ENDBLK
  5
1C
330
1A
100
AcDbEntity
  8
0
100
AcDbBlockEnd
  0
BLOCK
  5
18
330
17
100
AcDbEntity
 67
     1
  8
0
100
AcDbBlockBegin
  2
*PAPER_SPACE
 70
     0
 10
0.0
 20
0.0
 30
0.0
  3
*PAPER_SPACE
  1

  0
ENDBLK
  5
19
330
17
100
AcDbEntity
 67
     1
  8
0
100
AcDbBlockEnd
  0
BLOCK
  5
598
330
594
100
AcDbEntity
  8
0
100
AcDbBlockBegin
  2
_OPEN
 70
     0
 10
0.0
 20
0.0
 30
0.0
  3
_OPEN
  1

  0
LINE
  5
595
330
594
100
AcDbEntity
  8
0
  6
BYBLOCK
 62
     0
100
AcDbLine
 10
-1.0
 20
0.16666667
 30
0.0
 11
0.0
 21
0.0
 31
0.0
  0
LINE
  5
596
330
594
100
AcDbEntity
  8
0
  6
BYBLOCK
 62
     0
100
AcDbLine
 10
-1.0
 20
-0.16666667
 30
0.0
 11
0.0
 21
0.0
 31
0.0
  0
LINE
  5
597
330
594
100
AcDbEntity
  8
0
  6
BYBLOCK
 62
     0
100
AcDbLine
 10
0.0
 20
0.0
 30
0.0
 11
-1.0
 21
0.0
 31
0.0
  0
ENDBLK
  5
599
330
594
100
AcDbEntity
  8
0
100
AcDbBlockEnd
  0
BLOCK
  5
6E4
330
6E3
100
AcDbEntity
  8
0
100
AcDbBlockBegin
  2
矢印なし
 70
     0
 10
0.0
 20
0.0
 30
0.0
  3
矢印なし
  1

  0
ENDBLK
  5
6E5
330
6E3
100
AcDbEntity
  8
0
100
AcDbBlockEnd
  0
BLOCK
  5
89F
330
762
100
AcDbEntity
  8
0
100
AcDbBlockBegin
  2
1
 70
     0
 10
0.0
 20
0.0
 30
0.0
  3
1
  1

  0
LINE
  5
1562
330
762
100
AcDbEntity
  8
240
100
AcDbLine
 10
125.0
 20
15.0
 30
0.0
 11
1.97309836
 21
15.0
 31
0.0
  0
LINE
  5
1563
330
762
100
AcDbEntity
  8
240
100
AcDbLine
 10
125.0
 20
-15.0
 30
0.0
 11
1.97309836
 21
-15.0
 31
0.0
  0
LINE
  5
1564
330
762
100
AcDbEntity
  8
245
100
AcDbLine
 10
-70.0
 20
0.0
 30
0.0
 11
151.0
 21
0.0
 31
0.0
  0
LINE
  5
1565
330
762
100
AcDbEntity
  8
241
100
AcDbLine
 10
-14.5
 20
15.0
 30
0.0
 11
-14.5
 21
0.0
 31
0.0
  0
LINE
  5
1566
330
762
100
AcDbEntity
  8
241
100
AcDbLine
 10
-4.5
 20
18.25
 30
0.0
 11
-4.5
 21
0.0
 31
0.0
  0
LINE
  5
1567
330
762
100
AcDbEntity
  8
241
100
AcDbLine
 10
-2.0
 20
18.25
 30
0.0
 11
-2.0
 21
0.0
 31
0.0
  0
LINE
  5
1568
330
762
100
AcDbEntity
  8
241
100
AcDbLine
 10
0.0
 20
19.14125603
 30
0.0
 11
0.0
 21
0.0
 31
0.0
  0
LINE
  5
1569
330
762
100
AcDbEntity
  8
241
  6
CONTINUOUS
100
AcDbLine
 10
-7.5
 20
19.00000001
 30
0.0
 11
-7.5
 21
0.0
 31
0.0
  0
LINE
  5
156A
330
762
100
AcDbEntity
  8
241
100
AcDbLine
 10
-6.12626129
 20
19.5
 30
0.0
 11
-6.12626129
 21
0.0
 31
0.0
  0
LINE
  5
156B
330
762
100
AcDbEntity
  8
241
100
AcDbLine
 10
1.20577137
 20
15.35874397
 30
0.0
 11
1.20577137
 21
0.0
 31
0.0
  0
LINE
  5
156C
330
762
100
AcDbEntity
  8
241
100
AcDbLine
 10
-32.0
 20
13.75
 30
0.0
 11
-32.0
 21
0.0
 31
0.0
  0
LINE
  5
156D
330
762
100
AcDbEntity
  8
241
100
AcDbLine
 10
-29.5
 20
13.75
 30
0.0
 11
-29.5
 21
0.0
 31
0.0
  0
LINE
  5
156E
330
762
100
AcDbEntity
  8
241
100
AcDbLine
 10
-21.5
 20
13.75
 30
0.0
 11
-21.5
 21
0.0
 31
0.0
  0
LINE
  5
156F
330
762
100
AcDbEntity
  8
241
100
AcDbLine
 10
-19.0
 20
13.75
 30
0.0
 11
-19.0
 21
0.0
 31
0.0
  0
LINE
  5
1570
330
762
100
AcDbEntity
  8
243
100
AcDbLine
 10
-42.0
 20
-12.5
 30
0.0
 11
-42.0
 21
12.5
 31
0.0
1001
GENIUS_GENOREF_13
1005
0
  0
LINE
  5
1571
330
762
100
AcDbEntity
  8
243
100
AcDbLine
 10
-50.0
 20
-12.5
 30
0.0
 11
-50.0
 21
12.5
 31
0.0
1001
GENIUS_GENOREF_13
1005
0
  0
LINE
  5
1572
330
762
100
AcDbEntity
  8
245
100
AcDbLine
 10
-46.0
 20
-15.0
 30
0.0
 11
-46.0
 21
15.0
 31
0.0
1001
GENIUS_GENOREF_13
1005
0
  0
LINE
  5
1573
330
762
100
AcDbEntity
  8
240
100
AcDbLine
 10
-69.0
 20
14.0
 30
0.0
 11
-69.0
 21
0.0
 31
0.0
  0
LINE
  5
1574
330
762
100
AcDbEntity
  8
240
100
AcDbLine
 10
-54.0
 20
-12.5
 30
0.0
 11
-56.5
 21
-15.0
 31
0.0
  0
LINE
  5
1575
330
762
100
AcDbEntity
  8
240
100
AcDbLine
 10
-69.0
 20
-14.0
 30
0.0
 11
-69.0
 21
0.0
 31
0.0
  0
LINE
  5
1576
330
762
100
AcDbEntity
  8
240
100
AcDbLine
 10
-68.0
 20
-15.0
 30
0.0
 11
-56.5
 21
-15.0
 31
0.0
  0
ARC
  5
1577
330
762
100
AcDbEntity
  8
240
100
AcDbCircle
 10
-68.0
 20
-14.0
 30
0.0
 40
1.0
100
AcDbArc
 50
180.0
 51
270.0
  0
LINE
  5
1578
330
762
100
AcDbEntity
  8
240
100
AcDbLine
 10
-19.0
 20
-15.0
 30
0.0
 11
-14.5
 21
-15.0
 31
0.0
  0
LINE
  5
1579
330
762
100
AcDbEntity
  8
240
100
AcDbLine
 10
-38.0
 20
-12.5
 30
0.0
 11
-35.5
 21
-15.0
 31
0.0
  0
LINE
  5
157A
330
762
100
AcDbEntity
  8
240
100
AcDbLine
 10
-46.0
 20
-12.5
 30
0.0
 11
-38.0
 21
-12.5
 31
0.0
  0
LINE
  5
157B
330
762
100
AcDbEntity
  8
240
100
AcDbLine
 10
-54.0
 20
-12.5
 30
0.0
 11
-46.0
 21
-12.5
 31
0.0
  0
LINE
  5
157C
330
762
100
AcDbEntity
  8
241
100
AcDbLine
 10
-19.0
 20
-13.75
 30
0.0
 11
-19.0
 21
0.0
 31
0.0
  0
LINE
  5
157D
330
762
100
AcDbEntity
  8
241
100
AcDbLine
 10
-21.5
 20
-13.75
 30
0.0
 11
-21.5
 21
0.0
 31
0.0
  0
LINE
  5
157E
330
762
100
AcDbEntity
  8
241
100
AcDbLine
 10
-29.5
 20
-13.75
 30
0.0
 11
-29.5
 21
0.0
 31
0.0
  0
LINE
  5
157F
330
762
100
AcDbEntity
  8
241
100
AcDbLine
 10
-32.0
 20
-13.75
 30
0.0
 11
-32.0
 21
0.0
 31
0.0
  0
LINE
  5
1580
330
762
100
AcDbEntity
  8
240
100
AcDbLine
 10
-29.5
 20
-15.0
 30
0.0
 11
-21.5
 21
-15.0
 31
0.0
  0
ARC
  5
1581
330
762
100
AcDbEntity
  8
240
100
AcDbCircle
 10
-30.75
 20
-13.75
 30
0.0
 40
1.24999999999827
100
AcDbArc
 50
180.0
 51
0.0
  0
LINE
  5
1582
330
762
100
AcDbEntity
  8
240
100
AcDbLine
 10
-35.5
 20
-15.0
 30
0.0
 11
-32.0
 21
-15.0
 31
0.0
  0
LINE
  5
1583
330
762
100
AcDbEntity
  8
240
100
AcDbLine
 10
-32.0
 20
-13.75
 30
0.0
 11
-32.0
 21
-15.0
 31
0.0
  0
LINE
  5
1584
330
762
100
AcDbEntity
  8
240
100
AcDbLine
 10
-29.5
 20
-13.75
 30
0.0
 11
-29.5
 21
-15.0
 31
0.0
  0
LINE
  5
1585
330
762
100
AcDbEntity
  8
240
100
AcDbLine
 10
-19.0
 20
-13.75
 30
0.0
 11
-19.0
 21
-15.0
 31
0.0
  0
LINE
  5
1586
330
762
100
AcDbEntity
  8
240
100
AcDbLine
 10
-21.5
 20
-13.75
 30
0.0
 11
-21.5
 21
-15.0
 31
0.0
  0
ARC
  5
1587
330
762
100
AcDbEntity
  8
240
100
AcDbCircle
 10
-20.25
 20
-13.75
 30
0.0
 40
1.249999999998089
100
AcDbArc
 50
180.0
 51
0.0
  0
ELLIPSE
  5
1588
330
762
100
AcDbEntity
  8
241
100
AcDbEllipse
 10
-25.5000349
 20
-5.08449496
 30
0.0
 11
-2.000524505802109
 21
0.0
 31
0.0
210
0.0
220
0.0
230
1.0
 40
0.93944625
 41
0.0
 42
6.283185307179584
  0
LINE
  5
1589
330
762
100
AcDbEntity
  8
245
100
AcDbLine
 10
-27.4999651
 20
-5.13030215
 30
0.0
 11
-23.5000349
 21
-5.13030215
 31
0.0
  0
LINE
  5
158A
330
762
100
AcDbEntity
  8
245
100
AcDbLine
 10
-25.5000349
 20
-3.20510972
 30
0.0
 11
-25.5000349
 21
-6.96388021
 31
0.0
  0
LINE
  5
158B
330
762
100
AcDbEntity
  8
241
100
AcDbLine
 10
1.20577137
 20
-15.35874397
 30
0.0
 11
1.20577137
 21
0.0
 31
0.0
  0
LINE
  5
158C
330
762
100
AcDbEntity
  8
241
100
AcDbLine
 10
-6.12626129
 20
-19.5
 30
0.0
 11
-6.12626129
 21
0.0
 31
0.0
  0
LINE
  5
158D
330
762
100
AcDbEntity
  8
241
  6
CONTINUOUS
100
AcDbLine
 10
-7.5
 20
-19.00000001
 30
0.0
 11
-7.5
 21
0.0
 31
0.0
  0
LINE
  5
158E
330
762
100
AcDbEntity
  8
241
100
AcDbLine
 10
0.0
 20
-19.14125603
 30
0.0
 11
0.0
 21
0.0
 31
0.0
  0
LINE
  5
158F
330
762
100
AcDbEntity
  8
241
100
AcDbLine
 10
-2.0
 20
-18.25
 30
0.0
 11
-2.0
 21
0.0
 31
0.0
  0
LINE
  5
1590
330
762
100
AcDbEntity
  8
241
100
AcDbLine
 10
-4.5
 20
-18.25
 30
0.0
 11
-4.5
 21
0.0
 31
0.0
  0
LINE
  5
1591
330
762
100
AcDbEntity
  8
241
100
AcDbLine
 10
-14.5
 20
-15.0
 30
0.0
 11
-14.5
 21
0.0
 31
0.0
  0
LINE
  5
1592
330
762
100
AcDbEntity
  8
240
100
AcDbLine
 10
-7.5
 20
-19.00000001
 30
0.0
 11
-6.12626128
 21
-19.5
 31
0.0
  0
LINE
  5
1593
330
762
100
AcDbEntity
  8
240
100
AcDbLine
 10
-13.5
 20
-19.0
 30
0.0
 11
-13.5
 21
-16.0
 31
0.0
  0
LINE
  5
1594
330
762
100
AcDbEntity
  8
240
100
AcDbLine
 10
-7.50000001
 20
-19.0
 30
0.0
 11
-13.5
 21
-19.0
 31
0.0
  0
LINE
  5
1595
330
762
100
AcDbEntity
  8
241
  6
CONTINUOUS
100
AcDbLine
 10
-7.5
 20
-15.2
 30
0.0
 11
-13.0
 21
-15.2
 31
0.0
  0
LINE
  5
1596
330
762
100
AcDbEntity
  8
240
100
AcDbLine
 10
-13.0
 20
-15.5
 30
0.0
 11
-13.0
 21
-14.7
 31
0.0
  0
LINE
  5
1597
330
762
100
AcDbEntity
  8
240
100
AcDbLine
 10
-14.2
 20
-14.7
 30
0.0
 11
-13.0
 21
-14.7
 31
0.0
  0
LINE
  5
1598
330
762
100
AcDbEntity
  8
240
100
AcDbLine
 10
-14.2
 20
-14.7
 30
0.0
 11
-14.5
 21
-15.0
 31
0.0
  0
LINE
  5
1599
330
762
100
AcDbEntity
  8
240
100
AcDbLine
 10
-13.0
 20
-15.5
 30
0.0
 11
-13.5
 21
-16.0
 31
0.0
  0
LINE
  5
159A
330
762
100
AcDbEntity
  8
240
100
AcDbLine
 10
0.19859884
 20
-18.75881905
 30
0.0
 11
1.00717253
 21
-15.74118096
 31
0.0
  0
ARC
  5
159B
330
762
100
AcDbEntity
  8
240
100
AcDbCircle
 10
-3.25
 20
-18.25
 30
0.0
 40
1.250000000000339
100
AcDbArc
 50
180.0
 51
0.0
  0
LINE
  5
159C
330
762
100
AcDbEntity
  8
240
100
AcDbLine
 10
-4.5
 20
-19.5
 30
0.0
 11
-6.12626129
 21
-19.5
 31
0.0
  0
LINE
  5
159D
330
762
100
AcDbEntity
  8
240
100
AcDbLine
 10
-4.5
 20
-18.25
 30
0.0
 11
-4.5
 21
-19.5
 31
0.0
  0
LINE
  5
159E
330
762
100
AcDbEntity
  8
240
100
AcDbLine
 10
-0.63567449
 20
-19.5
 30
0.0
 11
-2.0
 21
-19.5
 31
0.0
  0
LINE
  5
159F
330
762
100
AcDbEntity
  8
240
100
AcDbLine
 10
-2.0
 20
-18.25
 30
0.0
 11
-2.0
 21
-19.5
 31
0.0
  0
ARC
  5
15A0
330
762
100
AcDbEntity
  8
240
100
AcDbCircle
 10
-0.76732699
 20
-18.5
 30
0.0
 40
1.0
100
AcDbArc
 50
285.0
 51
345.0
1001
GENIUS_GENOBJ-N-FIL_13
1002
{
1000
OWNER
1000
GEN
1002
}
1001
GENIUS_GENODEF_13
1002
{
1000
HIER
1070
     0
1002
}
1002
{
1000
MANEDIT
1070
     0
1002
}
1002
{
1000
NOSEL
1070
     0
1002
}
1002
{
1000
BEHIND
1070
     0
1002
}
1002
{
1000
OTHER
1070
     0
1002
}
1002
{
1000
REACTOR
1002
}
  0
LINE
  5
15A1
330
762
100
AcDbEntity
  8
240
100
AcDbLine
 10
-0.50850794
 20
-19.46592583
 30
0.0
 11
-0.63567449
 21
-19.5
 31
0.0
  0
ARC
  5
15A2
330
762
100
AcDbEntity
  8
240
100
AcDbCircle
 10
1.97309836
 20
-16.0
 30
0.0
 40
1.0
100
AcDbArc
 50
90.0
 51
165.00000002
  0
LINE
  5
15A3
330
762
100
AcDbEntity
  8
240
100
AcDbLine
 10
-54.0
 20
12.5
 30
0.0
 11
-56.5
 21
15.0
 31
0.0
  0
LINE
  5
15A4
330
762
100
AcDbEntity
  8
240
100
AcDbLine
 10
-68.0
 20
15.0
 30
0.0
 11
-56.5
 21
15.0
 31
0.0
  0
ARC
  5
15A5
330
762
100
AcDbEntity
  8
240
100
AcDbCircle
 10
-68.0
 20
14.0
 30
0.0
 40
1.0
100
AcDbArc
 50
90.0
 51
180.0
  0
LINE
  5
15A6
330
762
100
AcDbEntity
  8
240
100
AcDbLine
 10
-19.0
 20
15.0
 30
0.0
 11
-14.5
 21
15.0
 31
0.0
  0
LINE
  5
15A7
330
762
100
AcDbEntity
  8
240
100
AcDbLine
 10
-38.0
 20
12.5
 30
0.0
 11
-35.5
 21
15.0
 31
0.0
  0
LINE
  5
15A8
330
762
100
AcDbEntity
  8
240
100
AcDbLine
 10
-46.0
 20
12.5
 30
0.0
 11
-38.0
 21
12.5
 31
0.0
  0
LINE
  5
15A9
330
762
100
AcDbEntity
  8
240
100
AcDbLine
 10
-54.0
 20
12.5
 30
0.0
 11
-46.0
 21
12.5
 31
0.0
  0
LINE
  5
15AA
330
762
100
AcDbEntity
  8
240
100
AcDbLine
 10
-29.5
 20
15.0
 30
0.0
 11
-21.5
 21
15.0
 31
0.0
  0
ARC
  5
15AB
330
762
100
AcDbEntity
  8
240
100
AcDbCircle
 10
-30.75
 20
13.75
 30
0.0
 40
1.24999999999827
100
AcDbArc
 50
0.0
 51
180.0
  0
LINE
  5
15AC
330
762
100
AcDbEntity
  8
240
100
AcDbLine
 10
-35.5
 20
15.0
 30
0.0
 11
-32.0
 21
15.0
 31
0.0
  0
LINE
  5
15AD
330
762
100
AcDbEntity
  8
240
100
AcDbLine
 10
-32.0
 20
13.75
 30
0.0
 11
-32.0
 21
15.0
 31
0.0
  0
LINE
  5
15AE
330
762
100
AcDbEntity
  8
240
100
AcDbLine
 10
-29.5
 20
13.75
 30
0.0
 11
-29.5
 21
15.0
 31
0.0
  0
LINE
  5
15AF
330
762
100
AcDbEntity
  8
240
100
AcDbLine
 10
-19.0
 20
13.75
 30
0.0
 11
-19.0
 21
15.0
 31
0.0
  0
LINE
  5
15B0
330
762
100
AcDbEntity
  8
240
100
AcDbLine
 10
-21.5
 20
13.75
 30
0.0
 11
-21.5
 21
15.0
 31
0.0
  0
ARC
  5
15B1
330
762
100
AcDbEntity
  8
240
100
AcDbCircle
 10
-20.25
 20
13.75
 30
0.0
 40
1.249999999998089
100
AcDbArc
 50
0.0
 51
180.0
  0
ARC
  5
15B2
330
762
100
AcDbEntity
  8
240
100
AcDbCircle
 10
-0.76732699
 20
18.5
 30
0.0
 40
1.0
100
AcDbArc
 50
15.0
 51
75.0
1001
GENIUS_GENOBJ-N-FIL_13
1002
{
1000
OWNER
1000
GEN
1002
}
1001
GENIUS_GENODEF_13
1002
{
1000
HIER
1070
     0
1002
}
1002
{
1000
MANEDIT
1070
     0
1002
}
1002
{
1000
NOSEL
1070
     0
1002
}
1002
{
1000
BEHIND
1070
     0
1002
}
1002
{
1000
OTHER
1070
     0
1002
}
1002
{
1000
REACTOR
1002
}
  0
LINE
  5
15B3
330
762
100
AcDbEntity
  8
240
100
AcDbLine
 10
-2.0
 20
18.25
 30
0.0
 11
-2.0
 21
19.5
 31
0.0
  0
LINE
  5
15B4
330
762
100
AcDbEntity
  8
240
100
AcDbLine
 10
-4.5
 20
18.25
 30
0.0
 11
-4.5
 21
19.5
 31
0.0
  0
ARC
  5
15B5
330
762
100
AcDbEntity
  8
240
100
AcDbCircle
 10
-3.25
 20
18.25
 30
0.0
 40
1.250000000000339
100
AcDbArc
 50
0.0
 51
180.0
  0
LINE
  5
15B6
330
762
100
AcDbEntity
  8
240
100
AcDbLine
 10
-7.5
 20
19.00000001
 30
0.0
 11
-6.12626128
 21
19.5
 31
0.0
  0
LINE
  5
15B7
330
762
100
AcDbEntity
  8
241
  6
CONTINUOUS
100
AcDbLine
 10
-7.5
 20
15.2
 30
0.0
 11
-13.0
 21
15.2
 31
0.0
  0
LINE
  5
15B8
330
762
100
AcDbEntity
  8
240
100
AcDbLine
 10
-7.50000001
 20
19.0
 30
0.0
 11
-13.5
 21
19.0
 31
0.0
  0
LINE
  5
15B9
330
762
100
AcDbEntity
  8
240
100
AcDbLine
 10
-13.5
 20
19.0
 30
0.0
 11
-13.5
 21
16.0
 31
0.0
  0
LINE
  5
15BA
330
762
100
AcDbEntity
  8
240
100
AcDbLine
 10
-13.0
 20
15.5
 30
0.0
 11
-13.5
 21
16.0
 31
0.0
  0
LINE
  5
15BB
330
762
100
AcDbEntity
  8
240
100
AcDbLine
 10
-14.2
 20
14.7
 30
0.0
 11
-14.5
 21
15.0
 31
0.0
  0
LINE
  5
15BC
330
762
100
AcDbEntity
  8
240
100
AcDbLine
 10
-14.2
 20
14.7
 30
0.0
 11
-13.0
 21
14.7
 31
0.0
  0
LINE
  5
15BD
330
762
100
AcDbEntity
  8
240
100
AcDbLine
 10
-13.0
 20
15.5
 30
0.0
 11
-13.0
 21
14.7
 31
0.0
  0
LINE
  5
15BE
330
762
100
AcDbEntity
  8
240
100
AcDbLine
 10
0.19859884
 20
18.75881905
 30
0.0
 11
1.00717253
 21
15.74118096
 31
0.0
  0
ARC
  5
15BF
330
762
100
AcDbEntity
  8
240
100
AcDbCircle
 10
1.97309836
 20
16.0
 30
0.0
 40
1.0
100
AcDbArc
 50
194.99999998
 51
270.0
  0
LINE
  5
15C0
330
762
100
AcDbEntity
  8
240
100
AcDbLine
 10
-4.5
 20
19.5
 30
0.0
 11
-6.12626129
 21
19.5
 31
0.0
  0
LINE
  5
15C1
330
762
100
AcDbEntity
  8
240
100
AcDbLine
 10
-0.50850794
 20
19.46592583
 30
0.0
 11
-0.63567449
 21
19.5
 31
0.0
  0
LINE
  5
15C2
330
762
100
AcDbEntity
  8
240
100
AcDbLine
 10
-0.63567449
 20
19.5
 30
0.0
 11
-2.0
 21
19.5
 31
0.0
  0
LINE
  5
15C3
330
762
100
AcDbEntity
  8
240
100
AcDbLine
 10
150.0
 20
14.0
 30
0.0
 11
150.0
 21
0.0
 31
0.0
  0
LINE
  5
15C4
330
762
100
AcDbEntity
  8
241
100
AcDbLine
 10
125.0
 20
11.7
 30
0.0
 11
125.0
 21
0.0
 31
0.0
  0
LINE
  5
15C5
330
762
100
AcDbEntity
  8
241
100
AcDbLine
 10
126.0
 20
11.7
 30
0.0
 11
126.0
 21
0.0
 31
0.0
  0
LINE
  5
15C6
330
762
100
AcDbEntity
  8
241
100
AcDbLine
 10
128.0
 20
15.15
 30
0.0
 11
128.0
 21
0.0
 31
0.0
  0
LINE
  5
15C7
330
762
100
AcDbEntity
  8
241
100
AcDbLine
 10
129.2
 20
15.0
 30
0.0
 11
129.2
 21
0.0
 31
0.0
  0
LINE
  5
15C8
330
762
100
AcDbEntity
  8
242
  6
HIDDEN2
100
AcDbLine
 10
123.0
 20
5.02045815
 30
0.0
 11
130.0
 21
0.0
 31
0.0
  0
LINE
  5
15C9
330
762
100
AcDbEntity
  8
242
  6
HIDDEN2
100
AcDbLine
 10
123.0
 20
0.0
 30
0.0
 11
130.0
 21
5.02045815
 31
0.0
  0
LINE
  5
15CA
330
762
100
AcDbEntity
  8
241
  6
HIDDEN2
100
AcDbLine
 10
123.0
 20
5.02045815
 30
0.0
 11
123.0
 21
0.0
 31
0.0
  0
LINE
  5
15CB
330
762
100
AcDbEntity
  8
241
  6
HIDDEN2
100
AcDbLine
 10
130.0
 20
5.25
 30
0.0
 11
130.0
 21
0.0
 31
0.0
  0
LINE
  5
15CC
330
762
100
AcDbEntity
  8
241
  6
HIDDEN2
100
AcDbLine
 10
135.0
 20
5.25
 30
0.0
 11
135.0
 21
0.0
 31
0.0
  0
LINE
  5
15CD
330
762
100
AcDbEntity
  8
0
100
AcDbLine
 10
45.98005559
 20
4.68830447
 30
0.0
 11
47.17231729
 21
5.88056618
 31
0.0
  0
ARC
  5
15CE
330
762
100
AcDbEntity
  8
0
100
AcDbCircle
 10
43.48630031
 20
6.31422015
 30
0.0
 40
1.182211303710936
100
AcDbArc
 50
163.9997507
 51
304.96387329
  0
LINE
  5
15CF
330
762
100
AcDbEntity
  8
0
100
AcDbLine
 10
45.4773628
 20
4.5897232
 30
0.0
 11
45.95498807
 21
5.06734849
 31
0.0
  0
ARC
  5
15D0
330
762
100
AcDbEntity
  8
0
100
AcDbCircle
 10
45.36452297
 20
6.49609881
 30
0.0
 40
1.545954895019525
100
AcDbArc
 50
270.0
 51
104.1274365
  0
ARC
  5
15D1
330
762
100
AcDbEntity
  8
0
100
AcDbCircle
 10
45.36452297
 20
6.49609881
 30
0.0
 40
1.909712219238279
100
AcDbArc
 50
270.0
 51
104.77079397
  0
LINE
  5
15D2
330
762
100
AcDbEntity
  8
0
100
AcDbLine
 10
36.91100347
 20
4.91381745
 30
0.0
 11
37.17415271
 21
5.17696669
 31
0.0
  0
LINE
  5
15D3
330
762
100
AcDbEntity
  8
0
100
AcDbLine
 10
37.16871543
 20
4.76741787
 30
0.0
 11
37.44651558
 21
5.04521803
 31
0.0
  0
ARC
  5
15D4
330
762
100
AcDbEntity
  8
0
100
AcDbCircle
 10
39.68069118
 20
6.04140215
 30
0.0
 40
0.9093795776367187
100
AcDbArc
 50
270.0
 51
40.32984065
  0
ARC
  5
15D5
330
762
100
AcDbEntity
  8
0
100
AcDbCircle
 10
37.98029597
 20
6.49609881
 30
0.0
 40
1.545954895019525
100
AcDbArc
 50
90.0
 51
270.0
  0
ARC
  5
15D6
330
762
100
AcDbEntity
  8
0
100
AcDbCircle
 10
37.98029597
 20
6.49609881
 30
0.0
 40
1.909712219238279
100
AcDbArc
 50
90.0
 51
270.0
  0
TEXT
  5
15D7
330
762
100
AcDbEntity
  8
0
100
AcDbText
 10
48.70301236
 20
5.0182312
 30
0.0
 40
3.0
  1
MGT20-U1/2-150
  7
YOKO
100
AcDbText
  0
LINE
  5
15D8
330
762
100
AcDbEntity
  8
0
100
AcDbLine
 10
40.62468745
 20
4.58638617
 30
0.0
 11
40.98844477
 21
4.95014349
 31
0.0
  0
LINE
  5
15D9
330
762
100
AcDbEntity
  8
0
100
AcDbLine
 10
37.98029597
 20
4.95014349
 30
0.0
 11
45.36452297
 21
4.95014349
 31
0.0
  0
LINE
  5
15DA
330
762
100
AcDbEntity
  8
0
100
AcDbLine
 10
37.98029597
 20
4.58638617
 30
0.0
 11
45.36452297
 21
4.58638617
 31
0.0
  0
LINE
  5
15DB
330
762
100
AcDbEntity
  8
0
100
AcDbLine
 10
39.41235288
 20
4.58638617
 30
0.0
 11
39.77611019
 21
4.95014349
 31
0.0
  0
LINE
  5
15DC
330
762
100
AcDbEntity
  8
0
100
AcDbLine
 10
38.60412983
 20
4.58638617
 30
0.0
 11
38.96788714
 21
4.95014349
 31
0.0
  0
LINE
  5
15DD
330
762
100
AcDbEntity
  8
0
100
AcDbLine
 10
39.00824135
 20
4.58638617
 30
0.0
 11
39.37199867
 21
4.95014349
 31
0.0
  0
LINE
  5
15DE
330
762
100
AcDbEntity
  8
0
100
AcDbLine
 10
39.8164644
 20
4.58638617
 30
0.0
 11
40.18022172
 21
4.95014349
 31
0.0
  0
LINE
  5
15DF
330
762
100
AcDbEntity
  8
0
100
AcDbLine
 10
40.22057592
 20
4.58638617
 30
0.0
 11
40.58433324
 21
4.95014349
 31
0.0
  0
LINE
  5
15E0
330
762
100
AcDbEntity
  8
0
100
AcDbLine
 10
37.46314978
 20
4.65774069
 30
0.0
 11
37.76993233
 21
4.96452326
 31
0.0
  0
LINE
  5
15E1
330
762
100
AcDbEntity
  8
0
100
AcDbLine
 10
37.80405677
 20
4.59453616
 30
0.0
 11
38.15966409
 21
4.95014349
 31
0.0
  0
LINE
  5
15E2
330
762
100
AcDbEntity
  8
0
100
AcDbLine
 10
38.2000183
 20
4.58638617
 30
0.0
 11
38.56377562
 21
4.95014349
 31
0.0
  0
LINE
  5
15E3
330
762
100
AcDbEntity
  8
0
100
AcDbLine
 10
44.26169118
 20
4.58638617
 30
0.0
 11
44.6254485
 21
4.95014349
 31
0.0
  0
LINE
  5
15E4
330
762
100
AcDbEntity
  8
0
100
AcDbLine
 10
44.6658027
 20
4.58638617
 30
0.0
 11
45.02956002
 21
4.95014349
 31
0.0
  0
LINE
  5
15E5
330
762
100
AcDbEntity
  8
0
100
AcDbLine
 10
45.06991423
 20
4.58638617
 30
0.0
 11
45.43529265
 21
4.95176458
 31
0.0
  0
LINE
  5
15E6
330
762
100
AcDbEntity
  8
0
100
AcDbLine
 10
42.24113356
 20
4.58638617
 30
0.0
 11
42.60489087
 21
4.95014349
 31
0.0
  0
LINE
  5
15E7
330
762
100
AcDbEntity
  8
0
100
AcDbLine
 10
41.43291051
 20
4.58638617
 30
0.0
 11
41.79666781
 21
4.95014349
 31
0.0
  0
LINE
  5
15E8
330
762
100
AcDbEntity
  8
0
100
AcDbLine
 10
41.83702203
 20
4.58638617
 30
0.0
 11
42.20077935
 21
4.95014349
 31
0.0
  0
LINE
  5
15E9
330
762
100
AcDbEntity
  8
0
100
AcDbLine
 10
42.64524508
 20
4.58638617
 30
0.0
 11
43.0090024
 21
4.95014349
 31
0.0
  0
LINE
  5
15EA
330
762
100
AcDbEntity
  8
0
100
AcDbLine
 10
43.04935661
 20
4.58638617
 30
0.0
 11
43.41311392
 21
4.95014349
 31
0.0
  0
LINE
  5
15EB
330
762
100
AcDbEntity
  8
0
100
AcDbLine
 10
43.45346813
 20
4.58638617
 30
0.0
 11
43.81722545
 21
4.95014349
 31
0.0
  0
LINE
  5
15EC
330
762
100
AcDbEntity
  8
0
100
AcDbLine
 10
41.02879897
 20
4.58638617
 30
0.0
 11
41.39255629
 21
4.95014349
 31
0.0
  0
LINE
  5
15ED
330
762
100
AcDbEntity
  8
0
100
AcDbLine
 10
43.85757966
 20
4.58638617
 30
0.0
 11
44.22133697
 21
4.95014349
 31
0.0
  0
LINE
  5
15EE
330
762
100
AcDbEntity
  8
240
100
AcDbLine
 10
128.25980762
 20
-15.0
 30
0.0
 11
149.0
 21
-15.0
 31
0.0
  0
LINE
  5
15EF
330
762
100
AcDbEntity
  8
241
  6
HIDDEN2
100
AcDbLine
 10
135.0
 20
4.5
 30
0.0
 11
150.0
 21
4.5
 31
0.0
  0
LINE
  5
15F0
330
762
100
AcDbEntity
  8
241
100
AcDbLine
 10
129.2
 20
-15.0
 30
0.0
 11
129.2
 21
0.0
 31
0.0
  0
LINE
  5
15F1
330
762
100
AcDbEntity
  8
241
100
AcDbLine
 10
128.0
 20
-15.15
 30
0.0
 11
128.0
 21
0.0
 31
0.0
  0
LINE
  5
15F2
330
762
100
AcDbEntity
  8
241
100
AcDbLine
 10
126.0
 20
-11.7
 30
0.0
 11
126.0
 21
0.0
 31
0.0
  0
LINE
  5
15F3
330
762
100
AcDbEntity
  8
241
100
AcDbLine
 10
125.0
 20
-11.7
 30
0.0
 11
125.0
 21
0.0
 31
0.0
  0
LINE
  5
15F4
330
762
100
AcDbEntity
  8
240
100
AcDbLine
 10
126.0
 20
-15.15
 30
0.0
 11
128.0
 21
-15.15
 31
0.0
  0
LINE
  5
15F5
330
762
100
AcDbEntity
  8
240
100
AcDbLine
 10
125.0
 20
-11.7
 30
0.0
 11
125.0
 21
-15.0
 31
0.0
  0
LINE
  5
15F6
330
762
100
AcDbEntity
  8
240
100
AcDbLine
 10
126.0
 20
-11.7
 30
0.0
 11
125.0
 21
-11.7
 31
0.0
  0
LINE
  5
15F7
330
762
100
AcDbEntity
  8
240
100
AcDbLine
 10
126.0
 20
-11.7
 30
0.0
 11
126.0
 21
-15.15
 31
0.0
  0
LINE
  5
15F8
330
762
100
AcDbEntity
  8
240
100
AcDbLine
 10
128.25980762
 20
-15.0
 30
0.0
 11
128.0
 21
-15.15
 31
0.0
  0
LINE
  5
15F9
330
762
100
AcDbEntity
  8
240
100
AcDbLine
 10
150.0
 20
-14.0
 30
0.0
 11
150.0
 21
0.0
 31
0.0
  0
ARC
  5
15FA
330
762
100
AcDbEntity
  8
240
100
AcDbCircle
 10
149.0
 20
-14.0
 30
0.0
 40
1.0
100
AcDbArc
 50
270.0
 51
0.0
1001
GENIUS_GENOBJ-N-FIL_13
1002
{
1000
OWNER
1000
GEN
1002
}
1001
GENIUS_GENODEF_13
1002
{
1000
HIER
1070
     0
1002
}
1002
{
1000
MANEDIT
1070
     0
1002
}
1002
{
1000
NOSEL
1070
     0
1002
}
1002
{
1000
BEHIND
1070
     0
1002
}
1002
{
1000
OTHER
1070
     0
1002
}
1002
{
1000
REACTOR
1002
}
  0
LINE
  5
15FB
330
762
100
AcDbEntity
  8
0
100
AcDbLine
 10
40.22606111
 20
7.42065203
 30
0.0
 11
40.83477388
 21
8.0293648
 31
0.0
  0
LINE
  5
15FC
330
762
100
AcDbEntity
  8
0
100
AcDbLine
 10
39.6668587
 20
6.45733809
 30
0.0
 11
40.96855654
 21
7.75903594
 31
0.0
  0
LINE
  5
15FD
330
762
100
AcDbEntity
  8
0
100
AcDbLine
 10
39.80792212
 20
6.19428999
 30
0.0
 11
41.00069772
 21
7.38706559
 31
0.0
  0
ARC
  5
15FE
330
762
100
AcDbEntity
  8
0
100
AcDbCircle
 10
40.09791072
 20
7.49643145
 30
0.0
 40
0.9093873023986816
100
AcDbArc
 50
287.66957755
 51
90.23615984
  0
LINE
  5
15FF
330
762
100
AcDbEntity
  8
0
100
AcDbLine
 10
38.75252653
 20
7.15945203
 30
0.0
 11
39.99888553
 21
8.40581103
 31
0.0
  0
LINE
  5
1600
330
762
100
AcDbEntity
  8
0
100
AcDbLine
 10
39.91106925
 20
8.032546
 30
0.0
 11
39.61297421
 21
6.99294179
 31
0.0
  0
LINE
  5
1601
330
762
100
AcDbEntity
  8
0
100
AcDbLine
 10
38.92069819
 20
8.40581103
 30
0.0
 11
40.09416245
 21
8.40581103
 31
0.0
  0
ARC
  5
1602
330
762
100
AcDbEntity
  8
0
100
AcDbCircle
 10
39.69208949
 20
7.5327962
 30
0.0
 40
0.5456207513809207
100
AcDbArc
 50
261.66260169
 51
66.3381551
  0
LINE
  5
1603
330
762
100
AcDbEntity
  8
0
100
AcDbLine
 10
38.59006378
 20
6.59287775
 30
0.0
 11
39.86336547
 21
7.86617944
 31
0.0
  0
LINE
  5
1604
330
762
100
AcDbEntity
  8
0
100
AcDbLine
 10
38.82690516
 20
8.04205371
 30
0.0
 11
39.19066248
 21
8.40581103
 31
0.0
  0
LINE
  5
1605
330
762
100
AcDbEntity
  8
0
100
AcDbLine
 10
38.91498928
 20
7.72602629
 30
0.0
 11
39.594774
 21
8.40581103
 31
0.0
  0
LINE
  5
1606
330
762
100
AcDbEntity
  8
0
100
AcDbLine
 10
38.92069819
 20
8.40581103
 30
0.0
 11
38.81639675
 21
8.04205371
 31
0.0
  0
LINE
  5
1607
330
762
100
AcDbEntity
  8
0
100
AcDbLine
 10
38.81639675
 20
8.04205371
 30
0.0
 11
39.00560878
 21
8.04205371
 31
0.0
  0
LINE
  5
1608
330
762
100
AcDbEntity
  8
0
100
AcDbLine
 10
38.73149989
 20
8.40581103
 30
0.0
 11
38.62719844
 21
8.04205371
 31
0.0
  0
LINE
  5
1609
330
762
100
AcDbEntity
  8
0
100
AcDbLine
 10
38.42279363
 20
8.04205371
 30
0.0
 11
38.70936933
 21
8.32862939
 31
0.0
  0
LINE
  5
160A
330
762
100
AcDbEntity
  8
0
100
AcDbLine
 10
40.17943775
 20
7.77814019
 30
0.0
 11
40.63301626
 21
8.2317187
 31
0.0
  0
LINE
  5
160B
330
762
100
AcDbEntity
  8
0
100
AcDbLine
 10
39.98823781
 20
7.99105178
 30
0.0
 11
40.36339079
 21
8.36620475
 31
0.0
  0
LINE
  5
160C
330
762
100
AcDbEntity
  8
0
100
AcDbLine
 10
37.55488762
 20
7.98237075
 30
0.0
 11
37.97832689
 21
8.40581001
 31
0.0
  0
LINE
  5
160D
330
762
100
AcDbEntity
  8
0
100
AcDbLine
 10
37.98029597
 20
8.40581103
 30
0.0
 11
38.73149989
 21
8.40581103
 31
0.0
  0
LINE
  5
160E
330
762
100
AcDbEntity
  8
0
100
AcDbLine
 10
37.98029597
 20
8.04205371
 30
0.0
 11
38.62719844
 21
8.04205371
 31
0.0
  0
LINE
  5
160F
330
762
100
AcDbEntity
  8
0
100
AcDbLine
 10
38.01868211
 20
8.04205371
 30
0.0
 11
38.38243943
 21
8.40581103
 31
0.0
  0
LINE
  5
1610
330
762
100
AcDbEntity
  8
0
100
AcDbLine
 10
39.55387733
 20
5.13202215
 30
0.0
 11
40.58225179
 21
6.1603966
 31
0.0
  0
LINE
  5
1611
330
762
100
AcDbEntity
  8
0
100
AcDbLine
 10
39.1497658
 20
5.13202215
 30
0.0
 11
40.48447413
 21
6.46673048
 31
0.0
  0
LINE
  5
1612
330
762
100
AcDbEntity
  8
0
100
AcDbLine
 10
38.34154276
 20
5.13202215
 30
0.0
 11
39.37598164
 21
6.16646103
 31
0.0
  0
LINE
  5
1613
330
762
100
AcDbEntity
  8
0
100
AcDbLine
 10
38.74565428
 20
5.13202215
 30
0.0
 11
39.21352727
 21
5.59989513
 31
0.0
  0
LINE
  5
1614
330
762
100
AcDbEntity
  8
0
100
AcDbLine
 10
40.02616992
 20
5.20020321
 30
0.0
 11
40.52189011
 21
5.69592341
 31
0.0
  0
LINE
  5
1615
330
762
100
AcDbEntity
  8
0
100
AcDbLine
 10
36.68546195
 20
5.09238745
 30
0.0
 11
36.94293581
 21
5.34986131
 31
0.0
  0
LINE
  5
1616
330
762
100
AcDbEntity
  8
0
100
AcDbLine
 10
36.32631132
 20
5.54145987
 30
0.0
 11
36.59490252
 21
5.81005107
 31
0.0
  0
LINE
  5
1617
330
762
100
AcDbEntity
  8
0
100
AcDbLine
 10
36.49040112
 20
5.30143815
 30
0.0
 11
36.74953648
 21
5.56057351
 31
0.0
  0
LINE
  5
1618
330
762
100
AcDbEntity
  8
0
100
AcDbLine
 10
38.1711697
 20
5.13202215
 30
0.0
 11
39.68069118
 21
5.13202215
 31
0.0
  0
ARC
  5
1619
330
762
100
AcDbEntity
  8
0
100
AcDbCircle
 10
39.27486995
 20
6.07778063
 30
0.0
 40
0.5456363618373872
100
AcDbArc
 50
261.66285421
 51
66.33819216
  0
LINE
  5
161A
330
762
100
AcDbEntity
  8
0
100
AcDbLine
 10
38.26513829
 20
5.45972921
 30
0.0
 11
39.80423365
 21
6.99882458
 31
0.0
  0
LINE
  5
161B
330
762
100
AcDbEntity
  8
0
100
AcDbLine
 10
38.1711697
 20
5.13202215
 30
0.0
 11
39.00560878
 21
8.04205371
 31
0.0
  0
LINE
  5
161C
330
762
100
AcDbEntity
  8
0
100
AcDbLine
 10
38.42760103
 20
6.02630348
 30
0.0
 11
39.70090809
 21
7.29961053
 31
0.0
  0
LINE
  5
161D
330
762
100
AcDbEntity
  8
0
100
AcDbLine
 10
39.49385404
 20
6.57754558
 30
0.0
 11
39.19575411
 21
5.53791053
 31
0.0
  0
LINE
  5
161E
330
762
100
AcDbEntity
  8
0
100
AcDbLine
 10
36.12757818
 20
6.95917283
 30
0.0
 11
37.51722195
 21
8.3488166
 31
0.0
  0
LINE
  5
161F
330
762
100
AcDbEntity
  8
0
100
AcDbLine
 10
36.10610565
 20
6.12947725
 30
0.0
 11
36.43480624
 21
6.45817784
 31
0.0
  0
LINE
  5
1620
330
762
100
AcDbEntity
  8
0
100
AcDbLine
 10
36.19605126
 20
5.81531134
 30
0.0
 11
36.48485988
 21
6.10411995
 31
0.0
  0
LINE
  5
1621
330
762
100
AcDbEntity
  8
0
100
AcDbLine
 10
36.07058477
 20
6.49806789
 30
0.0
 11
36.49402404
 21
6.92150716
 31
0.0
  0
LINE
  5
1622
330
762
100
AcDbEntity
  8
0
100
AcDbLine
 10
45.29093728
 20
8.04030141
 30
0.0
 11
45.63692001
 21
8.38628415
 31
0.0
  0
LINE
  5
1623
330
762
100
AcDbEntity
  8
0
100
AcDbLine
 10
44.9871838
 20
7.99530688
 30
0.0
 11
44.9871838
 21
7.99530688
 31
0.0
  0
LINE
  5
1624
330
762
100
AcDbEntity
  8
0
100
AcDbLine
 10
44.87763637
 20
8.34270831
 30
0.0
 11
44.9871838
 21
7.99530688
 31
0.0
  0
LINE
  5
1625
330
762
100
AcDbEntity
  8
0
100
AcDbLine
 10
44.87763637
 20
8.34270831
 30
0.0
 11
44.87763637
 21
8.34270831
 31
0.0
  0
LINE
  5
1626
330
762
100
AcDbEntity
  8
0
100
AcDbLine
 10
44.9871838
 20
7.99530688
 30
0.0
 11
44.87763637
 21
8.34270831
 31
0.0
  0
LINE
  5
1627
330
762
100
AcDbEntity
  8
0
100
AcDbLine
 10
44.9871838
 20
7.99530688
 30
0.0
 11
44.9871838
 21
7.99530688
 31
0.0
1001
HATCH_DISTANCE
1040
1.0
1001
HATCH_DISPLAY
1070
     0
1001
HATCH_TYPE
1070
     7
  0
LINE
  5
1628
330
762
100
AcDbEntity
  8
0
100
AcDbLine
 10
44.87763637
 20
8.34270831
 30
0.0
 11
44.9871838
 21
7.99530688
 31
0.0
1001
HATCH_DISTANCE
1040
1.0
1001
HATCH_DISPLAY
1070
     0
1001
HATCH_TYPE
1070
     7
  0
LINE
  5
1629
330
762
100
AcDbEntity
  8
0
100
AcDbLine
 10
44.87763637
 20
8.34270831
 30
0.0
 11
44.87763637
 21
8.34270831
 31
0.0
1001
HATCH_DISTANCE
1040
1.0
1001
HATCH_DISPLAY
1070
     0
1001
HATCH_TYPE
1070
     7
  0
LINE
  5
162A
330
762
100
AcDbEntity
  8
0
100
AcDbLine
 10
44.9871838
 20
7.99530688
 30
0.0
 11
44.87763637
 21
8.34270831
 31
0.0
1001
HATCH_DISTANCE
1040
1.0
1001
HATCH_DISPLAY
1070
     0
1001
HATCH_TYPE
1070
     7
  0
LINE
  5
162B
330
762
100
AcDbEntity
  8
0
100
AcDbLine
 10
44.9871838
 20
7.99530688
 30
0.0
 11
44.9871838
 21
7.99530688
 31
0.0
  0
LINE
  5
162C
330
762
100
AcDbEntity
  8
0
100
AcDbLine
 10
44.87763637
 20
8.34270831
 30
0.0
 11
44.9871838
 21
7.99530688
 31
0.0
  0
LINE
  5
162D
330
762
100
AcDbEntity
  8
0
100
AcDbLine
 10
44.87763637
 20
8.34270831
 30
0.0
 11
44.87763637
 21
8.34270831
 31
0.0
  0
LINE
  5
162E
330
762
100
AcDbEntity
  8
0
100
AcDbLine
 10
44.9871838
 20
7.99530688
 30
0.0
 11
44.87763637
 21
8.34270831
 31
0.0
  0
LINE
  5
162F
330
762
100
AcDbEntity
  8
0
100
AcDbLine
 10
44.9871838
 20
7.99530688
 30
0.0
 11
44.9871838
 21
7.99530688
 31
0.0
1001
HATCH_DISTANCE
1040
1.0
1001
HATCH_DISPLAY
1070
     0
1001
HATCH_TYPE
1070
     7
  0
LINE
  5
1630
330
762
100
AcDbEntity
  8
0
100
AcDbLine
 10
44.87763637
 20
8.34270831
 30
0.0
 11
44.9871838
 21
7.99530688
 31
0.0
1001
HATCH_DISTANCE
1040
1.0
1001
HATCH_DISPLAY
1070
     0
1001
HATCH_TYPE
1070
     7
  0
LINE
  5
1631
330
762
100
AcDbEntity
  8
0
100
AcDbLine
 10
44.87763637
 20
8.34270831
 30
0.0
 11
44.87763637
 21
8.34270831
 31
0.0
1001
HATCH_DISTANCE
1040
1.0
1001
HATCH_DISPLAY
1070
     0
1001
HATCH_TYPE
1070
     7
  0
LINE
  5
1632
330
762
100
AcDbEntity
  8
0
100
AcDbLine
 10
44.9871838
 20
7.99530688
 30
0.0
 11
44.87763637
 21
8.34270831
 31
0.0
1001
HATCH_DISTANCE
1040
1.0
1001
HATCH_DISPLAY
1070
     0
1001
HATCH_TYPE
1070
     7
  0
LINE
  5
1633
330
762
100
AcDbEntity
  8
0
100
AcDbLine
 10
44.26411656
 20
7.82170376
 30
0.0
 11
44.71046833
 21
8.26805553
 31
0.0
  0
LINE
  5
1634
330
762
100
AcDbEntity
  8
0
100
AcDbLine
 10
44.76947591
 20
7.92295157
 30
0.0
 11
44.80734871
 21
7.96082438
 31
0.0
  0
LINE
  5
1635
330
762
100
AcDbEntity
  8
0
100
AcDbLine
 10
44.8137234
 20
7.9406087
 30
0.0
 11
44.70417598
 21
8.28801013
 31
0.0
  0
ARC
  5
1636
330
762
100
AcDbEntity
  8
0
100
AcDbCircle
 10
45.36452297
 20
6.49609881
 30
0.0
 40
1.545959186553949
100
AcDbArc
 50
110.8721834
 51
132.54194894
  0
ARC
  5
1637
330
762
100
AcDbEntity
  8
0
100
AcDbCircle
 10
45.36452297
 20
6.49609881
 30
0.0
 40
1.909713077545161
100
AcDbArc
 50
110.22964506
 51
118.57168892
  0
LINE
  5
1638
330
762
100
AcDbEntity
  8
0
100
AcDbLine
 10
44.9871838
 20
7.99530688
 30
0.0
 11
44.87763637
 21
8.34270831
 31
0.0
  0
LINE
  5
1639
330
762
100
AcDbEntity
  8
0
100
AcDbLine
 10
44.95233744
 20
8.10581311
 30
0.0
 11
45.24882757
 21
8.40230324
 31
0.0
  0
LINE
  5
163A
330
762
100
AcDbEntity
  8
0
100
AcDbLine
 10
42.49646542
 20
7.26638719
 30
0.0
 11
43.63009
 21
8.40001177
 31
0.0
  0
LINE
  5
163B
330
762
100
AcDbEntity
  8
0
100
AcDbLine
 10
42.36230329
 20
6.72811353
 30
0.0
 11
44.01031817
 21
8.37612841
 31
0.0
  0
ARC
  5
163C
330
762
100
AcDbEntity
  8
0
100
AcDbCircle
 10
45.41915248
 20
6.252065
 30
0.0
 40
3.093695068359374
100
AcDbArc
 50
155.20517737
 51
172.79482596
  0
LINE
  5
163D
330
762
100
AcDbEntity
  8
0
100
AcDbLine
 10
41.57774317
 20
8.36822257
 30
0.0
 11
41.61533164
 21
8.40581103
 31
0.0
  0
LINE
  5
163E
330
762
100
AcDbEntity
  8
0
100
AcDbLine
 10
41.60097745
 20
7.98734533
 30
0.0
 11
42.01944316
 21
8.40581103
 31
0.0
  0
LINE
  5
163F
330
762
100
AcDbEntity
  8
0
100
AcDbLine
 10
41.43851356
 20
7.42076991
 30
0.0
 11
42.42355469
 21
8.40581103
 31
0.0
  0
LINE
  5
1640
330
762
100
AcDbEntity
  8
0
100
AcDbLine
 10
41.27604967
 20
6.85419448
 30
0.0
 11
42.41671746
 21
7.99486228
 31
0.0
  0
LINE
  5
1641
330
762
100
AcDbEntity
  8
0
100
AcDbLine
 10
42.5345547
 20
8.40581103
 30
0.0
 11
41.58852199
 21
8.40581103
 31
0.0
  0
LINE
  5
1642
330
762
100
AcDbEntity
  8
0
100
AcDbLine
 10
41.47378353
 20
8.00568896
 30
0.0
 11
41.60623744
 21
8.00568896
 31
0.0
  0
LINE
  5
1643
330
762
100
AcDbEntity
  8
0
100
AcDbLine
 10
41.58852199
 20
8.40581103
 30
0.0
 11
41.47378353
 21
8.00568896
 31
0.0
  0
LINE
  5
1644
330
762
100
AcDbEntity
  8
0
100
AcDbLine
 10
42.5345547
 20
8.40581103
 30
0.0
 11
41.58852199
 21
8.40581103
 31
0.0
1001
HATCH_DISTANCE
1040
1.0
1001
HATCH_DISPLAY
1070
     0
1001
HATCH_TYPE
1070
     7
  0
LINE
  5
1645
330
762
100
AcDbEntity
  8
0
100
AcDbLine
 10
41.47378353
 20
8.00568896
 30
0.0
 11
41.60623744
 21
8.00568896
 31
0.0
1001
HATCH_DISTANCE
1040
1.0
1001
HATCH_DISPLAY
1070
     0
1001
HATCH_TYPE
1070
     7
  0
LINE
  5
1646
330
762
100
AcDbEntity
  8
0
100
AcDbLine
 10
41.58852199
 20
8.40581103
 30
0.0
 11
41.47378353
 21
8.00568896
 31
0.0
1001
HATCH_DISTANCE
1040
1.0
1001
HATCH_DISPLAY
1070
     0
1001
HATCH_TYPE
1070
     7
  0
LINE
  5
1647
330
762
100
AcDbEntity
  8
0
100
AcDbLine
 10
41.58852199
 20
8.40581103
 30
0.0
 11
42.5345547
 21
8.40581103
 31
0.0
  0
LINE
  5
1648
330
762
100
AcDbEntity
  8
0
100
AcDbLine
 10
41.47378353
 20
8.00568896
 30
0.0
 11
41.58852199
 21
8.40581103
 31
0.0
  0
LINE
  5
1649
330
762
100
AcDbEntity
  8
0
100
AcDbLine
 10
41.47378353
 20
8.00568896
 30
0.0
 11
41.60623744
 21
8.00568896
 31
0.0
  0
LINE
  5
164A
330
762
100
AcDbEntity
  8
0
100
AcDbLine
 10
43.74524806
 20
6.62341661
 30
0.0
 11
43.84954951
 21
6.98717395
 31
0.0
  0
LINE
  5
164B
330
762
100
AcDbEntity
  8
0
100
AcDbLine
 10
43.74524806
 20
6.62341661
 30
0.0
 11
44.04797633
 21
6.62341661
 31
0.0
  0
ARC
  5
164C
330
762
100
AcDbEntity
  8
0
100
AcDbCircle
 10
43.7470608
 20
7.22361346
 30
0.0
 40
1.182199287414549
100
AcDbArc
 50
53.4440122
 51
164.00018439
  0
LINE
  5
164D
330
762
100
AcDbEntity
  8
0
100
AcDbLine
 10
44.0320812
 20
7.99377992
 30
0.0
 11
44.30446021
 21
8.26615893
 31
0.0
  0
LINE
  5
164E
330
762
100
AcDbEntity
  8
0
100
AcDbLine
 10
43.87405248
 20
6.62341661
 30
0.0
 11
44.2378098
 21
6.98717395
 31
0.0
  0
ARC
  5
164F
330
762
100
AcDbEntity
  8
0
100
AcDbCircle
 10
43.93748134
 20
7.62373552
 30
0.0
 40
0.3819450080394744
100
AcDbArc
 50
1.71012138
 51
163.99839835
  0
LINE
  5
1650
330
762
100
AcDbEntity
  8
0
100
AcDbLine
 10
43.84954951
 20
6.98717395
 30
0.0
 11
44.90911219
 21
6.98717395
 31
0.0
  0
LINE
  5
1651
330
762
100
AcDbEntity
  8
0
100
AcDbLine
 10
44.18812307
 20
5.32104111
 30
0.0
 11
44.52914007
 21
5.66205811
 31
0.0
  0
LINE
  5
1652
330
762
100
AcDbEntity
  8
0
100
AcDbLine
 10
44.16377224
 20
5.34539037
 30
0.0
 11
44.37715419
 21
5.13202215
 31
0.0
  0
LINE
  5
1653
330
762
100
AcDbEntity
  8
0
100
AcDbLine
 10
42.50357415
 20
5.65704981
 30
0.0
 11
43.16620703
 21
6.31968269
 31
0.0
  0
LINE
  5
1654
330
762
100
AcDbEntity
  8
0
100
AcDbLine
 10
41.57443495
 20
5.13202215
 30
0.0
 11
41.60440907
 21
5.16199627
 31
0.0
  0
LINE
  5
1655
330
762
100
AcDbEntity
  8
0
100
AcDbLine
 10
42.69055179
 20
5.43991593
 30
0.0
 11
43.07579787
 21
5.82516201
 31
0.0
  0
LINE
  5
1656
330
762
100
AcDbEntity
  8
0
100
AcDbLine
 10
42.92727783
 20
5.27253045
 30
0.0
 11
43.24490184
 21
5.59015445
 31
0.0
  0
LINE
  5
1657
330
762
100
AcDbEntity
  8
0
100
AcDbLine
 10
43.22101653
 20
5.16215762
 30
0.0
 11
43.64807358
 21
5.58921466
 31
0.0
  0
ARC
  5
1658
330
762
100
AcDbEntity
  8
0
100
AcDbCircle
 10
43.44724391
 20
5.91409808
 30
0.0
 40
0.3819447398185731
100
AcDbArc
 50
164.00027306
 51
344.00027306
  0
LINE
  5
1659
330
762
100
AcDbEntity
  8
0
100
AcDbLine
 10
41.17032343
 20
5.13202215
 30
0.0
 11
41.76687075
 21
5.72856946
 31
0.0
  0
LINE
  5
165A
330
762
100
AcDbEntity
  8
0
100
AcDbLine
 10
43.60050881
 20
5.13753838
 30
0.0
 11
44.69160331
 21
6.22863289
 31
0.0
  0
LINE
  5
165B
330
762
100
AcDbEntity
  8
0
100
AcDbLine
 10
42.30504279
 20
6.2667415
 30
0.0
 11
43.49113463
 21
7.45283335
 31
0.0
  0
LINE
  5
165C
330
762
100
AcDbEntity
  8
0
100
AcDbLine
 10
42.36933089
 20
5.92691809
 30
0.0
 11
43.32867083
 21
6.88625803
 31
0.0
  0
LINE
  5
165D
330
762
100
AcDbEntity
  8
0
100
AcDbLine
 10
41.11358578
 20
6.28761907
 30
0.0
 11
42.25425579
 21
7.42828907
 31
0.0
  0
LINE
  5
165E
330
762
100
AcDbEntity
  8
0
100
AcDbLine
 10
41.59581417
 20
5.13202215
 30
0.0
 11
42.5345547
 21
8.40581103
 31
0.0
  0
LINE
  5
165F
330
762
100
AcDbEntity
  8
0
100
AcDbLine
 10
41.59581417
 20
5.13202215
 30
0.0
 11
42.5345547
 21
8.40581103
 31
0.0
1001
HATCH_DISTANCE
1040
1.0
1001
HATCH_DISPLAY
1070
     0
1001
HATCH_TYPE
1070
     7
  0
LINE
  5
1660
330
762
100
AcDbEntity
  8
0
100
AcDbLine
 10
41.59581417
 20
5.13202215
 30
0.0
 11
42.5345547
 21
8.40581103
 31
0.0
  0
LINE
  5
1661
330
762
100
AcDbEntity
  8
0
100
AcDbLine
 10
43.95543445
 20
6.30068707
 30
0.0
 11
44.64192133
 21
6.98717395
 31
0.0
  0
LINE
  5
1662
330
762
100
AcDbEntity
  8
0
100
AcDbLine
 10
43.77212733
 20
5.71326841
 30
0.0
 11
44.85406656
 21
6.79520765
 31
0.0
  0
LINE
  5
1663
330
762
100
AcDbEntity
  8
0
100
AcDbLine
 10
43.08009456
 20
6.01937457
 30
0.0
 11
43.57033199
 21
7.72902575
 31
0.0
  0
LINE
  5
1664
330
762
100
AcDbEntity
  8
0
100
AcDbLine
 10
44.37715419
 20
5.13202215
 30
0.0
 11
44.90911219
 21
6.98717395
 31
0.0
  0
LINE
  5
1665
330
762
100
AcDbEntity
  8
0
100
AcDbLine
 10
43.81439327
 20
5.80882159
 30
0.0
 11
44.04797633
 21
6.62341661
 31
0.0
  0
LINE
  5
1666
330
762
100
AcDbEntity
  8
0
100
AcDbLine
 10
40.78222163
 20
5.13202215
 30
0.0
 11
41.59581417
 21
5.13202215
 31
0.0
  0
LINE
  5
1667
330
762
100
AcDbEntity
  8
0
100
AcDbLine
 10
40.78865799
 20
5.15446822
 30
0.0
 11
41.92933243
 21
6.29514267
 31
0.0
  0
LINE
  5
1668
330
762
100
AcDbEntity
  8
0
100
AcDbLine
 10
40.78222163
 20
5.13202215
 30
0.0
 11
41.59581417
 21
5.13202215
 31
0.0
  0
LINE
  5
1669
330
762
100
AcDbEntity
  8
0
100
AcDbLine
 10
40.78222163
 20
5.13202215
 30
0.0
 11
41.59581417
 21
5.13202215
 31
0.0
1001
HATCH_DISTANCE
1040
1.0
1001
HATCH_DISPLAY
1070
     0
1001
HATCH_TYPE
1070
     7
  0
LINE
  5
166A
330
762
100
AcDbEntity
  8
0
100
AcDbLine
 10
40.78222163
 20
5.13202215
 30
0.0
 11
41.60623744
 21
8.00568896
 31
0.0
  0
LINE
  5
166B
330
762
100
AcDbEntity
  8
0
100
AcDbLine
 10
40.95112188
 20
5.72104365
 30
0.0
 11
42.09179411
 21
6.86171588
 31
0.0
  0
LINE
  5
166C
330
762
100
AcDbEntity
  8
0
100
AcDbLine
 10
41.60623744
 20
8.00568896
 30
0.0
 11
40.78222163
 21
5.13202215
 31
0.0
  0
LINE
  5
166D
330
762
100
AcDbEntity
  8
0
100
AcDbLine
 10
41.60623744
 20
8.00568896
 30
0.0
 11
40.78222163
 21
5.13202215
 31
0.0
1001
HATCH_DISTANCE
1040
1.0
1001
HATCH_DISPLAY
1070
     0
1001
HATCH_TYPE
1070
     7
  0
LINE
  5
166E
330
762
100
AcDbEntity
  8
0
100
AcDbLine
 10
46.64035283
 20
7.36915934
 30
0.0
 11
46.90117711
 21
7.62998363
 31
0.0
  0
LINE
  5
166F
330
762
100
AcDbEntity
  8
0
100
AcDbLine
 10
45.97519063
 20
7.91633173
 30
0.0
 11
46.24801493
 21
8.18915602
 31
0.0
  0
LINE
  5
1670
330
762
100
AcDbEntity
  8
0
100
AcDbLine
 10
46.23598887
 20
7.77301843
 30
0.0
 11
46.49686247
 21
8.03389203
 31
0.0
  0
LINE
  5
1671
330
762
100
AcDbEntity
  8
0
100
AcDbLine
 10
46.45700685
 20
7.58992489
 30
0.0
 11
46.71422217
 21
7.84714019
 31
0.0
  0
LINE
  5
1672
330
762
100
AcDbEntity
  8
0
100
AcDbLine
 10
46.78394769
 20
7.10864267
 30
0.0
 11
47.05665893
 21
7.38135392
 31
0.0
  0
LINE
  5
1673
330
762
100
AcDbEntity
  8
0
100
AcDbLine
 10
46.88016345
 20
6.80074691
 30
0.0
 11
47.17702981
 21
7.09761328
 31
0.0
  0
LINE
  5
1674
330
762
100
AcDbEntity
  8
0
100
AcDbLine
 10
46.79327329
 20
5.9056337
 30
0.0
 11
47.27089857
 21
6.38325898
 31
0.0
  0
LINE
  5
1675
330
762
100
AcDbEntity
  8
0
100
AcDbLine
 10
46.90885719
 20
6.42532912
 30
0.0
 11
47.25436888
 21
6.77084081
 31
0.0
  0
LINE
  5
1676
330
762
100
AcDbEntity
  8
0
100
AcDbLine
 10
45.66693451
 20
8.01218713
 30
0.0
 11
45.964021
 21
8.30927361
 31
0.0
  0
LINE
  5
1677
330
762
100
AcDbEntity
  8
240
100
AcDbLine
 10
128.25980762
 20
15.0
 30
0.0
 11
149.0
 21
15.0
 31
0.0
  0
LINE
  5
1678
330
762
100
AcDbEntity
  8
240
100
AcDbLine
 10
126.0
 20
15.15
 30
0.0
 11
128.0
 21
15.15
 31
0.0
  0
LINE
  5
1679
330
762
100
AcDbEntity
  8
241
  6
HIDDEN2
100
AcDbLine
 10
123.0
 20
5.02045815
 30
0.0
 11
130.0
 21
5.02045815
 31
0.0
  0
LINE
  5
167A
330
762
100
AcDbEntity
  8
240
100
AcDbLine
 10
125.0
 20
11.7
 30
0.0
 11
125.0
 21
15.0
 31
0.0
  0
LINE
  5
167B
330
762
100
AcDbEntity
  8
240
100
AcDbLine
 10
126.0
 20
11.7
 30
0.0
 11
126.0
 21
15.15
 31
0.0
  0
LINE
  5
167C
330
762
100
AcDbEntity
  8
240
100
AcDbLine
 10
126.0
 20
11.7
 30
0.0
 11
125.0
 21
11.7
 31
0.0
  0
LINE
  5
167D
330
762
100
AcDbEntity
  8
241
  6
HIDDEN2
100
AcDbLine
 10
130.0
 20
5.25
 30
0.0
 11
135.0
 21
5.25
 31
0.0
  0
LINE
  5
167E
330
762
100
AcDbEntity
  8
240
100
AcDbLine
 10
128.25980762
 20
15.0
 30
0.0
 11
128.0
 21
15.15
 31
0.0
  0
ARC
  5
167F
330
762
100
AcDbEntity
  8
240
100
AcDbCircle
 10
149.0
 20
14.0
 30
0.0
 40
1.0
100
AcDbArc
 50
0.0
 51
90.0
1001
GENIUS_GENOBJ-N-FIL_13
1002
{
1000
OWNER
1000
GEN
1002
}
1001
GENIUS_GENODEF_13
1002
{
1000
HIER
1070
     0
1002
}
1002
{
1000
MANEDIT
1070
     0
1002
}
1002
{
1000
NOSEL
1070
     0
1002
}
1002
{
1000
BEHIND
1070
     0
1002
}
1002
{
1000
OTHER
1070
     0
1002
}
1002
{
1000
REACTOR
1002
}
  0
ENDBLK
  5
8A0
330
762
100
AcDbEntity
  8
0
100
AcDbBlockEnd
  0
BLOCK
  5
BF3
330
BE9
100
AcDbEntity
  8
0
100
AcDbBlockBegin
  2
*D3
 70
     1
 10
0.0
 20
0.0
 30
0.0
  3
*D3
  1

  0
LINE
  5
C26
330
BE9
100
AcDbEntity
  8
250
  6
CONTINUOUS
100
AcDbLine
 10
0.0
 20
19.64125603
 30
0.0
 11
0.0
 21
36.0
 31
0.0
  0
LINE
  5
C27
330
BE9
100
AcDbEntity
  8
250
  6
CONTINUOUS
100
AcDbLine
 10
150.0
 20
14.5
 30
0.0
 11
150.0
 21
36.0
 31
0.0
  0
LINE
  5
C28
330
BE9
100
AcDbEntity
  8
250
  6
CONTINUOUS
100
AcDbLine
 10
2.23
 20
35.0
 30
0.0
 11
147.77
 21
35.0
 31
0.0
  0
INSERT
  5
C29
330
BE9
100
AcDbEntity
  8
250
  6
CONTINUOUS
100
AcDbBlockReference
  2
_OPEN
 10
0.0
 20
35.0
 30
0.0
 41
2.23
 42
2.23
 43
2.23
 50
180.0
  0
INSERT
  5
C2A
330
BE9
100
AcDbEntity
  8
250
  6
CONTINUOUS
100
AcDbBlockReference
  2
_OPEN
 10
150.0
 20
35.0
 30
0.0
 41
2.23
 42
2.23
 43
2.23
  0
MTEXT
  5
C2B
330
BE9
100
AcDbEntity
  8
250
  6
CONTINUOUS
 62
    40
100
AcDbMText
 10
75.0
 20
37.4
 30
0.0
 40
2.8
 41
0.0
 71
     5
 72
     1
  1
\A1;150
1001
ACAD
1000
MTEXTBEGIN
1070
    73
1070
     1
1070
    44
1040
1.0
1070
    74
1070
     0
1000
MTEXTEND
1000
MTEXTBEGIN
1070
    73
1070
     1
1070
    44
1040
1.0
1070
    74
1070
     0
1000
MTEXTEND
1000
MTEXTBEGIN
1070
    73
1070
     1
1070
    44
1040
1.0
1070
    74
1070
     0
1000
MTEXTEND
  0
POINT
  5
C2C
330
BE9
100
AcDbEntity
  8
DEFPOINTS
  6
CONTINUOUS
 62
     0
100
AcDbPoint
 10
0.0
 20
19.14125603
 30
0.0
  0
POINT
  5
C2D
330
BE9
100
AcDbEntity
  8
DEFPOINTS
  6
CONTINUOUS
 62
     0
100
AcDbPoint
 10
150.0
 20
14.0
 30
0.0
  0
POINT
  5
C2E
330
BE9
100
AcDbEntity
  8
DEFPOINTS
  6
CONTINUOUS
 62
     0
100
AcDbPoint
 10
150.0
 20
35.0
 30
0.0
  0
ENDBLK
  5
BF4
330
BE9
100
AcDbEntity
  8
0
100
AcDbBlockEnd
  0
BLOCK
  5
BFE
330
BF5
100
AcDbEntity
  8
0
100
AcDbBlockBegin
  2
*D4
 70
     1
 10
0.0
 20
0.0
 30
0.0
  3
*D4
  1

  0
LINE
  5
DD2
330
BF5
100
AcDbEntity
  8
250
  6
CONTINUOUS
100
AcDbLine
 10
150.5
 20
4.5
 30
0.0
 11
162.5
 21
4.5
 31
0.0
  0
LINE
  5
DD3
330
BF5
100
AcDbEntity
  8
250
  6
CONTINUOUS
100
AcDbLine
 10
161.5
 20
-2.27
 30
0.0
 11
161.5
 21
2.27
 31
0.0
  0
INSERT
  5
DD4
330
BF5
100
AcDbEntity
  8
250
  6
CONTINUOUS
100
AcDbBlockReference
  2
矢印なし
 10
161.5
 20
-4.5
 30
0.0
 41
2.23
 42
2.23
 43
2.23
 50
270.0
  0
INSERT
  5
DD5
330
BF5
100
AcDbEntity
  8
250
  6
CONTINUOUS
100
AcDbBlockReference
  2
_OPEN
 10
161.5
 20
4.5
 30
0.0
 41
2.23
 42
2.23
 43
2.23
 50
90.0
  0
MTEXT
  5
DD6
330
BF5
100
AcDbEntity
  8
250
  6
CONTINUOUS
 62
    40
100
AcDbMText
 10
159.1
 20
-1.06545661
 30
0.0
 40
2.8
 41
0.0
 71
     5
 72
     1
  1
\A1;{\H2.8;\U+2205}9
 11
0.0
 21
1.0
 31
0.0
1001
ACAD
1000
MTEXTBEGIN
1070
    73
1070
     1
1070
    44
1040
1.0
1070
    74
1070
     0
1000
MTEXTEND
1000
MTEXTBEGIN
1070
    73
1070
     1
1070
    44
1040
1.0
1070
    74
1070
     0
1000
MTEXTEND
  0
POINT
  5
DD7
330
BF5
100
AcDbEntity
  8
DEFPOINTS
  6
CONTINUOUS
 62
     0
100
AcDbPoint
 10
150.0
 20
-4.5
 30
0.0
  0
POINT
  5
DD8
330
BF5
100
AcDbEntity
  8
DEFPOINTS
  6
CONTINUOUS
 62
     0
100
AcDbPoint
 10
150.0
 20
4.5
 30
0.0
  0
POINT
  5
DD9
330
BF5
100
AcDbEntity
  8
DEFPOINTS
  6
CONTINUOUS
 62
     0
100
AcDbPoint
 10
161.5
 20
4.5
 30
0.0
  0
ENDBLK
  5
BFF
330
BF5
100
AcDbEntity
  8
0
100
AcDbBlockEnd
  0
BLOCK
  5
C0A
330
C00
100
AcDbEntity
  8
0
100
AcDbBlockBegin
  2
*D5
 70
     1
 10
0.0
 20
0.0
 30
0.0
  3
*D5
  1

  0
LINE
  5
C2F
330
C00
100
AcDbEntity
  8
AM_5
100
AcDbLine
 10
149.5
 20
15.0
 30
0.0
 11
169.5
 21
15.0
 31
0.0
  0
LINE
  5
C30
330
C00
100
AcDbEntity
  8
AM_5
100
AcDbLine
 10
149.5
 20
-15.0
 30
0.0
 11
169.5
 21
-15.0
 31
0.0
  0
LINE
  5
C31
330
C00
100
AcDbEntity
  8
AM_5
100
AcDbLine
 10
168.5
 20
12.77
 30
0.0
 11
168.5
 21
-12.77
 31
0.0
  0
INSERT
  5
C32
330
C00
100
AcDbEntity
  8
AM_5
100
AcDbBlockReference
  2
_OPEN
 10
168.5
 20
15.0
 30
0.0
 41
2.23
 42
2.23
 43
2.23
 50
90.0
  0
INSERT
  5
C33
330
C00
100
AcDbEntity
  8
AM_5
100
AcDbBlockReference
  2
_OPEN
 10
168.5
 20
-15.0
 30
0.0
 41
2.23
 42
2.23
 43
2.23
 50
270.0
  0
MTEXT
  5
C34
330
C00
100
AcDbEntity
  8
AM_5
 62
    40
100
AcDbMText
 10
166.1
 20
-1.48621162
 30
0.0
 40
2.8
 41
0.0
 71
     5
 72
     1
  1
\A1;%%c30
 11
0.0
 21
1.0
 31
0.0
1001
ACAD
1000
MTEXTBEGIN
1070
    73
1070
     1
1070
    44
1040
1.0
1070
    74
1070
     0
1000
MTEXTEND
1000
MTEXTBEGIN
1070
    73
1070
     1
1070
    44
1040
1.0
1070
    74
1070
     0
1000
MTEXTEND
1000
MTEXTBEGIN
1070
    73
1070
     1
1070
    44
1040
1.0
1070
    74
1070
     0
1000
MTEXTEND
  0
POINT
  5
C35
330
C00
100
AcDbEntity
  8
DEFPOINTS
 62
     0
100
AcDbPoint
 10
149.0
 20
15.0
 30
0.0
  0
POINT
  5
C36
330
C00
100
AcDbEntity
  8
DEFPOINTS
 62
     0
100
AcDbPoint
 10
149.0
 20
-15.0
 30
0.0
  0
POINT
  5
C37
330
C00
100
AcDbEntity
  8
DEFPOINTS
 62
     0
100
AcDbPoint
 10
168.5
 20
-15.0
 30
0.0
  0
ENDBLK
  5
C0B
330
C00
100
AcDbEntity
  8
0
100
AcDbBlockEnd
  0
ENDSEC
  0
SECTION
  2
ENTITIES
  0
INSERT
  5
6E6
330
1A
100
AcDbEntity
  8
245
100
AcDbBlockReference
  2
矢印なし
 10
175.62382697
 20
90.55123572
 30
0.0
  0
INSERT
  5
8DA
330
1A
100
AcDbEntity
  8
245
100
AcDbBlockReference
  2
矢印なし
 10
336.62382697
 20
244.55123572
 30
0.0
  0
INSERT
  5
8DB
330
1A
100
AcDbEntity
  8
245
100
AcDbBlockReference
  2
矢印なし
 10
511.62382697
 20
398.55123572
 30
0.0
  0
INSERT
  5
8DC
330
1A
100
AcDbEntity
  8
245
100
AcDbBlockReference
  2
矢印なし
 10
686.62382697
 20
531.55123572
 30
0.0
  0
INSERT
  5
8DD
330
1A
100
AcDbEntity
  8
245
100
AcDbBlockReference
  2
矢印なし
 10
840.62382697
 20
678.55123572
 30
0.0
  0
DIMENSION
  5
BDA
330
1A
100
AcDbEntity
  8
250
  6
CONTINUOUS
100
AcDbDimension
  2
*D3
 10
150.0
 20
35.0
 30
0.0
 11
75.0
 21
37.4
 31
0.0
 70
    32
  3
BIGT$0
100
AcDbAlignedDimension
 13
0.0
 23
19.14125603
 33
0.0
 14
150.0
 24
14.0
 34
0.0
100
AcDbRotatedDimension
  0
TEXT
  5
BDB
330
1A
100
AcDbEntity
  8
241
100
AcDbText
 10
-69.0
 20
49.0
 30
0.0
 40
5.0
  1
MGT20-U1/2-150
  7
YOKO
 11
-69.0
 21
49.0
 31
0.0
100
AcDbText
 73
     1
  0
MTEXT
  5
BDC
330
1A
100
AcDbEntity
  8
251
  6
CONTINUOUS
100
AcDbMText
 10
141.32603644
 20
29.0
 30
0.0
 40
2.8
 41
0.0
 71
     7
 72
     1
  1
□7
  7
YOKO
1001
ITEMNAME
1000
LNSP3
1001
ACAD
1000
MTEXTBEGIN
1070
    73
1070
     1
1070
    44
1040
1.0
1070
    74
1070
     0
1000
MTEXTEND
1000
MTEXTBEGIN
1070
    73
1070
     1
1070
    44
1040
1.0
1070
    74
1070
     0
1000
MTEXTEND
1000
MTEXTBEGIN
1070
    73
1070
     1
1070
    44
1040
1.0
1070
    74
1070
     0
1000
MTEXTEND
1000
MTEXTBEGIN
1070
    73
1070
     1
1070
    44
1040
1.0
1070
    74
1070
     0
1000
MTEXTEND
1000
MTEXTBEGIN
1070
    73
1070
     1
1070
    44
1040
1.0
1070
    74
1070
     0
1000
MTEXTEND
1000
MTEXTBEGIN
1070
    73
1070
     1
1070
    44
1040
1.0
1070
    74
1070
     0
1000
MTEXTEND
  0
LINE
  5
BDD
330
1A
100
AcDbEntity
  8
250
  6
CONTINUOUS
100
AcDbLine
 10
137.0
 20
28.0
 30
0.0
 11
149.37936977
 21
28.0
 31
0.0
1001
ITEMNAME
1000
LNSP2
  0
LEADER
  5
BDE
330
1A
100
AcDbEntity
  8
250
  6
CONTINUOUS
100
AcDbLeader
  3
BIGT
 76
     2
 10
126.91674761
 20
5.02045815
 30
0.0
 10
137.0
 20
28.0
 30
0.0
1001
ACAD
1000
DSTYLE
1002
{
1070
     6
1000
OPEN
1070
   343
1005
594
1002
}
  0
DIMENSION
  5
BE7
330
1A
100
AcDbEntity
  8
250
  6
CONTINUOUS
100
AcDbDimension
  2
*D4
 10
161.5
 20
4.5
 30
0.0
 11
161.5
 21
-1.06545661
 31
0.0
 70
   160
  1
{\H2.8;\U+2205}<>
  3
BIGT
100
AcDbAlignedDimension
 13
150.0
 23
-4.5
 33
0.0
 14
150.0
 24
4.5
 34
0.0
 50
90.0
100
AcDbRotatedDimension
1001
ACAD
1000
DSTYLE
1002
{
1070
   287
1070
     3
1070
   287
1070
     3
1070
   287
1070
     3
1070
   287
1070
     3
1070
    75
1070
     1
1070
    77
1070
     3
1070
   145
1040
1.0
1070
   279
1070
     0
1070
   289
1070
     3
1070
     6
1000
矢印なし
1002
}
  0
DIMENSION
  5
BE8
330
1A
100
AcDbEntity
  8
AM_5
100
AcDbDimension
  2
*D5
 10
168.5
 20
-15.0
 30
0.0
 11
168.5
 21
-1.48621162
 31
0.0
 70
   160
  1
%%c<>
  3
BIGT$0
100
AcDbAlignedDimension
 13
149.0
 23
15.0
 33
0.0
 14
149.0
 24
-15.0
 34
0.0
 50
90.0
100
AcDbRotatedDimension
  0
INSERT
  5
1680
330
1A
100
AcDbEntity
  8
245
100
AcDbBlockReference
  2
1
 10
0.0
 20
0.0
 30
0.0
  0
VIEWPORT
  5
22
330
17
100
AcDbEntity
 67
     1
  8
0
100
AcDbViewport
 10
261.51769912
 20
148.5
 30
0.0
 40
523.03539823
 41
297.0
 68
     1
 69
     1
1001
ACAD
1000
MVIEW
1002
{
1070
    16
1010
0.0
1020
0.0
1030
0.0
1010
0.0
1020
0.0
1030
1.0
1040
0.0
1040
297.0
1040
261.51769912
1040
148.5
1040
50.0
1040
0.0
1040
0.0
1070
     0
1070
   100
1070
     1
1070
     1
1070
     0
1070
     0
1070
     0
1070
     0
1040
0.0
1040
0.0
1040
0.0
1040
1.0
1040
1.0
1040
10.0
1040
10.0
1070
     0
1002
{
1002
}
1002
}
  0
ENDSEC
  0
SECTION
  2
OBJECTS
  0
DICTIONARY
  5
C
330
0
100
AcDbDictionary
  3
ACAD_GROUP
350
D
  3
ACAD_LAYOUT
350
565
  3
ACAD_MLINESTYLE
350
E
  3
ACAD_PLOTSETTINGS
350
566
  3
ACAD_PLOTSTYLENAME
350
563
  3
ACDBHEADERROUNDTRIPXREC
350
1682
  3
GRADE_DWG
350
540
  0
DICTIONARY
  5
DCF
330
1A
100
AcDbDictionary
280
     1
  3
ACAD_LAYOUTSELFREF
360
16A4
  0
DICTIONARY
  5
DCD
330
17
100
AcDbDictionary
280
     1
  3
ACAD_LAYOUTSELFREF
360
16A3
  0
DICTIONARY
  5
D
102
{ACAD_REACTORS
330
C
102
}
330
C
100
AcDbDictionary
  3
*A1
350
6C7
  3
*A2
350
6C8
  3
*A3
350
6D4
  3
*A4
350
6D5
  3
DREC-1
350
5FC
  3
DREC-2
350
654
  3
DREC-3
350
673
  0
DICTIONARY
  5
565
102
{ACAD_REACTORS
330
C
102
}
330
C
100
AcDbDictionary
  0
DICTIONARY
  5
E
102
{ACAD_REACTORS
330
C
102
}
330
C
100
AcDbDictionary
  3
STANDARD
350
13
  0
DICTIONARY
  5
566
102
{ACAD_REACTORS
330
C
102
}
330
C
100
AcDbDictionary
  3
A3_0_5倍_
350
758
  3
A3_1倍_
350
757
  3
A3_1倍__2000_
350
707
  3
A3_2倍_
350
759
  3
A4_0_5倍_
350
755
  3
A4_1倍_
350
754
  3
A4_1倍__2000_
350
708
  3
A4_2倍_
350
756
  0
ACDBDICTIONARYWDFLT
  5
563
102
{ACAD_REACTORS
330
C
102
}
330
C
100
AcDbDictionary
281
     1
  3
Normal
350
564
100
AcDbDictionaryWithDefault
340
564
  0
DICTIONARY
  5
1682
102
{ACAD_REACTORS
330
C
102
}
330
C
100
AcDbDictionary
  3
CEPSNTYPE
350
168C
  3
DIMSTYLEDATA
350
1690
  3
FINGERPRINTGUID
350
168D
  3
HYPERLINKBASE
350
1685
  3
INSUNITS
350
168B
  3
LAYOUTDICT
350
1687
  3
LWETCUNION
350
168A
  3
PLOTSETDICT
350
1688
  3
PLOTSTYLNAMDICT
350
1689
  3
PSVPSCALE
350
168F
  3
PUCSBASE
350
1693
  3
PUCSORGBACK
350
1699
  3
PUCSORGBOTTOM
350
1695
  3
PUCSORGFRONT
350
1698
  3
PUCSORGLEFT
350
1696
  3
PUCSORGRIGHT
350
1697
  3
PUCSORGTOP
350
1694
  3
PUCSORTHOREF
350
1691
  3
PUCSORTHOVIEW
350
1692
  3
STYLESHEET
350
1686
  3
TSTACKALIGN
350
1683
  3
TSTACKSIZE
350
1684
  3
UCSBASE
350
169C
  3
UCSORGBACK
350
16A2
  3
UCSORGBOTTOM
350
169E
  3
UCSORGFRONT
350
16A1
  3
UCSORGLEFT
350
169F
  3
UCSORGRIGHT
350
16A0
  3
UCSORGTOP
350
169D
  3
UCSORTHOREF
350
169A
  3
UCSORTHOVIEW
350
169B
  3
VERSIONGUID
350
168E
  0
DICTIONARY
  5
540
102
{ACAD_REACTORS
330
C
102
}
330
C
100
AcDbDictionary
  3
VERSION
350
560
  0
XRECORD
  5
16A4
102
{ACAD_REACTORS
330
DCF
102
}
330
DCF
100
AcDbXrecord
340
1A
  0
XRECORD
  5
16A3
102
{ACAD_REACTORS
330
DCD
102
}
330
DCD
100
AcDbXrecord
340
17
  0
GROUP
  5
6C7
102
{ACAD_REACTORS
330
D
102
}
330
D
100
AcDbGroup
300

 70
     0
 71
     1
1001
GRPNAME
1000
DMA00
  0
GROUP
  5
6C8
102
{ACAD_REACTORS
330
D
102
}
330
D
100
AcDbGroup
300

 70
     0
 71
     1
1001
GRPNAME
1000
DMA00
  0
GROUP
  5
6D4
102
{ACAD_REACTORS
330
D
102
}
330
D
100
AcDbGroup
300

 70
     0
 71
     1
1001
GRPNAME
1000
DMA00
  0
GROUP
  5
6D5
102
{ACAD_REACTORS
330
D
102
}
330
D
100
AcDbGroup
300

 70
     0
 71
     1
1001
GRPNAME
1000
DMA00
  0
GROUP
  5
5FC
102
{ACAD_REACTORS
330
D
102
}
330
D
100
AcDbGroup
300

 70
     0
 71
     1
1001
GRPNAME
1000
DREC-
1001
GPARA
1000
xsiz
1000
44.182
1000
ysiz
1000
40.677
1000
angl
1000
0
1000
ctyp
1000
0
1000
csiz
1000
5
1000
lfnt
1000
cont
1000
hcnt
1000
hoff
1000
vcnt
1000
voff
1000
opnt
1000
4
1000
dxpt
1000
0
1000
dypt
1000
0
  0
GROUP
  5
654
102
{ACAD_REACTORS
330
D
102
}
330
D
100
AcDbGroup
300

 70
     0
 71
     1
1001
GRPNAME
1000
DREC-
1001
GPARA
1000
xsiz
1000
54.592
1000
ysiz
1000
53.036
1000
angl
1000
0
1000
ctyp
1000
0
1000
csiz
1000
5
1000
lfnt
1000
cont
1000
hcnt
1000
hoff
1000
vcnt
1000
voff
1000
opnt
1000
4
1000
dxpt
1000
0
1000
dypt
1000
0
  0
GROUP
  5
673
102
{ACAD_REACTORS
330
D
102
}
330
D
100
AcDbGroup
300

 70
     0
 71
     1
1001
GRPNAME
1000
DREC-
1001
GPARA
1000
xsiz
1000
30.363
1000
ysiz
1000
36.175
1000
angl
1000
0
1000
ctyp
1000
0
1000
csiz
1000
5
1000
lfnt
1000
cont
1000
hcnt
1000
hoff
1000
vcnt
1000
voff
1000
opnt
1000
4
1000
dxpt
1000
0
1000
dypt
1000
0
  0
MLINESTYLE
  5
13
102
{ACAD_REACTORS
330
E
102
}
330
E
100
AcDbMlineStyle
  2
STANDARD
 70
     0
  3

 62
     0
 51
90.0
 52
90.0
 71
     2
 49
0.5
 62
   256
  6
BYLAYER
 49
-0.5
 62
   256
  6
BYLAYER
  0
PLOTSETTINGS
  5
758
102
{ACAD_REACTORS
330
566
102
}
330
566
100
AcDbPlotSettings
  1
A3(0.5倍)
  2
\\AWTECPC05\HP DeskJet 1120C
  4
A3
  6

 40
5.95841646
 41
13.49375153
 42
6.04309082
 43
3.67242432
 44
296.92599487
 45
419.94665527
 46
89.96
 47
127.14
 48
0.0
 49
0.0
140
0.0
141
0.0
142
1.0
143
2.0
 70
  1716
 72
     1
 73
     1
 74
     2
  7
big.ctb
 75
    17
147
0.5
148
0.0
149
0.0
  0
PLOTSETTINGS
  5
757
102
{ACAD_REACTORS
330
566
102
}
330
566
100
AcDbPlotSettings
  1
A3(1倍)
  2
\\AWTECPC05\HP DeskJet 1120C
  4
A3
  6

 40
5.95841646
 41
13.49375153
 42
6.04309082
 43
3.67242432
 44
296.92599487
 45
419.94665527
 46
37.46
 47
52.89
 48
0.0
 49
0.0
140
0.0
141
0.0
142
1.0
143
1.0
 70
  1716
 72
     1
 73
     1
 74
     2
  7
big.ctb
 75
    16
147
1.0
148
0.0
149
0.0
  0
PLOTSETTINGS
  5
707
102
{ACAD_REACTORS
330
566
102
}
330
566
100
AcDbPlotSettings
  1
A3(1倍)(2000)
  2
SII LS-1300 (D-SCAN)
  4
User258
  6

 40
3.17499995
 41
3.17499995
 42
3.17498779
 43
3.17498779
 44
419.98898315
 45
296.98950195
 46
58.32
 47
40.32
 48
0.0
 49
0.0
140
0.0
141
0.0
142
1.0
143
1.0
 70
  1716
 72
     1
 73
     0
 74
     2
  7
big.ctb
 75
    16
147
1.0
148
0.0
149
0.0
  0
PLOTSETTINGS
  5
759
102
{ACAD_REACTORS
330
566
102
}
330
566
100
AcDbPlotSettings
  1
A3(2倍)
  2
\\AWTECPC05\HP DeskJet 1120C
  4
A3
  6

 40
5.95841646
 41
13.49375153
 42
6.04309082
 43
3.67242432
 44
296.92599487
 45
419.94665527
 46
-67.54
 47
-95.61
 48
0.0
 49
0.0
140
0.0
141
0.0
142
1.0
143
0.5
 70
  1716
 72
     1
 73
     1
 74
     2
  7
big.ctb
 75
    27
147
2.0
148
0.0
149
0.0
  0
PLOTSETTINGS
  5
755
102
{ACAD_REACTORS
330
566
102
}
330
566
100
AcDbPlotSettings
  1
A4(0.5倍)
  2
\\AWTECPC05\HP DeskJet 1120C
  4
A4
  6

 40
4.18041658
 41
13.49374962
 42
4.18040466
 43
3.92642212
 44
209.97332764
 45
296.92599487
 46
48.31
 47
65.5
 48
0.0
 49
0.0
140
0.0
141
0.0
142
1.0
143
2.0
 70
  1716
 72
     1
 73
     1
 74
     2
  7
big.ctb
 75
    17
147
0.5
148
0.0
149
0.0
  0
PLOTSETTINGS
  5
754
102
{ACAD_REACTORS
330
566
102
}
330
566
100
AcDbPlotSettings
  1
A4(1倍)
  2
\\AWTECPC05\HP DeskJet 1120C
  4
A4
  6

 40
4.18041658
 41
13.49374962
 42
4.18040466
 43
3.92642212
 44
209.97332764
 45
296.92599487
 46
-4.19
 47
-8.75
 48
0.0
 49
0.0
140
0.0
141
0.0
142
1.0
143
1.0
 70
  1716
 72
     1
 73
     1
 74
     2
  7
big.ctb
 75
    16
147
1.0
148
0.0
149
0.0
  0
PLOTSETTINGS
  5
708
102
{ACAD_REACTORS
330
566
102
}
330
566
100
AcDbPlotSettings
  1
A4(1倍)(2000)
  2
SII LS-1300 (D-SCAN)
  4
User259
  6

 40
3.17499995
 41
3.17499995
 42
3.17498779
 43
3.17500305
 44
296.98950195
 45
209.99449158
 46
-3.18
 47
-3.18
 48
0.0
 49
0.0
140
0.0
141
0.0
142
1.0
143
1.0
 70
  1716
 72
     1
 73
     0
 74
     2
  7
big.ctb
 75
    16
147
1.0
148
0.0
149
0.0
  0
PLOTSETTINGS
  5
756
102
{ACAD_REACTORS
330
566
102
}
330
566
100
AcDbPlotSettings
  1
A4(2倍)
  2
\\AWTECPC05\HP DeskJet 1120C
  4
A4
  6

 40
4.18041658
 41
13.49374962
 42
4.18040466
 43
3.92642212
 44
209.97332764
 45
296.92599487
 46
-109.19
 47
-157.25
 48
0.0
 49
0.0
140
0.0
141
0.0
142
1.0
143
0.5
 70
  1716
 72
     1
 73
     1
 74
     2
  7
big.ctb
 75
    27
147
2.0
148
0.0
149
0.0
  0
ACDBPLACEHOLDER
  5
564
102
{ACAD_REACTORS
330
563
102
}
330
563
100
AcDbPlaceHolder
280
     0
  0
XRECORD
  5
168C
102
{ACAD_REACTORS
330
1682
102
}
330
1682
100
AcDbXrecord
 90
        0
  0
XRECORD
  5
1690
102
{ACAD_REACTORS
330
1682
102
}
330
1682
100
AcDbXrecord
1000
DSTYLE
1002
{
1070
    79
 70
     2
1070
   179
 70
     3
1070
   341
340
594
1070
   343
340
594
1070
   344
340
594
1070
   371
 70
    -1
1070
   372
 70
    -1
1002
}
  0
XRECORD
  5
168D
102
{ACAD_REACTORS
330
1682
102
}
330
1682
100
AcDbXrecord
  1
{51294030-9CB4-11D3-8E18-00A0C925D94D}
  0
XRECORD
  5
1685
102
{ACAD_REACTORS
330
1682
102
}
330
1682
100
AcDbXrecord
  1

  0
XRECORD
  5
168B
102
{ACAD_REACTORS
330
1682
102
}
330
1682
100
AcDbXrecord
 90
        0
  0
XRECORD
  5
1687
102
{ACAD_REACTORS
330
1682
102
}
330
1682
100
AcDbXrecord
340
565
  0
XRECORD
  5
168A
102
{ACAD_REACTORS
330
1682
102
}
330
1682
100
AcDbXrecord
 90
    10781
  0
XRECORD
  5
1688
102
{ACAD_REACTORS
330
1682
102
}
330
1682
100
AcDbXrecord
340
566
  0
XRECORD
  5
1689
102
{ACAD_REACTORS
330
1682
102
}
330
1682
100
AcDbXrecord
340
563
  0
XRECORD
  5
168F
102
{ACAD_REACTORS
330
1682
102
}
330
1682
100
AcDbXrecord
 40
0.0
  0
XRECORD
  5
1693
102
{ACAD_REACTORS
330
1682
102
}
330
1682
100
AcDbXrecord
340
0
  0
XRECORD
  5
1699
102
{ACAD_REACTORS
330
1682
102
}
330
1682
100
AcDbXrecord
 10
0.0
 20
0.0
 30
0.0
  0
XRECORD
  5
1695
102
{ACAD_REACTORS
330
1682
102
}
330
1682
100
AcDbXrecord
 10
0.0
 20
0.0
 30
0.0
  0
XRECORD
  5
1698
102
{ACAD_REACTORS
330
1682
102
}
330
1682
100
AcDbXrecord
 10
0.0
 20
0.0
 30
0.0
  0
XRECORD
  5
1696
102
{ACAD_REACTORS
330
1682
102
}
330
1682
100
AcDbXrecord
 10
0.0
 20
0.0
 30
0.0
  0
XRECORD
  5
1697
102
{ACAD_REACTORS
330
1682
102
}
330
1682
100
AcDbXrecord
 10
0.0
 20
0.0
 30
0.0
  0
XRECORD
  5
1694
102
{ACAD_REACTORS
330
1682
102
}
330
1682
100
AcDbXrecord
 10
0.0
 20
0.0
 30
0.0
  0
XRECORD
  5
1691
102
{ACAD_REACTORS
330
1682
102
}
330
1682
100
AcDbXrecord
340
0
  0
XRECORD
  5
1692
102
{ACAD_REACTORS
330
1682
102
}
330
1682
100
AcDbXrecord
 70
     0
  0
XRECORD
  5
1686
102
{ACAD_REACTORS
330
1682
102
}
330
1682
100
AcDbXrecord
  1
big.ctb
  0
XRECORD
  5
1683
102
{ACAD_REACTORS
330
1682
102
}
330
1682
100
AcDbXrecord
 90
        1
  0
XRECORD
  5
1684
102
{ACAD_REACTORS
330
1682
102
}
330
1682
100
AcDbXrecord
 90
       70
  0
XRECORD
  5
169C
102
{ACAD_REACTORS
330
1682
102
}
330
1682
100
AcDbXrecord
340
0
  0
XRECORD
  5
16A2
102
{ACAD_REACTORS
330
1682
102
}
330
1682
100
AcDbXrecord
 10
0.0
 20
0.0
 30
0.0
  0
XRECORD
  5
169E
102
{ACAD_REACTORS
330
1682
102
}
330
1682
100
AcDbXrecord
 10
0.0
 20
0.0
 30
0.0
  0
XRECORD
  5
16A1
102
{ACAD_REACTORS
330
1682
102
}
330
1682
100
AcDbXrecord
 10
0.0
 20
0.0
 30
0.0
  0
XRECORD
  5
169F
102
{ACAD_REACTORS
330
1682
102
}
330
1682
100
AcDbXrecord
 10
0.0
 20
0.0
 30
0.0
  0
XRECORD
  5
16A0
102
{ACAD_REACTORS
330
1682
102
}
330
1682
100
AcDbXrecord
 10
0.0
 20
0.0
 30
0.0
  0
XRECORD
  5
169D
102
{ACAD_REACTORS
330
1682
102
}
330
1682
100
AcDbXrecord
 10
0.0
 20
0.0
 30
0.0
  0
XRECORD
  5
169A
102
{ACAD_REACTORS
330
1682
102
}
330
1682
100
AcDbXrecord
340
0
  0
XRECORD
  5
169B
102
{ACAD_REACTORS
330
1682
102
}
330
1682
100
AcDbXrecord
 70
     0
  0
XRECORD
  5
168E
102
{ACAD_REACTORS
330
1682
102
}
330
1682
100
AcDbXrecord
  1
{17CCE15B-A8E5-4356-838B-A4EA3E55737C}
  0
XRECORD
  5
560
102
{ACAD_REACTORS
330
540
102
}
330
540
100
AcDbXrecord
  1
2.0.0
  0
ENDSEC
  0
EOF
