  0
SECTION
  2
HEADER
  9
$ACADVER
  1
AC1014
  9
$ACADMAINTVER
 70
     9
  9
$DWGCODEPAGE
  3
ANSI_932
  9
$INSBASE
 10
0.0
 20
0.0
 30
0.0
  9
$EXTMIN
 10
-70.01495247
 20
-19.5703201
 30
-0.00152582
  9
$EXTMAX
 10
134.51309285
 20
54.96170761
 30
0.00000003
  9
$LIMMIN
 10
0.0
 20
0.0
  9
$LIMMAX
 10
420.0
 20
297.0
  9
$ORTHOMODE
 70
     1
  9
$REGENMODE
 70
     1
  9
$FILLMODE
 70
     1
  9
$QTEXTMODE
 70
     0
  9
$MIRRTEXT
 70
     1
  9
$DRAGMODE
 70
     2
  9
$LTSCALE
 40
10.0
  9
$OSMODE
 70
   549
  9
$ATTMODE
 70
     1
  9
$TEXTSIZE
 40
3.0
  9
$TRACEWID
 40
1.0
  9
$TEXTSTYLE
  7
YOKO
  9
$CLAYER
  8
245
  9
$CELTYPE
  6
BYLAYER
  9
$CECOLOR
 62
   256
  9
$CELTSCALE
 40
1.0
  9
$DELOBJ
 70
     1
  9
$DISPSILH
 70
     0
  9
$DIMSCALE
 40
1.0
  9
$DIMASZ
 40
2.0
  9
$DIMEXO
 40
2.0
  9
$DIMDLI
 40
2.5
  9
$DIMRND
 40
0.0
  9
$DIMDLE
 40
0.0
  9
$DIMEXE
 40
2.0
  9
$DIMTP
 40
0.0
  9
$DIMTM
 40
0.0
  9
$DIMTXT
 40
4.0
  9
$DIMCEN
 40
0.0
  9
$DIMTSZ
 40
0.0
  9
$DIMTOL
 70
     0
  9
$DIMLIM
 70
     0
  9
$DIMTIH
 70
     0
  9
$DIMTOH
 70
     0
  9
$DIMSE1
 70
     0
  9
$DIMSE2
 70
     0
  9
$DIMTAD
 70
     3
  9
$DIMZIN
 70
     8
  9
$DIMBLK
  1

  9
$DIMASO
 70
     1
  9
$DIMSHO
 70
     1
  9
$DIMPOST
  1

  9
$DIMAPOST
  1

  9
$DIMALT
 70
     0
  9
$DIMALTD
 70
     2
  9
$DIMALTF
 40
25.4
  9
$DIMLFAC
 40
1.0
  9
$DIMTOFL
 70
     1
  9
$DIMTVP
 40
0.0
  9
$DIMTIX
 70
     1
  9
$DIMSOXD
 70
     0
  9
$DIMSAH
 70
     1
  9
$DIMBLK1
  1
OPEN
  9
$DIMBLK2
  1
OPEN
  9
$DIMSTYLE
  2
BIGT
  9
$DIMCLRD
 70
   256
  9
$DIMCLRE
 70
   256
  9
$DIMCLRT
 70
    40
  9
$DIMTFAC
 40
1.0
  9
$DIMGAP
 40
1.0
  9
$DIMJUST
 70
     0
  9
$DIMSD1
 70
     0
  9
$DIMSD2
 70
     0
  9
$DIMTOLJ
 70
     1
  9
$DIMTZIN
 70
     8
  9
$DIMALTZ
 70
     0
  9
$DIMALTTZ
 70
     0
  9
$DIMFIT
 70
     3
  9
$DIMUPT
 70
     0
  9
$DIMUNIT
 70
     2
  9
$DIMDEC
 70
     3
  9
$DIMTDEC
 70
     3
  9
$DIMALTU
 70
     2
  9
$DIMALTTD
 70
     2
  9
$DIMTXSTY
  7
STANDARD
  9
$DIMAUNIT
 70
     0
  9
$LUNITS
 70
     2
  9
$LUPREC
 70
     3
  9
$SKETCHINC
 40
1.0
  9
$FILLETRAD
 40
0.0
  9
$AUNITS
 70
     0
  9
$AUPREC
 70
     3
  9
$MENU
  1
.
  9
$ELEVATION
 40
0.0
  9
$PELEVATION
 40
0.0
  9
$THICKNESS
 40
0.0
  9
$LIMCHECK
 70
     0
  9
$BLIPMODE
 70
     0
  9
$CHAMFERA
 40
10.0
  9
$CHAMFERB
 40
10.0
  9
$CHAMFERC
 40
0.0
  9
$CHAMFERD
 40
0.0
  9
$SKPOLY
 70
     0
  9
$TDCREATE
 40
2455128.593436412
  9
$TDUPDATE
 40
2455316.501801747
  9
$TDINDWG
 40
0.0039543634
  9
$TDUSRTIMER
 40
0.0039543634
  9
$USRTIMER
 70
     1
  9
$ANGBASE
 50
0.0
  9
$ANGDIR
 70
     0
  9
$PDMODE
 70
     1
  9
$PDSIZE
 40
-5.0
  9
$PLINEWID
 40
0.0
  9
$COORDS
 70
     0
  9
$SPLFRAME
 70
     0
  9
$SPLINETYPE
 70
     6
  9
$SPLINESEGS
 70
     8
  9
$ATTDIA
 70
     0
  9
$ATTREQ
 70
     1
  9
$HANDLING
 70
-16383
  9
$HANDSEED
  5
12FD
  9
$SURFTAB1
 70
     6
  9
$SURFTAB2
 70
     6
  9
$SURFTYPE
 70
     6
  9
$SURFU
 70
     6
  9
$SURFV
 70
     6
  9
$UCSNAME
  2

  9
$UCSORG
 10
0.0
 20
0.0
 30
0.0
  9
$UCSXDIR
 10
1.0
 20
0.0
 30
0.0
  9
$UCSYDIR
 10
0.0
 20
1.0
 30
0.0
  9
$PUCSNAME
  2

  9
$PUCSORG
 10
0.0
 20
0.0
 30
0.0
  9
$PUCSXDIR
 10
1.0
 20
0.0
 30
0.0
  9
$PUCSYDIR
 10
0.0
 20
1.0
 30
0.0
  9
$USERI1
 70
     1
  9
$USERI2
 70
     0
  9
$USERI3
 70
     0
  9
$USERI4
 70
     0
  9
$USERI5
 70
     0
  9
$USERR1
 40
0.0
  9
$USERR2
 40
0.0
  9
$USERR3
 40
0.0
  9
$USERR4
 40
0.0
  9
$USERR5
 40
0.0
  9
$WORLDVIEW
 70
     1
  9
$SHADEDGE
 70
     3
  9
$SHADEDIF
 70
    70
  9
$TILEMODE
 70
     1
  9
$MAXACTVP
 70
    16
  9
$PINSBASE
 10
0.0
 20
0.0
 30
0.0
  9
$PLIMCHECK
 70
     0
  9
$PEXTMIN
 10
1.00000000E+20
 20
1.00000000E+20
 30
1.00000000E+20
  9
$PEXTMAX
 10
-1.00000000E+20
 20
-1.00000000E+20
 30
-1.00000000E+20
  9
$PLIMMIN
 10
0.0
 20
0.0
  9
$PLIMMAX
 10
420.0
 20
297.0
  9
$UNITMODE
 70
     0
  9
$VISRETAIN
 70
     0
  9
$PLINEGEN
 70
     0
  9
$PSLTSCALE
 70
     1
  9
$TREEDEPTH
 70
  3020
  9
$PICKSTYLE
 70
     0
  9
$CMLSTYLE
  2
STANDARD
  9
$CMLJUST
 70
     0
  9
$CMLSCALE
 40
1.0
  9
$PROXYGRAPHICS
 70
     1
  9
$MEASUREMENT
 70
     1
  0
ENDSEC
  0
SECTION
  2
CLASSES
  0
CLASS
  1
XRECORD
  2
AcDbXrecord
  3
AutoCAD 2000
 90
        0
280
     0
281
     0
  0
CLASS
  1
ACDBDICTIONARYWDFLT
  2
AcDbDictionaryWithDefault
  3
AutoCAD 2000
 90
        0
280
     0
281
     0
  0
CLASS
  1
ACDBPLACEHOLDER
  2
AcDbPlaceHolder
  3
AutoCAD 2000
 90
        0
280
     0
281
     0
  0
CLASS
  1
LAYOUT
  2
AcDbLayout
  3
AutoCAD 2000
 90
        0
280
     0
281
     0
  0
CLASS
  1
PLOTSETTINGS
  2
AcDbPlotSettings
  3
AutoCAD 2000
 90
        0
280
     0
281
     0
  0
CLASS
  1
LONG_TRANSACTION
  2
AcDbLongTransaction
  3
AutoCAD 2000
 90
        0
280
     0
281
     0
  0
CLASS
  1
LWPOLYLINE
  2
AcDbPolyline
  3
AutoCAD 2000
 90
        0
280
     0
281
     1
  0
CLASS
  1
HATCH
  2
AcDbHatch
  3
AutoCAD 2000
 90
        0
280
     0
281
     1
  0
CLASS
  1
XRECORD
  2
AcDbXrecord
  3
AutoCAD 2000
 90
        0
280
     0
281
     0
  0
CLASS
  1
LONG_TRANSACTION
  2
AcDbLongTransaction
  3
AutoCAD 2000
 90
        0
280
     0
281
     0
  0
CLASS
  1
LWPOLYLINE
  2
AcDbPolyline
  3
AutoCAD 2000
 90
        0
280
     0
281
     1
  0
CLASS
  1
HATCH
  2
AcDbHatch
  3
AutoCAD 2000
 90
        0
280
     0
281
     1
  0
CLASS
  1
XRECORD
  2
AcDbXrecord
  3
AutoCAD 2000
 90
        0
280
     0
281
     0
  0
CLASS
  1
LONG_TRANSACTION
  2
AcDbLongTransaction
  3
AutoCAD 2000
 90
        0
280
     0
281
     0
  0
CLASS
  1
LWPOLYLINE
  2
AcDbPolyline
  3
AutoCAD 2000
 90
        0
280
     0
281
     1
  0
CLASS
  1
HATCH
  2
AcDbHatch
  3
AutoCAD 2000
 90
        0
280
     0
281
     1
  0
CLASS
  1
XRECORD
  2
AcDbXrecord
  3
AutoCAD 2000
 90
        0
280
     0
281
     0
  0
ENDSEC
  0
SECTION
  2
TABLES
  0
TABLE
  2
VPORT
  5
8
330
0
100
AcDbSymbolTable
 70
     2
  0
VPORT
  5
12D8
330
8
100
AcDbSymbolTableRecord
100
AcDbViewportTableRecord
  2
*ACTIVE
 70
     0
 10
0.0
 20
0.0
 11
1.0
 21
1.0
 12
32.24907019
 22
17.69569376
 13
0.0
 23
0.0
 14
7.0
 24
7.0
 15
7.0
 25
7.0
 16
0.0
 26
0.0
 36
1.0
 17
0.0
 27
0.0
 37
0.0
 40
143.6036279
 41
1.43184713
 42
50.0
 43
0.0
 44
0.0
 50
0.0
 51
0.0
 71
     0
 72
  2000
 73
     1
 74
     0
 75
     0
 76
     0
 77
     0
 78
     0
  0
ENDTAB
  0
TABLE
  2
LTYPE
  5
5
330
0
100
AcDbSymbolTable
 70
     3
  0
LTYPE
  5
14
330
5
100
AcDbSymbolTableRecord
100
AcDbLinetypeTableRecord
  2
BYBLOCK
 70
     0
  3

 72
    65
 73
     0
 40
0.0
  0
LTYPE
  5
15
330
5
100
AcDbSymbolTableRecord
100
AcDbLinetypeTableRecord
  2
BYLAYER
 70
     0
  3

 72
    65
 73
     0
 40
0.0
  0
LTYPE
  5
16
330
5
100
AcDbSymbolTableRecord
100
AcDbLinetypeTableRecord
  2
CONTINUOUS
 70
     0
  3
Solid line
 72
    65
 73
     0
 40
0.0
  0
LTYPE
  5
258
330
5
100
AcDbSymbolTableRecord
100
AcDbLinetypeTableRecord
  2
CENTER2
 70
     0
  3
___ _ ___ _ ___ _ ___ _ ___ _ ___ _ ___ _ ___ _
 72
    65
 73
     4
 40
1.125
 49
0.75
 74
     0
 49
-0.125
 74
     0
 49
0.125
 74
     0
 49
-0.125
 74
     0
  0
LTYPE
  5
25C
330
5
100
AcDbSymbolTableRecord
100
AcDbLinetypeTableRecord
  2
HIDDEN2
 70
     0
  3
_ _ _ _ _ _ _ _ _ _ _ _ _ _ _ _ _ _ _ _ _ _ _ _
 72
    65
 73
     2
 40
0.1875
 49
0.125
 74
     0
 49
-0.0625
 74
     0
  0
ENDTAB
  0
TABLE
  2
LAYER
  5
2
330
0
100
AcDbSymbolTable
 70
    12
  0
LAYER
  5
F
330
2
100
AcDbSymbolTableRecord
100
AcDbLayerTableRecord
  2
0
 70
     0
 62
     7
  6
CONTINUOUS
  0
LAYER
  5
1AA
330
2
100
AcDbSymbolTableRecord
100
AcDbLayerTableRecord
  2
240
 70
     0
 62
     4
  6
CONTINUOUS
  0
LAYER
  5
1AB
330
2
100
AcDbSymbolTableRecord
100
AcDbLayerTableRecord
  2
241
 70
     0
 62
   211
  6
CONTINUOUS
  0
LAYER
  5
1AC
330
2
100
AcDbSymbolTableRecord
100
AcDbLayerTableRecord
  2
242
 70
     0
 62
     3
  6
CONTINUOUS
  0
LAYER
  5
1AD
330
2
100
AcDbSymbolTableRecord
100
AcDbLayerTableRecord
  2
243
 70
     0
 62
   211
  6
HIDDEN2
  0
LAYER
  5
1AF
330
2
100
AcDbSymbolTableRecord
100
AcDbLayerTableRecord
  2
245
 70
     0
 62
     2
  6
CENTER2
  0
LAYER
  5
21E
330
2
100
AcDbSymbolTableRecord
100
AcDbLayerTableRecord
  2
250
 70
     0
 62
     3
  6
CONTINUOUS
  0
LAYER
  5
21F
330
2
100
AcDbSymbolTableRecord
100
AcDbLayerTableRecord
  2
251
 70
     0
 62
    40
  6
CONTINUOUS
  0
LAYER
  5
5C4
330
2
100
AcDbSymbolTableRecord
100
AcDbLayerTableRecord
  2
DEFPOINTS
 70
     0
 62
     7
  6
CONTINUOUS
  0
LAYER
  5
8C3
330
2
100
AcDbSymbolTableRecord
100
AcDbLayerTableRecord
  2
AM_5
 70
     0
 62
     3
  6
CONTINUOUS
  0
ENDTAB
  0
TABLE
  2
STYLE
  5
3
330
0
100
AcDbSymbolTable
 70
     2
  0
STYLE
  5
10
330
3
100
AcDbSymbolTableRecord
100
AcDbTextStyleTableRecord
  2
STANDARD
 70
     0
 40
0.0
 41
1.0
 50
0.0
 71
     0
 42
3.0
  3
romans.shx
  4
BIGFONT.SHX
  0
STYLE
  5
339
330
3
100
AcDbSymbolTableRecord
100
AcDbTextStyleTableRecord
  2
YOKO
 70
     0
 40
0.0
 41
1.0
 50
0.0
 71
     0
 42
3.0
  3
romans.shx
  4
extfont.shx
  0
ENDTAB
  0
TABLE
  2
VIEW
  5
6
330
0
100
AcDbSymbolTable
 70
     0
  0
ENDTAB
  0
TABLE
  2
UCS
  5
7
330
0
100
AcDbSymbolTable
 70
     0
  0
ENDTAB
  0
TABLE
  2
APPID
  5
9
330
0
100
AcDbSymbolTable
 70
    15
  0
APPID
  5
11
330
9
100
AcDbSymbolTableRecord
100
AcDbRegAppTableRecord
  2
ACAD
 70
     0
  0
APPID
  5
1B1
330
9
100
AcDbSymbolTableRecord
100
AcDbRegAppTableRecord
  2
GLOBAL
 70
     0
  0
APPID
  5
2A4
330
9
100
AcDbSymbolTableRecord
100
AcDbRegAppTableRecord
  2
DETAIL
 70
     0
  0
APPID
  5
5FD
330
9
100
AcDbSymbolTableRecord
100
AcDbRegAppTableRecord
  2
GRPNAME
 70
     0
  0
APPID
  5
5FE
330
9
100
AcDbSymbolTableRecord
100
AcDbRegAppTableRecord
  2
GPARA
 70
     0
  0
APPID
  5
6C4
330
9
100
AcDbSymbolTableRecord
100
AcDbRegAppTableRecord
  2
DCO15
 70
     0
  0
APPID
  5
6C5
330
9
100
AcDbSymbolTableRecord
100
AcDbRegAppTableRecord
  2
ITEMNAME
 70
     0
  0
APPID
  5
6C6
330
9
100
AcDbSymbolTableRecord
100
AcDbRegAppTableRecord
  2
GRADE_0
 70
     0
  0
APPID
  5
8C5
330
9
100
AcDbSymbolTableRecord
100
AcDbRegAppTableRecord
  2
GENIUS_GENODEF_13
 70
     0
  0
APPID
  5
8C6
330
9
100
AcDbSymbolTableRecord
100
AcDbRegAppTableRecord
  2
GENIUS_GENOREF_13
 70
     0
  0
APPID
  5
8C7
330
9
100
AcDbSymbolTableRecord
100
AcDbRegAppTableRecord
  2
GENIUS_GENOBJ-N-FIL_13
 70
     0
  0
APPID
  5
8C8
330
9
100
AcDbSymbolTableRecord
100
AcDbRegAppTableRecord
  2
HATCH_TYPE
 70
     0
  0
APPID
  5
8C9
330
9
100
AcDbSymbolTableRecord
100
AcDbRegAppTableRecord
  2
HATCH_DISPLAY
 70
     0
  0
APPID
  5
8CA
330
9
100
AcDbSymbolTableRecord
100
AcDbRegAppTableRecord
  2
HATCH_DISTANCE
 70
     0
  0
APPID
  5
C2F
330
9
100
AcDbSymbolTableRecord
100
AcDbRegAppTableRecord
  2
CONTENTBLOCKICON
 70
     0
  0
ENDTAB
  0
TABLE
  2
DIMSTYLE
  5
A
330
0
100
AcDbSymbolTable
 70
     2
  0
DIMSTYLE
105
725
102
{ACAD_REACTORS
330
10CD
102
}
330
A
100
AcDbSymbolTableRecord
100
AcDbDimStyleTableRecord
  2
BIGT
 70
     0
  3

  4

  5

  6
OPEN
  7
OPEN
 40
1.0
 41
2.23
 42
0.5
 43
2.5
 44
1.0
 45
0.0
 46
0.0
 47
0.0
 48
0.0
140
2.8
141
0.0
142
0.0
143
25.4
144
1.0
145
0.0
146
1.0
147
1.0
 71
     0
 72
     0
 73
     0
 74
     0
 75
     0
 76
     0
 77
     3
 78
     8
170
     0
171
     2
172
     1
173
     1
174
     1
175
     0
176
   256
177
   256
178
    40
270
     2
271
     3
272
     3
273
     2
274
     2
340
10
275
     0
280
     0
281
     0
282
     0
283
     1
284
     8
285
     0
286
     0
287
     3
288
     0
  0
DIMSTYLE
105
8C4
102
{ACAD_REACTORS
330
10AB
330
1037
102
}
330
A
100
AcDbSymbolTableRecord
100
AcDbDimStyleTableRecord
  2
BIGT$0
 70
     0
  3

  4

  5
OPEN
  6

  7

 40
1.0
 41
2.23
 42
0.5
 43
7.0
 44
1.0
 45
0.0
 46
0.0
 47
0.0
 48
0.01
140
2.8
141
0.0
142
0.0
143
25.4
144
1.0
145
0.0
146
1.0
147
1.0
 71
     0
 72
     0
 73
     0
 74
     0
 75
     0
 76
     0
 77
     3
 78
     9
170
     0
171
     2
172
     1
173
     0
174
     1
175
     0
176
   256
177
   256
178
    40
270
     2
271
     3
272
     3
273
     2
274
     2
340
10
275
     0
280
     0
281
     0
282
     0
283
     1
284
     8
285
     0
286
     0
287
     3
288
     0
  0
ENDTAB
  0
TABLE
  2
BLOCK_RECORD
  5
1
330
0
100
AcDbSymbolTable
 70
    13
  0
BLOCK_RECORD
  5
1A
102
{ACAD_XDICTIONARY
360
C2D
102
}
330
1
100
AcDbSymbolTableRecord
100
AcDbBlockTableRecord
  2
*MODEL_SPACE
  0
BLOCK_RECORD
  5
17
102
{ACAD_XDICTIONARY
360
C2B
102
}
330
1
100
AcDbSymbolTableRecord
100
AcDbBlockTableRecord
  2
*PAPER_SPACE
  0
BLOCK_RECORD
  5
594
330
1
100
AcDbSymbolTableRecord
100
AcDbBlockTableRecord
  2
_OPEN
  0
BLOCK_RECORD
  5
6E3
330
1
100
AcDbSymbolTableRecord
100
AcDbBlockTableRecord
  2
矢印なし
  0
BLOCK_RECORD
  5
762
330
1
100
AcDbSymbolTableRecord
100
AcDbBlockTableRecord
  2
1
1001
CONTENTBLOCKICON
1071
        0
1004
2800000020000000200000000100080000000000000400000000000000000000000000000000000000000000000080000080000000808000800000008000800080800000C0C0C000C0DCC000F0CAA6000020400000206000002080000020A0000020C0000020E00000400000004020000040400000406000004080000040A0
1004
000040C0000040E00000600000006020000060400000606000006080000060A0000060C0000060E00000800000008020000080400000806000008080000080A0000080C0000080E00000A0000000A0200000A0400000A0600000A0800000A0A00000A0C00000A0E00000C0000000C0200000C0400000C0600000C0800000C0
1004
A00000C0C00000C0E00000E0000000E0200000E0400000E0600000E0800000E0A00000E0C00000E0E00040000000400020004000400040006000400080004000A0004000C0004000E00040200000402020004020400040206000402080004020A0004020C0004020E000404000004040200040404000404060004040800040
1004
40A0004040C0004040E00040600000406020004060400040606000406080004060A0004060C0004060E00040800000408020004080400040806000408080004080A0004080C0004080E00040A0000040A0200040A0400040A0600040A0800040A0A00040A0C00040A0E00040C0000040C0200040C0400040C0600040C08000
1004
40C0A00040C0C00040C0E00040E0000040E0200040E0400040E0600040E0800040E0A00040E0C00040E0E00080000000800020008000400080006000800080008000A0008000C0008000E00080200000802020008020400080206000802080008020A0008020C0008020E00080400000804020008040400080406000804080
1004
008040A0008040C0008040E00080600000806020008060400080606000806080008060A0008060C0008060E00080800000808020008080400080806000808080008080A0008080C0008080E00080A0000080A0200080A0400080A0600080A0800080A0A00080A0C00080A0E00080C0000080C0200080C0400080C0600080C0
1004
800080C0A00080C0C00080C0E00080E0000080E0200080E0400080E0600080E0800080E0A00080E0C00080E0E000C0000000C0002000C0004000C0006000C0008000C000A000C000C000C000E000C0200000C0202000C0204000C0206000C0208000C020A000C020C000C020E000C0400000C0402000C0404000C0406000C0
1004
408000C040A000C040C000C040E000C0600000C0602000C0604000C0606000C0608000C060A000C060C000C060E000C0800000C0802000C0804000C0806000C0808000C080A000C080C000C080E000C0A00000C0A02000C0A04000C0A06000C0A08000C0A0A000C0A0C000C0A0E000C0C00000C0C02000C0C04000C0C06000
1004
C0C08000C0C0A000F0FBFF00A4A0A000808080000000FF0000FF000000FFFF00FF000000FF00FF00FFFF0000FFFFFF0000000000000000000000000000000000000000000000000000000000000000000000000000000000000000000000000000000000000000000000000000000000000000000000000000000000000000
1004
00000000000000000000000000000000000000000000000000000000000000000000000000000000000000000000000000000000000000000000000000000000000000000000000000000000000000000000000000000000000000000000000000000000000000000000000000000000000000000000000000000000000000
1004
00000000000000000000000000000000000000000000000000000000000000000000000000000000000000000000000000000000000000000000000000000000000000000000000000000000000000000000000000000000000000000000000000000000000000000000000000000000000000000000000000000000000000
1004
00000000000000000000000000000000000000000000000000000000000000000000000000000000000000000000000000000000000000000000000000000000000000000000000000000000000000000000000000FEFE00FB00FEFEFEFEFEFEFEFEFEFEFEFEFEFEFEFEFEFEFEFEFEFEFE00000000FE00FEFEFEE7FBE7E7E7
1004
E700000000000000000000000000FE0000FE00000000FE00E7FBE7E7FBE7E7E7E700000000000000000000000000E70000FE000000FBFEFBE7FBE7E7E7E7E7E7E7FBFBFFFFFFFFFFFFFFFFFFFBE7E7E7E7E7FB000000FE00FEFEFEE7E7E7E7E7E70000FFFFFFFFFFFFFFFFFF0000FE0000FE00000000FEFE00FB00FEFEFEFE
1004
FEFEFEFEFEFEFEFEFEFEFEFEFEFEFEFEFEFEFE000000000000000000000000000000000000000000000000000000000000000000000000000000000000000000000000000000000000000000000000000000000000000000000000000000000000000000000000000000000000000000000000000000000000000000000000
1004
00000000000000000000000000000000000000000000000000000000000000000000000000000000000000000000000000000000000000000000000000000000000000000000000000000000000000000000000000000000000000000000000000000000000000000000000000000000000000000000000000000000000000
1004
00000000000000000000000000000000000000000000000000000000000000000000000000000000000000000000000000000000000000000000000000000000000000000000000000000000000000000000000000000000000000000000000000000000000000000000000000000000000000000000000000000000000000
1004
0000000000000000000000000000000000000000000000000000000000000000000000000000000000000000000000000000000000000000
  0
BLOCK_RECORD
  5
1158
330
1
100
AcDbSymbolTableRecord
100
AcDbBlockTableRecord
  2
*D10
  0
BLOCK_RECORD
  5
1164
330
1
100
AcDbSymbolTableRecord
100
AcDbBlockTableRecord
  2
*D11
  0
BLOCK_RECORD
  5
116F
330
1
100
AcDbSymbolTableRecord
100
AcDbBlockTableRecord
  2
*D12
  0
ENDTAB
  0
ENDSEC
  0
SECTION
  2
BLOCKS
  0
BLOCK
  5
1B
330
1A
100
AcDbEntity
  8
0
100
AcDbBlockBegin
  2
*MODEL_SPACE
 70
     0
 10
0.0
 20
0.0
 30
0.0
  3
*MODEL_SPACE
  1

  0
ENDBLK
  5
1C
330
1A
100
AcDbEntity
  8
0
100
AcDbBlockEnd
  0
BLOCK
  5
18
330
17
100
AcDbEntity
 67
     1
  8
0
100
AcDbBlockBegin
  2
*PAPER_SPACE
 70
     0
 10
0.0
 20
0.0
 30
0.0
  3
*PAPER_SPACE
  1

  0
ENDBLK
  5
19
330
17
100
AcDbEntity
 67
     1
  8
0
100
AcDbBlockEnd
  0
BLOCK
  5
598
330
594
100
AcDbEntity
  8
0
100
AcDbBlockBegin
  2
_OPEN
 70
     0
 10
0.0
 20
0.0
 30
0.0
  3
_OPEN
  1

  0
LINE
  5
595
330
594
100
AcDbEntity
  8
0
  6
BYBLOCK
 62
     0
100
AcDbLine
 10
-1.0
 20
0.16666667
 30
0.0
 11
0.0
 21
0.0
 31
0.0
  0
LINE
  5
596
330
594
100
AcDbEntity
  8
0
  6
BYBLOCK
 62
     0
100
AcDbLine
 10
-1.0
 20
-0.16666667
 30
0.0
 11
0.0
 21
0.0
 31
0.0
  0
LINE
  5
597
330
594
100
AcDbEntity
  8
0
  6
BYBLOCK
 62
     0
100
AcDbLine
 10
0.0
 20
0.0
 30
0.0
 11
-1.0
 21
0.0
 31
0.0
  0
ENDBLK
  5
599
330
594
100
AcDbEntity
  8
0
100
AcDbBlockEnd
  0
BLOCK
  5
6E4
330
6E3
100
AcDbEntity
  8
0
100
AcDbBlockBegin
  2
矢印なし
 70
     0
 10
0.0
 20
0.0
 30
0.0
  3
矢印なし
  1

  0
ENDBLK
  5
6E5
330
6E3
100
AcDbEntity
  8
0
100
AcDbBlockEnd
  0
BLOCK
  5
89E
330
762
100
AcDbEntity
  8
0
100
AcDbBlockBegin
  2
1
 70
     0
 10
0.0
 20
0.0
 30
0.0
  3
1
  1

  0
ARC
  5
11B9
330
762
100
AcDbEntity
  8
0
100
AcDbCircle
 10
21.70548013
 20
6.2388107
 30
0.0
 40
0.9093795776367187
100
AcDbArc
 50
270.0
 51
40.32984065
  0
LINE
  5
11BA
330
762
100
AcDbEntity
  8
0
100
AcDbLine
 10
21.84125335
 20
4.78379472
 30
0.0
 11
22.20501067
 21
5.14755204
 31
0.0
  0
LINE
  5
11BB
330
762
100
AcDbEntity
  8
0
100
AcDbLine
 10
21.69164765
 20
6.65474664
 30
0.0
 11
22.99334549
 21
7.95644449
 31
0.0
  0
LINE
  5
11BC
330
762
100
AcDbEntity
  8
0
100
AcDbLine
 10
21.83271107
 20
6.39169854
 30
0.0
 11
23.02548667
 21
7.58447414
 31
0.0
  0
LINE
  5
11BD
330
762
100
AcDbEntity
  8
0
100
AcDbLine
 10
20.77731548
 20
7.35686058
 30
0.0
 11
22.02367448
 21
8.60321958
 31
0.0
  0
LINE
  5
11BE
330
762
100
AcDbEntity
  8
0
100
AcDbLine
 10
21.9358582
 20
8.22995455
 30
0.0
 11
21.63776316
 21
7.19035034
 31
0.0
  0
LINE
  5
11BF
330
762
100
AcDbEntity
  8
0
100
AcDbLine
 10
20.94548714
 20
8.60321958
 30
0.0
 11
22.1189514
 21
8.60321958
 31
0.0
  0
ARC
  5
11C0
330
762
100
AcDbEntity
  8
0
100
AcDbCircle
 10
21.71687844
 20
7.73020475
 30
0.0
 40
0.5456207513809207
100
AcDbArc
 50
261.66260169
 51
66.3381551
  0
LINE
  5
11C1
330
762
100
AcDbEntity
  8
0
100
AcDbLine
 10
20.61485273
 20
6.7902863
 30
0.0
 11
21.88815442
 21
8.06358799
 31
0.0
  0
LINE
  5
11C2
330
762
100
AcDbEntity
  8
0
100
AcDbLine
 10
21.57866628
 20
5.3294307
 30
0.0
 11
22.60704074
 21
6.35780515
 31
0.0
  0
LINE
  5
11C3
330
762
100
AcDbEntity
  8
0
100
AcDbLine
 10
21.17455475
 20
5.3294307
 30
0.0
 11
22.50926308
 21
6.66413903
 31
0.0
  0
ARC
  5
11C4
330
762
100
AcDbEntity
  8
0
100
AcDbCircle
 10
21.2996589
 20
6.27518918
 30
0.0
 40
0.5456363618373872
100
AcDbArc
 50
261.66285421
 51
66.33819216
  0
LINE
  5
11C5
330
762
100
AcDbEntity
  8
0
100
AcDbLine
 10
20.00508492
 20
5.14755204
 30
0.0
 11
27.38931192
 21
5.14755204
 31
0.0
  0
LINE
  5
11C6
330
762
100
AcDbEntity
  8
0
100
AcDbLine
 10
20.00508492
 20
4.78379472
 30
0.0
 11
27.38931192
 21
4.78379472
 31
0.0
  0
LINE
  5
11C7
330
762
100
AcDbEntity
  8
240
100
AcDbLine
 10
90.0
 20
15.0
 30
0.0
 11
1.97309836
 21
15.0
 31
0.0
  0
LINE
  5
11C8
330
762
100
AcDbEntity
  8
240
100
AcDbLine
 10
90.0
 20
-15.0
 30
0.0
 11
1.97309836
 21
-15.0
 31
0.0
  0
LINE
  5
11C9
330
762
100
AcDbEntity
  8
245
100
AcDbLine
 10
-70.0
 20
0.0
 30
0.0
 11
116.0
 21
0.0
 31
0.0
  0
LINE
  5
11CA
330
762
100
AcDbEntity
  8
240
100
AcDbLine
 10
-54.0
 20
12.5
 30
0.0
 11
-56.5
 21
15.0
 31
0.0
  0
LINE
  5
11CB
330
762
100
AcDbEntity
  8
240
100
AcDbLine
 10
-54.0
 20
-12.5
 30
0.0
 11
-56.5
 21
-15.0
 31
0.0
  0
LINE
  5
11CC
330
762
100
AcDbEntity
  8
240
100
AcDbLine
 10
-69.0
 20
-14.0
 30
0.0
 11
-69.0
 21
0.0
 31
0.0
  0
LINE
  5
11CD
330
762
100
AcDbEntity
  8
240
100
AcDbLine
 10
-68.0
 20
-15.0
 30
0.0
 11
-56.5
 21
-15.0
 31
0.0
  0
ARC
  5
11CE
330
762
100
AcDbEntity
  8
240
100
AcDbCircle
 10
-68.0
 20
-14.0
 30
0.0
 40
1.0
100
AcDbArc
 50
180.0
 51
270.0
  0
ARC
  5
11CF
330
762
100
AcDbEntity
  8
240
100
AcDbCircle
 10
-68.0
 20
14.0
 30
0.0
 40
1.0
100
AcDbArc
 50
90.0
 51
180.0
  0
LINE
  5
11D0
330
762
100
AcDbEntity
  8
240
100
AcDbLine
 10
-69.0
 20
14.0
 30
0.0
 11
-69.0
 21
0.0
 31
0.0
  0
LINE
  5
11D1
330
762
100
AcDbEntity
  8
240
100
AcDbLine
 10
-68.0
 20
15.0
 30
0.0
 11
-56.5
 21
15.0
 31
0.0
  0
LINE
  5
11D2
330
762
100
AcDbEntity
  8
241
100
AcDbLine
 10
-14.5
 20
-15.0
 30
0.0
 11
-14.5
 21
0.0
 31
0.0
  0
LINE
  5
11D3
330
762
100
AcDbEntity
  8
241
100
AcDbLine
 10
-4.5
 20
-18.25
 30
0.0
 11
-4.5
 21
0.0
 31
0.0
  0
LINE
  5
11D4
330
762
100
AcDbEntity
  8
241
100
AcDbLine
 10
-2.0
 20
-18.25
 30
0.0
 11
-2.0
 21
0.0
 31
0.0
  0
LINE
  5
11D5
330
762
100
AcDbEntity
  8
241
100
AcDbLine
 10
0.0
 20
-19.14125603
 30
0.0
 11
0.0
 21
0.0
 31
0.0
  0
LINE
  5
11D6
330
762
100
AcDbEntity
  8
241
  6
CONTINUOUS
100
AcDbLine
 10
-7.5
 20
-19.00000001
 30
0.0
 11
-7.5
 21
0.0
 31
0.0
  0
LINE
  5
11D7
330
762
100
AcDbEntity
  8
241
100
AcDbLine
 10
-6.12626129
 20
-19.5
 30
0.0
 11
-6.12626129
 21
0.0
 31
0.0
  0
LINE
  5
11D8
330
762
100
AcDbEntity
  8
241
100
AcDbLine
 10
1.20577137
 20
-15.35874397
 30
0.0
 11
1.20577137
 21
0.0
 31
0.0
  0
LINE
  5
11D9
330
762
100
AcDbEntity
  8
241
100
AcDbLine
 10
-32.0
 20
-13.75
 30
0.0
 11
-32.0
 21
0.0
 31
0.0
  0
LINE
  5
11DA
330
762
100
AcDbEntity
  8
241
100
AcDbLine
 10
-29.5
 20
-13.75
 30
0.0
 11
-29.5
 21
0.0
 31
0.0
  0
LINE
  5
11DB
330
762
100
AcDbEntity
  8
241
100
AcDbLine
 10
-21.5
 20
-13.75
 30
0.0
 11
-21.5
 21
0.0
 31
0.0
  0
LINE
  5
11DC
330
762
100
AcDbEntity
  8
241
100
AcDbLine
 10
-19.0
 20
-13.75
 30
0.0
 11
-19.0
 21
0.0
 31
0.0
  0
LINE
  5
11DD
330
762
100
AcDbEntity
  8
245
100
AcDbLine
 10
-46.0
 20
-15.0
 30
0.0
 11
-46.0
 21
15.0
 31
0.0
1001
GENIUS_GENOREF_13
1005
0
  0
LINE
  5
11DE
330
762
100
AcDbEntity
  8
243
100
AcDbLine
 10
-50.0
 20
-12.5
 30
0.0
 11
-50.0
 21
12.5
 31
0.0
1001
GENIUS_GENOREF_13
1005
0
  0
LINE
  5
11DF
330
762
100
AcDbEntity
  8
243
100
AcDbLine
 10
-42.0
 20
-12.5
 30
0.0
 11
-42.0
 21
12.5
 31
0.0
1001
GENIUS_GENOREF_13
1005
0
  0
LINE
  5
11E0
330
762
100
AcDbEntity
  8
240
100
AcDbLine
 10
-19.0
 20
-15.0
 30
0.0
 11
-14.5
 21
-15.0
 31
0.0
  0
LINE
  5
11E1
330
762
100
AcDbEntity
  8
240
100
AcDbLine
 10
-38.0
 20
-12.5
 30
0.0
 11
-35.5
 21
-15.0
 31
0.0
  0
LINE
  5
11E2
330
762
100
AcDbEntity
  8
240
100
AcDbLine
 10
-46.0
 20
-12.5
 30
0.0
 11
-38.0
 21
-12.5
 31
0.0
  0
LINE
  5
11E3
330
762
100
AcDbEntity
  8
240
100
AcDbLine
 10
-54.0
 20
-12.5
 30
0.0
 11
-46.0
 21
-12.5
 31
0.0
  0
LINE
  5
11E4
330
762
100
AcDbEntity
  8
240
100
AcDbLine
 10
-29.5
 20
-15.0
 30
0.0
 11
-21.5
 21
-15.0
 31
0.0
  0
ARC
  5
11E5
330
762
100
AcDbEntity
  8
240
100
AcDbCircle
 10
-30.75
 20
-13.75
 30
0.0
 40
1.24999999999827
100
AcDbArc
 50
180.0
 51
0.0
  0
LINE
  5
11E6
330
762
100
AcDbEntity
  8
240
100
AcDbLine
 10
-32.0
 20
-13.75
 30
0.0
 11
-32.0
 21
-15.0
 31
0.0
  0
LINE
  5
11E7
330
762
100
AcDbEntity
  8
240
100
AcDbLine
 10
-35.5
 20
-15.0
 30
0.0
 11
-32.0
 21
-15.0
 31
0.0
  0
LINE
  5
11E8
330
762
100
AcDbEntity
  8
240
100
AcDbLine
 10
-29.5
 20
-13.75
 30
0.0
 11
-29.5
 21
-15.0
 31
0.0
  0
ARC
  5
11E9
330
762
100
AcDbEntity
  8
240
100
AcDbCircle
 10
-20.25
 20
-13.75
 30
0.0
 40
1.249999999998089
100
AcDbArc
 50
180.0
 51
0.0
  0
LINE
  5
11EA
330
762
100
AcDbEntity
  8
240
100
AcDbLine
 10
-21.5
 20
-13.75
 30
0.0
 11
-21.5
 21
-15.0
 31
0.0
  0
LINE
  5
11EB
330
762
100
AcDbEntity
  8
240
100
AcDbLine
 10
-19.0
 20
-13.75
 30
0.0
 11
-19.0
 21
-15.0
 31
0.0
  0
LINE
  5
11EC
330
762
100
AcDbEntity
  8
240
100
AcDbLine
 10
-7.5
 20
-19.00000001
 30
0.0
 11
-6.12626128
 21
-19.5
 31
0.0
  0
LINE
  5
11ED
330
762
100
AcDbEntity
  8
240
100
AcDbLine
 10
-13.0
 20
-15.5
 30
0.0
 11
-13.5
 21
-16.0
 31
0.0
  0
LINE
  5
11EE
330
762
100
AcDbEntity
  8
240
100
AcDbLine
 10
-7.50000001
 20
-19.0
 30
0.0
 11
-13.5
 21
-19.0
 31
0.0
  0
LINE
  5
11EF
330
762
100
AcDbEntity
  8
240
100
AcDbLine
 10
-13.5
 20
-19.0
 30
0.0
 11
-13.5
 21
-16.0
 31
0.0
  0
LINE
  5
11F0
330
762
100
AcDbEntity
  8
241
  6
CONTINUOUS
100
AcDbLine
 10
-7.5
 20
-15.2
 30
0.0
 11
-13.0
 21
-15.2
 31
0.0
  0
LINE
  5
11F1
330
762
100
AcDbEntity
  8
240
100
AcDbLine
 10
-14.2
 20
-14.7
 30
0.0
 11
-14.5
 21
-15.0
 31
0.0
  0
LINE
  5
11F2
330
762
100
AcDbEntity
  8
240
100
AcDbLine
 10
-14.2
 20
-14.7
 30
0.0
 11
-13.0
 21
-14.7
 31
0.0
  0
LINE
  5
11F3
330
762
100
AcDbEntity
  8
240
100
AcDbLine
 10
-13.0
 20
-15.5
 30
0.0
 11
-13.0
 21
-14.7
 31
0.0
  0
LINE
  5
11F4
330
762
100
AcDbEntity
  8
240
100
AcDbLine
 10
0.19859884
 20
-18.75881905
 30
0.0
 11
1.00717253
 21
-15.74118096
 31
0.0
  0
ARC
  5
11F5
330
762
100
AcDbEntity
  8
240
100
AcDbCircle
 10
-3.25
 20
-18.25
 30
0.0
 40
1.250000000000339
100
AcDbArc
 50
180.0
 51
0.0
  0
LINE
  5
11F6
330
762
100
AcDbEntity
  8
240
100
AcDbLine
 10
-4.5
 20
-18.25
 30
0.0
 11
-4.5
 21
-19.5
 31
0.0
  0
LINE
  5
11F7
330
762
100
AcDbEntity
  8
240
100
AcDbLine
 10
-4.5
 20
-19.5
 30
0.0
 11
-6.12626129
 21
-19.5
 31
0.0
  0
LINE
  5
11F8
330
762
100
AcDbEntity
  8
240
100
AcDbLine
 10
-0.50850794
 20
-19.46592583
 30
0.0
 11
-0.63567449
 21
-19.5
 31
0.0
  0
ARC
  5
11F9
330
762
100
AcDbEntity
  8
240
100
AcDbCircle
 10
-0.76732699
 20
-18.5
 30
0.0
 40
1.0
100
AcDbArc
 50
285.0
 51
345.0
1001
GENIUS_GENOBJ-N-FIL_13
1002
{
1000
OWNER
1000
GEN
1002
}
1001
GENIUS_GENODEF_13
1002
{
1000
HIER
1070
     0
1002
}
1002
{
1000
MANEDIT
1070
     0
1002
}
1002
{
1000
NOSEL
1070
     0
1002
}
1002
{
1000
BEHIND
1070
     0
1002
}
1002
{
1000
OTHER
1070
     0
1002
}
1002
{
1000
REACTOR
1002
}
  0
LINE
  5
11FA
330
762
100
AcDbEntity
  8
240
100
AcDbLine
 10
-2.0
 20
-18.25
 30
0.0
 11
-2.0
 21
-19.5
 31
0.0
  0
LINE
  5
11FB
330
762
100
AcDbEntity
  8
240
100
AcDbLine
 10
-0.63567449
 20
-19.5
 30
0.0
 11
-2.0
 21
-19.5
 31
0.0
  0
ARC
  5
11FC
330
762
100
AcDbEntity
  8
240
100
AcDbCircle
 10
1.97309836
 20
-16.0
 30
0.0
 40
1.0
100
AcDbArc
 50
90.0
 51
165.00000002
  0
LINE
  5
11FD
330
762
100
AcDbEntity
  8
240
100
AcDbLine
 10
-19.0
 20
15.0
 30
0.0
 11
-14.5
 21
15.0
 31
0.0
  0
LINE
  5
11FE
330
762
100
AcDbEntity
  8
240
100
AcDbLine
 10
-38.0
 20
12.5
 30
0.0
 11
-35.5
 21
15.0
 31
0.0
  0
LINE
  5
11FF
330
762
100
AcDbEntity
  8
240
100
AcDbLine
 10
-46.0
 20
12.5
 30
0.0
 11
-38.0
 21
12.5
 31
0.0
  0
LINE
  5
1200
330
762
100
AcDbEntity
  8
240
100
AcDbLine
 10
-54.0
 20
12.5
 30
0.0
 11
-46.0
 21
12.5
 31
0.0
  0
LINE
  5
1201
330
762
100
AcDbEntity
  8
241
100
AcDbLine
 10
-19.0
 20
13.75
 30
0.0
 11
-19.0
 21
0.0
 31
0.0
  0
LINE
  5
1202
330
762
100
AcDbEntity
  8
241
100
AcDbLine
 10
-21.5
 20
13.75
 30
0.0
 11
-21.5
 21
0.0
 31
0.0
  0
LINE
  5
1203
330
762
100
AcDbEntity
  8
241
100
AcDbLine
 10
-29.5
 20
13.75
 30
0.0
 11
-29.5
 21
0.0
 31
0.0
  0
LINE
  5
1204
330
762
100
AcDbEntity
  8
241
100
AcDbLine
 10
-32.0
 20
13.75
 30
0.0
 11
-32.0
 21
0.0
 31
0.0
  0
LINE
  5
1205
330
762
100
AcDbEntity
  8
245
100
AcDbLine
 10
-27.4999651
 20
-5.13030215
 30
0.0
 11
-23.5000349
 21
-5.13030215
 31
0.0
  0
ELLIPSE
  5
1206
330
762
100
AcDbEntity
  8
241
100
AcDbEllipse
 10
-25.5000349
 20
-5.08449496
 30
0.0
 11
-2.000524505802109
 21
0.0
 31
0.0
210
0.0
220
0.0
230
1.0
 40
0.93944625
 41
0.0
 42
6.283185307179584
  0
LINE
  5
1207
330
762
100
AcDbEntity
  8
245
100
AcDbLine
 10
-25.5000349
 20
-3.20510972
 30
0.0
 11
-25.5000349
 21
-6.96388021
 31
0.0
  0
LINE
  5
1208
330
762
100
AcDbEntity
  8
240
100
AcDbLine
 10
-29.5
 20
15.0
 30
0.0
 11
-21.5
 21
15.0
 31
0.0
  0
ARC
  5
1209
330
762
100
AcDbEntity
  8
240
100
AcDbCircle
 10
-30.75
 20
13.75
 30
0.0
 40
1.24999999999827
100
AcDbArc
 50
0.0
 51
180.0
  0
LINE
  5
120A
330
762
100
AcDbEntity
  8
240
100
AcDbLine
 10
-32.0
 20
13.75
 30
0.0
 11
-32.0
 21
15.0
 31
0.0
  0
LINE
  5
120B
330
762
100
AcDbEntity
  8
240
100
AcDbLine
 10
-35.5
 20
15.0
 30
0.0
 11
-32.0
 21
15.0
 31
0.0
  0
LINE
  5
120C
330
762
100
AcDbEntity
  8
240
100
AcDbLine
 10
-29.5
 20
13.75
 30
0.0
 11
-29.5
 21
15.0
 31
0.0
  0
ARC
  5
120D
330
762
100
AcDbEntity
  8
240
100
AcDbCircle
 10
-20.25
 20
13.75
 30
0.0
 40
1.249999999998089
100
AcDbArc
 50
0.0
 51
180.0
  0
LINE
  5
120E
330
762
100
AcDbEntity
  8
240
100
AcDbLine
 10
-21.5
 20
13.75
 30
0.0
 11
-21.5
 21
15.0
 31
0.0
  0
LINE
  5
120F
330
762
100
AcDbEntity
  8
240
100
AcDbLine
 10
-19.0
 20
13.75
 30
0.0
 11
-19.0
 21
15.0
 31
0.0
  0
ARC
  5
1210
330
762
100
AcDbEntity
  8
240
100
AcDbCircle
 10
1.97309836
 20
16.0
 30
0.0
 40
1.0
100
AcDbArc
 50
194.99999998
 51
270.0
  0
LINE
  5
1211
330
762
100
AcDbEntity
  8
240
100
AcDbLine
 10
-13.0
 20
15.5
 30
0.0
 11
-13.0
 21
14.7
 31
0.0
  0
LINE
  5
1212
330
762
100
AcDbEntity
  8
241
100
AcDbLine
 10
1.20577137
 20
15.35874397
 30
0.0
 11
1.20577137
 21
0.0
 31
0.0
  0
LINE
  5
1213
330
762
100
AcDbEntity
  8
241
100
AcDbLine
 10
-6.12626129
 20
19.5
 30
0.0
 11
-6.12626129
 21
0.0
 31
0.0
  0
LINE
  5
1214
330
762
100
AcDbEntity
  8
241
  6
CONTINUOUS
100
AcDbLine
 10
-7.5
 20
19.00000001
 30
0.0
 11
-7.5
 21
0.0
 31
0.0
  0
LINE
  5
1215
330
762
100
AcDbEntity
  8
241
100
AcDbLine
 10
0.0
 20
19.14125603
 30
0.0
 11
0.0
 21
0.0
 31
0.0
  0
LINE
  5
1216
330
762
100
AcDbEntity
  8
241
100
AcDbLine
 10
-2.0
 20
18.25
 30
0.0
 11
-2.0
 21
0.0
 31
0.0
  0
LINE
  5
1217
330
762
100
AcDbEntity
  8
241
100
AcDbLine
 10
-4.5
 20
18.25
 30
0.0
 11
-4.5
 21
0.0
 31
0.0
  0
LINE
  5
1218
330
762
100
AcDbEntity
  8
241
100
AcDbLine
 10
-14.5
 20
15.0
 30
0.0
 11
-14.5
 21
0.0
 31
0.0
  0
LINE
  5
1219
330
762
100
AcDbEntity
  8
240
100
AcDbLine
 10
-14.2
 20
14.7
 30
0.0
 11
-13.0
 21
14.7
 31
0.0
  0
LINE
  5
121A
330
762
100
AcDbEntity
  8
240
100
AcDbLine
 10
-14.2
 20
14.7
 30
0.0
 11
-14.5
 21
15.0
 31
0.0
  0
LINE
  5
121B
330
762
100
AcDbEntity
  8
0
100
AcDbLine
 10
18.93579242
 20
5.111226
 30
0.0
 11
19.19894166
 21
5.37437524
 31
0.0
  0
LINE
  5
121C
330
762
100
AcDbEntity
  8
0
100
AcDbLine
 10
19.19350438
 20
4.96482642
 30
0.0
 11
19.47130453
 21
5.24262658
 31
0.0
  0
ARC
  5
121D
330
762
100
AcDbEntity
  8
0
100
AcDbCircle
 10
20.00508492
 20
6.69350736
 30
0.0
 40
1.545954895019525
100
AcDbArc
 50
90.0
 51
270.0
  0
LINE
  5
121E
330
762
100
AcDbEntity
  8
0
100
AcDbLine
 10
21.43714183
 20
4.78379472
 30
0.0
 11
21.80089914
 21
5.14755204
 31
0.0
  0
LINE
  5
121F
330
762
100
AcDbEntity
  8
0
100
AcDbLine
 10
20.62891878
 20
4.78379472
 30
0.0
 11
20.99267609
 21
5.14755204
 31
0.0
  0
LINE
  5
1220
330
762
100
AcDbEntity
  8
0
100
AcDbLine
 10
21.0330303
 20
4.78379472
 30
0.0
 11
21.39678762
 21
5.14755204
 31
0.0
  0
LINE
  5
1221
330
762
100
AcDbEntity
  8
0
100
AcDbLine
 10
19.48793873
 20
4.85514924
 30
0.0
 11
19.79472128
 21
5.16193181
 31
0.0
  0
LINE
  5
1222
330
762
100
AcDbEntity
  8
0
100
AcDbLine
 10
19.82884572
 20
4.79194471
 30
0.0
 11
20.18445304
 21
5.14755204
 31
0.0
  0
LINE
  5
1223
330
762
100
AcDbEntity
  8
0
100
AcDbLine
 10
20.22480725
 20
4.78379472
 30
0.0
 11
20.58856457
 21
5.14755204
 31
0.0
  0
LINE
  5
1224
330
762
100
AcDbEntity
  8
0
100
AcDbLine
 10
20.85169411
 20
8.23946226
 30
0.0
 11
21.21545143
 21
8.60321958
 31
0.0
  0
LINE
  5
1225
330
762
100
AcDbEntity
  8
0
100
AcDbLine
 10
20.93977823
 20
7.92343484
 30
0.0
 11
21.61956295
 21
8.60321958
 31
0.0
  0
LINE
  5
1226
330
762
100
AcDbEntity
  8
0
100
AcDbLine
 10
20.94548714
 20
8.60321958
 30
0.0
 11
20.8411857
 21
8.23946226
 31
0.0
  0
LINE
  5
1227
330
762
100
AcDbEntity
  8
0
100
AcDbLine
 10
20.8411857
 20
8.23946226
 30
0.0
 11
21.03039773
 21
8.23946226
 31
0.0
  0
LINE
  5
1228
330
762
100
AcDbEntity
  8
0
100
AcDbLine
 10
20.75628884
 20
8.60321958
 30
0.0
 11
20.65198739
 21
8.23946226
 31
0.0
  0
LINE
  5
1229
330
762
100
AcDbEntity
  8
0
100
AcDbLine
 10
20.44758258
 20
8.23946226
 30
0.0
 11
20.73415828
 21
8.52603794
 31
0.0
  0
LINE
  5
122A
330
762
100
AcDbEntity
  8
0
100
AcDbLine
 10
19.57967657
 20
8.1797793
 30
0.0
 11
20.00311584
 21
8.60321856
 31
0.0
  0
LINE
  5
122B
330
762
100
AcDbEntity
  8
0
100
AcDbLine
 10
20.00508492
 20
8.60321958
 30
0.0
 11
20.75628884
 21
8.60321958
 31
0.0
  0
LINE
  5
122C
330
762
100
AcDbEntity
  8
0
100
AcDbLine
 10
20.00508492
 20
8.23946226
 30
0.0
 11
20.65198739
 21
8.23946226
 31
0.0
  0
LINE
  5
122D
330
762
100
AcDbEntity
  8
0
100
AcDbLine
 10
20.04347106
 20
8.23946226
 30
0.0
 11
20.40722838
 21
8.60321958
 31
0.0
  0
LINE
  5
122E
330
762
100
AcDbEntity
  8
0
100
AcDbLine
 10
20.36633171
 20
5.3294307
 30
0.0
 11
21.40077059
 21
6.36386958
 31
0.0
  0
LINE
  5
122F
330
762
100
AcDbEntity
  8
0
100
AcDbLine
 10
20.77044323
 20
5.3294307
 30
0.0
 11
21.23831622
 21
5.79730368
 31
0.0
  0
LINE
  5
1230
330
762
100
AcDbEntity
  8
0
100
AcDbLine
 10
18.7102509
 20
5.289796
 30
0.0
 11
18.96772476
 21
5.54726986
 31
0.0
  0
LINE
  5
1231
330
762
100
AcDbEntity
  8
0
100
AcDbLine
 10
18.35110027
 20
5.73886842
 30
0.0
 11
18.61969147
 21
6.00745962
 31
0.0
  0
LINE
  5
1232
330
762
100
AcDbEntity
  8
0
100
AcDbLine
 10
18.51519007
 20
5.4988467
 30
0.0
 11
18.77432543
 21
5.75798206
 31
0.0
  0
LINE
  5
1233
330
762
100
AcDbEntity
  8
0
100
AcDbLine
 10
20.19595865
 20
5.3294307
 30
0.0
 11
21.70548013
 21
5.3294307
 31
0.0
  0
LINE
  5
1234
330
762
100
AcDbEntity
  8
0
100
AcDbLine
 10
20.28992724
 20
5.65713776
 30
0.0
 11
21.8290226
 21
7.19623313
 31
0.0
  0
LINE
  5
1235
330
762
100
AcDbEntity
  8
0
100
AcDbLine
 10
20.19595865
 20
5.3294307
 30
0.0
 11
21.03039773
 21
8.23946226
 31
0.0
  0
LINE
  5
1236
330
762
100
AcDbEntity
  8
0
100
AcDbLine
 10
20.45238998
 20
6.22371203
 30
0.0
 11
21.72569704
 21
7.49701908
 31
0.0
  0
LINE
  5
1237
330
762
100
AcDbEntity
  8
0
100
AcDbLine
 10
21.51864299
 20
6.77495413
 30
0.0
 11
21.22054306
 21
5.73531908
 31
0.0
  0
ARC
  5
1238
330
762
100
AcDbEntity
  8
0
100
AcDbCircle
 10
20.00508492
 20
6.69350736
 30
0.0
 40
1.909712219238279
100
AcDbArc
 50
90.0
 51
270.0
  0
LINE
  5
1239
330
762
100
AcDbEntity
  8
0
100
AcDbLine
 10
18.15236713
 20
7.15658138
 30
0.0
 11
19.5420109
 21
8.54622515
 31
0.0
  0
LINE
  5
123A
330
762
100
AcDbEntity
  8
0
100
AcDbLine
 10
18.1308946
 20
6.3268858
 30
0.0
 11
18.45959519
 21
6.65558639
 31
0.0
  0
LINE
  5
123B
330
762
100
AcDbEntity
  8
0
100
AcDbLine
 10
18.22084021
 20
6.01271989
 30
0.0
 11
18.50964883
 21
6.3015285
 31
0.0
  0
LINE
  5
123C
330
762
100
AcDbEntity
  8
0
100
AcDbLine
 10
18.09537372
 20
6.69547644
 30
0.0
 11
18.51881299
 21
7.11891571
 31
0.0
  0
LINE
  5
123D
330
762
100
AcDbEntity
  8
240
100
AcDbLine
 10
-7.5
 20
19.00000001
 30
0.0
 11
-6.12626128
 21
19.5
 31
0.0
  0
LINE
  5
123E
330
762
100
AcDbEntity
  8
240
100
AcDbLine
 10
-7.50000001
 20
19.0
 30
0.0
 11
-13.5
 21
19.0
 31
0.0
  0
LINE
  5
123F
330
762
100
AcDbEntity
  8
241
  6
CONTINUOUS
100
AcDbLine
 10
-7.5
 20
15.2
 30
0.0
 11
-13.0
 21
15.2
 31
0.0
  0
LINE
  5
1240
330
762
100
AcDbEntity
  8
240
100
AcDbLine
 10
-13.0
 20
15.5
 30
0.0
 11
-13.5
 21
16.0
 31
0.0
  0
LINE
  5
1241
330
762
100
AcDbEntity
  8
240
100
AcDbLine
 10
-13.5
 20
19.0
 30
0.0
 11
-13.5
 21
16.0
 31
0.0
  0
ARC
  5
1242
330
762
100
AcDbEntity
  8
240
100
AcDbCircle
 10
-3.25
 20
18.25
 30
0.0
 40
1.250000000000339
100
AcDbArc
 50
0.0
 51
180.0
  0
LINE
  5
1243
330
762
100
AcDbEntity
  8
240
100
AcDbLine
 10
-4.5
 20
19.5
 30
0.0
 11
-6.12626129
 21
19.5
 31
0.0
  0
LINE
  5
1244
330
762
100
AcDbEntity
  8
240
100
AcDbLine
 10
-4.5
 20
18.25
 30
0.0
 11
-4.5
 21
19.5
 31
0.0
  0
LINE
  5
1245
330
762
100
AcDbEntity
  8
240
100
AcDbLine
 10
-0.63567449
 20
19.5
 30
0.0
 11
-2.0
 21
19.5
 31
0.0
  0
LINE
  5
1246
330
762
100
AcDbEntity
  8
240
100
AcDbLine
 10
-0.50850794
 20
19.46592583
 30
0.0
 11
-0.63567449
 21
19.5
 31
0.0
  0
LINE
  5
1247
330
762
100
AcDbEntity
  8
240
100
AcDbLine
 10
0.19859884
 20
18.75881905
 30
0.0
 11
1.00717253
 21
15.74118096
 31
0.0
  0
LINE
  5
1248
330
762
100
AcDbEntity
  8
240
100
AcDbLine
 10
-2.0
 20
18.25
 30
0.0
 11
-2.0
 21
19.5
 31
0.0
  0
ARC
  5
1249
330
762
100
AcDbEntity
  8
240
100
AcDbCircle
 10
-0.76732699
 20
18.5
 30
0.0
 40
1.0
100
AcDbArc
 50
15.0
 51
75.0
1001
GENIUS_GENOBJ-N-FIL_13
1002
{
1000
OWNER
1000
GEN
1002
}
1001
GENIUS_GENODEF_13
1002
{
1000
HIER
1070
     0
1002
}
1002
{
1000
MANEDIT
1070
     0
1002
}
1002
{
1000
NOSEL
1070
     0
1002
}
1002
{
1000
BEHIND
1070
     0
1002
}
1002
{
1000
OTHER
1070
     0
1002
}
1002
{
1000
REACTOR
1002
}
  0
LINE
  5
124A
330
762
100
AcDbEntity
  8
241
  6
HIDDEN2
100
AcDbLine
 10
95.0
 20
5.25
 30
0.0
 11
100.0
 21
5.25
 31
0.0
  0
LINE
  5
124B
330
762
100
AcDbEntity
  8
240
100
AcDbLine
 10
93.25980762
 20
15.0
 30
0.0
 11
114.0
 21
15.0
 31
0.0
  0
LINE
  5
124C
330
762
100
AcDbEntity
  8
240
100
AcDbLine
 10
93.25980762
 20
-15.0
 30
0.0
 11
114.0
 21
-15.0
 31
0.0
  0
LINE
  5
124D
330
762
100
AcDbEntity
  8
241
100
AcDbLine
 10
94.2
 20
-15.0
 30
0.0
 11
94.2
 21
0.0
 31
0.0
  0
LINE
  5
124E
330
762
100
AcDbEntity
  8
241
100
AcDbLine
 10
93.0
 20
-15.15
 30
0.0
 11
93.0
 21
0.0
 31
0.0
  0
LINE
  5
124F
330
762
100
AcDbEntity
  8
241
100
AcDbLine
 10
91.0
 20
-11.7
 30
0.0
 11
91.0
 21
0.0
 31
0.0
  0
LINE
  5
1250
330
762
100
AcDbEntity
  8
241
100
AcDbLine
 10
90.0
 20
-11.7
 30
0.0
 11
90.0
 21
0.0
 31
0.0
  0
LINE
  5
1251
330
762
100
AcDbEntity
  8
240
100
AcDbLine
 10
93.25980762
 20
-15.0
 30
0.0
 11
93.0
 21
-15.15
 31
0.0
  0
LINE
  5
1252
330
762
100
AcDbEntity
  8
240
100
AcDbLine
 10
90.0
 20
-11.7
 30
0.0
 11
90.0
 21
-15.0
 31
0.0
  0
LINE
  5
1253
330
762
100
AcDbEntity
  8
240
100
AcDbLine
 10
91.0
 20
-11.7
 30
0.0
 11
90.0
 21
-11.7
 31
0.0
  0
LINE
  5
1254
330
762
100
AcDbEntity
  8
240
100
AcDbLine
 10
91.0
 20
-11.7
 30
0.0
 11
91.0
 21
-15.15
 31
0.0
  0
LINE
  5
1255
330
762
100
AcDbEntity
  8
240
100
AcDbLine
 10
91.0
 20
-15.15
 30
0.0
 11
93.0
 21
-15.15
 31
0.0
  0
TEXT
  5
1256
330
762
100
AcDbEntity
  8
0
100
AcDbText
 10
30.72780131
 20
5.21563975
 30
0.0
 40
3.0
  1
MGT20-U1/2-115
  7
YOKO
100
AcDbText
  0
LINE
  5
1257
330
762
100
AcDbEntity
  8
0
100
AcDbLine
 10
26.28890551
 20
8.01911231
 30
0.0
 11
26.73525728
 21
8.46546408
 31
0.0
  0
ARC
  5
1258
330
762
100
AcDbEntity
  8
0
100
AcDbCircle
 10
27.38931192
 20
6.69350736
 30
0.0
 40
1.545959186553949
100
AcDbArc
 50
110.8721834
 51
132.54194894
  0
ARC
  5
1259
330
762
100
AcDbEntity
  8
0
100
AcDbCircle
 10
27.38931192
 20
6.69350736
 30
0.0
 40
1.909713077545161
100
AcDbArc
 50
110.22964506
 51
118.57168892
  0
LINE
  5
125A
330
762
100
AcDbEntity
  8
0
100
AcDbLine
 10
25.87433846
 20
7.1845825
 30
0.0
 11
26.93390114
 21
7.1845825
 31
0.0
  0
LINE
  5
125B
330
762
100
AcDbEntity
  8
0
100
AcDbLine
 10
25.62529776
 20
5.33494693
 30
0.0
 11
26.71639226
 21
6.42604144
 31
0.0
  0
LINE
  5
125C
330
762
100
AcDbEntity
  8
0
100
AcDbLine
 10
25.9802234
 20
6.49809562
 30
0.0
 11
26.66671028
 21
7.1845825
 31
0.0
  0
LINE
  5
125D
330
762
100
AcDbEntity
  8
0
100
AcDbLine
 10
25.79691628
 20
5.91067696
 30
0.0
 11
26.87885551
 21
6.9926162
 31
0.0
  0
LINE
  5
125E
330
762
100
AcDbEntity
  8
0
100
AcDbLine
 10
26.40194314
 20
5.3294307
 30
0.0
 11
26.93390114
 21
7.1845825
 31
0.0
  0
ARC
  5
125F
330
762
100
AcDbEntity
  8
0
100
AcDbCircle
 10
27.38931192
 20
6.69350736
 30
0.0
 40
1.545954895019525
100
AcDbArc
 50
270.0
 51
104.1274365
  0
ARC
  5
1260
330
762
100
AcDbEntity
  8
0
100
AcDbCircle
 10
27.38931192
 20
6.69350736
 30
0.0
 40
1.909712219238279
100
AcDbArc
 50
270.0
 51
104.77079397
  0
ARC
  5
1261
330
762
100
AcDbEntity
  8
0
100
AcDbCircle
 10
25.51108926
 20
6.5116287
 30
0.0
 40
1.182211303710936
100
AcDbArc
 50
163.9997507
 51
304.96387329
  0
LINE
  5
1262
330
762
100
AcDbEntity
  8
0
100
AcDbLine
 10
26.28648013
 20
4.78379472
 30
0.0
 11
26.65023745
 21
5.14755204
 31
0.0
  0
LINE
  5
1263
330
762
100
AcDbEntity
  8
0
100
AcDbLine
 10
24.26592251
 20
4.78379472
 30
0.0
 11
24.62967982
 21
5.14755204
 31
0.0
  0
LINE
  5
1264
330
762
100
AcDbEntity
  8
0
100
AcDbLine
 10
23.45769946
 20
4.78379472
 30
0.0
 11
23.82145676
 21
5.14755204
 31
0.0
  0
LINE
  5
1265
330
762
100
AcDbEntity
  8
0
100
AcDbLine
 10
23.86181098
 20
4.78379472
 30
0.0
 11
24.2255683
 21
5.14755204
 31
0.0
  0
LINE
  5
1266
330
762
100
AcDbEntity
  8
0
100
AcDbLine
 10
24.67003403
 20
4.78379472
 30
0.0
 11
25.03379135
 21
5.14755204
 31
0.0
  0
LINE
  5
1267
330
762
100
AcDbEntity
  8
0
100
AcDbLine
 10
25.07414556
 20
4.78379472
 30
0.0
 11
25.43790287
 21
5.14755204
 31
0.0
  0
LINE
  5
1268
330
762
100
AcDbEntity
  8
0
100
AcDbLine
 10
25.47825708
 20
4.78379472
 30
0.0
 11
25.8420144
 21
5.14755204
 31
0.0
  0
LINE
  5
1269
330
762
100
AcDbEntity
  8
0
100
AcDbLine
 10
23.05358792
 20
4.78379472
 30
0.0
 11
23.41734524
 21
5.14755204
 31
0.0
  0
LINE
  5
126A
330
762
100
AcDbEntity
  8
0
100
AcDbLine
 10
25.88236861
 20
4.78379472
 30
0.0
 11
26.24612592
 21
5.14755204
 31
0.0
  0
LINE
  5
126B
330
762
100
AcDbEntity
  8
0
100
AcDbLine
 10
24.52125437
 20
7.46379574
 30
0.0
 11
25.65487895
 21
8.59742032
 31
0.0
  0
LINE
  5
126C
330
762
100
AcDbEntity
  8
0
100
AcDbLine
 10
24.38709224
 20
6.92552208
 30
0.0
 11
26.03510712
 21
8.57353696
 31
0.0
  0
ARC
  5
126D
330
762
100
AcDbEntity
  8
0
100
AcDbCircle
 10
27.44394143
 20
6.44947355
 30
0.0
 40
3.093695068359374
100
AcDbArc
 50
155.20517737
 51
172.79482596
  0
LINE
  5
126E
330
762
100
AcDbEntity
  8
0
100
AcDbLine
 10
23.60253212
 20
8.56563112
 30
0.0
 11
23.64012059
 21
8.60321958
 31
0.0
  0
LINE
  5
126F
330
762
100
AcDbEntity
  8
0
100
AcDbLine
 10
23.6257664
 20
8.18475388
 30
0.0
 11
24.04423211
 21
8.60321958
 31
0.0
  0
LINE
  5
1270
330
762
100
AcDbEntity
  8
0
100
AcDbLine
 10
23.46330251
 20
7.61817846
 30
0.0
 11
24.44834364
 21
8.60321958
 31
0.0
  0
LINE
  5
1271
330
762
100
AcDbEntity
  8
0
100
AcDbLine
 10
23.30083862
 20
7.05160303
 30
0.0
 11
24.44150641
 21
8.19227083
 31
0.0
  0
LINE
  5
1272
330
762
100
AcDbEntity
  8
0
100
AcDbLine
 10
24.55934365
 20
8.60321958
 30
0.0
 11
23.61331094
 21
8.60321958
 31
0.0
  0
LINE
  5
1273
330
762
100
AcDbEntity
  8
0
100
AcDbLine
 10
23.49857248
 20
8.20309751
 30
0.0
 11
23.63102639
 21
8.20309751
 31
0.0
  0
LINE
  5
1274
330
762
100
AcDbEntity
  8
0
100
AcDbLine
 10
23.61331094
 20
8.60321958
 30
0.0
 11
23.49857248
 21
8.20309751
 31
0.0
  0
LINE
  5
1275
330
762
100
AcDbEntity
  8
0
100
AcDbLine
 10
24.55934365
 20
8.60321958
 30
0.0
 11
23.61331094
 21
8.60321958
 31
0.0
1001
HATCH_DISTANCE
1040
1.0
1001
HATCH_DISPLAY
1070
     0
1001
HATCH_TYPE
1070
     7
  0
LINE
  5
1276
330
762
100
AcDbEntity
  8
0
100
AcDbLine
 10
23.49857248
 20
8.20309751
 30
0.0
 11
23.63102639
 21
8.20309751
 31
0.0
1001
HATCH_DISTANCE
1040
1.0
1001
HATCH_DISPLAY
1070
     0
1001
HATCH_TYPE
1070
     7
  0
LINE
  5
1277
330
762
100
AcDbEntity
  8
0
100
AcDbLine
 10
23.61331094
 20
8.60321958
 30
0.0
 11
23.49857248
 21
8.20309751
 31
0.0
1001
HATCH_DISTANCE
1040
1.0
1001
HATCH_DISPLAY
1070
     0
1001
HATCH_TYPE
1070
     7
  0
LINE
  5
1278
330
762
100
AcDbEntity
  8
0
100
AcDbLine
 10
23.61331094
 20
8.60321958
 30
0.0
 11
24.55934365
 21
8.60321958
 31
0.0
  0
LINE
  5
1279
330
762
100
AcDbEntity
  8
0
100
AcDbLine
 10
23.49857248
 20
8.20309751
 30
0.0
 11
23.61331094
 21
8.60321958
 31
0.0
  0
LINE
  5
127A
330
762
100
AcDbEntity
  8
0
100
AcDbLine
 10
23.49857248
 20
8.20309751
 30
0.0
 11
23.63102639
 21
8.20309751
 31
0.0
  0
LINE
  5
127B
330
762
100
AcDbEntity
  8
0
100
AcDbLine
 10
25.77003701
 20
6.82082516
 30
0.0
 11
25.87433846
 21
7.1845825
 31
0.0
  0
LINE
  5
127C
330
762
100
AcDbEntity
  8
0
100
AcDbLine
 10
25.77003701
 20
6.82082516
 30
0.0
 11
26.07276528
 21
6.82082516
 31
0.0
  0
ARC
  5
127D
330
762
100
AcDbEntity
  8
0
100
AcDbCircle
 10
25.77184975
 20
7.42102201
 30
0.0
 40
1.182199287414549
100
AcDbArc
 50
53.4440122
 51
164.00018439
  0
LINE
  5
127E
330
762
100
AcDbEntity
  8
0
100
AcDbLine
 10
26.05687015
 20
8.19118847
 30
0.0
 11
26.32924916
 21
8.46356748
 31
0.0
  0
LINE
  5
127F
330
762
100
AcDbEntity
  8
0
100
AcDbLine
 10
25.89884143
 20
6.82082516
 30
0.0
 11
26.26259875
 21
7.1845825
 31
0.0
  0
ARC
  5
1280
330
762
100
AcDbEntity
  8
0
100
AcDbCircle
 10
25.96227029
 20
7.82114407
 30
0.0
 40
0.3819450080394744
100
AcDbArc
 50
1.71012138
 51
163.99839835
  0
LINE
  5
1281
330
762
100
AcDbEntity
  8
0
100
AcDbLine
 10
26.21291202
 20
5.51844966
 30
0.0
 11
26.55392902
 21
5.85946666
 31
0.0
  0
LINE
  5
1282
330
762
100
AcDbEntity
  8
0
100
AcDbLine
 10
26.18856119
 20
5.54279892
 30
0.0
 11
26.40194314
 21
5.3294307
 31
0.0
  0
LINE
  5
1283
330
762
100
AcDbEntity
  8
0
100
AcDbLine
 10
24.5283631
 20
5.85445836
 30
0.0
 11
25.19099598
 21
6.51709124
 31
0.0
  0
LINE
  5
1284
330
762
100
AcDbEntity
  8
0
100
AcDbLine
 10
23.5992239
 20
5.3294307
 30
0.0
 11
23.62919802
 21
5.35940482
 31
0.0
  0
LINE
  5
1285
330
762
100
AcDbEntity
  8
0
100
AcDbLine
 10
24.71534074
 20
5.63732448
 30
0.0
 11
25.10058682
 21
6.02257056
 31
0.0
  0
LINE
  5
1286
330
762
100
AcDbEntity
  8
0
100
AcDbLine
 10
24.95206678
 20
5.469939
 30
0.0
 11
25.26969079
 21
5.787563
 31
0.0
  0
LINE
  5
1287
330
762
100
AcDbEntity
  8
0
100
AcDbLine
 10
25.24580548
 20
5.35956617
 30
0.0
 11
25.67286253
 21
5.78662321
 31
0.0
  0
ARC
  5
1288
330
762
100
AcDbEntity
  8
0
100
AcDbCircle
 10
25.47203286
 20
6.11150663
 30
0.0
 40
0.3819447398185731
100
AcDbArc
 50
164.00027306
 51
344.00027306
  0
LINE
  5
1289
330
762
100
AcDbEntity
  8
0
100
AcDbLine
 10
23.19511238
 20
5.3294307
 30
0.0
 11
23.7916597
 21
5.92597801
 31
0.0
  0
LINE
  5
128A
330
762
100
AcDbEntity
  8
0
100
AcDbLine
 10
24.32983174
 20
6.46415005
 30
0.0
 11
25.51592358
 21
7.6502419
 31
0.0
  0
LINE
  5
128B
330
762
100
AcDbEntity
  8
0
100
AcDbLine
 10
24.39411984
 20
6.12432664
 30
0.0
 11
25.35345978
 21
7.08366658
 31
0.0
  0
LINE
  5
128C
330
762
100
AcDbEntity
  8
0
100
AcDbLine
 10
23.13837473
 20
6.48502762
 30
0.0
 11
24.27904474
 21
7.62569762
 31
0.0
  0
LINE
  5
128D
330
762
100
AcDbEntity
  8
0
100
AcDbLine
 10
23.62060312
 20
5.3294307
 30
0.0
 11
24.55934365
 21
8.60321958
 31
0.0
  0
LINE
  5
128E
330
762
100
AcDbEntity
  8
0
100
AcDbLine
 10
23.62060312
 20
5.3294307
 30
0.0
 11
24.55934365
 21
8.60321958
 31
0.0
1001
HATCH_DISTANCE
1040
1.0
1001
HATCH_DISPLAY
1070
     0
1001
HATCH_TYPE
1070
     7
  0
LINE
  5
128F
330
762
100
AcDbEntity
  8
0
100
AcDbLine
 10
23.62060312
 20
5.3294307
 30
0.0
 11
24.55934365
 21
8.60321958
 31
0.0
  0
LINE
  5
1290
330
762
100
AcDbEntity
  8
0
100
AcDbLine
 10
25.10488351
 20
6.21678312
 30
0.0
 11
25.59512094
 21
7.9264343
 31
0.0
  0
LINE
  5
1291
330
762
100
AcDbEntity
  8
0
100
AcDbLine
 10
25.83918222
 20
6.00623014
 30
0.0
 11
26.07276528
 21
6.82082516
 31
0.0
  0
LINE
  5
1292
330
762
100
AcDbEntity
  8
0
100
AcDbLine
 10
22.6494764
 20
4.78379472
 30
0.0
 11
23.01323372
 21
5.14755204
 31
0.0
  0
LINE
  5
1293
330
762
100
AcDbEntity
  8
0
100
AcDbLine
 10
22.24536487
 20
4.78379472
 30
0.0
 11
22.60912219
 21
5.14755204
 31
0.0
  0
LINE
  5
1294
330
762
100
AcDbEntity
  8
0
100
AcDbLine
 10
22.25085006
 20
7.61806058
 30
0.0
 11
22.85956283
 21
8.22677335
 31
0.0
  0
LINE
  5
1295
330
762
100
AcDbEntity
  8
0
100
AcDbLine
 10
22.2042267
 20
7.97554874
 30
0.0
 11
22.65780521
 21
8.42912725
 31
0.0
  0
LINE
  5
1296
330
762
100
AcDbEntity
  8
0
100
AcDbLine
 10
22.01302676
 20
8.18846033
 30
0.0
 11
22.38817974
 21
8.5636133
 31
0.0
  0
LINE
  5
1297
330
762
100
AcDbEntity
  8
0
100
AcDbLine
 10
22.05095887
 20
5.39761176
 30
0.0
 11
22.54667906
 21
5.89333196
 31
0.0
  0
ARC
  5
1298
330
762
100
AcDbEntity
  8
0
100
AcDbCircle
 10
22.12269967
 20
7.69384
 30
0.0
 40
0.9093873023986816
100
AcDbArc
 50
287.66957755
 51
90.23615984
  0
LINE
  5
1299
330
762
100
AcDbEntity
  8
0
100
AcDbLine
 10
22.80701058
 20
5.3294307
 30
0.0
 11
23.62060312
 21
5.3294307
 31
0.0
  0
LINE
  5
129A
330
762
100
AcDbEntity
  8
0
100
AcDbLine
 10
22.81344694
 20
5.35187677
 30
0.0
 11
23.95412138
 21
6.49255122
 31
0.0
  0
LINE
  5
129B
330
762
100
AcDbEntity
  8
0
100
AcDbLine
 10
22.80701058
 20
5.3294307
 30
0.0
 11
23.62060312
 21
5.3294307
 31
0.0
  0
LINE
  5
129C
330
762
100
AcDbEntity
  8
0
100
AcDbLine
 10
22.80701058
 20
5.3294307
 30
0.0
 11
23.62060312
 21
5.3294307
 31
0.0
1001
HATCH_DISTANCE
1040
1.0
1001
HATCH_DISPLAY
1070
     0
1001
HATCH_TYPE
1070
     7
  0
LINE
  5
129D
330
762
100
AcDbEntity
  8
0
100
AcDbLine
 10
22.80701058
 20
5.3294307
 30
0.0
 11
23.63102639
 21
8.20309751
 31
0.0
  0
LINE
  5
129E
330
762
100
AcDbEntity
  8
0
100
AcDbLine
 10
22.97591083
 20
5.9184522
 30
0.0
 11
24.11658306
 21
7.05912443
 31
0.0
  0
LINE
  5
129F
330
762
100
AcDbEntity
  8
0
100
AcDbLine
 10
23.63102639
 20
8.20309751
 30
0.0
 11
22.80701058
 21
5.3294307
 31
0.0
  0
LINE
  5
12A0
330
762
100
AcDbEntity
  8
0
100
AcDbLine
 10
23.63102639
 20
8.20309751
 30
0.0
 11
22.80701058
 21
5.3294307
 31
0.0
1001
HATCH_DISTANCE
1040
1.0
1001
HATCH_DISPLAY
1070
     0
1001
HATCH_TYPE
1070
     7
  0
LINE
  5
12A1
330
762
100
AcDbEntity
  8
0
100
AcDbLine
 10
28.00484454
 20
4.88571302
 30
0.0
 11
29.19710624
 21
6.07797473
 31
0.0
  0
LINE
  5
12A2
330
762
100
AcDbEntity
  8
0
100
AcDbLine
 10
28.66514178
 20
7.56656789
 30
0.0
 11
28.92596606
 21
7.82739218
 31
0.0
  0
LINE
  5
12A3
330
762
100
AcDbEntity
  8
0
100
AcDbLine
 10
27.99997958
 20
8.11374028
 30
0.0
 11
28.27280388
 21
8.38656457
 31
0.0
  0
LINE
  5
12A4
330
762
100
AcDbEntity
  8
0
100
AcDbLine
 10
28.26077782
 20
7.97042698
 30
0.0
 11
28.52165142
 21
8.23130058
 31
0.0
  0
LINE
  5
12A5
330
762
100
AcDbEntity
  8
0
100
AcDbLine
 10
28.4817958
 20
7.78733344
 30
0.0
 11
28.73901112
 21
8.04454874
 31
0.0
  0
LINE
  5
12A6
330
762
100
AcDbEntity
  8
0
100
AcDbLine
 10
28.80873664
 20
7.30605122
 30
0.0
 11
29.08144788
 21
7.57876247
 31
0.0
  0
LINE
  5
12A7
330
762
100
AcDbEntity
  8
0
100
AcDbLine
 10
28.9049524
 20
6.99815546
 30
0.0
 11
29.20181876
 21
7.29502183
 31
0.0
  0
LINE
  5
12A8
330
762
100
AcDbEntity
  8
0
100
AcDbLine
 10
28.81806224
 20
6.10304225
 30
0.0
 11
29.29568752
 21
6.58066753
 31
0.0
  0
LINE
  5
12A9
330
762
100
AcDbEntity
  8
0
100
AcDbLine
 10
28.93364614
 20
6.62273767
 30
0.0
 11
29.27915783
 21
6.96824936
 31
0.0
  0
LINE
  5
12AA
330
762
100
AcDbEntity
  8
0
100
AcDbLine
 10
26.69059165
 20
4.78379472
 30
0.0
 11
27.05434897
 21
5.14755204
 31
0.0
  0
LINE
  5
12AB
330
762
100
AcDbEntity
  8
0
100
AcDbLine
 10
27.09470318
 20
4.78379472
 30
0.0
 11
27.4600816
 21
5.14917313
 31
0.0
  0
LINE
  5
12AC
330
762
100
AcDbEntity
  8
0
100
AcDbLine
 10
27.31572623
 20
8.23770996
 30
0.0
 11
27.66170896
 21
8.5836927
 31
0.0
  0
LINE
  5
12AD
330
762
100
AcDbEntity
  8
0
100
AcDbLine
 10
27.01197275
 20
8.19271543
 30
0.0
 11
27.01197275
 21
8.19271543
 31
0.0
  0
LINE
  5
12AE
330
762
100
AcDbEntity
  8
0
100
AcDbLine
 10
26.90242532
 20
8.54011686
 30
0.0
 11
27.01197275
 21
8.19271543
 31
0.0
  0
LINE
  5
12AF
330
762
100
AcDbEntity
  8
0
100
AcDbLine
 10
26.90242532
 20
8.54011686
 30
0.0
 11
26.90242532
 21
8.54011686
 31
0.0
  0
LINE
  5
12B0
330
762
100
AcDbEntity
  8
0
100
AcDbLine
 10
27.01197275
 20
8.19271543
 30
0.0
 11
26.90242532
 21
8.54011686
 31
0.0
  0
LINE
  5
12B1
330
762
100
AcDbEntity
  8
0
100
AcDbLine
 10
27.01197275
 20
8.19271543
 30
0.0
 11
27.01197275
 21
8.19271543
 31
0.0
1001
HATCH_DISTANCE
1040
1.0
1001
HATCH_DISPLAY
1070
     0
1001
HATCH_TYPE
1070
     7
  0
LINE
  5
12B2
330
762
100
AcDbEntity
  8
0
100
AcDbLine
 10
26.90242532
 20
8.54011686
 30
0.0
 11
27.01197275
 21
8.19271543
 31
0.0
1001
HATCH_DISTANCE
1040
1.0
1001
HATCH_DISPLAY
1070
     0
1001
HATCH_TYPE
1070
     7
  0
LINE
  5
12B3
330
762
100
AcDbEntity
  8
0
100
AcDbLine
 10
26.90242532
 20
8.54011686
 30
0.0
 11
26.90242532
 21
8.54011686
 31
0.0
1001
HATCH_DISTANCE
1040
1.0
1001
HATCH_DISPLAY
1070
     0
1001
HATCH_TYPE
1070
     7
  0
LINE
  5
12B4
330
762
100
AcDbEntity
  8
0
100
AcDbLine
 10
27.01197275
 20
8.19271543
 30
0.0
 11
26.90242532
 21
8.54011686
 31
0.0
1001
HATCH_DISTANCE
1040
1.0
1001
HATCH_DISPLAY
1070
     0
1001
HATCH_TYPE
1070
     7
  0
LINE
  5
12B5
330
762
100
AcDbEntity
  8
0
100
AcDbLine
 10
27.01197275
 20
8.19271543
 30
0.0
 11
27.01197275
 21
8.19271543
 31
0.0
  0
LINE
  5
12B6
330
762
100
AcDbEntity
  8
0
100
AcDbLine
 10
26.90242532
 20
8.54011686
 30
0.0
 11
27.01197275
 21
8.19271543
 31
0.0
  0
LINE
  5
12B7
330
762
100
AcDbEntity
  8
0
100
AcDbLine
 10
26.90242532
 20
8.54011686
 30
0.0
 11
26.90242532
 21
8.54011686
 31
0.0
  0
LINE
  5
12B8
330
762
100
AcDbEntity
  8
0
100
AcDbLine
 10
27.01197275
 20
8.19271543
 30
0.0
 11
26.90242532
 21
8.54011686
 31
0.0
  0
LINE
  5
12B9
330
762
100
AcDbEntity
  8
0
100
AcDbLine
 10
27.01197275
 20
8.19271543
 30
0.0
 11
27.01197275
 21
8.19271543
 31
0.0
1001
HATCH_DISTANCE
1040
1.0
1001
HATCH_DISPLAY
1070
     0
1001
HATCH_TYPE
1070
     7
  0
LINE
  5
12BA
330
762
100
AcDbEntity
  8
0
100
AcDbLine
 10
26.90242532
 20
8.54011686
 30
0.0
 11
27.01197275
 21
8.19271543
 31
0.0
1001
HATCH_DISTANCE
1040
1.0
1001
HATCH_DISPLAY
1070
     0
1001
HATCH_TYPE
1070
     7
  0
LINE
  5
12BB
330
762
100
AcDbEntity
  8
0
100
AcDbLine
 10
26.90242532
 20
8.54011686
 30
0.0
 11
26.90242532
 21
8.54011686
 31
0.0
1001
HATCH_DISTANCE
1040
1.0
1001
HATCH_DISPLAY
1070
     0
1001
HATCH_TYPE
1070
     7
  0
LINE
  5
12BC
330
762
100
AcDbEntity
  8
0
100
AcDbLine
 10
27.01197275
 20
8.19271543
 30
0.0
 11
26.90242532
 21
8.54011686
 31
0.0
1001
HATCH_DISTANCE
1040
1.0
1001
HATCH_DISPLAY
1070
     0
1001
HATCH_TYPE
1070
     7
  0
LINE
  5
12BD
330
762
100
AcDbEntity
  8
0
100
AcDbLine
 10
26.79426486
 20
8.12036012
 30
0.0
 11
26.83213766
 21
8.15823293
 31
0.0
  0
LINE
  5
12BE
330
762
100
AcDbEntity
  8
0
100
AcDbLine
 10
26.83851235
 20
8.13801725
 30
0.0
 11
26.72896493
 21
8.48541868
 31
0.0
  0
LINE
  5
12BF
330
762
100
AcDbEntity
  8
0
100
AcDbLine
 10
27.01197275
 20
8.19271543
 30
0.0
 11
26.90242532
 21
8.54011686
 31
0.0
  0
LINE
  5
12C0
330
762
100
AcDbEntity
  8
0
100
AcDbLine
 10
26.97712639
 20
8.30322166
 30
0.0
 11
27.27361652
 21
8.59971179
 31
0.0
  0
LINE
  5
12C1
330
762
100
AcDbEntity
  8
0
100
AcDbLine
 10
27.50215175
 20
4.78713175
 30
0.0
 11
27.97977702
 21
5.26475704
 31
0.0
  0
LINE
  5
12C2
330
762
100
AcDbEntity
  8
0
100
AcDbLine
 10
27.69172346
 20
8.20959568
 30
0.0
 11
27.98880995
 21
8.50668216
 31
0.0
  0
LINE
  5
12C3
330
762
100
AcDbEntity
  8
241
100
AcDbLine
 10
93.0
 20
15.15
 30
0.0
 11
93.0
 21
0.0
 31
0.0
  0
LINE
  5
12C4
330
762
100
AcDbEntity
  8
240
100
AcDbLine
 10
91.0
 20
11.7
 30
0.0
 11
91.0
 21
15.15
 31
0.0
  0
LINE
  5
12C5
330
762
100
AcDbEntity
  8
240
100
AcDbLine
 10
93.25980762
 20
15.0
 30
0.0
 11
93.0
 21
15.15
 31
0.0
  0
LINE
  5
12C6
330
762
100
AcDbEntity
  8
241
100
AcDbLine
 10
90.0
 20
11.7
 30
0.0
 11
90.0
 21
0.0
 31
0.0
  0
LINE
  5
12C7
330
762
100
AcDbEntity
  8
241
100
AcDbLine
 10
91.0
 20
11.7
 30
0.0
 11
91.0
 21
0.0
 31
0.0
  0
LINE
  5
12C8
330
762
100
AcDbEntity
  8
241
100
AcDbLine
 10
94.2
 20
15.0
 30
0.0
 11
94.2
 21
0.0
 31
0.0
  0
LINE
  5
12C9
330
762
100
AcDbEntity
  8
242
  6
HIDDEN2
100
AcDbLine
 10
88.0
 20
5.02045815
 30
0.0
 11
95.0
 21
0.0
 31
0.0
  0
LINE
  5
12CA
330
762
100
AcDbEntity
  8
242
  6
HIDDEN2
100
AcDbLine
 10
88.0
 20
0.0
 30
0.0
 11
95.0
 21
5.02045815
 31
0.0
  0
LINE
  5
12CB
330
762
100
AcDbEntity
  8
241
  6
HIDDEN2
100
AcDbLine
 10
88.0
 20
5.02045815
 30
0.0
 11
88.0
 21
0.0
 31
0.0
  0
LINE
  5
12CC
330
762
100
AcDbEntity
  8
241
  6
HIDDEN2
100
AcDbLine
 10
95.0
 20
5.25
 30
0.0
 11
95.0
 21
0.0
 31
0.0
  0
LINE
  5
12CD
330
762
100
AcDbEntity
  8
241
  6
HIDDEN2
100
AcDbLine
 10
88.0
 20
5.02045815
 30
0.0
 11
95.0
 21
5.02045815
 31
0.0
  0
LINE
  5
12CE
330
762
100
AcDbEntity
  8
240
100
AcDbLine
 10
90.0
 20
11.7
 30
0.0
 11
90.0
 21
15.0
 31
0.0
  0
LINE
  5
12CF
330
762
100
AcDbEntity
  8
240
100
AcDbLine
 10
91.0
 20
11.7
 30
0.0
 11
90.0
 21
11.7
 31
0.0
  0
LINE
  5
12D0
330
762
100
AcDbEntity
  8
240
100
AcDbLine
 10
91.0
 20
15.15
 30
0.0
 11
93.0
 21
15.15
 31
0.0
  0
LINE
  5
12D1
330
762
100
AcDbEntity
  8
240
100
AcDbLine
 10
115.0
 20
-14.0
 30
0.0
 11
115.0
 21
0.0
 31
0.0
  0
ARC
  5
12D2
330
762
100
AcDbEntity
  8
240
100
AcDbCircle
 10
114.0
 20
-14.0
 30
0.0
 40
1.0
100
AcDbArc
 50
270.0
 51
0.0
1001
GENIUS_GENOBJ-N-FIL_13
1002
{
1000
OWNER
1000
GEN
1002
}
1001
GENIUS_GENODEF_13
1002
{
1000
HIER
1070
     0
1002
}
1002
{
1000
MANEDIT
1070
     0
1002
}
1002
{
1000
NOSEL
1070
     0
1002
}
1002
{
1000
BEHIND
1070
     0
1002
}
1002
{
1000
OTHER
1070
     0
1002
}
1002
{
1000
REACTOR
1002
}
  0
ARC
  5
12D3
330
762
100
AcDbEntity
  8
240
100
AcDbCircle
 10
114.0
 20
14.0
 30
0.0
 40
1.0
100
AcDbArc
 50
0.0
 51
90.0
1001
GENIUS_GENOBJ-N-FIL_13
1002
{
1000
OWNER
1000
GEN
1002
}
1001
GENIUS_GENODEF_13
1002
{
1000
HIER
1070
     0
1002
}
1002
{
1000
MANEDIT
1070
     0
1002
}
1002
{
1000
NOSEL
1070
     0
1002
}
1002
{
1000
BEHIND
1070
     0
1002
}
1002
{
1000
OTHER
1070
     0
1002
}
1002
{
1000
REACTOR
1002
}
  0
LINE
  5
12D4
330
762
100
AcDbEntity
  8
240
100
AcDbLine
 10
115.0
 20
14.0
 30
0.0
 11
115.0
 21
0.0
 31
0.0
  0
LINE
  5
12D5
330
762
100
AcDbEntity
  8
241
  6
HIDDEN2
100
AcDbLine
 10
100.0
 20
5.25
 30
0.0
 11
100.0
 21
0.0
 31
0.0
  0
LINE
  5
12D6
330
762
100
AcDbEntity
  8
241
  6
HIDDEN2
100
AcDbLine
 10
100.0
 20
4.5
 30
0.0
 11
115.0
 21
4.5
 31
0.0
  0
ENDBLK
  5
89F
330
762
100
AcDbEntity
  8
0
100
AcDbBlockEnd
  0
BLOCK
  5
1162
330
1158
100
AcDbEntity
  8
0
100
AcDbBlockBegin
  2
*D10
 70
     1
 10
0.0
 20
0.0
 30
0.0
  3
*D10
  1

  0
LINE
  5
11A8
330
1158
100
AcDbEntity
  8
AM_5
100
AcDbLine
 10
114.5
 20
15.0
 30
0.0
 11
134.5
 21
15.0
 31
0.0
  0
LINE
  5
11A9
330
1158
100
AcDbEntity
  8
AM_5
100
AcDbLine
 10
114.5
 20
-15.0
 30
0.0
 11
134.5
 21
-15.0
 31
0.0
  0
LINE
  5
11AA
330
1158
100
AcDbEntity
  8
AM_5
100
AcDbLine
 10
133.5
 20
12.77
 30
0.0
 11
133.5
 21
-12.77
 31
0.0
  0
INSERT
  5
11AB
330
1158
100
AcDbEntity
  8
AM_5
100
AcDbBlockReference
  2
_OPEN
 10
133.5
 20
15.0
 30
0.0
 41
2.23
 42
2.23
 43
2.23
 50
90.0
  0
INSERT
  5
11AC
330
1158
100
AcDbEntity
  8
AM_5
100
AcDbBlockReference
  2
_OPEN
 10
133.5
 20
-15.0
 30
0.0
 41
2.23
 42
2.23
 43
2.23
 50
270.0
  0
MTEXT
  5
11AD
330
1158
100
AcDbEntity
  8
AM_5
 62
    40
100
AcDbMText
 10
131.1
 20
-1.48621162
 30
0.0
 40
2.8
 41
0.0
 71
     5
 72
     1
  1
\A1;%%c30
 11
0.0
 21
1.0
 31
0.0
1001
ACAD
1000
MTEXTBEGIN
1070
    73
1070
     1
1070
    44
1040
1.0
1070
    74
1070
     0
1000
MTEXTEND
  0
POINT
  5
11AE
330
1158
100
AcDbEntity
  8
DEFPOINTS
 62
     0
100
AcDbPoint
 10
114.0
 20
15.0
 30
0.0
  0
POINT
  5
11AF
330
1158
100
AcDbEntity
  8
DEFPOINTS
 62
     0
100
AcDbPoint
 10
114.0
 20
-15.0
 30
0.0
  0
POINT
  5
11B0
330
1158
100
AcDbEntity
  8
DEFPOINTS
 62
     0
100
AcDbPoint
 10
133.5
 20
-15.0
 30
0.0
  0
ENDBLK
  5
1163
330
1158
100
AcDbEntity
  8
0
100
AcDbBlockEnd
  0
BLOCK
  5
116D
330
1164
100
AcDbEntity
  8
0
100
AcDbBlockBegin
  2
*D11
 70
     1
 10
0.0
 20
0.0
 30
0.0
  3
*D11
  1

  0
LINE
  5
11B1
330
1164
100
AcDbEntity
  8
250
  6
CONTINUOUS
100
AcDbLine
 10
115.5
 20
4.5
 30
0.0
 11
127.5
 21
4.5
 31
0.0
  0
LINE
  5
11B2
330
1164
100
AcDbEntity
  8
250
  6
CONTINUOUS
100
AcDbLine
 10
126.5
 20
-2.27
 30
0.0
 11
126.5
 21
2.27
 31
0.0
  0
INSERT
  5
11B3
330
1164
100
AcDbEntity
  8
250
  6
CONTINUOUS
100
AcDbBlockReference
  2
矢印なし
 10
126.5
 20
-4.5
 30
0.0
 41
2.23
 42
2.23
 43
2.23
 50
270.0
  0
INSERT
  5
11B4
330
1164
100
AcDbEntity
  8
250
  6
CONTINUOUS
100
AcDbBlockReference
  2
_OPEN
 10
126.5
 20
4.5
 30
0.0
 41
2.23
 42
2.23
 43
2.23
 50
90.0
  0
MTEXT
  5
11B5
330
1164
100
AcDbEntity
  8
250
  6
CONTINUOUS
 62
    40
100
AcDbMText
 10
124.1
 20
-1.06545661
 30
0.0
 40
2.8
 41
0.0
 71
     5
 72
     1
  1
\A1;{\H2.8;\U+2205}9
 11
0.0
 21
1.0
 31
0.0
1001
ACAD
1000
MTEXTBEGIN
1070
    73
1070
     1
1070
    44
1040
1.0
1070
    74
1070
     0
1000
MTEXTEND
  0
POINT
  5
11B6
330
1164
100
AcDbEntity
  8
DEFPOINTS
  6
CONTINUOUS
 62
     0
100
AcDbPoint
 10
115.0
 20
-4.5
 30
0.0
  0
POINT
  5
11B7
330
1164
100
AcDbEntity
  8
DEFPOINTS
  6
CONTINUOUS
 62
     0
100
AcDbPoint
 10
115.0
 20
4.5
 30
0.0
  0
POINT
  5
11B8
330
1164
100
AcDbEntity
  8
DEFPOINTS
  6
CONTINUOUS
 62
     0
100
AcDbPoint
 10
126.5
 20
4.5
 30
0.0
  0
ENDBLK
  5
116E
330
1164
100
AcDbEntity
  8
0
100
AcDbBlockEnd
  0
BLOCK
  5
1179
330
116F
100
AcDbEntity
  8
0
100
AcDbBlockBegin
  2
*D12
 70
     1
 10
0.0
 20
0.0
 30
0.0
  3
*D12
  1

  0
LINE
  5
119F
330
116F
100
AcDbEntity
  8
250
  6
CONTINUOUS
100
AcDbLine
 10
0.0
 20
19.64125603
 30
0.0
 11
0.0
 21
36.0
 31
0.0
  0
LINE
  5
11A0
330
116F
100
AcDbEntity
  8
250
  6
CONTINUOUS
100
AcDbLine
 10
115.0
 20
14.5
 30
0.0
 11
115.0
 21
36.0
 31
0.0
  0
LINE
  5
11A1
330
116F
100
AcDbEntity
  8
250
  6
CONTINUOUS
100
AcDbLine
 10
2.23
 20
35.0
 30
0.0
 11
112.77
 21
35.0
 31
0.0
  0
INSERT
  5
11A2
330
116F
100
AcDbEntity
  8
250
  6
CONTINUOUS
100
AcDbBlockReference
  2
_OPEN
 10
0.0
 20
35.0
 30
0.0
 41
2.23
 42
2.23
 43
2.23
 50
180.0
  0
INSERT
  5
11A3
330
116F
100
AcDbEntity
  8
250
  6
CONTINUOUS
100
AcDbBlockReference
  2
_OPEN
 10
115.0
 20
35.0
 30
0.0
 41
2.23
 42
2.23
 43
2.23
  0
MTEXT
  5
11A4
330
116F
100
AcDbEntity
  8
250
  6
CONTINUOUS
 62
    40
100
AcDbMText
 10
57.5
 20
37.4
 30
0.0
 40
2.8
 41
0.0
 71
     5
 72
     1
  1
\A1;115
1001
ACAD
1000
MTEXTBEGIN
1070
    73
1070
     1
1070
    44
1040
1.0
1070
    74
1070
     0
1000
MTEXTEND
  0
POINT
  5
11A5
330
116F
100
AcDbEntity
  8
DEFPOINTS
  6
CONTINUOUS
 62
     0
100
AcDbPoint
 10
0.0
 20
19.14125603
 30
0.0
  0
POINT
  5
11A6
330
116F
100
AcDbEntity
  8
DEFPOINTS
  6
CONTINUOUS
 62
     0
100
AcDbPoint
 10
115.0
 20
14.0
 30
0.0
  0
POINT
  5
11A7
330
116F
100
AcDbEntity
  8
DEFPOINTS
  6
CONTINUOUS
 62
     0
100
AcDbPoint
 10
115.0
 20
35.0
 30
0.0
  0
ENDBLK
  5
117A
330
116F
100
AcDbEntity
  8
0
100
AcDbBlockEnd
  0
ENDSEC
  0
SECTION
  2
ENTITIES
  0
INSERT
  5
6E6
330
1A
100
AcDbEntity
  8
245
100
AcDbBlockReference
  2
矢印なし
 10
175.62382697
 20
90.55123572
 30
0.0
  0
INSERT
  5
8DC
330
1A
100
AcDbEntity
  8
245
100
AcDbBlockReference
  2
矢印なし
 10
364.62382697
 20
223.55123572
 30
0.0
  0
INSERT
  5
8DD
330
1A
100
AcDbEntity
  8
245
100
AcDbBlockReference
  2
矢印なし
 10
525.62382697
 20
377.55123572
 30
0.0
  0
INSERT
  5
8DE
330
1A
100
AcDbEntity
  8
245
100
AcDbBlockReference
  2
矢印なし
 10
700.62382697
 20
531.55123572
 30
0.0
  0
INSERT
  5
8DF
330
1A
100
AcDbEntity
  8
245
100
AcDbBlockReference
  2
矢印なし
 10
875.62382697
 20
664.55123572
 30
0.0
  0
INSERT
  5
8E0
330
1A
100
AcDbEntity
  8
245
100
AcDbBlockReference
  2
矢印なし
 10
1029.62382697
 20
811.55123572
 30
0.0
  0
TEXT
  5
8E2
330
1A
100
AcDbEntity
  8
241
100
AcDbText
 10
-69.0
 20
49.0
 30
0.0
 40
5.0
  1
MGT20-U1/2-115
  7
YOKO
 11
-69.0
 21
49.0
 31
0.0
100
AcDbText
 73
     1
  0
DIMENSION
  5
1037
330
1A
100
AcDbEntity
  8
250
  6
CONTINUOUS
100
AcDbDimension
  2
*D12
 10
115.0
 20
35.0
 30
0.0
 11
57.5
 21
37.4
 31
0.0
 70
    32
  3
BIGT$0
100
AcDbAlignedDimension
 13
0.0
 23
19.14125603
 33
0.0
 14
115.0
 24
14.0
 34
0.0
100
AcDbRotatedDimension
  0
DIMENSION
  5
10AB
330
1A
100
AcDbEntity
  8
AM_5
100
AcDbDimension
  2
*D10
 10
133.5
 20
-15.0
 30
0.0
 11
133.5
 21
-1.48621162
 31
0.0
 70
   160
  1
%%c<>
  3
BIGT$0
100
AcDbAlignedDimension
 13
114.0
 23
15.0
 33
0.0
 14
114.0
 24
-15.0
 34
0.0
 50
90.0
100
AcDbRotatedDimension
  0
DIMENSION
  5
10CD
330
1A
100
AcDbEntity
  8
250
  6
CONTINUOUS
100
AcDbDimension
  2
*D11
 10
126.5
 20
4.5
 30
0.0
 11
126.5
 21
-1.06545661
 31
0.0
 70
   160
  1
{\H2.8;\U+2205}<>
  3
BIGT
100
AcDbAlignedDimension
 13
115.0
 23
-4.5
 33
0.0
 14
115.0
 24
4.5
 34
0.0
 50
90.0
100
AcDbRotatedDimension
1001
ACAD
1000
DSTYLE
1002
{
1070
   287
1070
     3
1070
   287
1070
     3
1070
   287
1070
     3
1070
   287
1070
     3
1070
    75
1070
     1
1070
    77
1070
     3
1070
   145
1040
1.0
1070
   279
1070
     0
1070
   289
1070
     3
1070
     6
1000
矢印なし
1002
}
  0
LEADER
  5
114D
330
1A
100
AcDbEntity
  8
250
  6
CONTINUOUS
100
AcDbLeader
  3
BIGT
 76
     2
 10
91.91674761
 20
5.02045815
 30
0.0
 10
102.0
 20
28.0
 30
0.0
1001
ACAD
1000
DSTYLE
1002
{
1070
     6
1000
OPEN
1070
   343
1005
594
1002
}
  0
LINE
  5
1156
330
1A
100
AcDbEntity
  8
250
  6
CONTINUOUS
100
AcDbLine
 10
102.0
 20
28.0
 30
0.0
 11
114.37936977
 21
28.0
 31
0.0
1001
ITEMNAME
1000
LNSP2
  0
MTEXT
  5
1157
330
1A
100
AcDbEntity
  8
251
  6
CONTINUOUS
100
AcDbMText
 10
106.32603644
 20
29.0
 30
0.0
 40
2.8
 41
0.0
 71
     7
 72
     1
  1
□7
  7
YOKO
1001
ITEMNAME
1000
LNSP3
1001
ACAD
1000
MTEXTBEGIN
1070
    73
1070
     1
1070
    44
1040
1.0
1070
    74
1070
     0
1000
MTEXTEND
1000
MTEXTBEGIN
1070
    73
1070
     1
1070
    44
1040
1.0
1070
    74
1070
     0
1000
MTEXTEND
1000
MTEXTBEGIN
1070
    73
1070
     1
1070
    44
1040
1.0
1070
    74
1070
     0
1000
MTEXTEND
1000
MTEXTBEGIN
1070
    73
1070
     1
1070
    44
1040
1.0
1070
    74
1070
     0
1000
MTEXTEND
1000
MTEXTBEGIN
1070
    73
1070
     1
1070
    44
1040
1.0
1070
    74
1070
     0
1000
MTEXTEND
1000
MTEXTBEGIN
1070
    73
1070
     1
1070
    44
1040
1.0
1070
    74
1070
     0
1000
MTEXTEND
  0
INSERT
  5
12D7
330
1A
100
AcDbEntity
  8
245
100
AcDbBlockReference
  2
1
 10
0.0
 20
0.0
 30
0.0
  0
VIEWPORT
  5
22
330
17
100
AcDbEntity
 67
     1
  8
0
100
AcDbViewport
 10
261.51769912
 20
148.5
 30
0.0
 40
523.03539823
 41
297.0
 68
     1
 69
     1
1001
ACAD
1000
MVIEW
1002
{
1070
    16
1010
0.0
1020
0.0
1030
0.0
1010
0.0
1020
0.0
1030
1.0
1040
0.0
1040
297.0
1040
261.51769912
1040
148.5
1040
50.0
1040
0.0
1040
0.0
1070
     0
1070
   100
1070
     1
1070
     1
1070
     0
1070
     0
1070
     0
1070
     0
1040
0.0
1040
0.0
1040
0.0
1040
1.0
1040
1.0
1040
10.0
1040
10.0
1070
     0
1002
{
1002
}
1002
}
  0
ENDSEC
  0
SECTION
  2
OBJECTS
  0
DICTIONARY
  5
C
330
0
100
AcDbDictionary
  3
ACAD_GROUP
350
D
  3
ACAD_LAYOUT
350
565
  3
ACAD_MLINESTYLE
350
E
  3
ACAD_PLOTSETTINGS
350
566
  3
ACAD_PLOTSTYLENAME
350
563
  3
ACDBHEADERROUNDTRIPXREC
350
12D9
  3
GRADE_DWG
350
540
  0
DICTIONARY
  5
C2D
330
1A
100
AcDbDictionary
280
     1
  3
ACAD_LAYOUTSELFREF
360
12FB
  0
DICTIONARY
  5
C2B
330
17
100
AcDbDictionary
280
     1
  3
ACAD_LAYOUTSELFREF
360
12FA
  0
DICTIONARY
  5
D
102
{ACAD_REACTORS
330
C
102
}
330
C
100
AcDbDictionary
  3
*A1
350
6C7
  3
*A2
350
6C8
  3
*A3
350
6D4
  3
*A4
350
6D5
  3
DREC-1
350
5FC
  3
DREC-2
350
654
  3
DREC-3
350
673
  0
DICTIONARY
  5
565
102
{ACAD_REACTORS
330
C
102
}
330
C
100
AcDbDictionary
  0
DICTIONARY
  5
E
102
{ACAD_REACTORS
330
C
102
}
330
C
100
AcDbDictionary
  3
STANDARD
350
13
  0
DICTIONARY
  5
566
102
{ACAD_REACTORS
330
C
102
}
330
C
100
AcDbDictionary
  3
A3_0_5倍_
350
758
  3
A3_1倍_
350
757
  3
A3_1倍__2000_
350
707
  3
A3_2倍_
350
759
  3
A4_0_5倍_
350
755
  3
A4_1倍_
350
754
  3
A4_1倍__2000_
350
708
  3
A4_2倍_
350
756
  0
ACDBDICTIONARYWDFLT
  5
563
102
{ACAD_REACTORS
330
C
102
}
330
C
100
AcDbDictionary
281
     1
  3
Normal
350
564
100
AcDbDictionaryWithDefault
340
564
  0
DICTIONARY
  5
12D9
102
{ACAD_REACTORS
330
C
102
}
330
C
100
AcDbDictionary
  3
CEPSNTYPE
350
12E3
  3
DIMSTYLEDATA
350
12E7
  3
FINGERPRINTGUID
350
12E4
  3
HYPERLINKBASE
350
12DC
  3
INSUNITS
350
12E2
  3
LAYOUTDICT
350
12DE
  3
LWETCUNION
350
12E1
  3
PLOTSETDICT
350
12DF
  3
PLOTSTYLNAMDICT
350
12E0
  3
PSVPSCALE
350
12E6
  3
PUCSBASE
350
12EA
  3
PUCSORGBACK
350
12F0
  3
PUCSORGBOTTOM
350
12EC
  3
PUCSORGFRONT
350
12EF
  3
PUCSORGLEFT
350
12ED
  3
PUCSORGRIGHT
350
12EE
  3
PUCSORGTOP
350
12EB
  3
PUCSORTHOREF
350
12E8
  3
PUCSORTHOVIEW
350
12E9
  3
STYLESHEET
350
12DD
  3
TSTACKALIGN
350
12DA
  3
TSTACKSIZE
350
12DB
  3
UCSBASE
350
12F3
  3
UCSORGBACK
350
12F9
  3
UCSORGBOTTOM
350
12F5
  3
UCSORGFRONT
350
12F8
  3
UCSORGLEFT
350
12F6
  3
UCSORGRIGHT
350
12F7
  3
UCSORGTOP
350
12F4
  3
UCSORTHOREF
350
12F1
  3
UCSORTHOVIEW
350
12F2
  3
VERSIONGUID
350
12E5
  0
DICTIONARY
  5
540
102
{ACAD_REACTORS
330
C
102
}
330
C
100
AcDbDictionary
  3
VERSION
350
560
  0
XRECORD
  5
12FB
102
{ACAD_REACTORS
330
C2D
102
}
330
C2D
100
AcDbXrecord
340
1A
  0
XRECORD
  5
12FA
102
{ACAD_REACTORS
330
C2B
102
}
330
C2B
100
AcDbXrecord
340
17
  0
GROUP
  5
6C7
102
{ACAD_REACTORS
330
D
102
}
330
D
100
AcDbGroup
300

 70
     0
 71
     1
1001
GRPNAME
1000
DMA00
  0
GROUP
  5
6C8
102
{ACAD_REACTORS
330
D
102
}
330
D
100
AcDbGroup
300

 70
     0
 71
     1
1001
GRPNAME
1000
DMA00
  0
GROUP
  5
6D4
102
{ACAD_REACTORS
330
D
102
}
330
D
100
AcDbGroup
300

 70
     0
 71
     1
1001
GRPNAME
1000
DMA00
  0
GROUP
  5
6D5
102
{ACAD_REACTORS
330
D
102
}
330
D
100
AcDbGroup
300

 70
     0
 71
     1
1001
GRPNAME
1000
DMA00
  0
GROUP
  5
5FC
102
{ACAD_REACTORS
330
D
102
}
330
D
100
AcDbGroup
300

 70
     0
 71
     1
1001
GRPNAME
1000
DREC-
1001
GPARA
1000
xsiz
1000
44.182
1000
ysiz
1000
40.677
1000
angl
1000
0
1000
ctyp
1000
0
1000
csiz
1000
5
1000
lfnt
1000
cont
1000
hcnt
1000
hoff
1000
vcnt
1000
voff
1000
opnt
1000
4
1000
dxpt
1000
0
1000
dypt
1000
0
  0
GROUP
  5
654
102
{ACAD_REACTORS
330
D
102
}
330
D
100
AcDbGroup
300

 70
     0
 71
     1
1001
GRPNAME
1000
DREC-
1001
GPARA
1000
xsiz
1000
54.592
1000
ysiz
1000
53.036
1000
angl
1000
0
1000
ctyp
1000
0
1000
csiz
1000
5
1000
lfnt
1000
cont
1000
hcnt
1000
hoff
1000
vcnt
1000
voff
1000
opnt
1000
4
1000
dxpt
1000
0
1000
dypt
1000
0
  0
GROUP
  5
673
102
{ACAD_REACTORS
330
D
102
}
330
D
100
AcDbGroup
300

 70
     0
 71
     1
1001
GRPNAME
1000
DREC-
1001
GPARA
1000
xsiz
1000
30.363
1000
ysiz
1000
36.175
1000
angl
1000
0
1000
ctyp
1000
0
1000
csiz
1000
5
1000
lfnt
1000
cont
1000
hcnt
1000
hoff
1000
vcnt
1000
voff
1000
opnt
1000
4
1000
dxpt
1000
0
1000
dypt
1000
0
  0
MLINESTYLE
  5
13
102
{ACAD_REACTORS
330
E
102
}
330
E
100
AcDbMlineStyle
  2
STANDARD
 70
     0
  3

 62
     0
 51
90.0
 52
90.0
 71
     2
 49
0.5
 62
   256
  6
BYLAYER
 49
-0.5
 62
   256
  6
BYLAYER
  0
PLOTSETTINGS
  5
758
102
{ACAD_REACTORS
330
566
102
}
330
566
100
AcDbPlotSettings
  1
A3(0.5倍)
  2
\\AWTECPC05\HP DeskJet 1120C
  4
A3
  6

 40
5.95841646
 41
13.49375153
 42
6.04309082
 43
3.67242432
 44
296.92599487
 45
419.94665527
 46
89.96
 47
127.14
 48
0.0
 49
0.0
140
0.0
141
0.0
142
1.0
143
2.0
 70
  1716
 72
     1
 73
     1
 74
     2
  7
big.ctb
 75
    17
147
0.5
148
0.0
149
0.0
  0
PLOTSETTINGS
  5
757
102
{ACAD_REACTORS
330
566
102
}
330
566
100
AcDbPlotSettings
  1
A3(1倍)
  2
\\AWTECPC05\HP DeskJet 1120C
  4
A3
  6

 40
5.95841646
 41
13.49375153
 42
6.04309082
 43
3.67242432
 44
296.92599487
 45
419.94665527
 46
37.46
 47
52.89
 48
0.0
 49
0.0
140
0.0
141
0.0
142
1.0
143
1.0
 70
  1716
 72
     1
 73
     1
 74
     2
  7
big.ctb
 75
    16
147
1.0
148
0.0
149
0.0
  0
PLOTSETTINGS
  5
707
102
{ACAD_REACTORS
330
566
102
}
330
566
100
AcDbPlotSettings
  1
A3(1倍)(2000)
  2
SII LS-1300 (D-SCAN)
  4
User258
  6

 40
3.17499995
 41
3.17499995
 42
3.17498779
 43
3.17498779
 44
419.98898315
 45
296.98950195
 46
58.32
 47
40.32
 48
0.0
 49
0.0
140
0.0
141
0.0
142
1.0
143
1.0
 70
  1716
 72
     1
 73
     0
 74
     2
  7
big.ctb
 75
    16
147
1.0
148
0.0
149
0.0
  0
PLOTSETTINGS
  5
759
102
{ACAD_REACTORS
330
566
102
}
330
566
100
AcDbPlotSettings
  1
A3(2倍)
  2
\\AWTECPC05\HP DeskJet 1120C
  4
A3
  6

 40
5.95841646
 41
13.49375153
 42
6.04309082
 43
3.67242432
 44
296.92599487
 45
419.94665527
 46
-67.54
 47
-95.61
 48
0.0
 49
0.0
140
0.0
141
0.0
142
1.0
143
0.5
 70
  1716
 72
     1
 73
     1
 74
     2
  7
big.ctb
 75
    27
147
2.0
148
0.0
149
0.0
  0
PLOTSETTINGS
  5
755
102
{ACAD_REACTORS
330
566
102
}
330
566
100
AcDbPlotSettings
  1
A4(0.5倍)
  2
\\AWTECPC05\HP DeskJet 1120C
  4
A4
  6

 40
4.18041658
 41
13.49374962
 42
4.18040466
 43
3.92642212
 44
209.97332764
 45
296.92599487
 46
48.31
 47
65.5
 48
0.0
 49
0.0
140
0.0
141
0.0
142
1.0
143
2.0
 70
  1716
 72
     1
 73
     1
 74
     2
  7
big.ctb
 75
    17
147
0.5
148
0.0
149
0.0
  0
PLOTSETTINGS
  5
754
102
{ACAD_REACTORS
330
566
102
}
330
566
100
AcDbPlotSettings
  1
A4(1倍)
  2
\\AWTECPC05\HP DeskJet 1120C
  4
A4
  6

 40
4.18041658
 41
13.49374962
 42
4.18040466
 43
3.92642212
 44
209.97332764
 45
296.92599487
 46
-4.19
 47
-8.75
 48
0.0
 49
0.0
140
0.0
141
0.0
142
1.0
143
1.0
 70
  1716
 72
     1
 73
     1
 74
     2
  7
big.ctb
 75
    16
147
1.0
148
0.0
149
0.0
  0
PLOTSETTINGS
  5
708
102
{ACAD_REACTORS
330
566
102
}
330
566
100
AcDbPlotSettings
  1
A4(1倍)(2000)
  2
SII LS-1300 (D-SCAN)
  4
User259
  6

 40
3.17499995
 41
3.17499995
 42
3.17498779
 43
3.17500305
 44
296.98950195
 45
209.99449158
 46
-3.18
 47
-3.18
 48
0.0
 49
0.0
140
0.0
141
0.0
142
1.0
143
1.0
 70
  1716
 72
     1
 73
     0
 74
     2
  7
big.ctb
 75
    16
147
1.0
148
0.0
149
0.0
  0
PLOTSETTINGS
  5
756
102
{ACAD_REACTORS
330
566
102
}
330
566
100
AcDbPlotSettings
  1
A4(2倍)
  2
\\AWTECPC05\HP DeskJet 1120C
  4
A4
  6

 40
4.18041658
 41
13.49374962
 42
4.18040466
 43
3.92642212
 44
209.97332764
 45
296.92599487
 46
-109.19
 47
-157.25
 48
0.0
 49
0.0
140
0.0
141
0.0
142
1.0
143
0.5
 70
  1716
 72
     1
 73
     1
 74
     2
  7
big.ctb
 75
    27
147
2.0
148
0.0
149
0.0
  0
ACDBPLACEHOLDER
  5
564
102
{ACAD_REACTORS
330
563
102
}
330
563
100
AcDbPlaceHolder
280
     0
  0
XRECORD
  5
12E3
102
{ACAD_REACTORS
330
12D9
102
}
330
12D9
100
AcDbXrecord
 90
        0
  0
XRECORD
  5
12E7
102
{ACAD_REACTORS
330
12D9
102
}
330
12D9
100
AcDbXrecord
1000
DSTYLE
1002
{
1070
    79
 70
     2
1070
   179
 70
     3
1070
   341
340
594
1070
   343
340
594
1070
   344
340
594
1070
   371
 70
    -1
1070
   372
 70
    -1
1002
}
  0
XRECORD
  5
12E4
102
{ACAD_REACTORS
330
12D9
102
}
330
12D9
100
AcDbXrecord
  1
{51294030-9CB4-11D3-8E18-00A0C925D94D}
  0
XRECORD
  5
12DC
102
{ACAD_REACTORS
330
12D9
102
}
330
12D9
100
AcDbXrecord
  1

  0
XRECORD
  5
12E2
102
{ACAD_REACTORS
330
12D9
102
}
330
12D9
100
AcDbXrecord
 90
        0
  0
XRECORD
  5
12DE
102
{ACAD_REACTORS
330
12D9
102
}
330
12D9
100
AcDbXrecord
340
565
  0
XRECORD
  5
12E1
102
{ACAD_REACTORS
330
12D9
102
}
330
12D9
100
AcDbXrecord
 90
    10781
  0
XRECORD
  5
12DF
102
{ACAD_REACTORS
330
12D9
102
}
330
12D9
100
AcDbXrecord
340
566
  0
XRECORD
  5
12E0
102
{ACAD_REACTORS
330
12D9
102
}
330
12D9
100
AcDbXrecord
340
563
  0
XRECORD
  5
12E6
102
{ACAD_REACTORS
330
12D9
102
}
330
12D9
100
AcDbXrecord
 40
0.0
  0
XRECORD
  5
12EA
102
{ACAD_REACTORS
330
12D9
102
}
330
12D9
100
AcDbXrecord
340
0
  0
XRECORD
  5
12F0
102
{ACAD_REACTORS
330
12D9
102
}
330
12D9
100
AcDbXrecord
 10
0.0
 20
0.0
 30
0.0
  0
XRECORD
  5
12EC
102
{ACAD_REACTORS
330
12D9
102
}
330
12D9
100
AcDbXrecord
 10
0.0
 20
0.0
 30
0.0
  0
XRECORD
  5
12EF
102
{ACAD_REACTORS
330
12D9
102
}
330
12D9
100
AcDbXrecord
 10
0.0
 20
0.0
 30
0.0
  0
XRECORD
  5
12ED
102
{ACAD_REACTORS
330
12D9
102
}
330
12D9
100
AcDbXrecord
 10
0.0
 20
0.0
 30
0.0
  0
XRECORD
  5
12EE
102
{ACAD_REACTORS
330
12D9
102
}
330
12D9
100
AcDbXrecord
 10
0.0
 20
0.0
 30
0.0
  0
XRECORD
  5
12EB
102
{ACAD_REACTORS
330
12D9
102
}
330
12D9
100
AcDbXrecord
 10
0.0
 20
0.0
 30
0.0
  0
XRECORD
  5
12E8
102
{ACAD_REACTORS
330
12D9
102
}
330
12D9
100
AcDbXrecord
340
0
  0
XRECORD
  5
12E9
102
{ACAD_REACTORS
330
12D9
102
}
330
12D9
100
AcDbXrecord
 70
     0
  0
XRECORD
  5
12DD
102
{ACAD_REACTORS
330
12D9
102
}
330
12D9
100
AcDbXrecord
  1
big.ctb
  0
XRECORD
  5
12DA
102
{ACAD_REACTORS
330
12D9
102
}
330
12D9
100
AcDbXrecord
 90
        1
  0
XRECORD
  5
12DB
102
{ACAD_REACTORS
330
12D9
102
}
330
12D9
100
AcDbXrecord
 90
       70
  0
XRECORD
  5
12F3
102
{ACAD_REACTORS
330
12D9
102
}
330
12D9
100
AcDbXrecord
340
0
  0
XRECORD
  5
12F9
102
{ACAD_REACTORS
330
12D9
102
}
330
12D9
100
AcDbXrecord
 10
0.0
 20
0.0
 30
0.0
  0
XRECORD
  5
12F5
102
{ACAD_REACTORS
330
12D9
102
}
330
12D9
100
AcDbXrecord
 10
0.0
 20
0.0
 30
0.0
  0
XRECORD
  5
12F8
102
{ACAD_REACTORS
330
12D9
102
}
330
12D9
100
AcDbXrecord
 10
0.0
 20
0.0
 30
0.0
  0
XRECORD
  5
12F6
102
{ACAD_REACTORS
330
12D9
102
}
330
12D9
100
AcDbXrecord
 10
0.0
 20
0.0
 30
0.0
  0
XRECORD
  5
12F7
102
{ACAD_REACTORS
330
12D9
102
}
330
12D9
100
AcDbXrecord
 10
0.0
 20
0.0
 30
0.0
  0
XRECORD
  5
12F4
102
{ACAD_REACTORS
330
12D9
102
}
330
12D9
100
AcDbXrecord
 10
0.0
 20
0.0
 30
0.0
  0
XRECORD
  5
12F1
102
{ACAD_REACTORS
330
12D9
102
}
330
12D9
100
AcDbXrecord
340
0
  0
XRECORD
  5
12F2
102
{ACAD_REACTORS
330
12D9
102
}
330
12D9
100
AcDbXrecord
 70
     0
  0
XRECORD
  5
12E5
102
{ACAD_REACTORS
330
12D9
102
}
330
12D9
100
AcDbXrecord
  1
{99995751-7F4C-4A69-B83F-8B441E986C3A}
  0
XRECORD
  5
560
102
{ACAD_REACTORS
330
540
102
}
330
540
100
AcDbXrecord
  1
2.0.0
  0
ENDSEC
  0
EOF
