  0
SECTION
  2
HEADER
  9
$ACADVER
  1
AC1014
  9
$ACADMAINTVER
 70
     9
  9
$DWGCODEPAGE
  3
ANSI_932
  9
$INSBASE
 10
0.0
 20
0.0
 30
0.0
  9
$EXTMIN
 10
-70.01495247
 20
-19.5703201
 30
-0.00152582
  9
$EXTMAX
 10
54.5112617
 20
54.96170761
 30
0.00000003
  9
$LIMMIN
 10
0.0
 20
0.0
  9
$LIMMAX
 10
420.0
 20
297.0
  9
$ORTHOMODE
 70
     1
  9
$REGENMODE
 70
     1
  9
$FILLMODE
 70
     1
  9
$QTEXTMODE
 70
     0
  9
$MIRRTEXT
 70
     1
  9
$DRAGMODE
 70
     2
  9
$LTSCALE
 40
10.0
  9
$OSMODE
 70
   549
  9
$ATTMODE
 70
     1
  9
$TEXTSIZE
 40
3.0
  9
$TRACEWID
 40
1.0
  9
$TEXTSTYLE
  7
YOKO
  9
$CLAYER
  8
245
  9
$CELTYPE
  6
BYLAYER
  9
$CECOLOR
 62
   256
  9
$CELTSCALE
 40
1.0
  9
$DELOBJ
 70
     1
  9
$DISPSILH
 70
     0
  9
$DIMSCALE
 40
1.0
  9
$DIMASZ
 40
2.0
  9
$DIMEXO
 40
2.0
  9
$DIMDLI
 40
2.5
  9
$DIMRND
 40
0.0
  9
$DIMDLE
 40
0.0
  9
$DIMEXE
 40
2.0
  9
$DIMTP
 40
0.0
  9
$DIMTM
 40
0.0
  9
$DIMTXT
 40
4.0
  9
$DIMCEN
 40
0.0
  9
$DIMTSZ
 40
0.0
  9
$DIMTOL
 70
     0
  9
$DIMLIM
 70
     0
  9
$DIMTIH
 70
     0
  9
$DIMTOH
 70
     0
  9
$DIMSE1
 70
     0
  9
$DIMSE2
 70
     0
  9
$DIMTAD
 70
     3
  9
$DIMZIN
 70
     8
  9
$DIMBLK
  1

  9
$DIMASO
 70
     1
  9
$DIMSHO
 70
     1
  9
$DIMPOST
  1

  9
$DIMAPOST
  1

  9
$DIMALT
 70
     0
  9
$DIMALTD
 70
     2
  9
$DIMALTF
 40
25.4
  9
$DIMLFAC
 40
1.0
  9
$DIMTOFL
 70
     1
  9
$DIMTVP
 40
0.0
  9
$DIMTIX
 70
     1
  9
$DIMSOXD
 70
     0
  9
$DIMSAH
 70
     1
  9
$DIMBLK1
  1
OPEN
  9
$DIMBLK2
  1
OPEN
  9
$DIMSTYLE
  2
BIGT
  9
$DIMCLRD
 70
   256
  9
$DIMCLRE
 70
   256
  9
$DIMCLRT
 70
    40
  9
$DIMTFAC
 40
1.0
  9
$DIMGAP
 40
1.0
  9
$DIMJUST
 70
     0
  9
$DIMSD1
 70
     0
  9
$DIMSD2
 70
     0
  9
$DIMTOLJ
 70
     1
  9
$DIMTZIN
 70
     8
  9
$DIMALTZ
 70
     0
  9
$DIMALTTZ
 70
     0
  9
$DIMFIT
 70
     3
  9
$DIMUPT
 70
     0
  9
$DIMUNIT
 70
     2
  9
$DIMDEC
 70
     3
  9
$DIMTDEC
 70
     3
  9
$DIMALTU
 70
     2
  9
$DIMALTTD
 70
     2
  9
$DIMTXSTY
  7
STANDARD
  9
$DIMAUNIT
 70
     0
  9
$LUNITS
 70
     2
  9
$LUPREC
 70
     3
  9
$SKETCHINC
 40
1.0
  9
$FILLETRAD
 40
0.0
  9
$AUNITS
 70
     0
  9
$AUPREC
 70
     3
  9
$MENU
  1
.
  9
$ELEVATION
 40
0.0
  9
$PELEVATION
 40
0.0
  9
$THICKNESS
 40
0.0
  9
$LIMCHECK
 70
     0
  9
$BLIPMODE
 70
     0
  9
$CHAMFERA
 40
10.0
  9
$CHAMFERB
 40
10.0
  9
$CHAMFERC
 40
0.0
  9
$CHAMFERD
 40
0.0
  9
$SKPOLY
 70
     0
  9
$TDCREATE
 40
2455128.640657361
  9
$TDUPDATE
 40
2455316.559090520
  9
$TDINDWG
 40
0.0050987384
  9
$TDUSRTIMER
 40
0.0050987384
  9
$USRTIMER
 70
     1
  9
$ANGBASE
 50
0.0
  9
$ANGDIR
 70
     0
  9
$PDMODE
 70
     1
  9
$PDSIZE
 40
-5.0
  9
$PLINEWID
 40
0.0
  9
$COORDS
 70
     0
  9
$SPLFRAME
 70
     0
  9
$SPLINETYPE
 70
     6
  9
$SPLINESEGS
 70
     8
  9
$ATTDIA
 70
     0
  9
$ATTREQ
 70
     1
  9
$HANDLING
 70
-16383
  9
$HANDSEED
  5
130A
  9
$SURFTAB1
 70
     6
  9
$SURFTAB2
 70
     6
  9
$SURFTYPE
 70
     6
  9
$SURFU
 70
     6
  9
$SURFV
 70
     6
  9
$UCSNAME
  2

  9
$UCSORG
 10
0.0
 20
0.0
 30
0.0
  9
$UCSXDIR
 10
1.0
 20
0.0
 30
0.0
  9
$UCSYDIR
 10
0.0
 20
1.0
 30
0.0
  9
$PUCSNAME
  2

  9
$PUCSORG
 10
0.0
 20
0.0
 30
0.0
  9
$PUCSXDIR
 10
1.0
 20
0.0
 30
0.0
  9
$PUCSYDIR
 10
0.0
 20
1.0
 30
0.0
  9
$USERI1
 70
     1
  9
$USERI2
 70
     0
  9
$USERI3
 70
     0
  9
$USERI4
 70
     0
  9
$USERI5
 70
     0
  9
$USERR1
 40
0.0
  9
$USERR2
 40
0.0
  9
$USERR3
 40
0.0
  9
$USERR4
 40
0.0
  9
$USERR5
 40
0.0
  9
$WORLDVIEW
 70
     1
  9
$SHADEDGE
 70
     3
  9
$SHADEDIF
 70
    70
  9
$TILEMODE
 70
     1
  9
$MAXACTVP
 70
    16
  9
$PINSBASE
 10
0.0
 20
0.0
 30
0.0
  9
$PLIMCHECK
 70
     0
  9
$PEXTMIN
 10
1.00000000E+20
 20
1.00000000E+20
 30
1.00000000E+20
  9
$PEXTMAX
 10
-1.00000000E+20
 20
-1.00000000E+20
 30
-1.00000000E+20
  9
$PLIMMIN
 10
0.0
 20
0.0
  9
$PLIMMAX
 10
420.0
 20
297.0
  9
$UNITMODE
 70
     0
  9
$VISRETAIN
 70
     0
  9
$PLINEGEN
 70
     0
  9
$PSLTSCALE
 70
     1
  9
$TREEDEPTH
 70
  3020
  9
$PICKSTYLE
 70
     0
  9
$CMLSTYLE
  2
STANDARD
  9
$CMLJUST
 70
     0
  9
$CMLSCALE
 40
1.0
  9
$PROXYGRAPHICS
 70
     1
  9
$MEASUREMENT
 70
     1
  0
ENDSEC
  0
SECTION
  2
CLASSES
  0
CLASS
  1
XRECORD
  2
AcDbXrecord
  3
AutoCAD 2000
 90
        0
280
     0
281
     0
  0
CLASS
  1
ACDBDICTIONARYWDFLT
  2
AcDbDictionaryWithDefault
  3
AutoCAD 2000
 90
        0
280
     0
281
     0
  0
CLASS
  1
ACDBPLACEHOLDER
  2
AcDbPlaceHolder
  3
AutoCAD 2000
 90
        0
280
     0
281
     0
  0
CLASS
  1
LAYOUT
  2
AcDbLayout
  3
AutoCAD 2000
 90
        0
280
     0
281
     0
  0
CLASS
  1
PLOTSETTINGS
  2
AcDbPlotSettings
  3
AutoCAD 2000
 90
        0
280
     0
281
     0
  0
CLASS
  1
LONG_TRANSACTION
  2
AcDbLongTransaction
  3
AutoCAD 2000
 90
        0
280
     0
281
     0
  0
CLASS
  1
LWPOLYLINE
  2
AcDbPolyline
  3
AutoCAD 2000
 90
        0
280
     0
281
     1
  0
CLASS
  1
HATCH
  2
AcDbHatch
  3
AutoCAD 2000
 90
        0
280
     0
281
     1
  0
CLASS
  1
XRECORD
  2
AcDbXrecord
  3
AutoCAD 2000
 90
        0
280
     0
281
     0
  0
CLASS
  1
LONG_TRANSACTION
  2
AcDbLongTransaction
  3
AutoCAD 2000
 90
        0
280
     0
281
     0
  0
CLASS
  1
LWPOLYLINE
  2
AcDbPolyline
  3
AutoCAD 2000
 90
        0
280
     0
281
     1
  0
CLASS
  1
HATCH
  2
AcDbHatch
  3
AutoCAD 2000
 90
        0
280
     0
281
     1
  0
CLASS
  1
XRECORD
  2
AcDbXrecord
  3
AutoCAD 2000
 90
        0
280
     0
281
     0
  0
ENDSEC
  0
SECTION
  2
TABLES
  0
TABLE
  2
VPORT
  5
8
330
0
100
AcDbSymbolTable
 70
     2
  0
VPORT
  5
12E5
330
8
100
AcDbSymbolTableRecord
100
AcDbViewportTableRecord
  2
*ACTIVE
 70
     0
 10
0.0
 20
0.0
 11
1.0
 21
1.0
 12
-7.75184539
 22
17.69569376
 13
0.0
 23
0.0
 14
7.0
 24
7.0
 15
7.0
 25
7.0
 16
0.0
 26
0.0
 36
1.0
 17
0.0
 27
0.0
 37
0.0
 40
87.43258703
 41
1.43184713
 42
50.0
 43
0.0
 44
0.0
 50
0.0
 51
0.0
 71
     0
 72
  2000
 73
     1
 74
     0
 75
     0
 76
     0
 77
     0
 78
     0
  0
ENDTAB
  0
TABLE
  2
LTYPE
  5
5
330
0
100
AcDbSymbolTable
 70
     3
  0
LTYPE
  5
14
330
5
100
AcDbSymbolTableRecord
100
AcDbLinetypeTableRecord
  2
BYBLOCK
 70
     0
  3

 72
    65
 73
     0
 40
0.0
  0
LTYPE
  5
15
330
5
100
AcDbSymbolTableRecord
100
AcDbLinetypeTableRecord
  2
BYLAYER
 70
     0
  3

 72
    65
 73
     0
 40
0.0
  0
LTYPE
  5
16
330
5
100
AcDbSymbolTableRecord
100
AcDbLinetypeTableRecord
  2
CONTINUOUS
 70
     0
  3
Solid line
 72
    65
 73
     0
 40
0.0
  0
LTYPE
  5
258
330
5
100
AcDbSymbolTableRecord
100
AcDbLinetypeTableRecord
  2
CENTER2
 70
     0
  3
___ _ ___ _ ___ _ ___ _ ___ _ ___ _ ___ _ ___ _
 72
    65
 73
     4
 40
1.125
 49
0.75
 74
     0
 49
-0.125
 74
     0
 49
0.125
 74
     0
 49
-0.125
 74
     0
  0
LTYPE
  5
25C
330
5
100
AcDbSymbolTableRecord
100
AcDbLinetypeTableRecord
  2
HIDDEN2
 70
     0
  3
_ _ _ _ _ _ _ _ _ _ _ _ _ _ _ _ _ _ _ _ _ _ _ _
 72
    65
 73
     2
 40
0.1875
 49
0.125
 74
     0
 49
-0.0625
 74
     0
  0
ENDTAB
  0
TABLE
  2
LAYER
  5
2
330
0
100
AcDbSymbolTable
 70
    12
  0
LAYER
  5
F
330
2
100
AcDbSymbolTableRecord
100
AcDbLayerTableRecord
  2
0
 70
     0
 62
     7
  6
CONTINUOUS
  0
LAYER
  5
1AA
330
2
100
AcDbSymbolTableRecord
100
AcDbLayerTableRecord
  2
240
 70
     0
 62
     4
  6
CONTINUOUS
  0
LAYER
  5
1AB
330
2
100
AcDbSymbolTableRecord
100
AcDbLayerTableRecord
  2
241
 70
     0
 62
   211
  6
CONTINUOUS
  0
LAYER
  5
1AC
330
2
100
AcDbSymbolTableRecord
100
AcDbLayerTableRecord
  2
242
 70
     0
 62
     3
  6
CONTINUOUS
  0
LAYER
  5
1AD
330
2
100
AcDbSymbolTableRecord
100
AcDbLayerTableRecord
  2
243
 70
     0
 62
   211
  6
HIDDEN2
  0
LAYER
  5
1AF
330
2
100
AcDbSymbolTableRecord
100
AcDbLayerTableRecord
  2
245
 70
     0
 62
     2
  6
CENTER2
  0
LAYER
  5
21E
330
2
100
AcDbSymbolTableRecord
100
AcDbLayerTableRecord
  2
250
 70
     0
 62
     3
  6
CONTINUOUS
  0
LAYER
  5
21F
330
2
100
AcDbSymbolTableRecord
100
AcDbLayerTableRecord
  2
251
 70
     0
 62
    40
  6
CONTINUOUS
  0
LAYER
  5
5C4
330
2
100
AcDbSymbolTableRecord
100
AcDbLayerTableRecord
  2
DEFPOINTS
 70
     0
 62
     7
  6
CONTINUOUS
  0
LAYER
  5
8C5
330
2
100
AcDbSymbolTableRecord
100
AcDbLayerTableRecord
  2
AM_5
 70
     0
 62
     3
  6
CONTINUOUS
  0
ENDTAB
  0
TABLE
  2
STYLE
  5
3
330
0
100
AcDbSymbolTable
 70
     2
  0
STYLE
  5
10
330
3
100
AcDbSymbolTableRecord
100
AcDbTextStyleTableRecord
  2
STANDARD
 70
     0
 40
0.0
 41
1.0
 50
0.0
 71
     0
 42
3.0
  3
romans.shx
  4
BIGFONT.SHX
  0
STYLE
  5
339
330
3
100
AcDbSymbolTableRecord
100
AcDbTextStyleTableRecord
  2
YOKO
 70
     0
 40
0.0
 41
1.0
 50
0.0
 71
     0
 42
3.0
  3
romans.shx
  4
extfont.shx
  0
ENDTAB
  0
TABLE
  2
VIEW
  5
6
330
0
100
AcDbSymbolTable
 70
     0
  0
ENDTAB
  0
TABLE
  2
UCS
  5
7
330
0
100
AcDbSymbolTable
 70
     0
  0
ENDTAB
  0
TABLE
  2
APPID
  5
9
330
0
100
AcDbSymbolTable
 70
    15
  0
APPID
  5
11
330
9
100
AcDbSymbolTableRecord
100
AcDbRegAppTableRecord
  2
ACAD
 70
     0
  0
APPID
  5
1B1
330
9
100
AcDbSymbolTableRecord
100
AcDbRegAppTableRecord
  2
GLOBAL
 70
     0
  0
APPID
  5
2A4
330
9
100
AcDbSymbolTableRecord
100
AcDbRegAppTableRecord
  2
DETAIL
 70
     0
  0
APPID
  5
5FD
330
9
100
AcDbSymbolTableRecord
100
AcDbRegAppTableRecord
  2
GRPNAME
 70
     0
  0
APPID
  5
5FE
330
9
100
AcDbSymbolTableRecord
100
AcDbRegAppTableRecord
  2
GPARA
 70
     0
  0
APPID
  5
6C4
330
9
100
AcDbSymbolTableRecord
100
AcDbRegAppTableRecord
  2
DCO15
 70
     0
  0
APPID
  5
6C5
330
9
100
AcDbSymbolTableRecord
100
AcDbRegAppTableRecord
  2
ITEMNAME
 70
     0
  0
APPID
  5
6C6
330
9
100
AcDbSymbolTableRecord
100
AcDbRegAppTableRecord
  2
GRADE_0
 70
     0
  0
APPID
  5
8C7
330
9
100
AcDbSymbolTableRecord
100
AcDbRegAppTableRecord
  2
GENIUS_GENODEF_13
 70
     0
  0
APPID
  5
8C8
330
9
100
AcDbSymbolTableRecord
100
AcDbRegAppTableRecord
  2
GENIUS_GENOREF_13
 70
     0
  0
APPID
  5
8C9
330
9
100
AcDbSymbolTableRecord
100
AcDbRegAppTableRecord
  2
GENIUS_GENOBJ-N-FIL_13
 70
     0
  0
APPID
  5
8CA
330
9
100
AcDbSymbolTableRecord
100
AcDbRegAppTableRecord
  2
HATCH_TYPE
 70
     0
  0
APPID
  5
8CB
330
9
100
AcDbSymbolTableRecord
100
AcDbRegAppTableRecord
  2
HATCH_DISPLAY
 70
     0
  0
APPID
  5
8CC
330
9
100
AcDbSymbolTableRecord
100
AcDbRegAppTableRecord
  2
HATCH_DISTANCE
 70
     0
  0
APPID
  5
DA5
330
9
100
AcDbSymbolTableRecord
100
AcDbRegAppTableRecord
  2
CONTENTBLOCKICON
 70
     0
  0
ENDTAB
  0
TABLE
  2
DIMSTYLE
  5
A
330
0
100
AcDbSymbolTable
 70
     2
  0
DIMSTYLE
105
725
102
{ACAD_REACTORS
330
1162
102
}
330
A
100
AcDbSymbolTableRecord
100
AcDbDimStyleTableRecord
  2
BIGT
 70
     0
  3

  4

  5

  6
OPEN
  7
OPEN
 40
1.0
 41
2.23
 42
0.5
 43
2.5
 44
1.0
 45
0.0
 46
0.0
 47
0.0
 48
0.0
140
2.8
141
0.0
142
0.0
143
25.4
144
1.0
145
0.0
146
1.0
147
1.0
 71
     0
 72
     0
 73
     0
 74
     0
 75
     0
 76
     0
 77
     3
 78
     8
170
     0
171
     2
172
     1
173
     1
174
     1
175
     0
176
   256
177
   256
178
    40
270
     2
271
     3
272
     3
273
     2
274
     2
340
10
275
     0
280
     0
281
     0
282
     0
283
     1
284
     8
285
     0
286
     0
287
     3
288
     0
  0
DIMSTYLE
105
8C6
102
{ACAD_REACTORS
330
1144
330
1164
102
}
330
A
100
AcDbSymbolTableRecord
100
AcDbDimStyleTableRecord
  2
BIGT$0
 70
     0
  3

  4

  5
OPEN
  6

  7

 40
1.0
 41
2.23
 42
0.5
 43
7.0
 44
1.0
 45
0.0
 46
0.0
 47
0.0
 48
0.01
140
2.8
141
0.0
142
0.0
143
25.4
144
1.0
145
0.0
146
1.0
147
1.0
 71
     0
 72
     0
 73
     0
 74
     0
 75
     0
 76
     0
 77
     3
 78
     9
170
     0
171
     2
172
     1
173
     0
174
     1
175
     0
176
   256
177
   256
178
    40
270
     2
271
     3
272
     3
273
     2
274
     2
340
10
275
     0
280
     0
281
     0
282
     0
283
     1
284
     8
285
     0
286
     0
287
     3
288
     0
  0
ENDTAB
  0
TABLE
  2
BLOCK_RECORD
  5
1
330
0
100
AcDbSymbolTable
 70
    13
  0
BLOCK_RECORD
  5
1A
102
{ACAD_XDICTIONARY
360
DA3
102
}
330
1
100
AcDbSymbolTableRecord
100
AcDbBlockTableRecord
  2
*MODEL_SPACE
  0
BLOCK_RECORD
  5
17
102
{ACAD_XDICTIONARY
360
DA1
102
}
330
1
100
AcDbSymbolTableRecord
100
AcDbBlockTableRecord
  2
*PAPER_SPACE
  0
BLOCK_RECORD
  5
594
330
1
100
AcDbSymbolTableRecord
100
AcDbBlockTableRecord
  2
_OPEN
  0
BLOCK_RECORD
  5
6E3
330
1
100
AcDbSymbolTableRecord
100
AcDbBlockTableRecord
  2
矢印なし
  0
BLOCK_RECORD
  5
762
330
1
100
AcDbSymbolTableRecord
100
AcDbBlockTableRecord
  2
1
1001
CONTENTBLOCKICON
1071
        0
1004
2800000020000000200000000100080000000000000400000000000000000000000000000000000000000000000080000080000000808000800000008000800080800000C0C0C000C0DCC000F0CAA6000020400000206000002080000020A0000020C0000020E00000400000004020000040400000406000004080000040A0
1004
000040C0000040E00000600000006020000060400000606000006080000060A0000060C0000060E00000800000008020000080400000806000008080000080A0000080C0000080E00000A0000000A0200000A0400000A0600000A0800000A0A00000A0C00000A0E00000C0000000C0200000C0400000C0600000C0800000C0
1004
A00000C0C00000C0E00000E0000000E0200000E0400000E0600000E0800000E0A00000E0C00000E0E00040000000400020004000400040006000400080004000A0004000C0004000E00040200000402020004020400040206000402080004020A0004020C0004020E000404000004040200040404000404060004040800040
1004
40A0004040C0004040E00040600000406020004060400040606000406080004060A0004060C0004060E00040800000408020004080400040806000408080004080A0004080C0004080E00040A0000040A0200040A0400040A0600040A0800040A0A00040A0C00040A0E00040C0000040C0200040C0400040C0600040C08000
1004
40C0A00040C0C00040C0E00040E0000040E0200040E0400040E0600040E0800040E0A00040E0C00040E0E00080000000800020008000400080006000800080008000A0008000C0008000E00080200000802020008020400080206000802080008020A0008020C0008020E00080400000804020008040400080406000804080
1004
008040A0008040C0008040E00080600000806020008060400080606000806080008060A0008060C0008060E00080800000808020008080400080806000808080008080A0008080C0008080E00080A0000080A0200080A0400080A0600080A0800080A0A00080A0C00080A0E00080C0000080C0200080C0400080C0600080C0
1004
800080C0A00080C0C00080C0E00080E0000080E0200080E0400080E0600080E0800080E0A00080E0C00080E0E000C0000000C0002000C0004000C0006000C0008000C000A000C000C000C000E000C0200000C0202000C0204000C0206000C0208000C020A000C020C000C020E000C0400000C0402000C0404000C0406000C0
1004
408000C040A000C040C000C040E000C0600000C0602000C0604000C0606000C0608000C060A000C060C000C060E000C0800000C0802000C0804000C0806000C0808000C080A000C080C000C080E000C0A00000C0A02000C0A04000C0A06000C0A08000C0A0A000C0A0C000C0A0E000C0C00000C0C02000C0C04000C0C06000
1004
C0C08000C0C0A000F0FBFF00A4A0A000808080000000FF0000FF000000FFFF00FF000000FF00FF00FFFF0000FFFFFF0000000000000000000000000000000000000000000000000000000000000000000000000000000000000000000000000000000000000000000000000000000000000000000000000000000000000000
1004
00000000000000000000000000000000000000000000000000000000000000000000000000000000000000000000000000000000000000000000000000000000000000000000000000000000000000000000000000000000000000000000000000000000000000000000000000000000000000000000000000000000000000
1004
00000000000000000000000000000000000000000000000000000000000000000000000000000000000000000000000000000000000000000000000000000000000000000000000000000000000000000000000000000000000000000000000000000000000000000000000000000000000000000000000000000000000000
1004
000000FEFEFEFEFE000000000000000000000000000000000000000000000000000000FEFEE7FEFE0000FE00000000000000000000FEFEFEFEFEFEFEFEFEFEFEFEFEFEFEFEE7E7E7FFFEFEFEFEFEFEFEFE00000000FE00000000E7FBE70000E700E7E7E700E7E7E7FF00E7E700000000FE00000000FE00000000E7FBE70000
1004
E7FBE7E7E700E7E7E7FF00E7E700000000FE00000000FE00000000E7FBE70000E7FBE7E7E700E7E7E7FF00E7E700000000FE000000FBFEFBFBFBFBE7FBE7FBFBE7FBE7E7E7FBE7E7E7FFE7E7E7FBE7FBFBFEFB000000FE00000000E7FBE70000E700E7E7E700E7E7E7FFE7FAE700E7E7E7FE00000000FE00000000E7FBE700
1004
00E700E7E7E700E7E7E7FFE7E7E7E7E70000FE00000000FEFEFEFEFEFEFEFEFEFEFEFEFEFEFEFEE7E7E7FFFEFEE7FEFEFEFEFE000000000000000000000000000000000000FEFEE7FEFE0000FE000000000000000000000000000000000000000000000000FEFEFEFEFE000000000000000000000000000000000000000000
1004
00000000000000000000000000000000000000000000000000000000000000000000000000000000000000000000000000000000000000000000000000000000000000000000000000000000000000000000000000000000000000000000000000000000000000000000000000000000000000000000000000000000000000
1004
00000000000000000000000000000000000000000000000000000000000000000000000000000000000000000000000000000000000000000000000000000000000000000000000000000000000000000000000000000000000000000000000000000000000000000000000000000000000000000000000000000000000000
1004
0000000000000000000000000000000000000000000000000000000000000000000000000000000000000000000000000000000000000000
  0
BLOCK_RECORD
  5
1165
330
1
100
AcDbSymbolTableRecord
100
AcDbBlockTableRecord
  2
*D10
  0
BLOCK_RECORD
  5
1171
330
1
100
AcDbSymbolTableRecord
100
AcDbBlockTableRecord
  2
*D11
  0
BLOCK_RECORD
  5
117C
330
1
100
AcDbSymbolTableRecord
100
AcDbBlockTableRecord
  2
*D12
  0
ENDTAB
  0
ENDSEC
  0
SECTION
  2
BLOCKS
  0
BLOCK
  5
1B
330
1A
100
AcDbEntity
  8
0
100
AcDbBlockBegin
  2
*MODEL_SPACE
 70
     0
 10
0.0
 20
0.0
 30
0.0
  3
*MODEL_SPACE
  1

  0
ENDBLK
  5
1C
330
1A
100
AcDbEntity
  8
0
100
AcDbBlockEnd
  0
BLOCK
  5
18
330
17
100
AcDbEntity
 67
     1
  8
0
100
AcDbBlockBegin
  2
*PAPER_SPACE
 70
     0
 10
0.0
 20
0.0
 30
0.0
  3
*PAPER_SPACE
  1

  0
ENDBLK
  5
19
330
17
100
AcDbEntity
 67
     1
  8
0
100
AcDbBlockEnd
  0
BLOCK
  5
598
330
594
100
AcDbEntity
  8
0
100
AcDbBlockBegin
  2
_OPEN
 70
     0
 10
0.0
 20
0.0
 30
0.0
  3
_OPEN
  1

  0
LINE
  5
595
330
594
100
AcDbEntity
  8
0
  6
BYBLOCK
 62
     0
100
AcDbLine
 10
-1.0
 20
0.16666667
 30
0.0
 11
0.0
 21
0.0
 31
0.0
  0
LINE
  5
596
330
594
100
AcDbEntity
  8
0
  6
BYBLOCK
 62
     0
100
AcDbLine
 10
-1.0
 20
-0.16666667
 30
0.0
 11
0.0
 21
0.0
 31
0.0
  0
LINE
  5
597
330
594
100
AcDbEntity
  8
0
  6
BYBLOCK
 62
     0
100
AcDbLine
 10
0.0
 20
0.0
 30
0.0
 11
-1.0
 21
0.0
 31
0.0
  0
ENDBLK
  5
599
330
594
100
AcDbEntity
  8
0
100
AcDbBlockEnd
  0
BLOCK
  5
6E4
330
6E3
100
AcDbEntity
  8
0
100
AcDbBlockBegin
  2
矢印なし
 70
     0
 10
0.0
 20
0.0
 30
0.0
  3
矢印なし
  1

  0
ENDBLK
  5
6E5
330
6E3
100
AcDbEntity
  8
0
100
AcDbBlockEnd
  0
BLOCK
  5
8A0
330
762
100
AcDbEntity
  8
0
100
AcDbBlockBegin
  2
1
 70
     0
 10
0.0
 20
0.0
 30
0.0
  3
1
  1

  0
LINE
  5
11C6
330
762
100
AcDbEntity
  8
240
100
AcDbLine
 10
13.25980762
 20
15.0
 30
0.0
 11
34.0
 21
15.0
 31
0.0
  0
LINE
  5
11C7
330
762
100
AcDbEntity
  8
241
  6
HIDDEN2
100
AcDbLine
 10
21.0
 20
7.0
 30
0.0
 11
35.0
 21
7.0
 31
0.0
  0
LINE
  5
11C8
330
762
100
AcDbEntity
  8
240
100
AcDbLine
 10
13.25980762
 20
-15.0
 30
0.0
 11
34.0
 21
-15.0
 31
0.0
  0
LINE
  5
11C9
330
762
100
AcDbEntity
  8
245
100
AcDbLine
 10
-70.0
 20
0.0
 30
0.0
 11
36.0
 21
0.0
 31
0.0
  0
LINE
  5
11CA
330
762
100
AcDbEntity
  8
240
100
AcDbLine
 10
-54.0
 20
-12.5
 30
0.0
 11
-56.5
 21
-15.0
 31
0.0
  0
LINE
  5
11CB
330
762
100
AcDbEntity
  8
240
100
AcDbLine
 10
-54.0
 20
12.5
 30
0.0
 11
-56.5
 21
15.0
 31
0.0
  0
LINE
  5
11CC
330
762
100
AcDbEntity
  8
240
100
AcDbLine
 10
-69.0
 20
-14.0
 30
0.0
 11
-69.0
 21
0.0
 31
0.0
  0
LINE
  5
11CD
330
762
100
AcDbEntity
  8
240
100
AcDbLine
 10
-68.0
 20
-15.0
 30
0.0
 11
-56.5
 21
-15.0
 31
0.0
  0
ARC
  5
11CE
330
762
100
AcDbEntity
  8
240
100
AcDbCircle
 10
-68.0
 20
-14.0
 30
0.0
 40
1.0
100
AcDbArc
 50
180.0
 51
270.0
  0
ARC
  5
11CF
330
762
100
AcDbEntity
  8
240
100
AcDbCircle
 10
-68.0
 20
14.0
 30
0.0
 40
1.0
100
AcDbArc
 50
90.0
 51
180.0
  0
LINE
  5
11D0
330
762
100
AcDbEntity
  8
240
100
AcDbLine
 10
-69.0
 20
14.0
 30
0.0
 11
-69.0
 21
0.0
 31
0.0
  0
LINE
  5
11D1
330
762
100
AcDbEntity
  8
240
100
AcDbLine
 10
-68.0
 20
15.0
 30
0.0
 11
-56.5
 21
15.0
 31
0.0
  0
LINE
  5
11D2
330
762
100
AcDbEntity
  8
0
100
AcDbLine
 10
3.9083176
 20
-9.72714304
 30
0.0
 11
3.7865996
 21
-9.60542504
 31
0.0
  0
ARC
  5
11D3
330
762
100
AcDbEntity
  8
0
100
AcDbCircle
 10
4.31574585
 20
-10.32253031
 30
0.0
 40
0.8911990356445432
100
AcDbArc
 50
0.0
 51
194.77079397
  0
ARC
  5
11D4
330
762
100
AcDbEntity
  8
0
100
AcDbCircle
 10
4.31574585
 20
-10.32253031
 30
0.0
 40
0.7214456176757899
100
AcDbArc
 50
0.0
 51
194.1274365
  0
LINE
  5
11D5
330
762
100
AcDbEntity
  8
0
100
AcDbLine
 10
5.1593832
 20
-10.03528175
 30
0.0
 11
4.60299441
 21
-9.47889296
 31
0.0
  0
LINE
  5
11D6
330
762
100
AcDbEntity
  8
241
100
AcDbLine
 10
11.0
 20
-11.7
 30
0.0
 11
11.0
 21
0.0
 31
0.0
  0
LINE
  5
11D7
330
762
100
AcDbEntity
  8
241
100
AcDbLine
 10
10.0
 20
-11.7
 30
0.0
 11
10.0
 21
0.0
 31
0.0
  0
LINE
  5
11D8
330
762
100
AcDbEntity
  8
241
100
AcDbLine
 10
13.0
 20
-15.15
 30
0.0
 11
13.0
 21
0.0
 31
0.0
  0
LINE
  5
11D9
330
762
100
AcDbEntity
  8
241
100
AcDbLine
 10
14.2
 20
-15.0
 30
0.0
 11
14.2
 21
0.0
 31
0.0
  0
LINE
  5
11DA
330
762
100
AcDbEntity
  8
245
100
AcDbLine
 10
-46.0
 20
-15.0
 30
0.0
 11
-46.0
 21
15.0
 31
0.0
1001
GENIUS_GENOREF_13
1005
0
  0
LINE
  5
11DB
330
762
100
AcDbEntity
  8
243
100
AcDbLine
 10
-50.0
 20
-12.5
 30
0.0
 11
-50.0
 21
12.5
 31
0.0
1001
GENIUS_GENOREF_13
1005
0
  0
LINE
  5
11DC
330
762
100
AcDbEntity
  8
243
100
AcDbLine
 10
-42.0
 20
-12.5
 30
0.0
 11
-42.0
 21
12.5
 31
0.0
1001
GENIUS_GENOREF_13
1005
0
  0
LINE
  5
11DD
330
762
100
AcDbEntity
  8
241
100
AcDbLine
 10
-32.0
 20
-13.75
 30
0.0
 11
-32.0
 21
0.0
 31
0.0
  0
LINE
  5
11DE
330
762
100
AcDbEntity
  8
241
100
AcDbLine
 10
-29.5
 20
-13.75
 30
0.0
 11
-29.5
 21
0.0
 31
0.0
  0
LINE
  5
11DF
330
762
100
AcDbEntity
  8
241
100
AcDbLine
 10
-21.5
 20
-13.75
 30
0.0
 11
-21.5
 21
0.0
 31
0.0
  0
LINE
  5
11E0
330
762
100
AcDbEntity
  8
241
100
AcDbLine
 10
-19.0
 20
-13.75
 30
0.0
 11
-19.0
 21
0.0
 31
0.0
  0
LINE
  5
11E1
330
762
100
AcDbEntity
  8
241
100
AcDbLine
 10
-14.5
 20
-15.0
 30
0.0
 11
-14.5
 21
0.0
 31
0.0
  0
LINE
  5
11E2
330
762
100
AcDbEntity
  8
241
100
AcDbLine
 10
-4.5
 20
-18.25
 30
0.0
 11
-4.5
 21
0.0
 31
0.0
  0
LINE
  5
11E3
330
762
100
AcDbEntity
  8
241
100
AcDbLine
 10
-2.0
 20
-18.25
 30
0.0
 11
-2.0
 21
0.0
 31
0.0
  0
LINE
  5
11E4
330
762
100
AcDbEntity
  8
241
100
AcDbLine
 10
0.0
 20
-19.14125603
 30
0.0
 11
0.0
 21
0.0
 31
0.0
  0
LINE
  5
11E5
330
762
100
AcDbEntity
  8
241
  6
CONTINUOUS
100
AcDbLine
 10
-7.5
 20
-19.00000001
 30
0.0
 11
-7.5
 21
0.0
 31
0.0
  0
LINE
  5
11E6
330
762
100
AcDbEntity
  8
241
100
AcDbLine
 10
-6.12626129
 20
-19.5
 30
0.0
 11
-6.12626129
 21
0.0
 31
0.0
  0
LINE
  5
11E7
330
762
100
AcDbEntity
  8
241
100
AcDbLine
 10
1.20577137
 20
-15.35874397
 30
0.0
 11
1.20577137
 21
0.0
 31
0.0
  0
LINE
  5
11E8
330
762
100
AcDbEntity
  8
240
100
AcDbLine
 10
-19.0
 20
-15.0
 30
0.0
 11
-14.5
 21
-15.0
 31
0.0
  0
LINE
  5
11E9
330
762
100
AcDbEntity
  8
240
100
AcDbLine
 10
-38.0
 20
-12.5
 30
0.0
 11
-35.5
 21
-15.0
 31
0.0
  0
LINE
  5
11EA
330
762
100
AcDbEntity
  8
240
100
AcDbLine
 10
-46.0
 20
-12.5
 30
0.0
 11
-38.0
 21
-12.5
 31
0.0
  0
LINE
  5
11EB
330
762
100
AcDbEntity
  8
240
100
AcDbLine
 10
-54.0
 20
-12.5
 30
0.0
 11
-46.0
 21
-12.5
 31
0.0
  0
LINE
  5
11EC
330
762
100
AcDbEntity
  8
240
100
AcDbLine
 10
-29.5
 20
-15.0
 30
0.0
 11
-21.5
 21
-15.0
 31
0.0
  0
ARC
  5
11ED
330
762
100
AcDbEntity
  8
240
100
AcDbCircle
 10
-30.75
 20
-13.75
 30
0.0
 40
1.24999999999827
100
AcDbArc
 50
180.0
 51
0.0
  0
LINE
  5
11EE
330
762
100
AcDbEntity
  8
240
100
AcDbLine
 10
-32.0
 20
-13.75
 30
0.0
 11
-32.0
 21
-15.0
 31
0.0
  0
LINE
  5
11EF
330
762
100
AcDbEntity
  8
240
100
AcDbLine
 10
-35.5
 20
-15.0
 30
0.0
 11
-32.0
 21
-15.0
 31
0.0
  0
LINE
  5
11F0
330
762
100
AcDbEntity
  8
240
100
AcDbLine
 10
-29.5
 20
-13.75
 30
0.0
 11
-29.5
 21
-15.0
 31
0.0
  0
ARC
  5
11F1
330
762
100
AcDbEntity
  8
240
100
AcDbCircle
 10
-20.25
 20
-13.75
 30
0.0
 40
1.249999999998089
100
AcDbArc
 50
180.0
 51
0.0
  0
LINE
  5
11F2
330
762
100
AcDbEntity
  8
240
100
AcDbLine
 10
-21.5
 20
-13.75
 30
0.0
 11
-21.5
 21
-15.0
 31
0.0
  0
LINE
  5
11F3
330
762
100
AcDbEntity
  8
240
100
AcDbLine
 10
-19.0
 20
-13.75
 30
0.0
 11
-19.0
 21
-15.0
 31
0.0
  0
LINE
  5
11F4
330
762
100
AcDbEntity
  8
240
100
AcDbLine
 10
10.0
 20
-15.0
 30
0.0
 11
1.97309836
 21
-15.0
 31
0.0
  0
LINE
  5
11F5
330
762
100
AcDbEntity
  8
240
100
AcDbLine
 10
-7.5
 20
-19.00000001
 30
0.0
 11
-6.12626128
 21
-19.5
 31
0.0
  0
LINE
  5
11F6
330
762
100
AcDbEntity
  8
240
100
AcDbLine
 10
-13.0
 20
-15.5
 30
0.0
 11
-13.5
 21
-16.0
 31
0.0
  0
LINE
  5
11F7
330
762
100
AcDbEntity
  8
240
100
AcDbLine
 10
-7.50000001
 20
-19.0
 30
0.0
 11
-13.5
 21
-19.0
 31
0.0
  0
LINE
  5
11F8
330
762
100
AcDbEntity
  8
240
100
AcDbLine
 10
-13.5
 20
-19.0
 30
0.0
 11
-13.5
 21
-16.0
 31
0.0
  0
LINE
  5
11F9
330
762
100
AcDbEntity
  8
241
  6
CONTINUOUS
100
AcDbLine
 10
-7.5
 20
-15.2
 30
0.0
 11
-13.0
 21
-15.2
 31
0.0
  0
LINE
  5
11FA
330
762
100
AcDbEntity
  8
240
100
AcDbLine
 10
-14.2
 20
-14.7
 30
0.0
 11
-14.5
 21
-15.0
 31
0.0
  0
LINE
  5
11FB
330
762
100
AcDbEntity
  8
240
100
AcDbLine
 10
-14.2
 20
-14.7
 30
0.0
 11
-13.0
 21
-14.7
 31
0.0
  0
LINE
  5
11FC
330
762
100
AcDbEntity
  8
240
100
AcDbLine
 10
-13.0
 20
-15.5
 30
0.0
 11
-13.0
 21
-14.7
 31
0.0
  0
LINE
  5
11FD
330
762
100
AcDbEntity
  8
240
100
AcDbLine
 10
0.19859884
 20
-18.75881905
 30
0.0
 11
1.00717253
 21
-15.74118096
 31
0.0
  0
ARC
  5
11FE
330
762
100
AcDbEntity
  8
240
100
AcDbCircle
 10
-3.25
 20
-18.25
 30
0.0
 40
1.250000000000339
100
AcDbArc
 50
180.0
 51
0.0
  0
LINE
  5
11FF
330
762
100
AcDbEntity
  8
240
100
AcDbLine
 10
-4.5
 20
-18.25
 30
0.0
 11
-4.5
 21
-19.5
 31
0.0
  0
LINE
  5
1200
330
762
100
AcDbEntity
  8
240
100
AcDbLine
 10
-4.5
 20
-19.5
 30
0.0
 11
-6.12626129
 21
-19.5
 31
0.0
  0
LINE
  5
1201
330
762
100
AcDbEntity
  8
240
100
AcDbLine
 10
-0.50850794
 20
-19.46592583
 30
0.0
 11
-0.63567449
 21
-19.5
 31
0.0
  0
ARC
  5
1202
330
762
100
AcDbEntity
  8
240
100
AcDbCircle
 10
-0.76732699
 20
-18.5
 30
0.0
 40
1.0
100
AcDbArc
 50
285.0
 51
345.0
1001
GENIUS_GENOBJ-N-FIL_13
1002
{
1000
OWNER
1000
GEN
1002
}
1001
GENIUS_GENODEF_13
1002
{
1000
HIER
1070
     0
1002
}
1002
{
1000
MANEDIT
1070
     0
1002
}
1002
{
1000
NOSEL
1070
     0
1002
}
1002
{
1000
BEHIND
1070
     0
1002
}
1002
{
1000
OTHER
1070
     0
1002
}
1002
{
1000
REACTOR
1002
}
  0
LINE
  5
1203
330
762
100
AcDbEntity
  8
240
100
AcDbLine
 10
-2.0
 20
-18.25
 30
0.0
 11
-2.0
 21
-19.5
 31
0.0
  0
LINE
  5
1204
330
762
100
AcDbEntity
  8
240
100
AcDbLine
 10
-0.63567449
 20
-19.5
 30
0.0
 11
-2.0
 21
-19.5
 31
0.0
  0
ARC
  5
1205
330
762
100
AcDbEntity
  8
240
100
AcDbCircle
 10
1.97309836
 20
-16.0
 30
0.0
 40
1.0
100
AcDbArc
 50
90.0
 51
165.00000002
  0
LINE
  5
1206
330
762
100
AcDbEntity
  8
240
100
AcDbLine
 10
11.0
 20
-15.15
 30
0.0
 11
13.0
 21
-15.15
 31
0.0
  0
LINE
  5
1207
330
762
100
AcDbEntity
  8
0
100
AcDbLine
 10
3.59430023
 20
-13.37832255
 30
0.0
 11
3.59430023
 21
-13.2900236
 31
0.0
  0
LINE
  5
1208
330
762
100
AcDbEntity
  8
0
100
AcDbLine
 10
3.42454681
 20
-13.32964854
 30
0.0
 11
3.59430023
 21
-13.37832255
 31
0.0
  0
LINE
  5
1209
330
762
100
AcDbEntity
  8
0
100
AcDbLine
 10
3.59430023
 20
-13.562004
 30
0.0
 11
3.46056491
 21
-13.42826868
 31
0.0
  0
LINE
  5
120A
330
762
100
AcDbEntity
  8
0
100
AcDbLine
 10
3.59430023
 20
-13.75058938
 30
0.0
 11
3.42454681
 21
-13.58083596
 31
0.0
  0
LINE
  5
120B
330
762
100
AcDbEntity
  8
0
100
AcDbLine
 10
5.20694508
 20
-13.47738044
 30
0.0
 11
5.03719166
 21
-13.30762703
 31
0.0
  0
LINE
  5
120C
330
762
100
AcDbEntity
  8
0
100
AcDbLine
 10
5.20694508
 20
-13.66596582
 30
0.0
 11
5.03719166
 21
-13.49621241
 31
0.0
  0
LINE
  5
120D
330
762
100
AcDbEntity
  8
0
100
AcDbLine
 10
5.20314175
 20
-13.85074787
 30
0.0
 11
5.03719166
 21
-13.68479779
 31
0.0
  0
LINE
  5
120E
330
762
100
AcDbEntity
  8
0
100
AcDbLine
 10
4.95231496
 20
-13.4113357
 30
0.0
 11
4.73397423
 21
-13.19299497
 31
0.0
  0
LINE
  5
120F
330
762
100
AcDbEntity
  8
0
100
AcDbLine
 10
4.95231496
 20
-13.59992108
 30
0.0
 11
4.46957681
 21
-13.11718293
 31
0.0
  0
LINE
  5
1210
330
762
100
AcDbEntity
  8
0
100
AcDbLine
 10
3.74177969
 20
-13.3323127
 30
0.0
 11
3.42454681
 21
-13.01507983
 31
0.0
  0
LINE
  5
1211
330
762
100
AcDbEntity
  8
0
100
AcDbLine
 10
3.59430023
 20
-13.37341862
 30
0.0
 11
3.42454681
 21
-13.2036652
 31
0.0
  0
LINE
  5
1212
330
762
100
AcDbEntity
  8
0
100
AcDbLine
 10
3.42454681
 20
-13.32964854
 30
0.0
 11
3.42454681
 21
-12.78203189
 31
0.0
  0
LINE
  5
1213
330
762
100
AcDbEntity
  8
0
100
AcDbLine
 10
4.00618101
 20
-13.40812865
 30
0.0
 11
3.42454681
 21
-12.82649445
 31
0.0
  0
LINE
  5
1214
330
762
100
AcDbEntity
  8
0
100
AcDbLine
 10
4.27058234
 20
-13.4839446
 30
0.0
 11
3.67637489
 21
-12.88973714
 31
0.0
  0
LINE
  5
1215
330
762
100
AcDbEntity
  8
0
100
AcDbLine
 10
4.53498367
 20
-13.55976055
 30
0.0
 11
3.94077371
 21
-12.96555059
 31
0.0
  0
LINE
  5
1216
330
762
100
AcDbEntity
  8
0
100
AcDbLine
 10
4.79938499
 20
-13.63557649
 30
0.0
 11
4.08114049
 21
-12.91733199
 31
0.0
  0
LINE
  5
1217
330
762
100
AcDbEntity
  8
0
100
AcDbLine
 10
4.95231496
 20
-13.6794285
 30
0.0
 11
4.95231496
 21
-12.97498514
 31
0.0
  0
LINE
  5
1218
330
762
100
AcDbEntity
  8
0
100
AcDbLine
 10
5.03719166
 20
-13.76850291
 30
0.0
 11
5.03719166
 21
-10.32253031
 31
0.0
  0
LINE
  5
1219
330
762
100
AcDbEntity
  8
0
100
AcDbLine
 10
5.20694508
 20
-13.76850291
 30
0.0
 11
5.20694508
 21
-10.32253031
 31
0.0
  0
ARC
  5
121A
330
762
100
AcDbEntity
  8
0
100
AcDbCircle
 10
3.97623901
 20
-11.07734599
 30
0.0
 40
0.5516930007934647
100
AcDbArc
 50
143.4440122
 51
254.00018439
  0
ARC
  5
121B
330
762
100
AcDbEntity
  8
0
100
AcDbCircle
 10
3.84892395
 20
-12.78028269
 30
0.0
 40
0.4243807411193908
100
AcDbArc
 50
17.66957755
 51
180.23615984
  0
LINE
  5
121C
330
762
100
AcDbEntity
  8
0
100
AcDbLine
 10
3.80529368
 20
-9.8127045
 30
0.0
 11
3.68525987
 21
-9.69267068
 31
0.0
  0
LINE
  5
121D
330
762
100
AcDbEntity
  8
0
100
AcDbLine
 10
3.45399475
 20
-10.54974405
 30
0.0
 11
3.45399475
 21
-10.54974405
 31
0.0
1001
HATCH_DISTANCE
1040
1.0
1001
HATCH_DISPLAY
1070
     0
1001
HATCH_TYPE
1070
     7
  0
LINE
  5
121E
330
762
100
AcDbEntity
  8
0
100
AcDbLine
 10
3.45399475
 20
-10.54974405
 30
0.0
 11
3.61611541
 21
-10.49862192
 31
0.0
1001
HATCH_DISTANCE
1040
1.0
1001
HATCH_DISPLAY
1070
     0
1001
HATCH_TYPE
1070
     7
  0
LINE
  5
121F
330
762
100
AcDbEntity
  8
0
100
AcDbLine
 10
3.61611541
 20
-10.49862192
 30
0.0
 11
3.61611541
 21
-10.49862192
 31
0.0
1001
HATCH_DISTANCE
1040
1.0
1001
HATCH_DISPLAY
1070
     0
1001
HATCH_TYPE
1070
     7
  0
LINE
  5
1220
330
762
100
AcDbEntity
  8
0
100
AcDbLine
 10
3.61611541
 20
-10.49862192
 30
0.0
 11
3.45399475
 21
-10.54974405
 31
0.0
  0
LINE
  5
1221
330
762
100
AcDbEntity
  8
0
100
AcDbLine
 10
3.45399475
 20
-10.54974405
 30
0.0
 11
3.45399475
 21
-10.54974405
 31
0.0
  0
LINE
  5
1222
330
762
100
AcDbEntity
  8
0
100
AcDbLine
 10
3.45399475
 20
-10.54974405
 30
0.0
 11
3.61611541
 21
-10.49862192
 31
0.0
  0
LINE
  5
1223
330
762
100
AcDbEntity
  8
0
100
AcDbLine
 10
3.61611541
 20
-10.49862192
 30
0.0
 11
3.61611541
 21
-10.49862192
 31
0.0
  0
LINE
  5
1224
330
762
100
AcDbEntity
  8
0
100
AcDbLine
 10
3.42454681
 20
-12.0846641
 30
0.0
 11
3.61127045
 21
-12.13820872
 31
0.0
1001
HATCH_DISTANCE
1040
1.0
1001
HATCH_DISPLAY
1070
     0
1001
HATCH_TYPE
1070
     7
  0
LINE
  5
1225
330
762
100
AcDbEntity
  8
0
100
AcDbLine
 10
3.61127045
 20
-12.13820872
 30
0.0
 11
3.61127045
 21
-12.07639689
 31
0.0
1001
HATCH_DISTANCE
1040
1.0
1001
HATCH_DISPLAY
1070
     0
1001
HATCH_TYPE
1070
     7
  0
LINE
  5
1226
330
762
100
AcDbEntity
  8
0
100
AcDbLine
 10
3.42454681
 20
-11.64318217
 30
0.0
 11
3.42454681
 21
-12.0846641
 31
0.0
1001
HATCH_DISTANCE
1040
1.0
1001
HATCH_DISPLAY
1070
     0
1001
HATCH_TYPE
1070
     7
  0
LINE
  5
1227
330
762
100
AcDbEntity
  8
0
100
AcDbLine
 10
3.42454681
 20
-12.0846641
 30
0.0
 11
3.61127045
 21
-12.13820872
 31
0.0
  0
LINE
  5
1228
330
762
100
AcDbEntity
  8
0
100
AcDbLine
 10
3.61127045
 20
-12.13820872
 30
0.0
 11
3.61127045
 21
-12.07639689
 31
0.0
  0
LINE
  5
1229
330
762
100
AcDbEntity
  8
0
100
AcDbLine
 10
3.42454681
 20
-11.64318217
 30
0.0
 11
3.42454681
 21
-12.0846641
 31
0.0
  0
LINE
  5
122A
330
762
100
AcDbEntity
  8
0
100
AcDbLine
 10
3.61983081
 20
-12.07885155
 30
0.0
 11
3.42454681
 21
-11.88356756
 31
0.0
  0
LINE
  5
122B
330
762
100
AcDbEntity
  8
0
100
AcDbLine
 10
3.4420881
 20
-12.08969421
 30
0.0
 11
3.42454681
 21
-12.07215293
 31
0.0
  0
LINE
  5
122C
330
762
100
AcDbEntity
  8
0
100
AcDbLine
 10
4.95231496
 20
-12.4609376
 30
0.0
 11
4.95231496
 21
-12.08126108
 31
0.0
  0
LINE
  5
122D
330
762
100
AcDbEntity
  8
0
100
AcDbLine
 10
4.95231496
 20
-12.4609376
 30
0.0
 11
4.95231496
 21
-12.08126108
 31
0.0
1001
HATCH_DISTANCE
1040
1.0
1001
HATCH_DISPLAY
1070
     0
1001
HATCH_TYPE
1070
     7
  0
LINE
  5
122E
330
762
100
AcDbEntity
  8
0
100
AcDbLine
 10
4.95231496
 20
-12.4609376
 30
0.0
 11
4.95231496
 21
-12.08126108
 31
0.0
  0
LINE
  5
122F
330
762
100
AcDbEntity
  8
0
100
AcDbLine
 10
4.95231496
 20
-12.09123805
 30
0.0
 11
4.93832704
 21
-12.07725013
 31
0.0
  0
LINE
  5
1230
330
762
100
AcDbEntity
  8
0
100
AcDbLine
 10
5.20694508
 20
-10.46001439
 30
0.0
 11
5.03643515
 21
-10.28950446
 31
0.0
  0
LINE
  5
1231
330
762
100
AcDbEntity
  8
0
100
AcDbLine
 10
5.20694508
 20
-10.64859977
 30
0.0
 11
5.03719166
 21
-10.47884635
 31
0.0
  0
LINE
  5
1232
330
762
100
AcDbEntity
  8
0
100
AcDbLine
 10
5.20694508
 20
-10.83718514
 30
0.0
 11
5.03719166
 21
-10.66743173
 31
0.0
  0
LINE
  5
1233
330
762
100
AcDbEntity
  8
0
100
AcDbLine
 10
5.20694508
 20
-11.02577052
 30
0.0
 11
5.03719166
 21
-10.85601711
 31
0.0
  0
LINE
  5
1234
330
762
100
AcDbEntity
  8
0
100
AcDbLine
 10
5.20694508
 20
-11.2143559
 30
0.0
 11
5.03719166
 21
-11.04460249
 31
0.0
  0
LINE
  5
1235
330
762
100
AcDbEntity
  8
0
100
AcDbLine
 10
5.20694508
 20
-11.40294128
 30
0.0
 11
5.03719166
 21
-11.23318787
 31
0.0
  0
LINE
  5
1236
330
762
100
AcDbEntity
  8
0
100
AcDbLine
 10
5.20694508
 20
-11.59152666
 30
0.0
 11
5.03719166
 21
-11.42177324
 31
0.0
  0
LINE
  5
1237
330
762
100
AcDbEntity
  8
0
100
AcDbLine
 10
5.20694508
 20
-11.78011204
 30
0.0
 11
5.03719166
 21
-11.61035862
 31
0.0
  0
LINE
  5
1238
330
762
100
AcDbEntity
  8
0
100
AcDbLine
 10
5.20694508
 20
-11.96869742
 30
0.0
 11
5.03719166
 21
-11.798944
 31
0.0
  0
LINE
  5
1239
330
762
100
AcDbEntity
  8
0
100
AcDbLine
 10
5.20694508
 20
-12.15728279
 30
0.0
 11
5.03719166
 21
-11.98752938
 31
0.0
  0
LINE
  5
123A
330
762
100
AcDbEntity
  8
0
100
AcDbLine
 10
5.20694508
 20
-12.34586817
 30
0.0
 11
5.03719166
 21
-12.17611476
 31
0.0
  0
LINE
  5
123B
330
762
100
AcDbEntity
  8
0
100
AcDbLine
 10
5.20694508
 20
-12.72303893
 30
0.0
 11
5.03719166
 21
-12.55328552
 31
0.0
  0
LINE
  5
123C
330
762
100
AcDbEntity
  8
0
100
AcDbLine
 10
5.20694508
 20
-12.91162431
 30
0.0
 11
5.03719166
 21
-12.74187089
 31
0.0
  0
LINE
  5
123D
330
762
100
AcDbEntity
  8
0
100
AcDbLine
 10
5.20694508
 20
-13.10020968
 30
0.0
 11
5.03719166
 21
-12.93045627
 31
0.0
  0
LINE
  5
123E
330
762
100
AcDbEntity
  8
0
100
AcDbLine
 10
5.20694508
 20
-13.28879507
 30
0.0
 11
5.03719166
 21
-13.11904165
 31
0.0
  0
LINE
  5
123F
330
762
100
AcDbEntity
  8
0
100
AcDbLine
 10
5.20694508
 20
-12.53445355
 30
0.0
 11
5.03719166
 21
-12.36470013
 31
0.0
  0
LINE
  5
1240
330
762
100
AcDbEntity
  8
0
100
AcDbLine
 10
3.65297049
 20
-10.03755207
 30
0.0
 11
3.52565248
 21
-9.91023406
 31
0.0
  0
LINE
  5
1241
330
762
100
AcDbEntity
  8
0
100
AcDbLine
 10
4.95231496
 20
-13.6794285
 30
0.0
 11
3.59430023
 21
-13.2900236
 31
0.0
  0
LINE
  5
1242
330
762
100
AcDbEntity
  8
0
100
AcDbLine
 10
3.42454681
 20
-13.41794108
 30
0.0
 11
3.59430023
 21
-13.46661509
 31
0.0
  0
LINE
  5
1243
330
762
100
AcDbEntity
  8
0
100
AcDbLine
 10
3.59430023
 20
-13.76850291
 30
0.0
 11
3.59430023
 21
-13.46661509
 31
0.0
  0
LINE
  5
1244
330
762
100
AcDbEntity
  8
0
100
AcDbLine
 10
3.42454681
 20
-13.76850291
 30
0.0
 11
3.42454681
 21
-13.41794108
 31
0.0
  0
LINE
  5
1245
330
762
100
AcDbEntity
  8
0
100
AcDbLine
 10
4.76124402
 20
-14.54036241
 30
0.0
 11
4.63590146
 21
-14.41501985
 31
0.0
  0
LINE
  5
1246
330
762
100
AcDbEntity
  8
0
100
AcDbLine
 10
4.63344667
 20
-14.60115044
 30
0.0
 11
4.49866932
 21
-14.46637308
 31
0.0
  0
LINE
  5
1247
330
762
100
AcDbEntity
  8
0
100
AcDbLine
 10
4.48683591
 20
-14.64312506
 30
0.0
 11
4.3334423
 21
-14.48973145
 31
0.0
  0
LINE
  5
1248
330
762
100
AcDbEntity
  8
0
100
AcDbLine
 10
4.31482694
 20
-14.65970147
 30
0.0
 11
4.11722195
 21
-14.46209648
 31
0.0
  0
LINE
  5
1249
330
762
100
AcDbEntity
  8
0
100
AcDbLine
 10
4.87325416
 20
-14.46378717
 30
0.0
 11
4.75232432
 21
-14.34285734
 31
0.0
  0
LINE
  5
124A
330
762
100
AcDbEntity
  8
0
100
AcDbLine
 10
4.09964464
 20
-14.63310454
 30
0.0
 11
3.45114421
 21
-13.98460412
 31
0.0
  0
LINE
  5
124B
330
762
100
AcDbEntity
  8
0
100
AcDbLine
 10
5.12246362
 20
-14.1472405
 30
0.0
 11
4.99282355
 21
-14.01760042
 31
0.0
  0
LINE
  5
124C
330
762
100
AcDbEntity
  8
0
100
AcDbLine
 10
5.05414382
 20
-14.26750607
 30
0.0
 11
4.93134084
 21
-14.1447031
 31
0.0
  0
LINE
  5
124D
330
762
100
AcDbEntity
  8
0
100
AcDbLine
 10
5.2053878
 20
-10.26987172
 30
0.0
 11
4.982496
 21
-10.04697993
 31
0.0
  0
LINE
  5
124E
330
762
100
AcDbEntity
  8
0
100
AcDbLine
 10
3.60823797
 20
-10.18140492
 30
0.0
 11
3.46959761
 21
-10.04276456
 31
0.0
  0
LINE
  5
124F
330
762
100
AcDbEntity
  8
0
100
AcDbLine
 10
4.95231496
 20
-12.4609376
 30
0.0
 11
3.61127045
 21
-12.07639689
 31
0.0
  0
LINE
  5
1250
330
762
100
AcDbEntity
  8
0
100
AcDbLine
 10
4.95231496
 20
-12.08126108
 30
0.0
 11
3.42454681
 21
-11.64318217
 31
0.0
  0
LINE
  5
1251
330
762
100
AcDbEntity
  8
0
100
AcDbLine
 10
3.61127045
 20
-12.07639689
 30
0.0
 11
4.95231496
 21
-12.4609376
 31
0.0
1001
HATCH_DISTANCE
1040
1.0
1001
HATCH_DISPLAY
1070
     0
1001
HATCH_TYPE
1070
     7
  0
LINE
  5
1252
330
762
100
AcDbEntity
  8
0
100
AcDbLine
 10
4.95231496
 20
-12.08126108
 30
0.0
 11
3.42454681
 21
-11.64318217
 31
0.0
1001
HATCH_DISTANCE
1040
1.0
1001
HATCH_DISPLAY
1070
     0
1001
HATCH_TYPE
1070
     7
  0
LINE
  5
1253
330
762
100
AcDbEntity
  8
0
100
AcDbLine
 10
3.61127045
 20
-12.07639689
 30
0.0
 11
4.95231496
 21
-12.4609376
 31
0.0
  0
LINE
  5
1254
330
762
100
AcDbEntity
  8
0
100
AcDbLine
 10
4.95231496
 20
-12.08126108
 30
0.0
 11
3.42454681
 21
-11.64318217
 31
0.0
  0
ARC
  5
1255
330
762
100
AcDbEntity
  8
0
100
AcDbCircle
 10
4.40062256
 20
-11.19903422
 30
0.0
 40
0.5516986083984456
100
AcDbArc
 50
253.9997507
 51
34.96387329
  0
LINE
  5
1256
330
762
100
AcDbEntity
  8
0
100
AcDbLine
 10
4.85274312
 20
-10.88288065
 30
0.0
 11
4.95231496
 21
-10.78330241
 31
0.0
  0
LINE
  5
1257
330
762
100
AcDbEntity
  8
0
100
AcDbLine
 10
4.95231496
 20
-10.78330241
 30
0.0
 11
4.08657745
 21
-10.53505534
 31
0.0
  0
LINE
  5
1258
330
762
100
AcDbEntity
  8
0
100
AcDbLine
 10
4.94974071
 20
-11.14573692
 30
0.0
 11
4.44056328
 21
-10.63655948
 31
0.0
  0
LINE
  5
1259
330
762
100
AcDbEntity
  8
0
100
AcDbLine
 10
4.93825174
 20
-11.32283332
 30
0.0
 11
4.73895845
 21
-11.12354002
 31
0.0
  0
LINE
  5
125A
330
762
100
AcDbEntity
  8
0
100
AcDbLine
 10
4.95231496
 20
-12.27982343
 30
0.0
 11
4.67392621
 21
-12.00143468
 31
0.0
  0
LINE
  5
125B
330
762
100
AcDbEntity
  8
0
100
AcDbLine
 10
4.94184012
 20
-12.45793397
 30
0.0
 11
4.40952538
 21
-11.92561923
 31
0.0
  0
LINE
  5
125C
330
762
100
AcDbEntity
  8
0
100
AcDbLine
 10
4.92049713
 20
-12.81376173
 30
0.0
 11
4.68916103
 21
-12.58242564
 31
0.0
  0
LINE
  5
125D
330
762
100
AcDbEntity
  8
0
100
AcDbLine
 10
4.95231496
 20
-13.22275032
 30
0.0
 11
4.32945107
 21
-12.59988644
 31
0.0
  0
LINE
  5
125E
330
762
100
AcDbEntity
  8
0
100
AcDbLine
 10
4.95231496
 20
-13.03416494
 30
0.0
 11
4.47240688
 21
-12.55425686
 31
0.0
  0
ARC
  5
125F
330
762
100
AcDbEntity
  8
0
100
AcDbCircle
 10
4.52793762
 20
-12.97498514
 30
0.0
 40
0.4243771362304749
100
AcDbArc
 50
0.0
 51
130.32984065
  0
LINE
  5
1260
330
762
100
AcDbEntity
  8
0
100
AcDbLine
 10
3.59511797
 20
-10.3568703
 30
0.0
 11
3.43365936
 21
-10.19541169
 31
0.0
  0
LINE
  5
1261
330
762
100
AcDbEntity
  8
0
100
AcDbLine
 10
3.56454584
 20
-10.51488356
 30
0.0
 11
3.42618378
 21
-10.37652149
 31
0.0
  0
LINE
  5
1262
330
762
100
AcDbEntity
  8
0
100
AcDbLine
 10
3.61810113
 20
-12.83146338
 30
0.0
 11
3.44302974
 21
-12.65639199
 31
0.0
  0
LINE
  5
1263
330
762
100
AcDbEntity
  8
0
100
AcDbLine
 10
3.71745987
 20
-12.74223675
 30
0.0
 11
3.5057899
 21
-12.53056678
 31
0.0
  0
ARC
  5
1264
330
762
100
AcDbEntity
  8
0
100
AcDbCircle
 10
3.78951538
 20
-10.98848307
 30
0.0
 40
0.1782410037517573
100
AcDbArc
 50
91.71012138
 51
253.99839835
  0
ARC
  5
1265
330
762
100
AcDbEntity
  8
0
100
AcDbCircle
 10
4.31574585
 20
-10.32253031
 30
0.0
 40
0.7214476203918543
100
AcDbArc
 50
200.8721834
 51
222.54194894
  0
LINE
  5
1266
330
762
100
AcDbEntity
  8
0
100
AcDbLine
 10
4.53821716
 20
-11.3885969
 30
0.0
 11
3.74037994
 21
-11.15981943
 31
0.0
  0
LINE
  5
1267
330
762
100
AcDbEntity
  8
0
100
AcDbLine
 10
4.20747231
 20
-11.72356616
 30
0.0
 11
3.4383987
 21
-10.95449255
 31
0.0
  0
LINE
  5
1268
330
762
100
AcDbEntity
  8
0
100
AcDbLine
 10
3.95627794
 20
-11.66095717
 30
0.0
 11
3.42725314
 21
-11.13193236
 31
0.0
  0
LINE
  5
1269
330
762
100
AcDbEntity
  8
0
100
AcDbLine
 10
4.14863453
 20
-12.23048451
 30
0.0
 11
3.61632289
 21
-11.69817288
 31
0.0
  0
LINE
  5
126A
330
762
100
AcDbEntity
  8
0
100
AcDbLine
 10
3.88423267
 20
-12.15466804
 30
0.0
 11
3.42454681
 21
-11.69498217
 31
0.0
  0
LINE
  5
126B
330
762
100
AcDbEntity
  8
0
100
AcDbLine
 10
3.59873716
 20
-12.86747538
 30
0.0
 11
4.08388579
 21
-13.0065864
 31
0.0
  0
ARC
  5
126C
330
762
100
AcDbEntity
  8
0
100
AcDbCircle
 10
3.83195373
 20
-12.96966593
 30
0.0
 40
0.2546230173110999
100
AcDbArc
 50
351.66260169
 51
156.3381551
  0
LINE
  5
126D
330
762
100
AcDbEntity
  8
0
100
AcDbLine
 10
3.88428768
 20
-12.72047918
 30
0.0
 11
3.60022172
 21
-12.43641322
 31
0.0
  0
LINE
  5
126E
330
762
100
AcDbEntity
  8
0
100
AcDbLine
 10
4.33383418
 20
-12.9814403
 30
0.0
 11
3.72637519
 21
-12.37398131
 31
0.0
  0
ARC
  5
126F
330
762
100
AcDbEntity
  8
0
100
AcDbCircle
 10
4.58734619
 20
-11.21726054
 30
0.0
 40
0.1782408785820033
100
AcDbArc
 50
254.00027306
 51
74.00027306
  0
LINE
  5
1270
330
762
100
AcDbEntity
  8
0
100
AcDbLine
 10
4.63647522
 20
-11.04592417
 30
0.0
 11
4.25633087
 21
-10.93691874
 31
0.0
  0
LINE
  5
1271
330
762
100
AcDbEntity
  8
0
100
AcDbLine
 10
4.25633087
 20
-11.07819194
 30
0.0
 11
4.25633087
 21
-10.93691874
 31
0.0
  0
LINE
  5
1272
330
762
100
AcDbEntity
  8
0
100
AcDbLine
 10
4.25633087
 20
-11.07819194
 30
0.0
 11
4.08657745
 21
-11.02951792
 31
0.0
  0
LINE
  5
1273
330
762
100
AcDbEntity
  8
0
100
AcDbLine
 10
4.08657745
 20
-11.02951792
 30
0.0
 11
4.08657745
 21
-10.53505534
 31
0.0
  0
ARC
  5
1274
330
762
100
AcDbEntity
  8
0
100
AcDbCircle
 10
4.42962829
 20
-10.29703654
 30
0.0
 40
1.443724365234395
100
AcDbArc
 50
245.20517737
 51
262.79482596
  0
LINE
  5
1275
330
762
100
AcDbEntity
  8
0
100
AcDbLine
 10
4.86410611
 20
-10.87151693
 30
0.0
 11
4.70496484
 21
-10.71237566
 31
0.0
  0
LINE
  5
1276
330
762
100
AcDbEntity
  8
0
100
AcDbLine
 10
4.6810667
 20
-11.06564828
 30
0.0
 11
4.17616172
 21
-10.5607433
 31
0.0
  0
LINE
  5
1277
330
762
100
AcDbEntity
  8
0
100
AcDbLine
 10
4.406938
 20
-10.98010495
 30
0.0
 11
4.08657745
 21
-10.65974441
 31
0.0
  0
LINE
  5
1278
330
762
100
AcDbEntity
  8
0
100
AcDbLine
 10
4.88674442
 20
-11.45991138
 30
0.0
 11
4.73851988
 21
-11.31168684
 31
0.0
  0
LINE
  5
1279
330
762
100
AcDbEntity
  8
0
100
AcDbLine
 10
4.25633087
 20
-11.0180832
 30
0.0
 11
4.08657745
 21
-10.84832979
 31
0.0
  0
LINE
  5
127A
330
762
100
AcDbEntity
  8
0
100
AcDbLine
 10
4.80863119
 20
-11.57038353
 30
0.0
 11
4.62884969
 21
-11.39060202
 31
0.0
  0
LINE
  5
127B
330
762
100
AcDbEntity
  8
0
100
AcDbLine
 10
4.70730205
 20
-11.65763976
 30
0.0
 11
4.39807337
 21
-11.34841108
 31
0.0
  0
LINE
  5
127C
330
762
100
AcDbEntity
  8
0
100
AcDbLine
 10
4.58136352
 20
-11.72028661
 30
0.0
 11
4.13367155
 21
-11.27259464
 31
0.0
  0
LINE
  5
127D
330
762
100
AcDbEntity
  8
0
100
AcDbLine
 10
4.42277926
 20
-11.75028773
 30
0.0
 11
3.86926973
 21
-11.1967782
 31
0.0
  0
LINE
  5
127E
330
762
100
AcDbEntity
  8
0
100
AcDbLine
 10
4.67743826
 20
-12.38211748
 30
0.0
 11
4.14512455
 21
-11.84980378
 31
0.0
  0
LINE
  5
127F
330
762
100
AcDbEntity
  8
0
100
AcDbLine
 10
4.4130364
 20
-12.306301
 30
0.0
 11
3.88072372
 21
-11.77398833
 31
0.0
  0
LINE
  5
1280
330
762
100
AcDbEntity
  8
0
100
AcDbLine
 10
4.27773735
 20
-13.06217581
 30
0.0
 11
4.76290038
 21
-13.20128911
 31
0.0
  0
ARC
  5
1281
330
762
100
AcDbEntity
  8
0
100
AcDbCircle
 10
4.510961
 20
-13.16436839
 30
0.0
 40
0.2546303021907843
100
AcDbArc
 50
351.66285421
 51
156.33819216
  0
LINE
  5
1282
330
762
100
AcDbEntity
  8
0
100
AcDbLine
 10
4.45658996
 20
-12.91561071
 30
0.0
 11
3.89996135
 21
-12.35898209
 31
0.0
  0
LINE
  5
1283
330
762
100
AcDbEntity
  8
0
100
AcDbLine
 10
3.61611541
 20
-10.49862192
 30
0.0
 11
3.45399475
 21
-10.54974405
 31
0.0
  0
ARC
  5
1284
330
762
100
AcDbEntity
  8
0
100
AcDbCircle
 10
4.31574585
 20
-10.32253031
 30
0.0
 40
0.8911994361877553
100
AcDbArc
 50
200.22964506
 51
208.57168892
  0
LINE
  5
1285
330
762
100
AcDbEntity
  8
0
100
AcDbLine
 10
3.64164123
 20
-10.57957011
 30
0.0
 11
3.47952057
 21
-10.63069224
 31
0.0
  0
LINE
  5
1286
330
762
100
AcDbEntity
  8
0
100
AcDbLine
 10
3.61127045
 20
-12.13820872
 30
0.0
 11
3.61127045
 21
-12.07639689
 31
0.0
  0
LINE
  5
1287
330
762
100
AcDbEntity
  8
0
100
AcDbLine
 10
3.61127045
 20
-12.13820872
 30
0.0
 11
3.42454681
 21
-12.0846641
 31
0.0
  0
LINE
  5
1288
330
762
100
AcDbEntity
  8
0
100
AcDbLine
 10
3.42454681
 20
-12.0846641
 30
0.0
 11
3.42454681
 21
-11.64318217
 31
0.0
  0
LINE
  5
1289
330
762
100
AcDbEntity
  8
0
100
AcDbLine
 10
3.64988122
 20
-10.60021894
 30
0.0
 11
3.63220725
 21
-10.58254496
 31
0.0
  0
LINE
  5
128A
330
762
100
AcDbEntity
  8
0
100
AcDbLine
 10
3.69713021
 20
-10.8360533
 30
0.0
 11
3.48883271
 21
-10.62775581
 31
0.0
  0
LINE
  5
128B
330
762
100
AcDbEntity
  8
0
100
AcDbLine
 10
3.616828
 20
-10.94433647
 30
0.0
 11
3.48971779
 21
-10.81722626
 31
0.0
  0
LINE
  5
128C
330
762
100
AcDbEntity
  8
0
100
AcDbLine
 10
3.61611541
 20
-10.49862192
 30
0.0
 11
3.45399475
 21
-10.54974405
 31
0.0
1001
HATCH_DISTANCE
1040
1.0
1001
HATCH_DISPLAY
1070
     0
1001
HATCH_TYPE
1070
     7
  0
LINE
  5
128D
330
762
100
AcDbEntity
  8
0
100
AcDbLine
 10
3.45399475
 20
-10.54974405
 30
0.0
 11
3.45399475
 21
-10.54974405
 31
0.0
1001
HATCH_DISTANCE
1040
1.0
1001
HATCH_DISPLAY
1070
     0
1001
HATCH_TYPE
1070
     7
  0
LINE
  5
128E
330
762
100
AcDbEntity
  8
0
100
AcDbLine
 10
3.45399475
 20
-10.54974405
 30
0.0
 11
3.61611541
 21
-10.49862192
 31
0.0
1001
HATCH_DISTANCE
1040
1.0
1001
HATCH_DISPLAY
1070
     0
1001
HATCH_TYPE
1070
     7
  0
LINE
  5
128F
330
762
100
AcDbEntity
  8
0
100
AcDbLine
 10
3.61611541
 20
-10.49862192
 30
0.0
 11
3.61611541
 21
-10.49862192
 31
0.0
1001
HATCH_DISTANCE
1040
1.0
1001
HATCH_DISPLAY
1070
     0
1001
HATCH_TYPE
1070
     7
  0
LINE
  5
1290
330
762
100
AcDbEntity
  8
0
100
AcDbLine
 10
3.61611541
 20
-10.49862192
 30
0.0
 11
3.45399475
 21
-10.54974405
 31
0.0
  0
LINE
  5
1291
330
762
100
AcDbEntity
  8
0
100
AcDbLine
 10
3.45399475
 20
-10.54974405
 30
0.0
 11
3.45399475
 21
-10.54974405
 31
0.0
  0
LINE
  5
1292
330
762
100
AcDbEntity
  8
0
100
AcDbLine
 10
3.45399475
 20
-10.54974405
 30
0.0
 11
3.61611541
 21
-10.49862192
 31
0.0
  0
LINE
  5
1293
330
762
100
AcDbEntity
  8
0
100
AcDbLine
 10
3.61611541
 20
-10.49862192
 30
0.0
 11
3.61611541
 21
-10.49862192
 31
0.0
  0
LINE
  5
1294
330
762
100
AcDbEntity
  8
0
100
AcDbLine
 10
3.61611541
 20
-10.49862192
 30
0.0
 11
3.45399475
 21
-10.54974405
 31
0.0
1001
HATCH_DISTANCE
1040
1.0
1001
HATCH_DISPLAY
1070
     0
1001
HATCH_TYPE
1070
     7
  0
LINE
  5
1295
330
762
100
AcDbEntity
  8
0
100
AcDbLine
 10
3.71985003
 20
-9.91584622
 30
0.0
 11
3.59810901
 21
-9.79410521
 31
0.0
  0
ARC
  5
1296
330
762
100
AcDbEntity
  8
0
100
AcDbCircle
 10
4.31574585
 20
-13.76850291
 30
0.0
 40
0.8911990356445432
100
AcDbArc
 50
180.0
 51
0.0
  0
ARC
  5
1297
330
762
100
AcDbEntity
  8
0
100
AcDbCircle
 10
4.31574585
 20
-13.76850291
 30
0.0
 40
0.7214456176757899
100
AcDbArc
 50
180.0
 51
0.0
  0
LINE
  5
1298
330
762
100
AcDbEntity
  8
0
100
AcDbLine
 10
3.62215228
 20
-13.96702681
 30
0.0
 11
3.42454729
 21
-13.76942181
 31
0.0
  0
LINE
  5
1299
330
762
100
AcDbEntity
  8
0
100
AcDbLine
 10
5.1736463
 20
-14.0098378
 30
0.0
 11
5.03048111
 21
-13.86667261
 31
0.0
  0
LINE
  5
129A
330
762
100
AcDbEntity
  8
0
100
AcDbLine
 10
4.97081115
 20
-14.37275879
 30
0.0
 11
4.85065668
 21
-14.25260432
 31
0.0
  0
LINE
  5
129B
330
762
100
AcDbEntity
  8
240
100
AcDbLine
 10
11.0
 20
-11.7
 30
0.0
 11
11.0
 21
-15.15
 31
0.0
  0
LINE
  5
129C
330
762
100
AcDbEntity
  8
240
100
AcDbLine
 10
11.0
 20
-11.7
 30
0.0
 11
10.0
 21
-11.7
 31
0.0
  0
LINE
  5
129D
330
762
100
AcDbEntity
  8
240
100
AcDbLine
 10
10.0
 20
-11.7
 30
0.0
 11
10.0
 21
-15.0
 31
0.0
  0
LINE
  5
129E
330
762
100
AcDbEntity
  8
240
100
AcDbLine
 10
13.25980762
 20
-15.0
 30
0.0
 11
13.0
 21
-15.15
 31
0.0
  0
LINE
  5
129F
330
762
100
AcDbEntity
  8
240
100
AcDbLine
 10
-19.0
 20
15.0
 30
0.0
 11
-14.5
 21
15.0
 31
0.0
  0
LINE
  5
12A0
330
762
100
AcDbEntity
  8
240
100
AcDbLine
 10
-38.0
 20
12.5
 30
0.0
 11
-35.5
 21
15.0
 31
0.0
  0
LINE
  5
12A1
330
762
100
AcDbEntity
  8
240
100
AcDbLine
 10
-46.0
 20
12.5
 30
0.0
 11
-38.0
 21
12.5
 31
0.0
  0
LINE
  5
12A2
330
762
100
AcDbEntity
  8
240
100
AcDbLine
 10
-54.0
 20
12.5
 30
0.0
 11
-46.0
 21
12.5
 31
0.0
  0
LINE
  5
12A3
330
762
100
AcDbEntity
  8
241
100
AcDbLine
 10
-19.0
 20
13.75
 30
0.0
 11
-19.0
 21
0.0
 31
0.0
  0
LINE
  5
12A4
330
762
100
AcDbEntity
  8
241
100
AcDbLine
 10
-21.5
 20
13.75
 30
0.0
 11
-21.5
 21
0.0
 31
0.0
  0
LINE
  5
12A5
330
762
100
AcDbEntity
  8
241
100
AcDbLine
 10
-29.5
 20
13.75
 30
0.0
 11
-29.5
 21
0.0
 31
0.0
  0
LINE
  5
12A6
330
762
100
AcDbEntity
  8
241
100
AcDbLine
 10
-32.0
 20
13.75
 30
0.0
 11
-32.0
 21
0.0
 31
0.0
  0
LINE
  5
12A7
330
762
100
AcDbEntity
  8
245
100
AcDbLine
 10
-27.4999651
 20
-5.13030215
 30
0.0
 11
-23.5000349
 21
-5.13030215
 31
0.0
  0
ELLIPSE
  5
12A8
330
762
100
AcDbEntity
  8
241
100
AcDbEllipse
 10
-25.5000349
 20
-5.08449496
 30
0.0
 11
-2.000524505802109
 21
0.0
 31
0.0
210
0.0
220
0.0
230
1.0
 40
0.93944625
 41
0.0
 42
6.283185307179584
  0
LINE
  5
12A9
330
762
100
AcDbEntity
  8
245
100
AcDbLine
 10
-25.5000349
 20
-3.20510972
 30
0.0
 11
-25.5000349
 21
-6.96388021
 31
0.0
  0
LINE
  5
12AA
330
762
100
AcDbEntity
  8
240
100
AcDbLine
 10
-29.5
 20
15.0
 30
0.0
 11
-21.5
 21
15.0
 31
0.0
  0
ARC
  5
12AB
330
762
100
AcDbEntity
  8
240
100
AcDbCircle
 10
-30.75
 20
13.75
 30
0.0
 40
1.24999999999827
100
AcDbArc
 50
0.0
 51
180.0
  0
LINE
  5
12AC
330
762
100
AcDbEntity
  8
240
100
AcDbLine
 10
-32.0
 20
13.75
 30
0.0
 11
-32.0
 21
15.0
 31
0.0
  0
LINE
  5
12AD
330
762
100
AcDbEntity
  8
240
100
AcDbLine
 10
-35.5
 20
15.0
 30
0.0
 11
-32.0
 21
15.0
 31
0.0
  0
LINE
  5
12AE
330
762
100
AcDbEntity
  8
240
100
AcDbLine
 10
-29.5
 20
13.75
 30
0.0
 11
-29.5
 21
15.0
 31
0.0
  0
ARC
  5
12AF
330
762
100
AcDbEntity
  8
240
100
AcDbCircle
 10
-20.25
 20
13.75
 30
0.0
 40
1.249999999998089
100
AcDbArc
 50
0.0
 51
180.0
  0
LINE
  5
12B0
330
762
100
AcDbEntity
  8
240
100
AcDbLine
 10
-21.5
 20
13.75
 30
0.0
 11
-21.5
 21
15.0
 31
0.0
  0
LINE
  5
12B1
330
762
100
AcDbEntity
  8
240
100
AcDbLine
 10
-19.0
 20
13.75
 30
0.0
 11
-19.0
 21
15.0
 31
0.0
  0
LINE
  5
12B2
330
762
100
AcDbEntity
  8
241
100
AcDbLine
 10
13.0
 20
15.15
 30
0.0
 11
13.0
 21
0.0
 31
0.0
  0
LINE
  5
12B3
330
762
100
AcDbEntity
  8
240
100
AcDbLine
 10
13.25980762
 20
15.0
 30
0.0
 11
13.0
 21
15.15
 31
0.0
  0
LINE
  5
12B4
330
762
100
AcDbEntity
  8
240
100
AcDbLine
 10
11.0
 20
11.7
 30
0.0
 11
11.0
 21
15.15
 31
0.0
  0
LINE
  5
12B5
330
762
100
AcDbEntity
  8
240
100
AcDbLine
 10
-13.0
 20
15.5
 30
0.0
 11
-13.0
 21
14.7
 31
0.0
  0
ARC
  5
12B6
330
762
100
AcDbEntity
  8
240
100
AcDbCircle
 10
1.97309836
 20
16.0
 30
0.0
 40
1.0
100
AcDbArc
 50
194.99999998
 51
270.0
  0
LINE
  5
12B7
330
762
100
AcDbEntity
  8
241
100
AcDbLine
 10
1.20577137
 20
15.35874397
 30
0.0
 11
1.20577137
 21
0.0
 31
0.0
  0
LINE
  5
12B8
330
762
100
AcDbEntity
  8
241
100
AcDbLine
 10
-6.12626129
 20
19.5
 30
0.0
 11
-6.12626129
 21
0.0
 31
0.0
  0
LINE
  5
12B9
330
762
100
AcDbEntity
  8
241
  6
CONTINUOUS
100
AcDbLine
 10
-7.5
 20
19.00000001
 30
0.0
 11
-7.5
 21
0.0
 31
0.0
  0
LINE
  5
12BA
330
762
100
AcDbEntity
  8
241
100
AcDbLine
 10
0.0
 20
19.14125603
 30
0.0
 11
0.0
 21
0.0
 31
0.0
  0
LINE
  5
12BB
330
762
100
AcDbEntity
  8
241
100
AcDbLine
 10
-2.0
 20
18.25
 30
0.0
 11
-2.0
 21
0.0
 31
0.0
  0
LINE
  5
12BC
330
762
100
AcDbEntity
  8
241
100
AcDbLine
 10
-4.5
 20
18.25
 30
0.0
 11
-4.5
 21
0.0
 31
0.0
  0
LINE
  5
12BD
330
762
100
AcDbEntity
  8
240
100
AcDbLine
 10
10.0
 20
15.0
 30
0.0
 11
1.97309836
 21
15.0
 31
0.0
  0
LINE
  5
12BE
330
762
100
AcDbEntity
  8
241
100
AcDbLine
 10
-14.5
 20
15.0
 30
0.0
 11
-14.5
 21
0.0
 31
0.0
  0
LINE
  5
12BF
330
762
100
AcDbEntity
  8
240
100
AcDbLine
 10
-14.2
 20
14.7
 30
0.0
 11
-13.0
 21
14.7
 31
0.0
  0
LINE
  5
12C0
330
762
100
AcDbEntity
  8
240
100
AcDbLine
 10
-14.2
 20
14.7
 30
0.0
 11
-14.5
 21
15.0
 31
0.0
  0
TEXT
  5
12C1
330
762
100
AcDbEntity
  8
0
100
AcDbText
 10
5.06574078
 20
-8.94849597
 30
0.0
 40
1.8
  1
MGT20-P3/8-35
 50
90.0
  7
YOKO
100
AcDbText
  0
LINE
  5
12C2
330
762
100
AcDbEntity
  8
241
100
AcDbLine
 10
10.0
 20
11.7
 30
0.0
 11
10.0
 21
0.0
 31
0.0
  0
LINE
  5
12C3
330
762
100
AcDbEntity
  8
241
100
AcDbLine
 10
11.0
 20
11.7
 30
0.0
 11
11.0
 21
0.0
 31
0.0
  0
LINE
  5
12C4
330
762
100
AcDbEntity
  8
241
100
AcDbLine
 10
14.2
 20
15.0
 30
0.0
 11
14.2
 21
0.0
 31
0.0
  0
LINE
  5
12C5
330
762
100
AcDbEntity
  8
241
  6
HIDDEN2
100
AcDbLine
 10
21.0
 20
7.75
 30
0.0
 11
21.0
 21
0.0
 31
0.0
  0
LINE
  5
12C6
330
762
100
AcDbEntity
  8
242
  6
HIDDEN2
100
AcDbLine
 10
6.0
 20
0.0
 30
0.0
 11
16.0
 21
7.84888527
 31
0.0
  0
LINE
  5
12C7
330
762
100
AcDbEntity
  8
242
  6
HIDDEN2
100
AcDbLine
 10
6.0
 20
7.84888527
 30
0.0
 11
16.0
 21
0.0
 31
0.0
  0
LINE
  5
12C8
330
762
100
AcDbEntity
  8
241
  6
HIDDEN2
100
AcDbLine
 10
6.0
 20
7.84888527
 30
0.0
 11
6.0
 21
0.0
 31
0.0
  0
LINE
  5
12C9
330
762
100
AcDbEntity
  8
241
  6
HIDDEN2
100
AcDbLine
 10
16.0
 20
7.84888527
 30
0.0
 11
16.0
 21
0.0
 31
0.0
  0
LINE
  5
12CA
330
762
100
AcDbEntity
  8
0
100
AcDbLine
 10
4.59129623
 20
-9.65578016
 30
0.0
 11
4.36840443
 21
-9.43288836
 31
0.0
  0
LINE
  5
12CB
330
762
100
AcDbEntity
  8
0
100
AcDbLine
 10
4.3487717
 20
-9.60184101
 30
0.0
 11
4.18753291
 21
-9.44060222
 31
0.0
  0
LINE
  5
12CC
330
762
100
AcDbEntity
  8
0
100
AcDbLine
 10
4.17357673
 20
-9.61523142
 30
0.0
 11
4.03503909
 21
-9.47669378
 31
0.0
  0
LINE
  5
12CD
330
762
100
AcDbEntity
  8
0
100
AcDbLine
 10
4.02989204
 20
-9.66013211
 30
0.0
 11
3.9026268
 21
-9.53286686
 31
0.0
  0
LINE
  5
12CE
330
762
100
AcDbEntity
  8
241
  6
HIDDEN2
100
AcDbLine
 10
6.0
 20
7.84888527
 30
0.0
 11
16.0
 21
7.84888527
 31
0.0
  0
LINE
  5
12CF
330
762
100
AcDbEntity
  8
240
100
AcDbLine
 10
10.0
 20
11.7
 30
0.0
 11
10.0
 21
15.0
 31
0.0
  0
LINE
  5
12D0
330
762
100
AcDbEntity
  8
240
100
AcDbLine
 10
11.0
 20
11.7
 30
0.0
 11
10.0
 21
11.7
 31
0.0
  0
LINE
  5
12D1
330
762
100
AcDbEntity
  8
241
  6
HIDDEN2
100
AcDbLine
 10
16.0
 20
7.75
 30
0.0
 11
21.0
 21
7.75
 31
0.0
  0
LINE
  5
12D2
330
762
100
AcDbEntity
  8
240
100
AcDbLine
 10
-7.5
 20
19.00000001
 30
0.0
 11
-6.12626128
 21
19.5
 31
0.0
  0
LINE
  5
12D3
330
762
100
AcDbEntity
  8
240
100
AcDbLine
 10
-7.50000001
 20
19.0
 30
0.0
 11
-13.5
 21
19.0
 31
0.0
  0
LINE
  5
12D4
330
762
100
AcDbEntity
  8
241
  6
CONTINUOUS
100
AcDbLine
 10
-7.5
 20
15.2
 30
0.0
 11
-13.0
 21
15.2
 31
0.0
  0
LINE
  5
12D5
330
762
100
AcDbEntity
  8
240
100
AcDbLine
 10
-13.0
 20
15.5
 30
0.0
 11
-13.5
 21
16.0
 31
0.0
  0
LINE
  5
12D6
330
762
100
AcDbEntity
  8
240
100
AcDbLine
 10
-13.5
 20
19.0
 30
0.0
 11
-13.5
 21
16.0
 31
0.0
  0
ARC
  5
12D7
330
762
100
AcDbEntity
  8
240
100
AcDbCircle
 10
-3.25
 20
18.25
 30
0.0
 40
1.250000000000339
100
AcDbArc
 50
0.0
 51
180.0
  0
LINE
  5
12D8
330
762
100
AcDbEntity
  8
240
100
AcDbLine
 10
-4.5
 20
19.5
 30
0.0
 11
-6.12626129
 21
19.5
 31
0.0
  0
LINE
  5
12D9
330
762
100
AcDbEntity
  8
240
100
AcDbLine
 10
-4.5
 20
18.25
 30
0.0
 11
-4.5
 21
19.5
 31
0.0
  0
LINE
  5
12DA
330
762
100
AcDbEntity
  8
240
100
AcDbLine
 10
0.19859884
 20
18.75881905
 30
0.0
 11
1.00717253
 21
15.74118096
 31
0.0
  0
LINE
  5
12DB
330
762
100
AcDbEntity
  8
240
100
AcDbLine
 10
-0.63567449
 20
19.5
 30
0.0
 11
-2.0
 21
19.5
 31
0.0
  0
LINE
  5
12DC
330
762
100
AcDbEntity
  8
240
100
AcDbLine
 10
-2.0
 20
18.25
 30
0.0
 11
-2.0
 21
19.5
 31
0.0
  0
ARC
  5
12DD
330
762
100
AcDbEntity
  8
240
100
AcDbCircle
 10
-0.76732699
 20
18.5
 30
0.0
 40
1.0
100
AcDbArc
 50
15.0
 51
75.0
1001
GENIUS_GENOBJ-N-FIL_13
1002
{
1000
OWNER
1000
GEN
1002
}
1001
GENIUS_GENODEF_13
1002
{
1000
HIER
1070
     0
1002
}
1002
{
1000
MANEDIT
1070
     0
1002
}
1002
{
1000
NOSEL
1070
     0
1002
}
1002
{
1000
BEHIND
1070
     0
1002
}
1002
{
1000
OTHER
1070
     0
1002
}
1002
{
1000
REACTOR
1002
}
  0
LINE
  5
12DE
330
762
100
AcDbEntity
  8
240
100
AcDbLine
 10
-0.50850794
 20
19.46592583
 30
0.0
 11
-0.63567449
 21
19.5
 31
0.0
  0
LINE
  5
12DF
330
762
100
AcDbEntity
  8
240
100
AcDbLine
 10
11.0
 20
15.15
 30
0.0
 11
13.0
 21
15.15
 31
0.0
  0
LINE
  5
12E0
330
762
100
AcDbEntity
  8
240
100
AcDbLine
 10
35.0
 20
-14.0
 30
0.0
 11
35.0
 21
0.0
 31
0.0
  0
ARC
  5
12E1
330
762
100
AcDbEntity
  8
240
100
AcDbCircle
 10
34.0
 20
-14.0
 30
0.0
 40
1.0
100
AcDbArc
 50
270.0
 51
0.0
1001
GENIUS_GENOBJ-N-FIL_13
1002
{
1000
OWNER
1000
GEN
1002
}
1001
GENIUS_GENODEF_13
1002
{
1000
HIER
1070
     0
1002
}
1002
{
1000
MANEDIT
1070
     0
1002
}
1002
{
1000
NOSEL
1070
     0
1002
}
1002
{
1000
BEHIND
1070
     0
1002
}
1002
{
1000
OTHER
1070
     0
1002
}
1002
{
1000
REACTOR
1002
}
  0
ARC
  5
12E2
330
762
100
AcDbEntity
  8
240
100
AcDbCircle
 10
34.0
 20
14.0
 30
0.0
 40
1.0
100
AcDbArc
 50
0.0
 51
90.0
1001
GENIUS_GENOBJ-N-FIL_13
1002
{
1000
OWNER
1000
GEN
1002
}
1001
GENIUS_GENODEF_13
1002
{
1000
HIER
1070
     0
1002
}
1002
{
1000
MANEDIT
1070
     0
1002
}
1002
{
1000
NOSEL
1070
     0
1002
}
1002
{
1000
BEHIND
1070
     0
1002
}
1002
{
1000
OTHER
1070
     0
1002
}
1002
{
1000
REACTOR
1002
}
  0
LINE
  5
12E3
330
762
100
AcDbEntity
  8
240
100
AcDbLine
 10
35.0
 20
14.0
 30
0.0
 11
35.0
 21
0.0
 31
0.0
  0
ENDBLK
  5
8A1
330
762
100
AcDbEntity
  8
0
100
AcDbBlockEnd
  0
BLOCK
  5
116F
330
1165
100
AcDbEntity
  8
0
100
AcDbBlockBegin
  2
*D10
 70
     1
 10
0.0
 20
0.0
 30
0.0
  3
*D10
  1

  0
LINE
  5
11B5
330
1165
100
AcDbEntity
  8
AM_5
100
AcDbLine
 10
34.5
 20
15.0
 30
0.0
 11
54.5
 21
15.0
 31
0.0
  0
LINE
  5
11B6
330
1165
100
AcDbEntity
  8
AM_5
100
AcDbLine
 10
34.5
 20
-15.0
 30
0.0
 11
54.5
 21
-15.0
 31
0.0
  0
LINE
  5
11B7
330
1165
100
AcDbEntity
  8
AM_5
100
AcDbLine
 10
53.5
 20
12.77
 30
0.0
 11
53.5
 21
-12.77
 31
0.0
  0
INSERT
  5
11B8
330
1165
100
AcDbEntity
  8
AM_5
100
AcDbBlockReference
  2
_OPEN
 10
53.5
 20
15.0
 30
0.0
 41
2.23
 42
2.23
 43
2.23
 50
90.0
  0
INSERT
  5
11B9
330
1165
100
AcDbEntity
  8
AM_5
100
AcDbBlockReference
  2
_OPEN
 10
53.5
 20
-15.0
 30
0.0
 41
2.23
 42
2.23
 43
2.23
 50
270.0
  0
MTEXT
  5
11BA
330
1165
100
AcDbEntity
  8
AM_5
 62
    40
100
AcDbMText
 10
51.1
 20
-1.48621162
 30
0.0
 40
2.8
 41
0.0
 71
     5
 72
     1
  1
\A1;%%c30
 11
0.0
 21
1.0
 31
0.0
1001
ACAD
1000
MTEXTBEGIN
1070
    73
1070
     1
1070
    44
1040
1.0
1070
    74
1070
     0
1000
MTEXTEND
  0
POINT
  5
11BB
330
1165
100
AcDbEntity
  8
DEFPOINTS
 62
     0
100
AcDbPoint
 10
34.0
 20
15.0
 30
0.0
  0
POINT
  5
11BC
330
1165
100
AcDbEntity
  8
DEFPOINTS
 62
     0
100
AcDbPoint
 10
34.0
 20
-15.0
 30
0.0
  0
POINT
  5
11BD
330
1165
100
AcDbEntity
  8
DEFPOINTS
 62
     0
100
AcDbPoint
 10
53.5
 20
-15.0
 30
0.0
  0
ENDBLK
  5
1170
330
1165
100
AcDbEntity
  8
0
100
AcDbBlockEnd
  0
BLOCK
  5
117A
330
1171
100
AcDbEntity
  8
0
100
AcDbBlockBegin
  2
*D11
 70
     1
 10
0.0
 20
0.0
 30
0.0
  3
*D11
  1

  0
LINE
  5
11BE
330
1171
100
AcDbEntity
  8
250
  6
CONTINUOUS
100
AcDbLine
 10
35.5
 20
7.0
 30
0.0
 11
47.5
 21
7.0
 31
0.0
  0
LINE
  5
11BF
330
1171
100
AcDbEntity
  8
250
  6
CONTINUOUS
100
AcDbLine
 10
46.5
 20
-4.77
 30
0.0
 11
46.5
 21
4.77
 31
0.0
  0
INSERT
  5
11C0
330
1171
100
AcDbEntity
  8
250
  6
CONTINUOUS
100
AcDbBlockReference
  2
矢印なし
 10
46.5
 20
-7.0
 30
0.0
 41
2.23
 42
2.23
 43
2.23
 50
270.0
  0
INSERT
  5
11C1
330
1171
100
AcDbEntity
  8
250
  6
CONTINUOUS
100
AcDbBlockReference
  2
_OPEN
 10
46.5
 20
7.0
 30
0.0
 41
2.23
 42
2.23
 43
2.23
 50
90.0
  0
MTEXT
  5
11C2
330
1171
100
AcDbEntity
  8
250
  6
CONTINUOUS
 62
    40
100
AcDbMText
 10
44.1
 20
-1.46522202
 30
0.0
 40
2.8
 41
0.0
 71
     5
 72
     1
  1
\A1;{\H2.8;\U+2205}14
 11
0.0
 21
1.0
 31
0.0
1001
ACAD
1000
MTEXTBEGIN
1070
    73
1070
     1
1070
    44
1040
1.0
1070
    74
1070
     0
1000
MTEXTEND
  0
POINT
  5
11C3
330
1171
100
AcDbEntity
  8
DEFPOINTS
  6
CONTINUOUS
 62
     0
100
AcDbPoint
 10
35.0
 20
-7.0
 30
0.0
  0
POINT
  5
11C4
330
1171
100
AcDbEntity
  8
DEFPOINTS
  6
CONTINUOUS
 62
     0
100
AcDbPoint
 10
35.0
 20
7.0
 30
0.0
  0
POINT
  5
11C5
330
1171
100
AcDbEntity
  8
DEFPOINTS
  6
CONTINUOUS
 62
     0
100
AcDbPoint
 10
46.5
 20
7.0
 30
0.0
  0
ENDBLK
  5
117B
330
1171
100
AcDbEntity
  8
0
100
AcDbBlockEnd
  0
BLOCK
  5
1186
330
117C
100
AcDbEntity
  8
0
100
AcDbBlockBegin
  2
*D12
 70
     1
 10
0.0
 20
0.0
 30
0.0
  3
*D12
  1

  0
LINE
  5
11AC
330
117C
100
AcDbEntity
  8
250
  6
CONTINUOUS
100
AcDbLine
 10
0.0
 20
19.64125603
 30
0.0
 11
0.0
 21
36.0
 31
0.0
  0
LINE
  5
11AD
330
117C
100
AcDbEntity
  8
250
  6
CONTINUOUS
100
AcDbLine
 10
35.0
 20
14.5
 30
0.0
 11
35.0
 21
36.0
 31
0.0
  0
LINE
  5
11AE
330
117C
100
AcDbEntity
  8
250
  6
CONTINUOUS
100
AcDbLine
 10
2.23
 20
35.0
 30
0.0
 11
32.77
 21
35.0
 31
0.0
  0
INSERT
  5
11AF
330
117C
100
AcDbEntity
  8
250
  6
CONTINUOUS
100
AcDbBlockReference
  2
_OPEN
 10
0.0
 20
35.0
 30
0.0
 41
2.23
 42
2.23
 43
2.23
 50
180.0
  0
INSERT
  5
11B0
330
117C
100
AcDbEntity
  8
250
  6
CONTINUOUS
100
AcDbBlockReference
  2
_OPEN
 10
35.0
 20
35.0
 30
0.0
 41
2.23
 42
2.23
 43
2.23
  0
MTEXT
  5
11B1
330
117C
100
AcDbEntity
  8
250
  6
CONTINUOUS
 62
    40
100
AcDbMText
 10
17.5
 20
37.4
 30
0.0
 40
2.8
 41
0.0
 71
     5
 72
     1
  1
\A1;35
1001
ACAD
1000
MTEXTBEGIN
1070
    73
1070
     1
1070
    44
1040
1.0
1070
    74
1070
     0
1000
MTEXTEND
  0
POINT
  5
11B2
330
117C
100
AcDbEntity
  8
DEFPOINTS
  6
CONTINUOUS
 62
     0
100
AcDbPoint
 10
0.0
 20
19.14125603
 30
0.0
  0
POINT
  5
11B3
330
117C
100
AcDbEntity
  8
DEFPOINTS
  6
CONTINUOUS
 62
     0
100
AcDbPoint
 10
35.0
 20
14.0
 30
0.0
  0
POINT
  5
11B4
330
117C
100
AcDbEntity
  8
DEFPOINTS
  6
CONTINUOUS
 62
     0
100
AcDbPoint
 10
35.0
 20
35.0
 30
0.0
  0
ENDBLK
  5
1187
330
117C
100
AcDbEntity
  8
0
100
AcDbBlockEnd
  0
ENDSEC
  0
SECTION
  2
ENTITIES
  0
INSERT
  5
6E6
330
1A
100
AcDbEntity
  8
245
100
AcDbBlockReference
  2
矢印なし
 10
175.62382697
 20
90.55123572
 30
0.0
  0
INSERT
  5
8F7
330
1A
100
AcDbEntity
  8
245
100
AcDbBlockReference
  2
矢印なし
 10
343.62382697
 20
237.55123572
 30
0.0
  0
INSERT
  5
8F8
330
1A
100
AcDbEntity
  8
245
100
AcDbBlockReference
  2
矢印なし
 10
518.62382697
 20
391.55123572
 30
0.0
  0
INSERT
  5
8F9
330
1A
100
AcDbEntity
  8
245
100
AcDbBlockReference
  2
矢印なし
 10
714.62382697
 20
545.55123572
 30
0.0
  0
INSERT
  5
8FA
330
1A
100
AcDbEntity
  8
245
100
AcDbBlockReference
  2
矢印なし
 10
903.62382697
 20
685.55123572
 30
0.0
  0
INSERT
  5
8FB
330
1A
100
AcDbEntity
  8
245
100
AcDbBlockReference
  2
矢印なし
 10
1078.62382697
 20
832.55123572
 30
0.0
  0
INSERT
  5
8FC
330
1A
100
AcDbEntity
  8
245
100
AcDbBlockReference
  2
矢印なし
 10
1260.62382697
 20
979.55123572
 30
0.0
  0
INSERT
  5
8FD
330
1A
100
AcDbEntity
  8
245
100
AcDbBlockReference
  2
矢印なし
 10
1449.62382697
 20
1119.55123572
 30
0.0
  0
INSERT
  5
8FE
330
1A
100
AcDbEntity
  8
245
100
AcDbBlockReference
  2
矢印なし
 10
1631.62382697
 20
1273.55123572
 30
0.0
  0
INSERT
  5
8FF
330
1A
100
AcDbEntity
  8
245
100
AcDbBlockReference
  2
矢印なし
 10
1820.62382697
 20
1420.55123572
 30
0.0
  0
INSERT
  5
900
330
1A
100
AcDbEntity
  8
245
100
AcDbBlockReference
  2
矢印なし
 10
1995.62382697
 20
1567.55123572
 30
0.0
  0
INSERT
  5
901
330
1A
100
AcDbEntity
  8
245
100
AcDbBlockReference
  2
矢印なし
 10
2163.62382697
 20
1707.55123572
 30
0.0
  0
INSERT
  5
902
330
1A
100
AcDbEntity
  8
245
100
AcDbBlockReference
  2
矢印なし
 10
2338.62382697
 20
1847.55123572
 30
0.0
  0
INSERT
  5
903
330
1A
100
AcDbEntity
  8
245
100
AcDbBlockReference
  2
矢印なし
 10
2520.62382697
 20
1980.55123572
 30
0.0
  0
INSERT
  5
904
330
1A
100
AcDbEntity
  8
245
100
AcDbBlockReference
  2
矢印なし
 10
2695.62382697
 20
2127.55123572
 30
0.0
  0
INSERT
  5
905
330
1A
100
AcDbEntity
  8
245
100
AcDbBlockReference
  2
矢印なし
 10
2884.62382697
 20
2260.55123572
 30
0.0
  0
INSERT
  5
906
330
1A
100
AcDbEntity
  8
245
100
AcDbBlockReference
  2
矢印なし
 10
3073.62382697
 20
2400.55123572
 30
0.0
  0
INSERT
  5
907
330
1A
100
AcDbEntity
  8
245
100
AcDbBlockReference
  2
矢印なし
 10
3248.62382697
 20
2540.55123572
 30
0.0
  0
INSERT
  5
908
330
1A
100
AcDbEntity
  8
245
100
AcDbBlockReference
  2
矢印なし
 10
3423.62382697
 20
2680.55123572
 30
0.0
  0
INSERT
  5
909
330
1A
100
AcDbEntity
  8
245
100
AcDbBlockReference
  2
矢印なし
 10
3612.62382697
 20
2820.55123572
 30
0.0
  0
INSERT
  5
90A
330
1A
100
AcDbEntity
  8
245
100
AcDbBlockReference
  2
矢印なし
 10
3794.62382697
 20
2960.55123572
 30
0.0
  0
INSERT
  5
90B
330
1A
100
AcDbEntity
  8
245
100
AcDbBlockReference
  2
矢印なし
 10
3976.62382697
 20
3107.55123572
 30
0.0
  0
INSERT
  5
90C
330
1A
100
AcDbEntity
  8
245
100
AcDbBlockReference
  2
矢印なし
 10
4158.62382697
 20
3254.55123572
 30
0.0
  0
INSERT
  5
90D
330
1A
100
AcDbEntity
  8
245
100
AcDbBlockReference
  2
矢印なし
 10
4305.62382697
 20
3394.55123572
 30
0.0
  0
INSERT
  5
90E
330
1A
100
AcDbEntity
  8
245
100
AcDbBlockReference
  2
矢印なし
 10
4480.62382697
 20
3548.55123572
 30
0.0
  0
INSERT
  5
90F
330
1A
100
AcDbEntity
  8
245
100
AcDbBlockReference
  2
矢印なし
 10
4676.62382697
 20
3695.55123572
 30
0.0
  0
INSERT
  5
910
330
1A
100
AcDbEntity
  8
245
100
AcDbBlockReference
  2
矢印なし
 10
4865.62382697
 20
3828.55123572
 30
0.0
  0
INSERT
  5
911
330
1A
100
AcDbEntity
  8
245
100
AcDbBlockReference
  2
矢印なし
 10
5026.62382697
 20
3982.55123572
 30
0.0
  0
INSERT
  5
912
330
1A
100
AcDbEntity
  8
245
100
AcDbBlockReference
  2
矢印なし
 10
5201.62382697
 20
4136.55123572
 30
0.0
  0
INSERT
  5
913
330
1A
100
AcDbEntity
  8
245
100
AcDbBlockReference
  2
矢印なし
 10
5376.62382697
 20
4269.55123572
 30
0.0
  0
INSERT
  5
914
330
1A
100
AcDbEntity
  8
245
100
AcDbBlockReference
  2
矢印なし
 10
5530.62382697
 20
4416.55123572
 30
0.0
  0
TEXT
  5
916
330
1A
100
AcDbEntity
  8
241
100
AcDbText
 10
-69.0
 20
49.0
 30
0.0
 40
5.0
  1
MGT20-P3/8-35
  7
YOKO
 11
-69.0
 21
49.0
 31
0.0
100
AcDbText
 73
     1
  0
DIMENSION
  5
1144
330
1A
100
AcDbEntity
  8
AM_5
100
AcDbDimension
  2
*D10
 10
53.5
 20
-15.0
 30
0.0
 11
53.5
 21
-1.48621162
 31
0.0
 70
   160
  1
%%c<>
  3
BIGT$0
100
AcDbAlignedDimension
 13
34.0
 23
15.0
 33
0.0
 14
34.0
 24
-15.0
 34
0.0
 50
90.0
100
AcDbRotatedDimension
  0
LINE
  5
114E
330
1A
100
AcDbEntity
  8
250
  6
CONTINUOUS
100
AcDbLine
 10
15.31954017
 20
28.02715416
 30
0.0
 11
28.03954017
 21
28.02715416
 31
0.0
1001
ITEMNAME
1000
LNSP2
  0
MTEXT
  5
114F
330
1A
100
AcDbEntity
  8
251
  6
CONTINUOUS
100
AcDbMText
 10
18.11954017
 20
29.02715416
 30
0.0
 40
2.8
 41
0.0
 71
     7
 72
     1
  1
□11
  7
YOKO
1001
ITEMNAME
1000
LNSP3
1001
ACAD
1000
MTEXTBEGIN
1070
    73
1070
     1
1070
    44
1040
1.0
1070
    74
1070
     0
1000
MTEXTEND
1000
MTEXTBEGIN
1070
    73
1070
     1
1070
    44
1040
1.0
1070
    74
1070
     0
1000
MTEXTEND
1000
MTEXTBEGIN
1070
    73
1070
     1
1070
    44
1040
1.0
1070
    74
1070
     0
1000
MTEXTEND
1000
MTEXTBEGIN
1070
    73
1070
     1
1070
    44
1040
1.0
1070
    74
1070
     0
1000
MTEXTEND
1000
MTEXTBEGIN
1070
    73
1070
     1
1070
    44
1040
1.0
1070
    74
1070
     0
1000
MTEXTEND
1000
MTEXTBEGIN
1070
    73
1070
     1
1070
    44
1040
1.0
1070
    74
1070
     0
1000
MTEXTEND
  0
LEADER
  5
1153
330
1A
100
AcDbEntity
  8
250
  6
CONTINUOUS
100
AcDbLeader
  3
BIGT
 76
     2
 10
7.80345282
 20
7.84888527
 30
0.0
 10
15.31954017
 20
28.02715416
 30
0.0
1001
ACAD
1000
DSTYLE
1002
{
1070
     6
1000
OPEN
1070
    41
1040
2.0
1070
    42
1040
2.0
1070
    44
1040
2.0
1070
   140
1040
4.0
1070
   343
1005
594
1002
}
  0
DIMENSION
  5
1162
330
1A
100
AcDbEntity
  8
250
  6
CONTINUOUS
100
AcDbDimension
  2
*D11
 10
46.5
 20
7.0
 30
0.0
 11
46.5
 21
-1.46522202
 31
0.0
 70
   160
  1
{\H2.8;\U+2205}<>
  3
BIGT
100
AcDbAlignedDimension
 13
35.0
 23
-7.0
 33
0.0
 14
35.0
 24
7.0
 34
0.0
 50
90.0
100
AcDbRotatedDimension
1001
ACAD
1000
DSTYLE
1002
{
1070
   287
1070
     3
1070
   287
1070
     3
1070
   287
1070
     3
1070
   287
1070
     3
1070
    75
1070
     1
1070
    77
1070
     3
1070
   145
1040
1.0
1070
   279
1070
     0
1070
   289
1070
     3
1070
     6
1000
矢印なし
1002
}
  0
DIMENSION
  5
1164
330
1A
100
AcDbEntity
  8
250
  6
CONTINUOUS
100
AcDbDimension
  2
*D12
 10
35.0
 20
35.0
 30
0.0
 11
17.5
 21
37.4
 31
0.0
 70
    32
  3
BIGT$0
100
AcDbAlignedDimension
 13
0.0
 23
19.14125603
 33
0.0
 14
35.0
 24
14.0
 34
0.0
100
AcDbRotatedDimension
  0
INSERT
  5
12E4
330
1A
100
AcDbEntity
  8
245
100
AcDbBlockReference
  2
1
 10
0.0
 20
0.0
 30
0.0
  0
VIEWPORT
  5
22
330
17
100
AcDbEntity
 67
     1
  8
0
100
AcDbViewport
 10
261.51769912
 20
148.5
 30
0.0
 40
523.03539823
 41
297.0
 68
     1
 69
     1
1001
ACAD
1000
MVIEW
1002
{
1070
    16
1010
0.0
1020
0.0
1030
0.0
1010
0.0
1020
0.0
1030
1.0
1040
0.0
1040
297.0
1040
261.51769912
1040
148.5
1040
50.0
1040
0.0
1040
0.0
1070
     0
1070
   100
1070
     1
1070
     1
1070
     0
1070
     0
1070
     0
1070
     0
1040
0.0
1040
0.0
1040
0.0
1040
1.0
1040
1.0
1040
10.0
1040
10.0
1070
     0
1002
{
1002
}
1002
}
  0
ENDSEC
  0
SECTION
  2
OBJECTS
  0
DICTIONARY
  5
C
330
0
100
AcDbDictionary
  3
ACAD_GROUP
350
D
  3
ACAD_LAYOUT
350
565
  3
ACAD_MLINESTYLE
350
E
  3
ACAD_PLOTSETTINGS
350
566
  3
ACAD_PLOTSTYLENAME
350
563
  3
ACDBHEADERROUNDTRIPXREC
350
12E6
  3
GRADE_DWG
350
540
  0
DICTIONARY
  5
DA3
330
1A
100
AcDbDictionary
280
     1
  3
ACAD_LAYOUTSELFREF
360
1308
  0
DICTIONARY
  5
DA1
330
17
100
AcDbDictionary
280
     1
  3
ACAD_LAYOUTSELFREF
360
1307
  0
DICTIONARY
  5
D
102
{ACAD_REACTORS
330
C
102
}
330
C
100
AcDbDictionary
  3
*A1
350
6C7
  3
*A2
350
6C8
  3
*A3
350
6D4
  3
*A4
350
6D5
  3
DREC-1
350
5FC
  3
DREC-2
350
654
  3
DREC-3
350
673
  0
DICTIONARY
  5
565
102
{ACAD_REACTORS
330
C
102
}
330
C
100
AcDbDictionary
  0
DICTIONARY
  5
E
102
{ACAD_REACTORS
330
C
102
}
330
C
100
AcDbDictionary
  3
STANDARD
350
13
  0
DICTIONARY
  5
566
102
{ACAD_REACTORS
330
C
102
}
330
C
100
AcDbDictionary
  3
A3_0_5倍_
350
758
  3
A3_1倍_
350
757
  3
A3_1倍__2000_
350
707
  3
A3_2倍_
350
759
  3
A4_0_5倍_
350
755
  3
A4_1倍_
350
754
  3
A4_1倍__2000_
350
708
  3
A4_2倍_
350
756
  0
ACDBDICTIONARYWDFLT
  5
563
102
{ACAD_REACTORS
330
C
102
}
330
C
100
AcDbDictionary
281
     1
  3
Normal
350
564
100
AcDbDictionaryWithDefault
340
564
  0
DICTIONARY
  5
12E6
102
{ACAD_REACTORS
330
C
102
}
330
C
100
AcDbDictionary
  3
CEPSNTYPE
350
12F0
  3
DIMSTYLEDATA
350
12F4
  3
FINGERPRINTGUID
350
12F1
  3
HYPERLINKBASE
350
12E9
  3
INSUNITS
350
12EF
  3
LAYOUTDICT
350
12EB
  3
LWETCUNION
350
12EE
  3
PLOTSETDICT
350
12EC
  3
PLOTSTYLNAMDICT
350
12ED
  3
PSVPSCALE
350
12F3
  3
PUCSBASE
350
12F7
  3
PUCSORGBACK
350
12FD
  3
PUCSORGBOTTOM
350
12F9
  3
PUCSORGFRONT
350
12FC
  3
PUCSORGLEFT
350
12FA
  3
PUCSORGRIGHT
350
12FB
  3
PUCSORGTOP
350
12F8
  3
PUCSORTHOREF
350
12F5
  3
PUCSORTHOVIEW
350
12F6
  3
STYLESHEET
350
12EA
  3
TSTACKALIGN
350
12E7
  3
TSTACKSIZE
350
12E8
  3
UCSBASE
350
1300
  3
UCSORGBACK
350
1306
  3
UCSORGBOTTOM
350
1302
  3
UCSORGFRONT
350
1305
  3
UCSORGLEFT
350
1303
  3
UCSORGRIGHT
350
1304
  3
UCSORGTOP
350
1301
  3
UCSORTHOREF
350
12FE
  3
UCSORTHOVIEW
350
12FF
  3
VERSIONGUID
350
12F2
  0
DICTIONARY
  5
540
102
{ACAD_REACTORS
330
C
102
}
330
C
100
AcDbDictionary
  3
VERSION
350
560
  0
XRECORD
  5
1308
102
{ACAD_REACTORS
330
DA3
102
}
330
DA3
100
AcDbXrecord
340
1A
  0
XRECORD
  5
1307
102
{ACAD_REACTORS
330
DA1
102
}
330
DA1
100
AcDbXrecord
340
17
  0
GROUP
  5
6C7
102
{ACAD_REACTORS
330
D
102
}
330
D
100
AcDbGroup
300

 70
     0
 71
     1
1001
GRPNAME
1000
DMA00
  0
GROUP
  5
6C8
102
{ACAD_REACTORS
330
D
102
}
330
D
100
AcDbGroup
300

 70
     0
 71
     1
1001
GRPNAME
1000
DMA00
  0
GROUP
  5
6D4
102
{ACAD_REACTORS
330
D
102
}
330
D
100
AcDbGroup
300

 70
     0
 71
     1
1001
GRPNAME
1000
DMA00
  0
GROUP
  5
6D5
102
{ACAD_REACTORS
330
D
102
}
330
D
100
AcDbGroup
300

 70
     0
 71
     1
1001
GRPNAME
1000
DMA00
  0
GROUP
  5
5FC
102
{ACAD_REACTORS
330
D
102
}
330
D
100
AcDbGroup
300

 70
     0
 71
     1
1001
GRPNAME
1000
DREC-
1001
GPARA
1000
xsiz
1000
44.182
1000
ysiz
1000
40.677
1000
angl
1000
0
1000
ctyp
1000
0
1000
csiz
1000
5
1000
lfnt
1000
cont
1000
hcnt
1000
hoff
1000
vcnt
1000
voff
1000
opnt
1000
4
1000
dxpt
1000
0
1000
dypt
1000
0
  0
GROUP
  5
654
102
{ACAD_REACTORS
330
D
102
}
330
D
100
AcDbGroup
300

 70
     0
 71
     1
1001
GRPNAME
1000
DREC-
1001
GPARA
1000
xsiz
1000
54.592
1000
ysiz
1000
53.036
1000
angl
1000
0
1000
ctyp
1000
0
1000
csiz
1000
5
1000
lfnt
1000
cont
1000
hcnt
1000
hoff
1000
vcnt
1000
voff
1000
opnt
1000
4
1000
dxpt
1000
0
1000
dypt
1000
0
  0
GROUP
  5
673
102
{ACAD_REACTORS
330
D
102
}
330
D
100
AcDbGroup
300

 70
     0
 71
     1
1001
GRPNAME
1000
DREC-
1001
GPARA
1000
xsiz
1000
30.363
1000
ysiz
1000
36.175
1000
angl
1000
0
1000
ctyp
1000
0
1000
csiz
1000
5
1000
lfnt
1000
cont
1000
hcnt
1000
hoff
1000
vcnt
1000
voff
1000
opnt
1000
4
1000
dxpt
1000
0
1000
dypt
1000
0
  0
MLINESTYLE
  5
13
102
{ACAD_REACTORS
330
E
102
}
330
E
100
AcDbMlineStyle
  2
STANDARD
 70
     0
  3

 62
     0
 51
90.0
 52
90.0
 71
     2
 49
0.5
 62
   256
  6
BYLAYER
 49
-0.5
 62
   256
  6
BYLAYER
  0
PLOTSETTINGS
  5
758
102
{ACAD_REACTORS
330
566
102
}
330
566
100
AcDbPlotSettings
  1
A3(0.5倍)
  2
\\AWTECPC05\HP DeskJet 1120C
  4
A3
  6

 40
5.95841646
 41
13.49375153
 42
6.04309082
 43
3.67242432
 44
296.92599487
 45
419.94665527
 46
89.96
 47
127.14
 48
0.0
 49
0.0
140
0.0
141
0.0
142
1.0
143
2.0
 70
  1716
 72
     1
 73
     1
 74
     2
  7
big.ctb
 75
    17
147
0.5
148
0.0
149
0.0
  0
PLOTSETTINGS
  5
757
102
{ACAD_REACTORS
330
566
102
}
330
566
100
AcDbPlotSettings
  1
A3(1倍)
  2
\\AWTECPC05\HP DeskJet 1120C
  4
A3
  6

 40
5.95841646
 41
13.49375153
 42
6.04309082
 43
3.67242432
 44
296.92599487
 45
419.94665527
 46
37.46
 47
52.89
 48
0.0
 49
0.0
140
0.0
141
0.0
142
1.0
143
1.0
 70
  1716
 72
     1
 73
     1
 74
     2
  7
big.ctb
 75
    16
147
1.0
148
0.0
149
0.0
  0
PLOTSETTINGS
  5
707
102
{ACAD_REACTORS
330
566
102
}
330
566
100
AcDbPlotSettings
  1
A3(1倍)(2000)
  2
SII LS-1300 (D-SCAN)
  4
User258
  6

 40
3.17499995
 41
3.17499995
 42
3.17498779
 43
3.17498779
 44
419.98898315
 45
296.98950195
 46
58.32
 47
40.32
 48
0.0
 49
0.0
140
0.0
141
0.0
142
1.0
143
1.0
 70
  1716
 72
     1
 73
     0
 74
     2
  7
big.ctb
 75
    16
147
1.0
148
0.0
149
0.0
  0
PLOTSETTINGS
  5
759
102
{ACAD_REACTORS
330
566
102
}
330
566
100
AcDbPlotSettings
  1
A3(2倍)
  2
\\AWTECPC05\HP DeskJet 1120C
  4
A3
  6

 40
5.95841646
 41
13.49375153
 42
6.04309082
 43
3.67242432
 44
296.92599487
 45
419.94665527
 46
-67.54
 47
-95.61
 48
0.0
 49
0.0
140
0.0
141
0.0
142
1.0
143
0.5
 70
  1716
 72
     1
 73
     1
 74
     2
  7
big.ctb
 75
    27
147
2.0
148
0.0
149
0.0
  0
PLOTSETTINGS
  5
755
102
{ACAD_REACTORS
330
566
102
}
330
566
100
AcDbPlotSettings
  1
A4(0.5倍)
  2
\\AWTECPC05\HP DeskJet 1120C
  4
A4
  6

 40
4.18041658
 41
13.49374962
 42
4.18040466
 43
3.92642212
 44
209.97332764
 45
296.92599487
 46
48.31
 47
65.5
 48
0.0
 49
0.0
140
0.0
141
0.0
142
1.0
143
2.0
 70
  1716
 72
     1
 73
     1
 74
     2
  7
big.ctb
 75
    17
147
0.5
148
0.0
149
0.0
  0
PLOTSETTINGS
  5
754
102
{ACAD_REACTORS
330
566
102
}
330
566
100
AcDbPlotSettings
  1
A4(1倍)
  2
\\AWTECPC05\HP DeskJet 1120C
  4
A4
  6

 40
4.18041658
 41
13.49374962
 42
4.18040466
 43
3.92642212
 44
209.97332764
 45
296.92599487
 46
-4.19
 47
-8.75
 48
0.0
 49
0.0
140
0.0
141
0.0
142
1.0
143
1.0
 70
  1716
 72
     1
 73
     1
 74
     2
  7
big.ctb
 75
    16
147
1.0
148
0.0
149
0.0
  0
PLOTSETTINGS
  5
708
102
{ACAD_REACTORS
330
566
102
}
330
566
100
AcDbPlotSettings
  1
A4(1倍)(2000)
  2
SII LS-1300 (D-SCAN)
  4
User259
  6

 40
3.17499995
 41
3.17499995
 42
3.17498779
 43
3.17500305
 44
296.98950195
 45
209.99449158
 46
-3.18
 47
-3.18
 48
0.0
 49
0.0
140
0.0
141
0.0
142
1.0
143
1.0
 70
  1716
 72
     1
 73
     0
 74
     2
  7
big.ctb
 75
    16
147
1.0
148
0.0
149
0.0
  0
PLOTSETTINGS
  5
756
102
{ACAD_REACTORS
330
566
102
}
330
566
100
AcDbPlotSettings
  1
A4(2倍)
  2
\\AWTECPC05\HP DeskJet 1120C
  4
A4
  6

 40
4.18041658
 41
13.49374962
 42
4.18040466
 43
3.92642212
 44
209.97332764
 45
296.92599487
 46
-109.19
 47
-157.25
 48
0.0
 49
0.0
140
0.0
141
0.0
142
1.0
143
0.5
 70
  1716
 72
     1
 73
     1
 74
     2
  7
big.ctb
 75
    27
147
2.0
148
0.0
149
0.0
  0
ACDBPLACEHOLDER
  5
564
102
{ACAD_REACTORS
330
563
102
}
330
563
100
AcDbPlaceHolder
280
     0
  0
XRECORD
  5
12F0
102
{ACAD_REACTORS
330
12E6
102
}
330
12E6
100
AcDbXrecord
 90
        0
  0
XRECORD
  5
12F4
102
{ACAD_REACTORS
330
12E6
102
}
330
12E6
100
AcDbXrecord
1000
DSTYLE
1002
{
1070
    79
 70
     2
1070
   179
 70
     3
1070
   341
340
594
1070
   343
340
594
1070
   344
340
594
1070
   371
 70
    -1
1070
   372
 70
    -1
1002
}
  0
XRECORD
  5
12F1
102
{ACAD_REACTORS
330
12E6
102
}
330
12E6
100
AcDbXrecord
  1
{51294030-9CB4-11D3-8E18-00A0C925D94D}
  0
XRECORD
  5
12E9
102
{ACAD_REACTORS
330
12E6
102
}
330
12E6
100
AcDbXrecord
  1

  0
XRECORD
  5
12EF
102
{ACAD_REACTORS
330
12E6
102
}
330
12E6
100
AcDbXrecord
 90
        0
  0
XRECORD
  5
12EB
102
{ACAD_REACTORS
330
12E6
102
}
330
12E6
100
AcDbXrecord
340
565
  0
XRECORD
  5
12EE
102
{ACAD_REACTORS
330
12E6
102
}
330
12E6
100
AcDbXrecord
 90
    10781
  0
XRECORD
  5
12EC
102
{ACAD_REACTORS
330
12E6
102
}
330
12E6
100
AcDbXrecord
340
566
  0
XRECORD
  5
12ED
102
{ACAD_REACTORS
330
12E6
102
}
330
12E6
100
AcDbXrecord
340
563
  0
XRECORD
  5
12F3
102
{ACAD_REACTORS
330
12E6
102
}
330
12E6
100
AcDbXrecord
 40
0.0
  0
XRECORD
  5
12F7
102
{ACAD_REACTORS
330
12E6
102
}
330
12E6
100
AcDbXrecord
340
0
  0
XRECORD
  5
12FD
102
{ACAD_REACTORS
330
12E6
102
}
330
12E6
100
AcDbXrecord
 10
0.0
 20
0.0
 30
0.0
  0
XRECORD
  5
12F9
102
{ACAD_REACTORS
330
12E6
102
}
330
12E6
100
AcDbXrecord
 10
0.0
 20
0.0
 30
0.0
  0
XRECORD
  5
12FC
102
{ACAD_REACTORS
330
12E6
102
}
330
12E6
100
AcDbXrecord
 10
0.0
 20
0.0
 30
0.0
  0
XRECORD
  5
12FA
102
{ACAD_REACTORS
330
12E6
102
}
330
12E6
100
AcDbXrecord
 10
0.0
 20
0.0
 30
0.0
  0
XRECORD
  5
12FB
102
{ACAD_REACTORS
330
12E6
102
}
330
12E6
100
AcDbXrecord
 10
0.0
 20
0.0
 30
0.0
  0
XRECORD
  5
12F8
102
{ACAD_REACTORS
330
12E6
102
}
330
12E6
100
AcDbXrecord
 10
0.0
 20
0.0
 30
0.0
  0
XRECORD
  5
12F5
102
{ACAD_REACTORS
330
12E6
102
}
330
12E6
100
AcDbXrecord
340
0
  0
XRECORD
  5
12F6
102
{ACAD_REACTORS
330
12E6
102
}
330
12E6
100
AcDbXrecord
 70
     0
  0
XRECORD
  5
12EA
102
{ACAD_REACTORS
330
12E6
102
}
330
12E6
100
AcDbXrecord
  1
big.ctb
  0
XRECORD
  5
12E7
102
{ACAD_REACTORS
330
12E6
102
}
330
12E6
100
AcDbXrecord
 90
        1
  0
XRECORD
  5
12E8
102
{ACAD_REACTORS
330
12E6
102
}
330
12E6
100
AcDbXrecord
 90
       70
  0
XRECORD
  5
1300
102
{ACAD_REACTORS
330
12E6
102
}
330
12E6
100
AcDbXrecord
340
0
  0
XRECORD
  5
1306
102
{ACAD_REACTORS
330
12E6
102
}
330
12E6
100
AcDbXrecord
 10
0.0
 20
0.0
 30
0.0
  0
XRECORD
  5
1302
102
{ACAD_REACTORS
330
12E6
102
}
330
12E6
100
AcDbXrecord
 10
0.0
 20
0.0
 30
0.0
  0
XRECORD
  5
1305
102
{ACAD_REACTORS
330
12E6
102
}
330
12E6
100
AcDbXrecord
 10
0.0
 20
0.0
 30
0.0
  0
XRECORD
  5
1303
102
{ACAD_REACTORS
330
12E6
102
}
330
12E6
100
AcDbXrecord
 10
0.0
 20
0.0
 30
0.0
  0
XRECORD
  5
1304
102
{ACAD_REACTORS
330
12E6
102
}
330
12E6
100
AcDbXrecord
 10
0.0
 20
0.0
 30
0.0
  0
XRECORD
  5
1301
102
{ACAD_REACTORS
330
12E6
102
}
330
12E6
100
AcDbXrecord
 10
0.0
 20
0.0
 30
0.0
  0
XRECORD
  5
12FE
102
{ACAD_REACTORS
330
12E6
102
}
330
12E6
100
AcDbXrecord
340
0
  0
XRECORD
  5
12FF
102
{ACAD_REACTORS
330
12E6
102
}
330
12E6
100
AcDbXrecord
 70
     0
  0
XRECORD
  5
12F2
102
{ACAD_REACTORS
330
12E6
102
}
330
12E6
100
AcDbXrecord
  1
{7AF14010-FB51-4F1A-A16F-0A2E53B2B430}
  0
XRECORD
  5
560
102
{ACAD_REACTORS
330
540
102
}
330
540
100
AcDbXrecord
  1
2.0.0
  0
ENDSEC
  0
EOF
