  0
SECTION
  2
HEADER
  9
$ACADVER
  1
AC1014
  9
$ACADMAINTVER
 70
     9
  9
$DWGCODEPAGE
  3
ANSI_932
  9
$INSBASE
 10
0.0
 20
0.0
 30
0.0
  9
$EXTMIN
 10
-70.01495247
 20
-19.5703201
 30
-0.00152582
  9
$EXTMAX
 10
169.50454797
 20
54.96170761
 30
0.00000003
  9
$LIMMIN
 10
0.0
 20
0.0
  9
$LIMMAX
 10
420.0
 20
297.0
  9
$ORTHOMODE
 70
     1
  9
$REGENMODE
 70
     1
  9
$FILLMODE
 70
     1
  9
$QTEXTMODE
 70
     0
  9
$MIRRTEXT
 70
     1
  9
$DRAGMODE
 70
     2
  9
$LTSCALE
 40
10.0
  9
$OSMODE
 70
   549
  9
$ATTMODE
 70
     1
  9
$TEXTSIZE
 40
3.0
  9
$TRACEWID
 40
1.0
  9
$TEXTSTYLE
  7
YOKO
  9
$CLAYER
  8
245
  9
$CELTYPE
  6
BYLAYER
  9
$CECOLOR
 62
   256
  9
$CELTSCALE
 40
1.0
  9
$DELOBJ
 70
     1
  9
$DISPSILH
 70
     0
  9
$DIMSCALE
 40
1.0
  9
$DIMASZ
 40
2.0
  9
$DIMEXO
 40
2.0
  9
$DIMDLI
 40
2.5
  9
$DIMRND
 40
0.0
  9
$DIMDLE
 40
0.0
  9
$DIMEXE
 40
2.0
  9
$DIMTP
 40
0.0
  9
$DIMTM
 40
0.0
  9
$DIMTXT
 40
4.0
  9
$DIMCEN
 40
0.0
  9
$DIMTSZ
 40
0.0
  9
$DIMTOL
 70
     0
  9
$DIMLIM
 70
     0
  9
$DIMTIH
 70
     0
  9
$DIMTOH
 70
     0
  9
$DIMSE1
 70
     0
  9
$DIMSE2
 70
     0
  9
$DIMTAD
 70
     3
  9
$DIMZIN
 70
     8
  9
$DIMBLK
  1

  9
$DIMASO
 70
     1
  9
$DIMSHO
 70
     1
  9
$DIMPOST
  1

  9
$DIMAPOST
  1

  9
$DIMALT
 70
     0
  9
$DIMALTD
 70
     2
  9
$DIMALTF
 40
25.4
  9
$DIMLFAC
 40
1.0
  9
$DIMTOFL
 70
     1
  9
$DIMTVP
 40
0.0
  9
$DIMTIX
 70
     1
  9
$DIMSOXD
 70
     0
  9
$DIMSAH
 70
     1
  9
$DIMBLK1
  1
OPEN
  9
$DIMBLK2
  1
OPEN
  9
$DIMSTYLE
  2
BIGT
  9
$DIMCLRD
 70
   256
  9
$DIMCLRE
 70
   256
  9
$DIMCLRT
 70
    40
  9
$DIMTFAC
 40
1.0
  9
$DIMGAP
 40
1.0
  9
$DIMJUST
 70
     0
  9
$DIMSD1
 70
     0
  9
$DIMSD2
 70
     0
  9
$DIMTOLJ
 70
     1
  9
$DIMTZIN
 70
     8
  9
$DIMALTZ
 70
     0
  9
$DIMALTTZ
 70
     0
  9
$DIMFIT
 70
     3
  9
$DIMUPT
 70
     0
  9
$DIMUNIT
 70
     2
  9
$DIMDEC
 70
     3
  9
$DIMTDEC
 70
     3
  9
$DIMALTU
 70
     2
  9
$DIMALTTD
 70
     2
  9
$DIMTXSTY
  7
STANDARD
  9
$DIMAUNIT
 70
     0
  9
$LUNITS
 70
     2
  9
$LUPREC
 70
     3
  9
$SKETCHINC
 40
1.0
  9
$FILLETRAD
 40
0.0
  9
$AUNITS
 70
     0
  9
$AUPREC
 70
     3
  9
$MENU
  1
.
  9
$ELEVATION
 40
0.0
  9
$PELEVATION
 40
0.0
  9
$THICKNESS
 40
0.0
  9
$LIMCHECK
 70
     0
  9
$BLIPMODE
 70
     0
  9
$CHAMFERA
 40
10.0
  9
$CHAMFERB
 40
10.0
  9
$CHAMFERC
 40
0.0
  9
$CHAMFERD
 40
0.0
  9
$SKPOLY
 70
     0
  9
$TDCREATE
 40
2455128.635628426
  9
$TDUPDATE
 40
2455316.557606689
  9
$TDINDWG
 40
0.0035932176
  9
$TDUSRTIMER
 40
0.0035932176
  9
$USRTIMER
 70
     1
  9
$ANGBASE
 50
0.0
  9
$ANGDIR
 70
     0
  9
$PDMODE
 70
     1
  9
$PDSIZE
 40
-5.0
  9
$PLINEWID
 40
0.0
  9
$COORDS
 70
     0
  9
$SPLFRAME
 70
     0
  9
$SPLINETYPE
 70
     6
  9
$SPLINESEGS
 70
     8
  9
$ATTDIA
 70
     0
  9
$ATTREQ
 70
     1
  9
$HANDLING
 70
-16383
  9
$HANDSEED
  5
1439
  9
$SURFTAB1
 70
     6
  9
$SURFTAB2
 70
     6
  9
$SURFTYPE
 70
     6
  9
$SURFU
 70
     6
  9
$SURFV
 70
     6
  9
$UCSNAME
  2

  9
$UCSORG
 10
0.0
 20
0.0
 30
0.0
  9
$UCSXDIR
 10
1.0
 20
0.0
 30
0.0
  9
$UCSYDIR
 10
0.0
 20
1.0
 30
0.0
  9
$PUCSNAME
  2

  9
$PUCSORG
 10
0.0
 20
0.0
 30
0.0
  9
$PUCSXDIR
 10
1.0
 20
0.0
 30
0.0
  9
$PUCSYDIR
 10
0.0
 20
1.0
 30
0.0
  9
$USERI1
 70
     1
  9
$USERI2
 70
     0
  9
$USERI3
 70
     0
  9
$USERI4
 70
     0
  9
$USERI5
 70
     0
  9
$USERR1
 40
0.0
  9
$USERR2
 40
0.0
  9
$USERR3
 40
0.0
  9
$USERR4
 40
0.0
  9
$USERR5
 40
0.0
  9
$WORLDVIEW
 70
     1
  9
$SHADEDGE
 70
     3
  9
$SHADEDIF
 70
    70
  9
$TILEMODE
 70
     1
  9
$MAXACTVP
 70
    16
  9
$PINSBASE
 10
0.0
 20
0.0
 30
0.0
  9
$PLIMCHECK
 70
     0
  9
$PEXTMIN
 10
1.00000000E+20
 20
1.00000000E+20
 30
1.00000000E+20
  9
$PEXTMAX
 10
-1.00000000E+20
 20
-1.00000000E+20
 30
-1.00000000E+20
  9
$PLIMMIN
 10
0.0
 20
0.0
  9
$PLIMMAX
 10
420.0
 20
297.0
  9
$UNITMODE
 70
     0
  9
$VISRETAIN
 70
     0
  9
$PLINEGEN
 70
     0
  9
$PSLTSCALE
 70
     1
  9
$TREEDEPTH
 70
  3020
  9
$PICKSTYLE
 70
     0
  9
$CMLSTYLE
  2
STANDARD
  9
$CMLJUST
 70
     0
  9
$CMLSCALE
 40
1.0
  9
$PROXYGRAPHICS
 70
     1
  9
$MEASUREMENT
 70
     1
  0
ENDSEC
  0
SECTION
  2
CLASSES
  0
CLASS
  1
XRECORD
  2
AcDbXrecord
  3
AutoCAD 2000
 90
        0
280
     0
281
     0
  0
CLASS
  1
ACDBDICTIONARYWDFLT
  2
AcDbDictionaryWithDefault
  3
AutoCAD 2000
 90
        0
280
     0
281
     0
  0
CLASS
  1
ACDBPLACEHOLDER
  2
AcDbPlaceHolder
  3
AutoCAD 2000
 90
        0
280
     0
281
     0
  0
CLASS
  1
LAYOUT
  2
AcDbLayout
  3
AutoCAD 2000
 90
        0
280
     0
281
     0
  0
CLASS
  1
PLOTSETTINGS
  2
AcDbPlotSettings
  3
AutoCAD 2000
 90
        0
280
     0
281
     0
  0
CLASS
  1
LONG_TRANSACTION
  2
AcDbLongTransaction
  3
AutoCAD 2000
 90
        0
280
     0
281
     0
  0
CLASS
  1
LWPOLYLINE
  2
AcDbPolyline
  3
AutoCAD 2000
 90
        0
280
     0
281
     1
  0
CLASS
  1
HATCH
  2
AcDbHatch
  3
AutoCAD 2000
 90
        0
280
     0
281
     1
  0
CLASS
  1
XRECORD
  2
AcDbXrecord
  3
AutoCAD 2000
 90
        0
280
     0
281
     0
  0
CLASS
  1
LONG_TRANSACTION
  2
AcDbLongTransaction
  3
AutoCAD 2000
 90
        0
280
     0
281
     0
  0
CLASS
  1
LWPOLYLINE
  2
AcDbPolyline
  3
AutoCAD 2000
 90
        0
280
     0
281
     1
  0
CLASS
  1
HATCH
  2
AcDbHatch
  3
AutoCAD 2000
 90
        0
280
     0
281
     1
  0
CLASS
  1
XRECORD
  2
AcDbXrecord
  3
AutoCAD 2000
 90
        0
280
     0
281
     0
  0
CLASS
  1
LONG_TRANSACTION
  2
AcDbLongTransaction
  3
AutoCAD 2000
 90
        0
280
     0
281
     0
  0
CLASS
  1
LWPOLYLINE
  2
AcDbPolyline
  3
AutoCAD 2000
 90
        0
280
     0
281
     1
  0
CLASS
  1
HATCH
  2
AcDbHatch
  3
AutoCAD 2000
 90
        0
280
     0
281
     1
  0
CLASS
  1
XRECORD
  2
AcDbXrecord
  3
AutoCAD 2000
 90
        0
280
     0
281
     0
  0
ENDSEC
  0
SECTION
  2
TABLES
  0
TABLE
  2
VPORT
  5
8
330
0
100
AcDbSymbolTable
 70
     3
  0
VPORT
  5
1414
330
8
100
AcDbSymbolTableRecord
100
AcDbViewportTableRecord
  2
*ACTIVE
 70
     0
 10
0.0
 20
0.0
 11
1.0
 21
1.0
 12
49.74479775
 22
17.69569376
 13
0.0
 23
0.0
 14
7.0
 24
7.0
 15
7.0
 25
7.0
 16
0.0
 26
0.0
 36
1.0
 17
0.0
 27
0.0
 37
0.0
 40
168.17189623
 41
1.43184713
 42
50.0
 43
0.0
 44
0.0
 50
0.0
 51
0.0
 71
     0
 72
  2000
 73
     1
 74
     0
 75
     0
 76
     0
 77
     0
 78
     0
  0
ENDTAB
  0
TABLE
  2
LTYPE
  5
5
330
0
100
AcDbSymbolTable
 70
     3
  0
LTYPE
  5
14
330
5
100
AcDbSymbolTableRecord
100
AcDbLinetypeTableRecord
  2
BYBLOCK
 70
     0
  3

 72
    65
 73
     0
 40
0.0
  0
LTYPE
  5
15
330
5
100
AcDbSymbolTableRecord
100
AcDbLinetypeTableRecord
  2
BYLAYER
 70
     0
  3

 72
    65
 73
     0
 40
0.0
  0
LTYPE
  5
16
330
5
100
AcDbSymbolTableRecord
100
AcDbLinetypeTableRecord
  2
CONTINUOUS
 70
     0
  3
Solid line
 72
    65
 73
     0
 40
0.0
  0
LTYPE
  5
258
330
5
100
AcDbSymbolTableRecord
100
AcDbLinetypeTableRecord
  2
CENTER2
 70
     0
  3
___ _ ___ _ ___ _ ___ _ ___ _ ___ _ ___ _ ___ _
 72
    65
 73
     4
 40
1.125
 49
0.75
 74
     0
 49
-0.125
 74
     0
 49
0.125
 74
     0
 49
-0.125
 74
     0
  0
LTYPE
  5
25C
330
5
100
AcDbSymbolTableRecord
100
AcDbLinetypeTableRecord
  2
HIDDEN2
 70
     0
  3
_ _ _ _ _ _ _ _ _ _ _ _ _ _ _ _ _ _ _ _ _ _ _ _
 72
    65
 73
     2
 40
0.1875
 49
0.125
 74
     0
 49
-0.0625
 74
     0
  0
ENDTAB
  0
TABLE
  2
LAYER
  5
2
330
0
100
AcDbSymbolTable
 70
    11
  0
LAYER
  5
F
330
2
100
AcDbSymbolTableRecord
100
AcDbLayerTableRecord
  2
0
 70
     0
 62
     7
  6
CONTINUOUS
  0
LAYER
  5
1AA
330
2
100
AcDbSymbolTableRecord
100
AcDbLayerTableRecord
  2
240
 70
     0
 62
     4
  6
CONTINUOUS
  0
LAYER
  5
1AB
330
2
100
AcDbSymbolTableRecord
100
AcDbLayerTableRecord
  2
241
 70
     0
 62
   211
  6
CONTINUOUS
  0
LAYER
  5
1AC
330
2
100
AcDbSymbolTableRecord
100
AcDbLayerTableRecord
  2
242
 70
     0
 62
     3
  6
CONTINUOUS
  0
LAYER
  5
1AD
330
2
100
AcDbSymbolTableRecord
100
AcDbLayerTableRecord
  2
243
 70
     0
 62
   211
  6
HIDDEN2
  0
LAYER
  5
1AF
330
2
100
AcDbSymbolTableRecord
100
AcDbLayerTableRecord
  2
245
 70
     0
 62
     2
  6
CENTER2
  0
LAYER
  5
21E
330
2
100
AcDbSymbolTableRecord
100
AcDbLayerTableRecord
  2
250
 70
     0
 62
     3
  6
CONTINUOUS
  0
LAYER
  5
21F
330
2
100
AcDbSymbolTableRecord
100
AcDbLayerTableRecord
  2
251
 70
     0
 62
    40
  6
CONTINUOUS
  0
LAYER
  5
5C4
330
2
100
AcDbSymbolTableRecord
100
AcDbLayerTableRecord
  2
DEFPOINTS
 70
     0
 62
     7
  6
CONTINUOUS
  0
LAYER
  5
8C4
330
2
100
AcDbSymbolTableRecord
100
AcDbLayerTableRecord
  2
AM_5
 70
     0
 62
     3
  6
CONTINUOUS
  0
ENDTAB
  0
TABLE
  2
STYLE
  5
3
330
0
100
AcDbSymbolTable
 70
     2
  0
STYLE
  5
10
330
3
100
AcDbSymbolTableRecord
100
AcDbTextStyleTableRecord
  2
STANDARD
 70
     0
 40
0.0
 41
1.0
 50
0.0
 71
     0
 42
3.0
  3
romans.shx
  4
BIGFONT.SHX
  0
STYLE
  5
339
330
3
100
AcDbSymbolTableRecord
100
AcDbTextStyleTableRecord
  2
YOKO
 70
     0
 40
0.0
 41
1.0
 50
0.0
 71
     0
 42
3.0
  3
romans.shx
  4
extfont.shx
  0
ENDTAB
  0
TABLE
  2
VIEW
  5
6
330
0
100
AcDbSymbolTable
 70
     0
  0
ENDTAB
  0
TABLE
  2
UCS
  5
7
330
0
100
AcDbSymbolTable
 70
     0
  0
ENDTAB
  0
TABLE
  2
APPID
  5
9
330
0
100
AcDbSymbolTable
 70
    15
  0
APPID
  5
11
330
9
100
AcDbSymbolTableRecord
100
AcDbRegAppTableRecord
  2
ACAD
 70
     0
  0
APPID
  5
1B1
330
9
100
AcDbSymbolTableRecord
100
AcDbRegAppTableRecord
  2
GLOBAL
 70
     0
  0
APPID
  5
2A4
330
9
100
AcDbSymbolTableRecord
100
AcDbRegAppTableRecord
  2
DETAIL
 70
     0
  0
APPID
  5
5FD
330
9
100
AcDbSymbolTableRecord
100
AcDbRegAppTableRecord
  2
GRPNAME
 70
     0
  0
APPID
  5
5FE
330
9
100
AcDbSymbolTableRecord
100
AcDbRegAppTableRecord
  2
GPARA
 70
     0
  0
APPID
  5
6C4
330
9
100
AcDbSymbolTableRecord
100
AcDbRegAppTableRecord
  2
DCO15
 70
     0
  0
APPID
  5
6C5
330
9
100
AcDbSymbolTableRecord
100
AcDbRegAppTableRecord
  2
ITEMNAME
 70
     0
  0
APPID
  5
6C6
330
9
100
AcDbSymbolTableRecord
100
AcDbRegAppTableRecord
  2
GRADE_0
 70
     0
  0
APPID
  5
8C6
330
9
100
AcDbSymbolTableRecord
100
AcDbRegAppTableRecord
  2
GENIUS_GENODEF_13
 70
     0
  0
APPID
  5
8C7
330
9
100
AcDbSymbolTableRecord
100
AcDbRegAppTableRecord
  2
GENIUS_GENOREF_13
 70
     0
  0
APPID
  5
8C8
330
9
100
AcDbSymbolTableRecord
100
AcDbRegAppTableRecord
  2
GENIUS_GENOBJ-N-FIL_13
 70
     0
  0
APPID
  5
8C9
330
9
100
AcDbSymbolTableRecord
100
AcDbRegAppTableRecord
  2
HATCH_TYPE
 70
     0
  0
APPID
  5
8CA
330
9
100
AcDbSymbolTableRecord
100
AcDbRegAppTableRecord
  2
HATCH_DISPLAY
 70
     0
  0
APPID
  5
8CB
330
9
100
AcDbSymbolTableRecord
100
AcDbRegAppTableRecord
  2
HATCH_DISTANCE
 70
     0
  0
APPID
  5
E04
330
9
100
AcDbSymbolTableRecord
100
AcDbRegAppTableRecord
  2
CONTENTBLOCKICON
 70
     0
  0
ENDTAB
  0
TABLE
  2
DIMSTYLE
  5
A
330
0
100
AcDbSymbolTable
 70
     2
  0
DIMSTYLE
105
725
102
{ACAD_REACTORS
330
C18
102
}
330
A
100
AcDbSymbolTableRecord
100
AcDbDimStyleTableRecord
  2
BIGT
 70
     0
  3

  4

  5

  6
OPEN
  7
OPEN
 40
1.0
 41
2.23
 42
0.5
 43
2.5
 44
1.0
 45
0.0
 46
0.0
 47
0.0
 48
0.0
140
2.8
141
0.0
142
0.0
143
25.4
144
1.0
145
0.0
146
1.0
147
1.0
 71
     0
 72
     0
 73
     0
 74
     0
 75
     0
 76
     0
 77
     3
 78
     8
170
     0
171
     2
172
     1
173
     1
174
     1
175
     0
176
   256
177
   256
178
    40
270
     2
271
     3
272
     3
273
     2
274
     2
340
10
275
     0
280
     0
281
     0
282
     0
283
     1
284
     8
285
     0
286
     0
287
     3
288
     0
  0
DIMSTYLE
105
8C5
102
{ACAD_REACTORS
330
C0A
330
C17
102
}
330
A
100
AcDbSymbolTableRecord
100
AcDbDimStyleTableRecord
  2
BIGT$0
 70
     0
  3

  4

  5
OPEN
  6

  7

 40
1.0
 41
2.23
 42
0.5
 43
7.0
 44
1.0
 45
0.0
 46
0.0
 47
0.0
 48
0.01
140
2.8
141
0.0
142
0.0
143
25.4
144
1.0
145
0.0
146
1.0
147
1.0
 71
     0
 72
     0
 73
     0
 74
     0
 75
     0
 76
     0
 77
     3
 78
     9
170
     0
171
     2
172
     1
173
     0
174
     1
175
     0
176
   256
177
   256
178
    40
270
     2
271
     3
272
     3
273
     2
274
     2
340
10
275
     0
280
     0
281
     0
282
     0
283
     1
284
     8
285
     0
286
     0
287
     3
288
     0
  0
ENDTAB
  0
TABLE
  2
BLOCK_RECORD
  5
1
330
0
100
AcDbSymbolTable
 70
     7
  0
BLOCK_RECORD
  5
1A
102
{ACAD_XDICTIONARY
360
E02
102
}
330
1
100
AcDbSymbolTableRecord
100
AcDbBlockTableRecord
  2
*MODEL_SPACE
  0
BLOCK_RECORD
  5
17
102
{ACAD_XDICTIONARY
360
E00
102
}
330
1
100
AcDbSymbolTableRecord
100
AcDbBlockTableRecord
  2
*PAPER_SPACE
  0
BLOCK_RECORD
  5
594
330
1
100
AcDbSymbolTableRecord
100
AcDbBlockTableRecord
  2
_OPEN
  0
BLOCK_RECORD
  5
6E3
330
1
100
AcDbSymbolTableRecord
100
AcDbBlockTableRecord
  2
矢印なし
  0
BLOCK_RECORD
  5
762
330
1
100
AcDbSymbolTableRecord
100
AcDbBlockTableRecord
  2
1
1001
CONTENTBLOCKICON
1071
        0
1004
2800000020000000200000000100080000000000000400000000000000000000000000000000000000000000000080000080000000808000800000008000800080800000C0C0C000C0DCC000F0CAA6000020400000206000002080000020A0000020C0000020E00000400000004020000040400000406000004080000040A0
1004
000040C0000040E00000600000006020000060400000606000006080000060A0000060C0000060E00000800000008020000080400000806000008080000080A0000080C0000080E00000A0000000A0200000A0400000A0600000A0800000A0A00000A0C00000A0E00000C0000000C0200000C0400000C0600000C0800000C0
1004
A00000C0C00000C0E00000E0000000E0200000E0400000E0600000E0800000E0A00000E0C00000E0E00040000000400020004000400040006000400080004000A0004000C0004000E00040200000402020004020400040206000402080004020A0004020C0004020E000404000004040200040404000404060004040800040
1004
40A0004040C0004040E00040600000406020004060400040606000406080004060A0004060C0004060E00040800000408020004080400040806000408080004080A0004080C0004080E00040A0000040A0200040A0400040A0600040A0800040A0A00040A0C00040A0E00040C0000040C0200040C0400040C0600040C08000
1004
40C0A00040C0C00040C0E00040E0000040E0200040E0400040E0600040E0800040E0A00040E0C00040E0E00080000000800020008000400080006000800080008000A0008000C0008000E00080200000802020008020400080206000802080008020A0008020C0008020E00080400000804020008040400080406000804080
1004
008040A0008040C0008040E00080600000806020008060400080606000806080008060A0008060C0008060E00080800000808020008080400080806000808080008080A0008080C0008080E00080A0000080A0200080A0400080A0600080A0800080A0A00080A0C00080A0E00080C0000080C0200080C0400080C0600080C0
1004
800080C0A00080C0C00080C0E00080E0000080E0200080E0400080E0600080E0800080E0A00080E0C00080E0E000C0000000C0002000C0004000C0006000C0008000C000A000C000C000C000E000C0200000C0202000C0204000C0206000C0208000C020A000C020C000C020E000C0400000C0402000C0404000C0406000C0
1004
408000C040A000C040C000C040E000C0600000C0602000C0604000C0606000C0608000C060A000C060C000C060E000C0800000C0802000C0804000C0806000C0808000C080A000C080C000C080E000C0A00000C0A02000C0A04000C0A06000C0A08000C0A0A000C0A0C000C0A0E000C0C00000C0C02000C0C04000C0C06000
1004
C0C08000C0C0A000F0FBFF00A4A0A000808080000000FF0000FF000000FFFF00FF000000FF00FF00FFFF0000FFFFFF0000000000000000000000000000000000000000000000000000000000000000000000000000000000000000000000000000000000000000000000000000000000000000000000000000000000000000
1004
00000000000000000000000000000000000000000000000000000000000000000000000000000000000000000000000000000000000000000000000000000000000000000000000000000000000000000000000000000000000000000000000000000000000000000000000000000000000000000000000000000000000000
1004
00000000000000000000000000000000000000000000000000000000000000000000000000000000000000000000000000000000000000000000000000000000000000000000000000000000000000000000000000000000000000000000000000000000000000000000000000000000000000000000000000000000000000
1004
0000000000000000000000000000000000000000000000000000000000000000000000000000000000000000000000000000000000000000000000000000000000000000000000000000000000000000000000000000000000000000FEFE0000000000000000000000000000000000000000000000FEFEFEFEFEFEFEFEE7FE
1004
FEFEFEFEFEFEFEFEFEFEFEFEFEFEFEFEFEFE00000000FE00FBE7E7FBE7E7E7000000000000000000000000000000E7E700FE000000FBFEFBFBE7E7E7E7E7E7FBFBFBFBFFFFFFFFFFFFFFFFFBFBFBE7E7E7FEFB000000FEFEFEFEFEFEFEFEE7FEFEFEFEFFFFFEFEFEFFFEFEFEFEFEFEFEFEFE0000000000000000000000FEFE
1004
00000000000000000000000000000000000000000000000000000000000000000000000000000000000000000000000000000000000000000000000000000000000000000000000000000000000000000000000000000000000000000000000000000000000000000000000000000000000000000000000000000000000000
1004
00000000000000000000000000000000000000000000000000000000000000000000000000000000000000000000000000000000000000000000000000000000000000000000000000000000000000000000000000000000000000000000000000000000000000000000000000000000000000000000000000000000000000
1004
00000000000000000000000000000000000000000000000000000000000000000000000000000000000000000000000000000000000000000000000000000000000000000000000000000000000000000000000000000000000000000000000000000000000000000000000000000000000000000000000000000000000000
1004
0000000000000000000000000000000000000000000000000000000000000000000000000000000000000000000000000000000000000000
  0
BLOCK_RECORD
  5
C19
330
1
100
AcDbSymbolTableRecord
100
AcDbBlockTableRecord
  2
*D3
  0
BLOCK_RECORD
  5
C25
330
1
100
AcDbSymbolTableRecord
100
AcDbBlockTableRecord
  2
*D4
  0
BLOCK_RECORD
  5
C31
330
1
100
AcDbSymbolTableRecord
100
AcDbBlockTableRecord
  2
*D5
  0
ENDTAB
  0
ENDSEC
  0
SECTION
  2
BLOCKS
  0
BLOCK
  5
1B
330
1A
100
AcDbEntity
  8
0
100
AcDbBlockBegin
  2
*MODEL_SPACE
 70
     0
 10
0.0
 20
0.0
 30
0.0
  3
*MODEL_SPACE
  1

  0
ENDBLK
  5
1C
330
1A
100
AcDbEntity
  8
0
100
AcDbBlockEnd
  0
BLOCK
  5
18
330
17
100
AcDbEntity
 67
     1
  8
0
100
AcDbBlockBegin
  2
*PAPER_SPACE
 70
     0
 10
0.0
 20
0.0
 30
0.0
  3
*PAPER_SPACE
  1

  0
ENDBLK
  5
19
330
17
100
AcDbEntity
 67
     1
  8
0
100
AcDbBlockEnd
  0
BLOCK
  5
598
330
594
100
AcDbEntity
  8
0
100
AcDbBlockBegin
  2
_OPEN
 70
     0
 10
0.0
 20
0.0
 30
0.0
  3
_OPEN
  1

  0
LINE
  5
595
330
594
100
AcDbEntity
  8
0
  6
BYBLOCK
 62
     0
100
AcDbLine
 10
-1.0
 20
0.16666667
 30
0.0
 11
0.0
 21
0.0
 31
0.0
  0
LINE
  5
596
330
594
100
AcDbEntity
  8
0
  6
BYBLOCK
 62
     0
100
AcDbLine
 10
-1.0
 20
-0.16666667
 30
0.0
 11
0.0
 21
0.0
 31
0.0
  0
LINE
  5
597
330
594
100
AcDbEntity
  8
0
  6
BYBLOCK
 62
     0
100
AcDbLine
 10
0.0
 20
0.0
 30
0.0
 11
-1.0
 21
0.0
 31
0.0
  0
ENDBLK
  5
599
330
594
100
AcDbEntity
  8
0
100
AcDbBlockEnd
  0
BLOCK
  5
6E4
330
6E3
100
AcDbEntity
  8
0
100
AcDbBlockBegin
  2
矢印なし
 70
     0
 10
0.0
 20
0.0
 30
0.0
  3
矢印なし
  1

  0
ENDBLK
  5
6E5
330
6E3
100
AcDbEntity
  8
0
100
AcDbBlockEnd
  0
BLOCK
  5
89F
330
762
100
AcDbEntity
  8
0
100
AcDbBlockBegin
  2
1
 70
     0
 10
0.0
 20
0.0
 30
0.0
  3
1
  1

  0
LINE
  5
12F5
330
762
100
AcDbEntity
  8
240
100
AcDbLine
 10
125.0
 20
15.0
 30
0.0
 11
1.97309836
 21
15.0
 31
0.0
  0
LINE
  5
12F6
330
762
100
AcDbEntity
  8
240
100
AcDbLine
 10
125.0
 20
-15.0
 30
0.0
 11
1.97309836
 21
-15.0
 31
0.0
  0
LINE
  5
12F7
330
762
100
AcDbEntity
  8
245
100
AcDbLine
 10
-70.0
 20
0.0
 30
0.0
 11
151.0
 21
0.0
 31
0.0
  0
LINE
  5
12F8
330
762
100
AcDbEntity
  8
240
100
AcDbLine
 10
-54.0
 20
12.5
 30
0.0
 11
-56.5
 21
15.0
 31
0.0
  0
LINE
  5
12F9
330
762
100
AcDbEntity
  8
240
100
AcDbLine
 10
-54.0
 20
-12.5
 30
0.0
 11
-56.5
 21
-15.0
 31
0.0
  0
LINE
  5
12FA
330
762
100
AcDbEntity
  8
240
100
AcDbLine
 10
-69.0
 20
-14.0
 30
0.0
 11
-69.0
 21
0.0
 31
0.0
  0
LINE
  5
12FB
330
762
100
AcDbEntity
  8
240
100
AcDbLine
 10
-68.0
 20
-15.0
 30
0.0
 11
-56.5
 21
-15.0
 31
0.0
  0
ARC
  5
12FC
330
762
100
AcDbEntity
  8
240
100
AcDbCircle
 10
-68.0
 20
-14.0
 30
0.0
 40
1.0
100
AcDbArc
 50
180.0
 51
270.0
  0
ARC
  5
12FD
330
762
100
AcDbEntity
  8
240
100
AcDbCircle
 10
-68.0
 20
14.0
 30
0.0
 40
1.0
100
AcDbArc
 50
90.0
 51
180.0
  0
LINE
  5
12FE
330
762
100
AcDbEntity
  8
240
100
AcDbLine
 10
-69.0
 20
14.0
 30
0.0
 11
-69.0
 21
0.0
 31
0.0
  0
LINE
  5
12FF
330
762
100
AcDbEntity
  8
240
100
AcDbLine
 10
-68.0
 20
15.0
 30
0.0
 11
-56.5
 21
15.0
 31
0.0
  0
LINE
  5
1300
330
762
100
AcDbEntity
  8
241
100
AcDbLine
 10
1.20577137
 20
-15.35874397
 30
0.0
 11
1.20577137
 21
0.0
 31
0.0
  0
LINE
  5
1301
330
762
100
AcDbEntity
  8
241
100
AcDbLine
 10
-6.12626129
 20
-19.5
 30
0.0
 11
-6.12626129
 21
0.0
 31
0.0
  0
LINE
  5
1302
330
762
100
AcDbEntity
  8
241
  6
CONTINUOUS
100
AcDbLine
 10
-7.5
 20
-19.00000001
 30
0.0
 11
-7.5
 21
0.0
 31
0.0
  0
LINE
  5
1303
330
762
100
AcDbEntity
  8
241
100
AcDbLine
 10
0.0
 20
-19.14125603
 30
0.0
 11
0.0
 21
0.0
 31
0.0
  0
LINE
  5
1304
330
762
100
AcDbEntity
  8
241
100
AcDbLine
 10
-2.0
 20
-18.25
 30
0.0
 11
-2.0
 21
0.0
 31
0.0
  0
LINE
  5
1305
330
762
100
AcDbEntity
  8
241
100
AcDbLine
 10
-4.5
 20
-18.25
 30
0.0
 11
-4.5
 21
0.0
 31
0.0
  0
LINE
  5
1306
330
762
100
AcDbEntity
  8
241
100
AcDbLine
 10
-14.5
 20
-15.0
 30
0.0
 11
-14.5
 21
0.0
 31
0.0
  0
LINE
  5
1307
330
762
100
AcDbEntity
  8
241
100
AcDbLine
 10
-19.0
 20
-13.75
 30
0.0
 11
-19.0
 21
0.0
 31
0.0
  0
LINE
  5
1308
330
762
100
AcDbEntity
  8
241
100
AcDbLine
 10
-21.5
 20
-13.75
 30
0.0
 11
-21.5
 21
0.0
 31
0.0
  0
LINE
  5
1309
330
762
100
AcDbEntity
  8
241
100
AcDbLine
 10
-29.5
 20
-13.75
 30
0.0
 11
-29.5
 21
0.0
 31
0.0
  0
LINE
  5
130A
330
762
100
AcDbEntity
  8
241
100
AcDbLine
 10
-32.0
 20
-13.75
 30
0.0
 11
-32.0
 21
0.0
 31
0.0
  0
LINE
  5
130B
330
762
100
AcDbEntity
  8
243
100
AcDbLine
 10
-42.0
 20
-12.5
 30
0.0
 11
-42.0
 21
12.5
 31
0.0
1001
GENIUS_GENOREF_13
1005
0
  0
LINE
  5
130C
330
762
100
AcDbEntity
  8
243
100
AcDbLine
 10
-50.0
 20
-12.5
 30
0.0
 11
-50.0
 21
12.5
 31
0.0
1001
GENIUS_GENOREF_13
1005
0
  0
LINE
  5
130D
330
762
100
AcDbEntity
  8
245
100
AcDbLine
 10
-46.0
 20
-15.0
 30
0.0
 11
-46.0
 21
15.0
 31
0.0
1001
GENIUS_GENOREF_13
1005
0
  0
LINE
  5
130E
330
762
100
AcDbEntity
  8
240
100
AcDbLine
 10
-19.0
 20
-15.0
 30
0.0
 11
-14.5
 21
-15.0
 31
0.0
  0
LINE
  5
130F
330
762
100
AcDbEntity
  8
240
100
AcDbLine
 10
-38.0
 20
-12.5
 30
0.0
 11
-35.5
 21
-15.0
 31
0.0
  0
LINE
  5
1310
330
762
100
AcDbEntity
  8
240
100
AcDbLine
 10
-46.0
 20
-12.5
 30
0.0
 11
-38.0
 21
-12.5
 31
0.0
  0
LINE
  5
1311
330
762
100
AcDbEntity
  8
240
100
AcDbLine
 10
-54.0
 20
-12.5
 30
0.0
 11
-46.0
 21
-12.5
 31
0.0
  0
LINE
  5
1312
330
762
100
AcDbEntity
  8
240
100
AcDbLine
 10
-29.5
 20
-15.0
 30
0.0
 11
-21.5
 21
-15.0
 31
0.0
  0
ARC
  5
1313
330
762
100
AcDbEntity
  8
240
100
AcDbCircle
 10
-30.75
 20
-13.75
 30
0.0
 40
1.24999999999827
100
AcDbArc
 50
180.0
 51
0.0
  0
LINE
  5
1314
330
762
100
AcDbEntity
  8
240
100
AcDbLine
 10
-35.5
 20
-15.0
 30
0.0
 11
-32.0
 21
-15.0
 31
0.0
  0
LINE
  5
1315
330
762
100
AcDbEntity
  8
240
100
AcDbLine
 10
-32.0
 20
-13.75
 30
0.0
 11
-32.0
 21
-15.0
 31
0.0
  0
LINE
  5
1316
330
762
100
AcDbEntity
  8
240
100
AcDbLine
 10
-29.5
 20
-13.75
 30
0.0
 11
-29.5
 21
-15.0
 31
0.0
  0
ARC
  5
1317
330
762
100
AcDbEntity
  8
240
100
AcDbCircle
 10
-20.25
 20
-13.75
 30
0.0
 40
1.249999999998089
100
AcDbArc
 50
180.0
 51
0.0
  0
LINE
  5
1318
330
762
100
AcDbEntity
  8
240
100
AcDbLine
 10
-21.5
 20
-13.75
 30
0.0
 11
-21.5
 21
-15.0
 31
0.0
  0
LINE
  5
1319
330
762
100
AcDbEntity
  8
240
100
AcDbLine
 10
-19.0
 20
-13.75
 30
0.0
 11
-19.0
 21
-15.0
 31
0.0
  0
LINE
  5
131A
330
762
100
AcDbEntity
  8
240
100
AcDbLine
 10
-7.5
 20
-19.00000001
 30
0.0
 11
-6.12626128
 21
-19.5
 31
0.0
  0
LINE
  5
131B
330
762
100
AcDbEntity
  8
240
100
AcDbLine
 10
-13.0
 20
-15.5
 30
0.0
 11
-13.5
 21
-16.0
 31
0.0
  0
LINE
  5
131C
330
762
100
AcDbEntity
  8
240
100
AcDbLine
 10
-7.50000001
 20
-19.0
 30
0.0
 11
-13.5
 21
-19.0
 31
0.0
  0
LINE
  5
131D
330
762
100
AcDbEntity
  8
240
100
AcDbLine
 10
-13.5
 20
-19.0
 30
0.0
 11
-13.5
 21
-16.0
 31
0.0
  0
LINE
  5
131E
330
762
100
AcDbEntity
  8
241
  6
CONTINUOUS
100
AcDbLine
 10
-7.5
 20
-15.2
 30
0.0
 11
-13.0
 21
-15.2
 31
0.0
  0
LINE
  5
131F
330
762
100
AcDbEntity
  8
240
100
AcDbLine
 10
-13.0
 20
-15.5
 30
0.0
 11
-13.0
 21
-14.7
 31
0.0
  0
LINE
  5
1320
330
762
100
AcDbEntity
  8
240
100
AcDbLine
 10
-14.2
 20
-14.7
 30
0.0
 11
-13.0
 21
-14.7
 31
0.0
  0
LINE
  5
1321
330
762
100
AcDbEntity
  8
240
100
AcDbLine
 10
-14.2
 20
-14.7
 30
0.0
 11
-14.5
 21
-15.0
 31
0.0
  0
LINE
  5
1322
330
762
100
AcDbEntity
  8
240
100
AcDbLine
 10
0.19859884
 20
-18.75881905
 30
0.0
 11
1.00717253
 21
-15.74118096
 31
0.0
  0
ARC
  5
1323
330
762
100
AcDbEntity
  8
240
100
AcDbCircle
 10
-3.25
 20
-18.25
 30
0.0
 40
1.250000000000339
100
AcDbArc
 50
180.0
 51
0.0
  0
LINE
  5
1324
330
762
100
AcDbEntity
  8
240
100
AcDbLine
 10
-4.5
 20
-19.5
 30
0.0
 11
-6.12626129
 21
-19.5
 31
0.0
  0
LINE
  5
1325
330
762
100
AcDbEntity
  8
240
100
AcDbLine
 10
-4.5
 20
-18.25
 30
0.0
 11
-4.5
 21
-19.5
 31
0.0
  0
LINE
  5
1326
330
762
100
AcDbEntity
  8
240
100
AcDbLine
 10
-0.63567449
 20
-19.5
 30
0.0
 11
-2.0
 21
-19.5
 31
0.0
  0
LINE
  5
1327
330
762
100
AcDbEntity
  8
240
100
AcDbLine
 10
-2.0
 20
-18.25
 30
0.0
 11
-2.0
 21
-19.5
 31
0.0
  0
ARC
  5
1328
330
762
100
AcDbEntity
  8
240
100
AcDbCircle
 10
-0.76732699
 20
-18.5
 30
0.0
 40
1.0
100
AcDbArc
 50
285.0
 51
345.0
1001
GENIUS_GENOBJ-N-FIL_13
1002
{
1000
OWNER
1000
GEN
1002
}
1001
GENIUS_GENODEF_13
1002
{
1000
HIER
1070
     0
1002
}
1002
{
1000
MANEDIT
1070
     0
1002
}
1002
{
1000
NOSEL
1070
     0
1002
}
1002
{
1000
BEHIND
1070
     0
1002
}
1002
{
1000
OTHER
1070
     0
1002
}
1002
{
1000
REACTOR
1002
}
  0
LINE
  5
1329
330
762
100
AcDbEntity
  8
240
100
AcDbLine
 10
-0.50850794
 20
-19.46592583
 30
0.0
 11
-0.63567449
 21
-19.5
 31
0.0
  0
ARC
  5
132A
330
762
100
AcDbEntity
  8
240
100
AcDbCircle
 10
1.97309836
 20
-16.0
 30
0.0
 40
1.0
100
AcDbArc
 50
90.0
 51
165.00000002
  0
LINE
  5
132B
330
762
100
AcDbEntity
  8
240
100
AcDbLine
 10
-19.0
 20
15.0
 30
0.0
 11
-14.5
 21
15.0
 31
0.0
  0
LINE
  5
132C
330
762
100
AcDbEntity
  8
240
100
AcDbLine
 10
-38.0
 20
12.5
 30
0.0
 11
-35.5
 21
15.0
 31
0.0
  0
LINE
  5
132D
330
762
100
AcDbEntity
  8
240
100
AcDbLine
 10
-46.0
 20
12.5
 30
0.0
 11
-38.0
 21
12.5
 31
0.0
  0
LINE
  5
132E
330
762
100
AcDbEntity
  8
240
100
AcDbLine
 10
-54.0
 20
12.5
 30
0.0
 11
-46.0
 21
12.5
 31
0.0
  0
LINE
  5
132F
330
762
100
AcDbEntity
  8
241
100
AcDbLine
 10
-32.0
 20
13.75
 30
0.0
 11
-32.0
 21
0.0
 31
0.0
  0
LINE
  5
1330
330
762
100
AcDbEntity
  8
241
100
AcDbLine
 10
-29.5
 20
13.75
 30
0.0
 11
-29.5
 21
0.0
 31
0.0
  0
LINE
  5
1331
330
762
100
AcDbEntity
  8
241
100
AcDbLine
 10
-21.5
 20
13.75
 30
0.0
 11
-21.5
 21
0.0
 31
0.0
  0
LINE
  5
1332
330
762
100
AcDbEntity
  8
241
100
AcDbLine
 10
-19.0
 20
13.75
 30
0.0
 11
-19.0
 21
0.0
 31
0.0
  0
ELLIPSE
  5
1333
330
762
100
AcDbEntity
  8
241
100
AcDbEllipse
 10
-25.5000349
 20
-5.08449496
 30
0.0
 11
-2.000524505802109
 21
0.0
 31
0.0
210
0.0
220
0.0
230
1.0
 40
0.93944625
 41
0.0
 42
6.283185307179584
  0
LINE
  5
1334
330
762
100
AcDbEntity
  8
245
100
AcDbLine
 10
-27.4999651
 20
-5.13030215
 30
0.0
 11
-23.5000349
 21
-5.13030215
 31
0.0
  0
LINE
  5
1335
330
762
100
AcDbEntity
  8
245
100
AcDbLine
 10
-25.5000349
 20
-3.20510972
 30
0.0
 11
-25.5000349
 21
-6.96388021
 31
0.0
  0
LINE
  5
1336
330
762
100
AcDbEntity
  8
240
100
AcDbLine
 10
-29.5
 20
15.0
 30
0.0
 11
-21.5
 21
15.0
 31
0.0
  0
ARC
  5
1337
330
762
100
AcDbEntity
  8
240
100
AcDbCircle
 10
-30.75
 20
13.75
 30
0.0
 40
1.24999999999827
100
AcDbArc
 50
0.0
 51
180.0
  0
LINE
  5
1338
330
762
100
AcDbEntity
  8
240
100
AcDbLine
 10
-35.5
 20
15.0
 30
0.0
 11
-32.0
 21
15.0
 31
0.0
  0
LINE
  5
1339
330
762
100
AcDbEntity
  8
240
100
AcDbLine
 10
-32.0
 20
13.75
 30
0.0
 11
-32.0
 21
15.0
 31
0.0
  0
LINE
  5
133A
330
762
100
AcDbEntity
  8
240
100
AcDbLine
 10
-29.5
 20
13.75
 30
0.0
 11
-29.5
 21
15.0
 31
0.0
  0
ARC
  5
133B
330
762
100
AcDbEntity
  8
240
100
AcDbCircle
 10
-20.25
 20
13.75
 30
0.0
 40
1.249999999998089
100
AcDbArc
 50
0.0
 51
180.0
  0
LINE
  5
133C
330
762
100
AcDbEntity
  8
240
100
AcDbLine
 10
-21.5
 20
13.75
 30
0.0
 11
-21.5
 21
15.0
 31
0.0
  0
LINE
  5
133D
330
762
100
AcDbEntity
  8
240
100
AcDbLine
 10
-19.0
 20
13.75
 30
0.0
 11
-19.0
 21
15.0
 31
0.0
  0
LINE
  5
133E
330
762
100
AcDbEntity
  8
241
100
AcDbLine
 10
-4.5
 20
18.25
 30
0.0
 11
-4.5
 21
0.0
 31
0.0
  0
LINE
  5
133F
330
762
100
AcDbEntity
  8
241
100
AcDbLine
 10
-2.0
 20
18.25
 30
0.0
 11
-2.0
 21
0.0
 31
0.0
  0
LINE
  5
1340
330
762
100
AcDbEntity
  8
241
100
AcDbLine
 10
0.0
 20
19.14125603
 30
0.0
 11
0.0
 21
0.0
 31
0.0
  0
LINE
  5
1341
330
762
100
AcDbEntity
  8
241
  6
CONTINUOUS
100
AcDbLine
 10
-7.5
 20
19.00000001
 30
0.0
 11
-7.5
 21
0.0
 31
0.0
  0
LINE
  5
1342
330
762
100
AcDbEntity
  8
241
100
AcDbLine
 10
-6.12626129
 20
19.5
 30
0.0
 11
-6.12626129
 21
0.0
 31
0.0
  0
LINE
  5
1343
330
762
100
AcDbEntity
  8
241
100
AcDbLine
 10
1.20577137
 20
15.35874397
 30
0.0
 11
1.20577137
 21
0.0
 31
0.0
  0
ARC
  5
1344
330
762
100
AcDbEntity
  8
240
100
AcDbCircle
 10
1.97309836
 20
16.0
 30
0.0
 40
1.0
100
AcDbArc
 50
194.99999998
 51
270.0
  0
LINE
  5
1345
330
762
100
AcDbEntity
  8
240
100
AcDbLine
 10
-13.0
 20
15.5
 30
0.0
 11
-13.0
 21
14.7
 31
0.0
  0
LINE
  5
1346
330
762
100
AcDbEntity
  8
241
100
AcDbLine
 10
-14.5
 20
15.0
 30
0.0
 11
-14.5
 21
0.0
 31
0.0
  0
LINE
  5
1347
330
762
100
AcDbEntity
  8
240
100
AcDbLine
 10
-14.2
 20
14.7
 30
0.0
 11
-14.5
 21
15.0
 31
0.0
  0
LINE
  5
1348
330
762
100
AcDbEntity
  8
240
100
AcDbLine
 10
-14.2
 20
14.7
 30
0.0
 11
-13.0
 21
14.7
 31
0.0
  0
LINE
  5
1349
330
762
100
AcDbEntity
  8
240
100
AcDbLine
 10
-7.5
 20
19.00000001
 30
0.0
 11
-6.12626128
 21
19.5
 31
0.0
  0
LINE
  5
134A
330
762
100
AcDbEntity
  8
241
  6
CONTINUOUS
100
AcDbLine
 10
-7.5
 20
15.2
 30
0.0
 11
-13.0
 21
15.2
 31
0.0
  0
LINE
  5
134B
330
762
100
AcDbEntity
  8
240
100
AcDbLine
 10
-7.50000001
 20
19.0
 30
0.0
 11
-13.5
 21
19.0
 31
0.0
  0
LINE
  5
134C
330
762
100
AcDbEntity
  8
240
100
AcDbLine
 10
-13.5
 20
19.0
 30
0.0
 11
-13.5
 21
16.0
 31
0.0
  0
LINE
  5
134D
330
762
100
AcDbEntity
  8
240
100
AcDbLine
 10
-13.0
 20
15.5
 30
0.0
 11
-13.5
 21
16.0
 31
0.0
  0
ARC
  5
134E
330
762
100
AcDbEntity
  8
240
100
AcDbCircle
 10
-3.25
 20
18.25
 30
0.0
 40
1.250000000000339
100
AcDbArc
 50
0.0
 51
180.0
  0
LINE
  5
134F
330
762
100
AcDbEntity
  8
240
100
AcDbLine
 10
-4.5
 20
18.25
 30
0.0
 11
-4.5
 21
19.5
 31
0.0
  0
LINE
  5
1350
330
762
100
AcDbEntity
  8
240
100
AcDbLine
 10
-4.5
 20
19.5
 30
0.0
 11
-6.12626129
 21
19.5
 31
0.0
  0
LINE
  5
1351
330
762
100
AcDbEntity
  8
240
100
AcDbLine
 10
-0.50850794
 20
19.46592583
 30
0.0
 11
-0.63567449
 21
19.5
 31
0.0
  0
ARC
  5
1352
330
762
100
AcDbEntity
  8
240
100
AcDbCircle
 10
-0.76732699
 20
18.5
 30
0.0
 40
1.0
100
AcDbArc
 50
15.0
 51
75.0
1001
GENIUS_GENOBJ-N-FIL_13
1002
{
1000
OWNER
1000
GEN
1002
}
1001
GENIUS_GENODEF_13
1002
{
1000
HIER
1070
     0
1002
}
1002
{
1000
MANEDIT
1070
     0
1002
}
1002
{
1000
NOSEL
1070
     0
1002
}
1002
{
1000
BEHIND
1070
     0
1002
}
1002
{
1000
OTHER
1070
     0
1002
}
1002
{
1000
REACTOR
1002
}
  0
LINE
  5
1353
330
762
100
AcDbEntity
  8
240
100
AcDbLine
 10
-2.0
 20
18.25
 30
0.0
 11
-2.0
 21
19.5
 31
0.0
  0
LINE
  5
1354
330
762
100
AcDbEntity
  8
240
100
AcDbLine
 10
-0.63567449
 20
19.5
 30
0.0
 11
-2.0
 21
19.5
 31
0.0
  0
LINE
  5
1355
330
762
100
AcDbEntity
  8
240
100
AcDbLine
 10
0.19859884
 20
18.75881905
 30
0.0
 11
1.00717253
 21
15.74118096
 31
0.0
  0
TEXT
  5
1356
330
762
100
AcDbEntity
  8
0
100
AcDbText
 10
48.59041138
 20
4.66707804
 30
0.0
 40
3.0
  1
MGT20-P3/8-150
  7
YOKO
100
AcDbText
  0
ARC
  5
1357
330
762
100
AcDbEntity
  8
0
100
AcDbCircle
 10
39.98530974
 20
7.14527829
 30
0.0
 40
0.9093873023986816
100
AcDbArc
 50
287.66957755
 51
90.23615984
  0
LINE
  5
1358
330
762
100
AcDbEntity
  8
0
100
AcDbLine
 10
40.66962065
 20
4.78086899
 30
0.0
 11
41.49363646
 21
7.6545358
 31
0.0
  0
LINE
  5
1359
330
762
100
AcDbEntity
  8
0
100
AcDbLine
 10
41.49363646
 20
7.6545358
 30
0.0
 11
40.66962065
 21
4.78086899
 31
0.0
1001
HATCH_DISTANCE
1040
1.0
1001
HATCH_DISPLAY
1070
     0
1001
HATCH_TYPE
1070
     7
  0
LINE
  5
135A
330
762
100
AcDbEntity
  8
0
100
AcDbLine
 10
41.49363646
 20
7.6545358
 30
0.0
 11
40.66962065
 21
4.78086899
 31
0.0
  0
LINE
  5
135B
330
762
100
AcDbEntity
  8
0
100
AcDbLine
 10
41.0009848
 20
5.93646591
 30
0.0
 11
42.14165481
 21
7.07713591
 31
0.0
  0
LINE
  5
135C
330
762
100
AcDbEntity
  8
0
100
AcDbLine
 10
37.86769499
 20
4.59899033
 30
0.0
 11
45.25192199
 21
4.59899033
 31
0.0
  0
LINE
  5
135D
330
762
100
AcDbEntity
  8
0
100
AcDbLine
 10
37.86769499
 20
4.23523301
 30
0.0
 11
45.25192199
 21
4.23523301
 31
0.0
  0
LINE
  5
135E
330
762
100
AcDbEntity
  8
0
100
AcDbLine
 10
40.66962065
 20
4.78086899
 30
0.0
 11
41.48321319
 21
4.78086899
 31
0.0
  0
LINE
  5
135F
330
762
100
AcDbEntity
  8
0
100
AcDbLine
 10
40.66962065
 20
4.78086899
 30
0.0
 11
41.48321319
 21
4.78086899
 31
0.0
1001
HATCH_DISTANCE
1040
1.0
1001
HATCH_DISPLAY
1070
     0
1001
HATCH_TYPE
1070
     7
  0
LINE
  5
1360
330
762
100
AcDbEntity
  8
0
100
AcDbLine
 10
40.66962065
 20
4.78086899
 30
0.0
 11
41.48321319
 21
4.78086899
 31
0.0
  0
LINE
  5
1361
330
762
100
AcDbEntity
  8
0
100
AcDbLine
 10
40.67605701
 20
4.80331506
 30
0.0
 11
41.81673145
 21
5.94398951
 31
0.0
  0
LINE
  5
1362
330
762
100
AcDbEntity
  8
0
100
AcDbLine
 10
40.8385209
 20
5.36989049
 30
0.0
 11
41.97919313
 21
6.51056272
 31
0.0
  0
LINE
  5
1363
330
762
100
AcDbEntity
  8
0
100
AcDbLine
 10
40.91619799
 20
4.23523301
 30
0.0
 11
41.27995531
 21
4.59899033
 31
0.0
  0
LINE
  5
1364
330
762
100
AcDbEntity
  8
0
100
AcDbLine
 10
36.0149772
 20
6.60801967
 30
0.0
 11
37.40462097
 21
7.99766344
 31
0.0
  0
LINE
  5
1365
330
762
100
AcDbEntity
  8
0
100
AcDbLine
 10
35.95798379
 20
6.14691473
 30
0.0
 11
36.38142306
 21
6.570354
 31
0.0
  0
ARC
  5
1366
330
762
100
AcDbEntity
  8
0
100
AcDbCircle
 10
37.86769499
 20
6.14494565
 30
0.0
 40
1.909712219238279
100
AcDbArc
 50
90.0
 51
270.0
  0
LINE
  5
1367
330
762
100
AcDbEntity
  8
0
100
AcDbLine
 10
36.21371034
 20
5.19030671
 30
0.0
 11
36.48230154
 21
5.45889791
 31
0.0
  0
LINE
  5
1368
330
762
100
AcDbEntity
  8
0
100
AcDbLine
 10
36.08345028
 20
5.46415818
 30
0.0
 11
36.3722589
 21
5.75296679
 31
0.0
  0
LINE
  5
1369
330
762
100
AcDbEntity
  8
0
100
AcDbLine
 10
35.99350467
 20
5.77832409
 30
0.0
 11
36.32220526
 21
6.10702468
 31
0.0
  0
LINE
  5
136A
330
762
100
AcDbEntity
  8
0
100
AcDbLine
 10
39.70386342
 20
4.23523301
 30
0.0
 11
40.06762074
 21
4.59899033
 31
0.0
  0
LINE
  5
136B
330
762
100
AcDbEntity
  8
0
100
AcDbLine
 10
39.38125306
 20
6.22639242
 30
0.0
 11
39.08315313
 21
5.18675737
 31
0.0
  0
LINE
  5
136C
330
762
100
AcDbEntity
  8
0
100
AcDbLine
 10
38.6330533
 20
4.78086899
 30
0.0
 11
39.10092629
 21
5.24874197
 31
0.0
  0
LINE
  5
136D
330
762
100
AcDbEntity
  8
0
100
AcDbLine
 10
38.89564037
 20
4.23523301
 30
0.0
 11
39.25939769
 21
4.59899033
 31
0.0
  0
LINE
  5
136E
330
762
100
AcDbEntity
  8
0
100
AcDbLine
 10
38.49152885
 20
4.23523301
 30
0.0
 11
38.85528616
 21
4.59899033
 31
0.0
  0
LINE
  5
136F
330
762
100
AcDbEntity
  8
0
100
AcDbLine
 10
39.2997519
 20
4.23523301
 30
0.0
 11
39.66350921
 21
4.59899033
 31
0.0
  0
ARC
  5
1370
330
762
100
AcDbEntity
  8
0
100
AcDbCircle
 10
39.16226897
 20
5.72662747
 30
0.0
 40
0.5456363618373872
100
AcDbArc
 50
261.66285421
 51
66.33819216
  0
LINE
  5
1371
330
762
100
AcDbEntity
  8
0
100
AcDbLine
 10
39.03716482
 20
4.78086899
 30
0.0
 11
40.37187315
 21
6.11557732
 31
0.0
  0
LINE
  5
1372
330
762
100
AcDbEntity
  8
0
100
AcDbLine
 10
39.44127635
 20
4.78086899
 30
0.0
 11
40.46965081
 21
5.80924344
 31
0.0
  0
LINE
  5
1373
330
762
100
AcDbEntity
  8
0
100
AcDbLine
 10
37.86769499
 20
7.69090055
 30
0.0
 11
38.51459746
 21
7.69090055
 31
0.0
  0
LINE
  5
1374
330
762
100
AcDbEntity
  8
0
100
AcDbLine
 10
37.86769499
 20
8.05465787
 30
0.0
 11
38.61889891
 21
8.05465787
 31
0.0
  0
LINE
  5
1375
330
762
100
AcDbEntity
  8
0
100
AcDbLine
 10
37.90608113
 20
7.69090055
 30
0.0
 11
38.26983845
 21
8.05465787
 31
0.0
  0
LINE
  5
1376
330
762
100
AcDbEntity
  8
0
100
AcDbLine
 10
37.44228664
 20
7.63121759
 30
0.0
 11
37.86572591
 21
8.05465685
 31
0.0
  0
LINE
  5
1377
330
762
100
AcDbEntity
  8
0
100
AcDbLine
 10
39.87563683
 20
7.63989862
 30
0.0
 11
40.25078981
 21
8.01505159
 31
0.0
  0
LINE
  5
1378
330
762
100
AcDbEntity
  8
0
100
AcDbLine
 10
40.06683677
 20
7.42698703
 30
0.0
 11
40.52041528
 21
7.88056554
 31
0.0
  0
LINE
  5
1379
330
762
100
AcDbEntity
  8
0
100
AcDbLine
 10
40.11346013
 20
7.06949887
 30
0.0
 11
40.7221729
 21
7.67821164
 31
0.0
  0
LINE
  5
137A
330
762
100
AcDbEntity
  8
0
100
AcDbLine
 10
38.31019265
 20
7.69090055
 30
0.0
 11
38.59676835
 21
7.97747623
 31
0.0
  0
LINE
  5
137B
330
762
100
AcDbEntity
  8
0
100
AcDbLine
 10
38.61889891
 20
8.05465787
 30
0.0
 11
38.51459746
 21
7.69090055
 31
0.0
  0
LINE
  5
137C
330
762
100
AcDbEntity
  8
0
100
AcDbLine
 10
38.70379577
 20
7.69090055
 30
0.0
 11
38.8930078
 21
7.69090055
 31
0.0
  0
LINE
  5
137D
330
762
100
AcDbEntity
  8
0
100
AcDbLine
 10
38.80809721
 20
8.05465787
 30
0.0
 11
38.70379577
 21
7.69090055
 31
0.0
  0
LINE
  5
137E
330
762
100
AcDbEntity
  8
0
100
AcDbLine
 10
38.8023883
 20
7.37487313
 30
0.0
 11
39.48217302
 21
8.05465787
 31
0.0
  0
LINE
  5
137F
330
762
100
AcDbEntity
  8
0
100
AcDbLine
 10
38.71430418
 20
7.69090055
 30
0.0
 11
39.0780615
 21
8.05465787
 31
0.0
  0
LINE
  5
1380
330
762
100
AcDbEntity
  8
0
100
AcDbLine
 10
38.80809721
 20
8.05465787
 30
0.0
 11
39.98156147
 21
8.05465787
 31
0.0
  0
LINE
  5
1381
330
762
100
AcDbEntity
  8
0
100
AcDbLine
 10
39.79846827
 20
7.68139284
 30
0.0
 11
39.50037323
 21
6.64178863
 31
0.0
  0
LINE
  5
1382
330
762
100
AcDbEntity
  8
0
100
AcDbLine
 10
38.63992555
 20
6.80829887
 30
0.0
 11
39.88628455
 21
8.05465787
 31
0.0
  0
LINE
  5
1383
330
762
100
AcDbEntity
  8
0
100
AcDbLine
 10
39.69532114
 20
5.84313683
 30
0.0
 11
40.88809674
 21
7.03591243
 31
0.0
  0
LINE
  5
1384
330
762
100
AcDbEntity
  8
0
100
AcDbLine
 10
39.55425772
 20
6.10618493
 30
0.0
 11
40.85595556
 21
7.40788278
 31
0.0
  0
LINE
  5
1385
330
762
100
AcDbEntity
  8
0
100
AcDbLine
 10
38.05856872
 20
4.78086899
 30
0.0
 11
38.8930078
 21
7.69090055
 31
0.0
  0
ARC
  5
1386
330
762
100
AcDbEntity
  8
0
100
AcDbCircle
 10
37.86769499
 20
6.14494565
 30
0.0
 40
1.545954895019525
100
AcDbArc
 50
90.0
 51
270.0
  0
LINE
  5
1387
330
762
100
AcDbEntity
  8
0
100
AcDbLine
 10
38.31500005
 20
5.67515032
 30
0.0
 11
39.58830711
 21
6.94845737
 31
0.0
  0
LINE
  5
1388
330
762
100
AcDbEntity
  8
0
100
AcDbLine
 10
38.15253731
 20
5.10857605
 30
0.0
 11
39.69163267
 21
6.64767142
 31
0.0
  0
LINE
  5
1389
330
762
100
AcDbEntity
  8
0
100
AcDbLine
 10
38.4774628
 20
6.24172459
 30
0.0
 11
39.75076449
 21
7.51502628
 31
0.0
  0
ARC
  5
138A
330
762
100
AcDbEntity
  8
0
100
AcDbCircle
 10
39.57948851
 20
7.18164304
 30
0.0
 40
0.5456207513809207
100
AcDbArc
 50
261.66260169
 51
66.3381551
  0
LINE
  5
138B
330
762
100
AcDbEntity
  8
0
100
AcDbLine
 10
38.22894178
 20
4.78086899
 30
0.0
 11
39.26338066
 21
5.81530787
 31
0.0
  0
LINE
  5
138C
330
762
100
AcDbEntity
  8
0
100
AcDbLine
 10
38.08741732
 20
4.23523301
 30
0.0
 11
38.45117464
 21
4.59899033
 31
0.0
  0
LINE
  5
138D
330
762
100
AcDbEntity
  8
0
100
AcDbLine
 10
38.05856872
 20
4.78086899
 30
0.0
 11
39.5680902
 21
4.78086899
 31
0.0
  0
LINE
  5
138E
330
762
100
AcDbEntity
  8
0
100
AcDbLine
 10
37.05611445
 20
4.41626471
 30
0.0
 11
37.3339146
 21
4.69406487
 31
0.0
  0
LINE
  5
138F
330
762
100
AcDbEntity
  8
0
100
AcDbLine
 10
36.79840249
 20
4.56266429
 30
0.0
 11
37.06155173
 21
4.82581353
 31
0.0
  0
LINE
  5
1390
330
762
100
AcDbEntity
  8
0
100
AcDbLine
 10
36.57286097
 20
4.74123429
 30
0.0
 11
36.83033483
 21
4.99870815
 31
0.0
  0
LINE
  5
1391
330
762
100
AcDbEntity
  8
0
100
AcDbLine
 10
36.37780014
 20
4.95028499
 30
0.0
 11
36.6369355
 21
5.20942035
 31
0.0
  0
LINE
  5
1392
330
762
100
AcDbEntity
  8
0
100
AcDbLine
 10
37.69145579
 20
4.243383
 30
0.0
 11
38.04706311
 21
4.59899033
 31
0.0
  0
LINE
  5
1393
330
762
100
AcDbEntity
  8
0
100
AcDbLine
 10
37.3505488
 20
4.30658753
 30
0.0
 11
37.65733135
 21
4.6133701
 31
0.0
  0
ARC
  5
1394
330
762
100
AcDbEntity
  8
0
100
AcDbCircle
 10
39.5680902
 20
5.69024899
 30
0.0
 40
0.9093795776367187
100
AcDbArc
 50
270.0
 51
40.32984065
  0
LINE
  5
1395
330
762
100
AcDbEntity
  8
0
100
AcDbLine
 10
39.91356894
 20
4.84905005
 30
0.0
 11
40.40928913
 21
5.34477025
 31
0.0
  0
LINE
  5
1396
330
762
100
AcDbEntity
  8
0
100
AcDbLine
 10
40.51208647
 20
4.23523301
 30
0.0
 11
40.87584379
 21
4.59899033
 31
0.0
  0
LINE
  5
1397
330
762
100
AcDbEntity
  8
0
100
AcDbLine
 10
40.10797494
 20
4.23523301
 30
0.0
 11
40.47173226
 21
4.59899033
 31
0.0
  0
LINE
  5
1398
330
762
100
AcDbEntity
  8
0
100
AcDbLine
 10
45.36476182
 20
4.23857004
 30
0.0
 11
45.84238709
 21
4.71619533
 31
0.0
  0
LINE
  5
1399
330
762
100
AcDbEntity
  8
0
100
AcDbLine
 10
45.55433353
 20
7.66103397
 30
0.0
 11
45.85142002
 21
7.95812045
 31
0.0
  0
ARC
  5
139A
330
762
100
AcDbEntity
  8
0
100
AcDbCircle
 10
45.25192199
 20
6.14494565
 30
0.0
 40
1.545954895019525
100
AcDbArc
 50
270.0
 51
104.1274365
  0
ARC
  5
139B
330
762
100
AcDbEntity
  8
0
100
AcDbCircle
 10
45.25192199
 20
6.14494565
 30
0.0
 40
1.909712219238279
100
AcDbArc
 50
270.0
 51
104.77079397
  0
ARC
  5
139C
330
762
100
AcDbEntity
  8
0
100
AcDbCircle
 10
43.33464293
 20
5.56294492
 30
0.0
 40
0.3819447398185731
100
AcDbArc
 50
164.00027306
 51
344.00027306
  0
LINE
  5
139D
330
762
100
AcDbEntity
  8
0
100
AcDbLine
 10
43.70179229
 20
5.45766843
 30
0.0
 11
43.93537535
 21
6.27226345
 31
0.0
  0
LINE
  5
139E
330
762
100
AcDbEntity
  8
0
100
AcDbLine
 10
43.63264708
 20
6.27226345
 30
0.0
 11
43.93537535
 21
6.27226345
 31
0.0
  0
LINE
  5
139F
330
762
100
AcDbEntity
  8
0
100
AcDbLine
 10
43.10841555
 20
4.81100446
 30
0.0
 11
43.5354726
 21
5.2380615
 31
0.0
  0
LINE
  5
13A0
330
762
100
AcDbEntity
  8
0
100
AcDbLine
 10
42.81467685
 20
4.92137729
 30
0.0
 11
43.13230086
 21
5.23900129
 31
0.0
  0
LINE
  5
13A1
330
762
100
AcDbEntity
  8
0
100
AcDbLine
 10
42.57795081
 20
5.08876277
 30
0.0
 11
42.96319689
 21
5.47400885
 31
0.0
  0
LINE
  5
13A2
330
762
100
AcDbEntity
  8
0
100
AcDbLine
 10
41.46183397
 20
4.78086899
 30
0.0
 11
41.49180809
 21
4.81084311
 31
0.0
  0
ARC
  5
13A3
330
762
100
AcDbEntity
  8
0
100
AcDbCircle
 10
43.37369933
 20
5.96306699
 30
0.0
 40
1.182211303710936
100
AcDbArc
 50
163.9997507
 51
304.96387329
  0
LINE
  5
13A4
330
762
100
AcDbEntity
  8
0
100
AcDbLine
 10
42.39097317
 20
5.30589665
 30
0.0
 11
43.05360605
 21
5.96852953
 31
0.0
  0
LINE
  5
13A5
330
762
100
AcDbEntity
  8
0
100
AcDbLine
 10
42.25672991
 20
5.57576493
 30
0.0
 11
43.21606985
 21
6.53510487
 31
0.0
  0
LINE
  5
13A6
330
762
100
AcDbEntity
  8
0
100
AcDbLine
 10
43.34086715
 20
4.23523301
 30
0.0
 11
43.70462447
 21
4.59899033
 31
0.0
  0
LINE
  5
13A7
330
762
100
AcDbEntity
  8
0
100
AcDbLine
 10
42.93675563
 20
4.23523301
 30
0.0
 11
43.30051294
 21
4.59899033
 31
0.0
  0
LINE
  5
13A8
330
762
100
AcDbEntity
  8
0
100
AcDbLine
 10
42.5326441
 20
4.23523301
 30
0.0
 11
42.89640142
 21
4.59899033
 31
0.0
  0
LINE
  5
13A9
330
762
100
AcDbEntity
  8
0
100
AcDbLine
 10
42.12853258
 20
4.23523301
 30
0.0
 11
42.49228989
 21
4.59899033
 31
0.0
  0
LINE
  5
13AA
330
762
100
AcDbEntity
  8
0
100
AcDbLine
 10
41.72442105
 20
4.23523301
 30
0.0
 11
42.08817837
 21
4.59899033
 31
0.0
  0
LINE
  5
13AB
330
762
100
AcDbEntity
  8
0
100
AcDbLine
 10
41.32030953
 20
4.23523301
 30
0.0
 11
41.68406683
 21
4.59899033
 31
0.0
  0
LINE
  5
13AC
330
762
100
AcDbEntity
  8
0
100
AcDbLine
 10
44.55320172
 20
4.23523301
 30
0.0
 11
44.91695904
 21
4.59899033
 31
0.0
  0
LINE
  5
13AD
330
762
100
AcDbEntity
  8
0
100
AcDbLine
 10
44.1490902
 20
4.23523301
 30
0.0
 11
44.51284752
 21
4.59899033
 31
0.0
  0
LINE
  5
13AE
330
762
100
AcDbEntity
  8
0
100
AcDbLine
 10
44.95731325
 20
4.23523301
 30
0.0
 11
45.32269167
 21
4.60061142
 31
0.0
  0
LINE
  5
13AF
330
762
100
AcDbEntity
  8
0
100
AcDbLine
 10
43.73694853
 20
6.63602079
 30
0.0
 11
44.79651121
 21
6.63602079
 31
0.0
  0
ARC
  5
13B0
330
762
100
AcDbEntity
  8
0
100
AcDbCircle
 10
43.82488036
 20
7.27258236
 30
0.0
 40
0.3819450080394744
100
AcDbArc
 50
1.71012138
 51
163.99839835
  0
LINE
  5
13B1
330
762
100
AcDbEntity
  8
0
100
AcDbLine
 10
43.91948022
 20
7.64262676
 30
0.0
 11
44.19185923
 21
7.91500577
 31
0.0
  0
ARC
  5
13B2
330
762
100
AcDbEntity
  8
0
100
AcDbCircle
 10
43.63445982
 20
6.8724603
 30
0.0
 40
1.182199287414549
100
AcDbArc
 50
53.4440122
 51
164.00018439
  0
LINE
  5
13B3
330
762
100
AcDbEntity
  8
0
100
AcDbLine
 10
41.32591258
 20
7.06961675
 30
0.0
 11
42.31095371
 21
8.05465787
 31
0.0
  0
LINE
  5
13B4
330
762
100
AcDbEntity
  8
0
100
AcDbLine
 10
41.48837647
 20
7.63619217
 30
0.0
 11
41.90684218
 21
8.05465787
 31
0.0
  0
LINE
  5
13B5
330
762
100
AcDbEntity
  8
0
100
AcDbLine
 10
41.46514219
 20
8.01706941
 30
0.0
 11
41.50273066
 21
8.05465787
 31
0.0
  0
LINE
  5
13B6
330
762
100
AcDbEntity
  8
0
100
AcDbLine
 10
41.36118255
 20
7.6545358
 30
0.0
 11
41.49363646
 21
7.6545358
 31
0.0
  0
LINE
  5
13B7
330
762
100
AcDbEntity
  8
0
100
AcDbLine
 10
41.36118255
 20
7.6545358
 30
0.0
 11
41.47592101
 21
8.05465787
 31
0.0
  0
LINE
  5
13B8
330
762
100
AcDbEntity
  8
0
100
AcDbLine
 10
41.47592101
 20
8.05465787
 30
0.0
 11
41.36118255
 21
7.6545358
 31
0.0
1001
HATCH_DISTANCE
1040
1.0
1001
HATCH_DISPLAY
1070
     0
1001
HATCH_TYPE
1070
     7
  0
LINE
  5
13B9
330
762
100
AcDbEntity
  8
0
100
AcDbLine
 10
41.36118255
 20
7.6545358
 30
0.0
 11
41.49363646
 21
7.6545358
 31
0.0
1001
HATCH_DISTANCE
1040
1.0
1001
HATCH_DISPLAY
1070
     0
1001
HATCH_TYPE
1070
     7
  0
LINE
  5
13BA
330
762
100
AcDbEntity
  8
0
100
AcDbLine
 10
41.47592101
 20
8.05465787
 30
0.0
 11
41.36118255
 21
7.6545358
 31
0.0
  0
LINE
  5
13BB
330
762
100
AcDbEntity
  8
0
100
AcDbLine
 10
41.36118255
 20
7.6545358
 30
0.0
 11
41.49363646
 21
7.6545358
 31
0.0
  0
LINE
  5
13BC
330
762
100
AcDbEntity
  8
0
100
AcDbLine
 10
41.47592101
 20
8.05465787
 30
0.0
 11
42.42195372
 21
8.05465787
 31
0.0
  0
LINE
  5
13BD
330
762
100
AcDbEntity
  8
0
100
AcDbLine
 10
42.38386444
 20
6.91523403
 30
0.0
 11
43.51748902
 21
8.04885861
 31
0.0
  0
LINE
  5
13BE
330
762
100
AcDbEntity
  8
0
100
AcDbLine
 10
42.42195372
 20
8.05465787
 30
0.0
 11
41.47592101
 21
8.05465787
 31
0.0
1001
HATCH_DISTANCE
1040
1.0
1001
HATCH_DISPLAY
1070
     0
1001
HATCH_TYPE
1070
     7
  0
LINE
  5
13BF
330
762
100
AcDbEntity
  8
0
100
AcDbLine
 10
42.42195372
 20
8.05465787
 30
0.0
 11
41.47592101
 21
8.05465787
 31
0.0
  0
LINE
  5
13C0
330
762
100
AcDbEntity
  8
0
100
AcDbLine
 10
44.83973646
 20
7.75465995
 30
0.0
 11
45.13622659
 21
8.05115008
 31
0.0
  0
LINE
  5
13C1
330
762
100
AcDbEntity
  8
0
100
AcDbLine
 10
44.87458282
 20
7.64415372
 30
0.0
 11
44.76503539
 21
7.99155515
 31
0.0
  0
ARC
  5
13C2
330
762
100
AcDbEntity
  8
0
100
AcDbCircle
 10
45.25192199
 20
6.14494565
 30
0.0
 40
1.909713077545161
100
AcDbArc
 50
110.22964506
 51
118.57168892
  0
ARC
  5
13C3
330
762
100
AcDbEntity
  8
0
100
AcDbCircle
 10
45.25192199
 20
6.14494565
 30
0.0
 40
1.545959186553949
100
AcDbArc
 50
110.8721834
 51
132.54194894
  0
LINE
  5
13C4
330
762
100
AcDbEntity
  8
0
100
AcDbLine
 10
44.70112242
 20
7.58945554
 30
0.0
 11
44.591575
 21
7.93685697
 31
0.0
  0
LINE
  5
13C5
330
762
100
AcDbEntity
  8
0
100
AcDbLine
 10
44.65687493
 20
7.57179841
 30
0.0
 11
44.69474773
 21
7.60967122
 31
0.0
  0
LINE
  5
13C6
330
762
100
AcDbEntity
  8
0
100
AcDbLine
 10
44.15151558
 20
7.4705506
 30
0.0
 11
44.59786735
 21
7.91690237
 31
0.0
  0
LINE
  5
13C7
330
762
100
AcDbEntity
  8
0
100
AcDbLine
 10
44.87458282
 20
7.64415372
 30
0.0
 11
44.76503539
 21
7.99155515
 31
0.0
1001
HATCH_DISTANCE
1040
1.0
1001
HATCH_DISPLAY
1070
     0
1001
HATCH_TYPE
1070
     7
  0
LINE
  5
13C8
330
762
100
AcDbEntity
  8
0
100
AcDbLine
 10
44.76503539
 20
7.99155515
 30
0.0
 11
44.76503539
 21
7.99155515
 31
0.0
1001
HATCH_DISTANCE
1040
1.0
1001
HATCH_DISPLAY
1070
     0
1001
HATCH_TYPE
1070
     7
  0
LINE
  5
13C9
330
762
100
AcDbEntity
  8
0
100
AcDbLine
 10
44.76503539
 20
7.99155515
 30
0.0
 11
44.87458282
 21
7.64415372
 31
0.0
1001
HATCH_DISTANCE
1040
1.0
1001
HATCH_DISPLAY
1070
     0
1001
HATCH_TYPE
1070
     7
  0
LINE
  5
13CA
330
762
100
AcDbEntity
  8
0
100
AcDbLine
 10
44.87458282
 20
7.64415372
 30
0.0
 11
44.87458282
 21
7.64415372
 31
0.0
1001
HATCH_DISTANCE
1040
1.0
1001
HATCH_DISPLAY
1070
     0
1001
HATCH_TYPE
1070
     7
  0
LINE
  5
13CB
330
762
100
AcDbEntity
  8
0
100
AcDbLine
 10
44.87458282
 20
7.64415372
 30
0.0
 11
44.76503539
 21
7.99155515
 31
0.0
  0
LINE
  5
13CC
330
762
100
AcDbEntity
  8
0
100
AcDbLine
 10
44.76503539
 20
7.99155515
 30
0.0
 11
44.76503539
 21
7.99155515
 31
0.0
  0
LINE
  5
13CD
330
762
100
AcDbEntity
  8
0
100
AcDbLine
 10
44.76503539
 20
7.99155515
 30
0.0
 11
44.87458282
 21
7.64415372
 31
0.0
  0
LINE
  5
13CE
330
762
100
AcDbEntity
  8
0
100
AcDbLine
 10
44.87458282
 20
7.64415372
 30
0.0
 11
44.87458282
 21
7.64415372
 31
0.0
  0
LINE
  5
13CF
330
762
100
AcDbEntity
  8
0
100
AcDbLine
 10
44.87458282
 20
7.64415372
 30
0.0
 11
44.76503539
 21
7.99155515
 31
0.0
1001
HATCH_DISTANCE
1040
1.0
1001
HATCH_DISPLAY
1070
     0
1001
HATCH_TYPE
1070
     7
  0
LINE
  5
13D0
330
762
100
AcDbEntity
  8
0
100
AcDbLine
 10
44.76503539
 20
7.99155515
 30
0.0
 11
44.76503539
 21
7.99155515
 31
0.0
1001
HATCH_DISTANCE
1040
1.0
1001
HATCH_DISPLAY
1070
     0
1001
HATCH_TYPE
1070
     7
  0
LINE
  5
13D1
330
762
100
AcDbEntity
  8
0
100
AcDbLine
 10
44.76503539
 20
7.99155515
 30
0.0
 11
44.87458282
 21
7.64415372
 31
0.0
1001
HATCH_DISTANCE
1040
1.0
1001
HATCH_DISPLAY
1070
     0
1001
HATCH_TYPE
1070
     7
  0
LINE
  5
13D2
330
762
100
AcDbEntity
  8
0
100
AcDbLine
 10
44.87458282
 20
7.64415372
 30
0.0
 11
44.87458282
 21
7.64415372
 31
0.0
1001
HATCH_DISTANCE
1040
1.0
1001
HATCH_DISPLAY
1070
     0
1001
HATCH_TYPE
1070
     7
  0
LINE
  5
13D3
330
762
100
AcDbEntity
  8
0
100
AcDbLine
 10
44.87458282
 20
7.64415372
 30
0.0
 11
44.76503539
 21
7.99155515
 31
0.0
  0
LINE
  5
13D4
330
762
100
AcDbEntity
  8
0
100
AcDbLine
 10
44.76503539
 20
7.99155515
 30
0.0
 11
44.76503539
 21
7.99155515
 31
0.0
  0
LINE
  5
13D5
330
762
100
AcDbEntity
  8
0
100
AcDbLine
 10
44.76503539
 20
7.99155515
 30
0.0
 11
44.87458282
 21
7.64415372
 31
0.0
  0
LINE
  5
13D6
330
762
100
AcDbEntity
  8
0
100
AcDbLine
 10
44.87458282
 20
7.64415372
 30
0.0
 11
44.87458282
 21
7.64415372
 31
0.0
  0
LINE
  5
13D7
330
762
100
AcDbEntity
  8
0
100
AcDbLine
 10
45.1783363
 20
7.68914825
 30
0.0
 11
45.52431903
 21
8.03513099
 31
0.0
  0
LINE
  5
13D8
330
762
100
AcDbEntity
  8
0
100
AcDbLine
 10
43.63264708
 20
6.27226345
 30
0.0
 11
43.73694853
 21
6.63602079
 31
0.0
  0
LINE
  5
13D9
330
762
100
AcDbEntity
  8
0
100
AcDbLine
 10
44.26455321
 20
4.78086899
 30
0.0
 11
44.79651121
 21
6.63602079
 31
0.0
  0
LINE
  5
13DA
330
762
100
AcDbEntity
  8
0
100
AcDbLine
 10
42.96749358
 20
5.66822141
 30
0.0
 11
43.45773101
 21
7.37787259
 31
0.0
  0
LINE
  5
13DB
330
762
100
AcDbEntity
  8
0
100
AcDbLine
 10
43.84283347
 20
5.94953391
 30
0.0
 11
44.52932035
 21
6.63602079
 31
0.0
  0
LINE
  5
13DC
330
762
100
AcDbEntity
  8
0
100
AcDbLine
 10
43.7614515
 20
6.27226345
 30
0.0
 11
44.12520882
 21
6.63602079
 31
0.0
  0
LINE
  5
13DD
330
762
100
AcDbEntity
  8
0
100
AcDbLine
 10
41.16344869
 20
6.50304132
 30
0.0
 11
42.30411648
 21
7.64370912
 31
0.0
  0
LINE
  5
13DE
330
762
100
AcDbEntity
  8
0
100
AcDbLine
 10
41.48321319
 20
4.78086899
 30
0.0
 11
42.42195372
 21
8.05465787
 31
0.0
  0
ARC
  5
13DF
330
762
100
AcDbEntity
  8
0
100
AcDbCircle
 10
45.3065515
 20
5.90091184
 30
0.0
 40
3.093695068359374
100
AcDbArc
 50
155.20517737
 51
172.79482596
  0
LINE
  5
13E0
330
762
100
AcDbEntity
  8
0
100
AcDbLine
 10
42.19244181
 20
5.91558834
 30
0.0
 11
43.37853365
 21
7.10168019
 31
0.0
  0
LINE
  5
13E1
330
762
100
AcDbEntity
  8
0
100
AcDbLine
 10
42.24970231
 20
6.37696037
 30
0.0
 11
43.89771719
 21
8.02497525
 31
0.0
  0
LINE
  5
13E2
330
762
100
AcDbEntity
  8
0
100
AcDbLine
 10
41.48321319
 20
4.78086899
 30
0.0
 11
42.42195372
 21
8.05465787
 31
0.0
1001
HATCH_DISTANCE
1040
1.0
1001
HATCH_DISPLAY
1070
     0
1001
HATCH_TYPE
1070
     7
  0
LINE
  5
13E3
330
762
100
AcDbEntity
  8
0
100
AcDbLine
 10
41.48321319
 20
4.78086899
 30
0.0
 11
42.42195372
 21
8.05465787
 31
0.0
  0
LINE
  5
13E4
330
762
100
AcDbEntity
  8
0
100
AcDbLine
 10
44.05117126
 20
4.99423721
 30
0.0
 11
44.26455321
 21
4.78086899
 31
0.0
  0
LINE
  5
13E5
330
762
100
AcDbEntity
  8
0
100
AcDbLine
 10
44.07552209
 20
4.96988795
 30
0.0
 11
44.41653909
 21
5.31090495
 31
0.0
  0
LINE
  5
13E6
330
762
100
AcDbEntity
  8
0
100
AcDbLine
 10
43.48790783
 20
4.78638522
 30
0.0
 11
44.57900233
 21
5.87747973
 31
0.0
  0
LINE
  5
13E7
330
762
100
AcDbEntity
  8
0
100
AcDbLine
 10
43.65952635
 20
5.36211525
 30
0.0
 11
44.74146558
 21
6.44405449
 31
0.0
  0
LINE
  5
13E8
330
762
100
AcDbEntity
  8
0
100
AcDbLine
 10
43.74497868
 20
4.23523301
 30
0.0
 11
44.10873599
 21
4.59899033
 31
0.0
  0
LINE
  5
13E9
330
762
100
AcDbEntity
  8
0
100
AcDbLine
 10
41.05772245
 20
4.78086899
 30
0.0
 11
41.65426977
 21
5.3774163
 31
0.0
  0
LINE
  5
13EA
330
762
100
AcDbEntity
  8
0
100
AcDbLine
 10
45.86745461
 20
4.33715131
 30
0.0
 11
47.05971631
 21
5.52941302
 31
0.0
  0
LINE
  5
13EB
330
762
100
AcDbEntity
  8
0
100
AcDbLine
 10
46.68067231
 20
5.55448054
 30
0.0
 11
47.15829759
 21
6.03210582
 31
0.0
  0
LINE
  5
13EC
330
762
100
AcDbEntity
  8
0
100
AcDbLine
 10
46.79625621
 20
6.07417596
 30
0.0
 11
47.1417679
 21
6.41968765
 31
0.0
  0
LINE
  5
13ED
330
762
100
AcDbEntity
  8
0
100
AcDbLine
 10
46.67134671
 20
6.75748951
 30
0.0
 11
46.94405795
 21
7.03020076
 31
0.0
  0
LINE
  5
13EE
330
762
100
AcDbEntity
  8
0
100
AcDbLine
 10
46.52775185
 20
7.01800618
 30
0.0
 11
46.78857613
 21
7.27883047
 31
0.0
  0
LINE
  5
13EF
330
762
100
AcDbEntity
  8
0
100
AcDbLine
 10
46.34440587
 20
7.23877173
 30
0.0
 11
46.60162119
 21
7.49598703
 31
0.0
  0
LINE
  5
13F0
330
762
100
AcDbEntity
  8
0
100
AcDbLine
 10
46.12338789
 20
7.42186527
 30
0.0
 11
46.38426149
 21
7.68273887
 31
0.0
  0
LINE
  5
13F1
330
762
100
AcDbEntity
  8
0
100
AcDbLine
 10
45.86258965
 20
7.56517857
 30
0.0
 11
46.13541395
 21
7.83800286
 31
0.0
  0
LINE
  5
13F2
330
762
100
AcDbEntity
  8
0
100
AcDbLine
 10
46.76756247
 20
6.44959375
 30
0.0
 11
47.06442883
 21
6.74646012
 31
0.0
  0
LINE
  5
13F3
330
762
100
AcDbEntity
  8
241
100
AcDbLine
 10
126.0
 20
-11.7
 30
0.0
 11
126.0
 21
0.0
 31
0.0
  0
LINE
  5
13F4
330
762
100
AcDbEntity
  8
241
100
AcDbLine
 10
125.0
 20
-11.7
 30
0.0
 11
125.0
 21
0.0
 31
0.0
  0
LINE
  5
13F5
330
762
100
AcDbEntity
  8
240
100
AcDbLine
 10
150.0
 20
-14.0
 30
0.0
 11
150.0
 21
0.0
 31
0.0
  0
LINE
  5
13F6
330
762
100
AcDbEntity
  8
241
100
AcDbLine
 10
128.0
 20
-15.15
 30
0.0
 11
128.0
 21
0.0
 31
0.0
  0
LINE
  5
13F7
330
762
100
AcDbEntity
  8
241
100
AcDbLine
 10
129.2
 20
-15.0
 30
0.0
 11
129.2
 21
0.0
 31
0.0
  0
LINE
  5
13F8
330
762
100
AcDbEntity
  8
240
100
AcDbLine
 10
128.25980762
 20
-15.0
 30
0.0
 11
149.0
 21
-15.0
 31
0.0
  0
LINE
  5
13F9
330
762
100
AcDbEntity
  8
240
100
AcDbLine
 10
126.0
 20
-15.15
 30
0.0
 11
128.0
 21
-15.15
 31
0.0
  0
LINE
  5
13FA
330
762
100
AcDbEntity
  8
240
100
AcDbLine
 10
126.0
 20
-11.7
 30
0.0
 11
126.0
 21
-15.15
 31
0.0
  0
LINE
  5
13FB
330
762
100
AcDbEntity
  8
240
100
AcDbLine
 10
126.0
 20
-11.7
 30
0.0
 11
125.0
 21
-11.7
 31
0.0
  0
LINE
  5
13FC
330
762
100
AcDbEntity
  8
240
100
AcDbLine
 10
125.0
 20
-11.7
 30
0.0
 11
125.0
 21
-15.0
 31
0.0
  0
LINE
  5
13FD
330
762
100
AcDbEntity
  8
240
100
AcDbLine
 10
128.25980762
 20
-15.0
 30
0.0
 11
128.0
 21
-15.15
 31
0.0
  0
ARC
  5
13FE
330
762
100
AcDbEntity
  8
240
100
AcDbCircle
 10
149.0
 20
-14.0
 30
0.0
 40
1.0
100
AcDbArc
 50
270.0
 51
0.0
1001
GENIUS_GENOBJ-N-FIL_13
1002
{
1000
OWNER
1000
GEN
1002
}
1001
GENIUS_GENODEF_13
1002
{
1000
HIER
1070
     0
1002
}
1002
{
1000
MANEDIT
1070
     0
1002
}
1002
{
1000
NOSEL
1070
     0
1002
}
1002
{
1000
BEHIND
1070
     0
1002
}
1002
{
1000
OTHER
1070
     0
1002
}
1002
{
1000
REACTOR
1002
}
  0
LINE
  5
13FF
330
762
100
AcDbEntity
  8
240
100
AcDbLine
 10
128.25980762
 20
15.0
 30
0.0
 11
149.0
 21
15.0
 31
0.0
  0
LINE
  5
1400
330
762
100
AcDbEntity
  8
241
  6
HIDDEN2
100
AcDbLine
 10
136.0
 20
7.0
 30
0.0
 11
150.0
 21
7.0
 31
0.0
  0
LINE
  5
1401
330
762
100
AcDbEntity
  8
241
100
AcDbLine
 10
128.0
 20
15.15
 30
0.0
 11
128.0
 21
0.0
 31
0.0
  0
LINE
  5
1402
330
762
100
AcDbEntity
  8
240
100
AcDbLine
 10
128.25980762
 20
15.0
 30
0.0
 11
128.0
 21
15.15
 31
0.0
  0
LINE
  5
1403
330
762
100
AcDbEntity
  8
240
100
AcDbLine
 10
126.0
 20
11.7
 30
0.0
 11
126.0
 21
15.15
 31
0.0
  0
LINE
  5
1404
330
762
100
AcDbEntity
  8
241
100
AcDbLine
 10
125.0
 20
11.7
 30
0.0
 11
125.0
 21
0.0
 31
0.0
  0
LINE
  5
1405
330
762
100
AcDbEntity
  8
241
100
AcDbLine
 10
126.0
 20
11.7
 30
0.0
 11
126.0
 21
0.0
 31
0.0
  0
LINE
  5
1406
330
762
100
AcDbEntity
  8
241
100
AcDbLine
 10
129.2
 20
15.0
 30
0.0
 11
129.2
 21
0.0
 31
0.0
  0
LINE
  5
1407
330
762
100
AcDbEntity
  8
241
  6
HIDDEN2
100
AcDbLine
 10
136.0
 20
7.75
 30
0.0
 11
136.0
 21
0.0
 31
0.0
  0
LINE
  5
1408
330
762
100
AcDbEntity
  8
242
  6
HIDDEN2
100
AcDbLine
 10
121.0
 20
0.0
 30
0.0
 11
131.0
 21
7.84888527
 31
0.0
  0
LINE
  5
1409
330
762
100
AcDbEntity
  8
242
  6
HIDDEN2
100
AcDbLine
 10
121.0
 20
7.84888527
 30
0.0
 11
131.0
 21
0.0
 31
0.0
  0
LINE
  5
140A
330
762
100
AcDbEntity
  8
241
  6
HIDDEN2
100
AcDbLine
 10
121.0
 20
7.84888527
 30
0.0
 11
121.0
 21
0.0
 31
0.0
  0
LINE
  5
140B
330
762
100
AcDbEntity
  8
241
  6
HIDDEN2
100
AcDbLine
 10
131.0
 20
7.84888527
 30
0.0
 11
131.0
 21
0.0
 31
0.0
  0
LINE
  5
140C
330
762
100
AcDbEntity
  8
241
  6
HIDDEN2
100
AcDbLine
 10
121.0
 20
7.84888527
 30
0.0
 11
131.0
 21
7.84888527
 31
0.0
  0
LINE
  5
140D
330
762
100
AcDbEntity
  8
240
100
AcDbLine
 10
125.0
 20
11.7
 30
0.0
 11
125.0
 21
15.0
 31
0.0
  0
LINE
  5
140E
330
762
100
AcDbEntity
  8
240
100
AcDbLine
 10
126.0
 20
11.7
 30
0.0
 11
125.0
 21
11.7
 31
0.0
  0
LINE
  5
140F
330
762
100
AcDbEntity
  8
241
  6
HIDDEN2
100
AcDbLine
 10
131.0
 20
7.75
 30
0.0
 11
136.0
 21
7.75
 31
0.0
  0
LINE
  5
1410
330
762
100
AcDbEntity
  8
240
100
AcDbLine
 10
126.0
 20
15.15
 30
0.0
 11
128.0
 21
15.15
 31
0.0
  0
ARC
  5
1411
330
762
100
AcDbEntity
  8
240
100
AcDbCircle
 10
149.0
 20
14.0
 30
0.0
 40
1.0
100
AcDbArc
 50
0.0
 51
90.0
1001
GENIUS_GENOBJ-N-FIL_13
1002
{
1000
OWNER
1000
GEN
1002
}
1001
GENIUS_GENODEF_13
1002
{
1000
HIER
1070
     0
1002
}
1002
{
1000
MANEDIT
1070
     0
1002
}
1002
{
1000
NOSEL
1070
     0
1002
}
1002
{
1000
BEHIND
1070
     0
1002
}
1002
{
1000
OTHER
1070
     0
1002
}
1002
{
1000
REACTOR
1002
}
  0
LINE
  5
1412
330
762
100
AcDbEntity
  8
240
100
AcDbLine
 10
150.0
 20
14.0
 30
0.0
 11
150.0
 21
0.0
 31
0.0
  0
ENDBLK
  5
8A0
330
762
100
AcDbEntity
  8
0
100
AcDbBlockEnd
  0
BLOCK
  5
C23
330
C19
100
AcDbEntity
  8
0
100
AcDbBlockBegin
  2
*D3
 70
     1
 10
0.0
 20
0.0
 30
0.0
  3
*D3
  1

  0
LINE
  5
12EB
330
C19
100
AcDbEntity
  8
250
  6
CONTINUOUS
100
AcDbLine
 10
0.0
 20
19.64125603
 30
0.0
 11
0.0
 21
36.0
 31
0.0
  0
LINE
  5
12EC
330
C19
100
AcDbEntity
  8
250
  6
CONTINUOUS
100
AcDbLine
 10
150.0
 20
14.5
 30
0.0
 11
150.0
 21
36.0
 31
0.0
  0
LINE
  5
12ED
330
C19
100
AcDbEntity
  8
250
  6
CONTINUOUS
100
AcDbLine
 10
2.23
 20
35.0
 30
0.0
 11
147.77
 21
35.0
 31
0.0
  0
INSERT
  5
12EE
330
C19
100
AcDbEntity
  8
250
  6
CONTINUOUS
100
AcDbBlockReference
  2
_OPEN
 10
0.0
 20
35.0
 30
0.0
 41
2.23
 42
2.23
 43
2.23
 50
180.0
  0
INSERT
  5
12EF
330
C19
100
AcDbEntity
  8
250
  6
CONTINUOUS
100
AcDbBlockReference
  2
_OPEN
 10
150.0
 20
35.0
 30
0.0
 41
2.23
 42
2.23
 43
2.23
  0
MTEXT
  5
12F0
330
C19
100
AcDbEntity
  8
250
  6
CONTINUOUS
 62
    40
100
AcDbMText
 10
75.0
 20
37.4
 30
0.0
 40
2.8
 41
0.0
 71
     5
 72
     1
  1
\A1;150
1001
ACAD
1000
MTEXTBEGIN
1070
    73
1070
     1
1070
    44
1040
1.0
1070
    74
1070
     0
1000
MTEXTEND
  0
POINT
  5
12F1
330
C19
100
AcDbEntity
  8
DEFPOINTS
  6
CONTINUOUS
 62
     0
100
AcDbPoint
 10
0.0
 20
19.14125603
 30
0.0
  0
POINT
  5
12F2
330
C19
100
AcDbEntity
  8
DEFPOINTS
  6
CONTINUOUS
 62
     0
100
AcDbPoint
 10
150.0
 20
14.0
 30
0.0
  0
POINT
  5
12F3
330
C19
100
AcDbEntity
  8
DEFPOINTS
  6
CONTINUOUS
 62
     0
100
AcDbPoint
 10
150.0
 20
35.0
 30
0.0
  0
ENDBLK
  5
C24
330
C19
100
AcDbEntity
  8
0
100
AcDbBlockEnd
  0
BLOCK
  5
C2F
330
C25
100
AcDbEntity
  8
0
100
AcDbBlockBegin
  2
*D4
 70
     1
 10
0.0
 20
0.0
 30
0.0
  3
*D4
  1

  0
LINE
  5
C67
330
C25
100
AcDbEntity
  8
AM_5
100
AcDbLine
 10
149.5
 20
15.0
 30
0.0
 11
169.5
 21
15.0
 31
0.0
  0
LINE
  5
C68
330
C25
100
AcDbEntity
  8
AM_5
100
AcDbLine
 10
149.5
 20
-15.0
 30
0.0
 11
169.5
 21
-15.0
 31
0.0
  0
LINE
  5
C69
330
C25
100
AcDbEntity
  8
AM_5
100
AcDbLine
 10
168.5
 20
12.77
 30
0.0
 11
168.5
 21
-12.77
 31
0.0
  0
INSERT
  5
C6A
330
C25
100
AcDbEntity
  8
AM_5
100
AcDbBlockReference
  2
_OPEN
 10
168.5
 20
15.0
 30
0.0
 41
2.23
 42
2.23
 43
2.23
 50
90.0
  0
INSERT
  5
C6B
330
C25
100
AcDbEntity
  8
AM_5
100
AcDbBlockReference
  2
_OPEN
 10
168.5
 20
-15.0
 30
0.0
 41
2.23
 42
2.23
 43
2.23
 50
270.0
  0
MTEXT
  5
C6C
330
C25
100
AcDbEntity
  8
AM_5
 62
    40
100
AcDbMText
 10
166.1
 20
-1.48621162
 30
0.0
 40
2.8
 41
0.0
 71
     5
 72
     1
  1
\A1;%%c30
 11
0.0
 21
1.0
 31
0.0
1001
ACAD
1000
MTEXTBEGIN
1070
    73
1070
     1
1070
    44
1040
1.0
1070
    74
1070
     0
1000
MTEXTEND
1000
MTEXTBEGIN
1070
    73
1070
     1
1070
    44
1040
1.0
1070
    74
1070
     0
1000
MTEXTEND
1000
MTEXTBEGIN
1070
    73
1070
     1
1070
    44
1040
1.0
1070
    74
1070
     0
1000
MTEXTEND
  0
POINT
  5
C6D
330
C25
100
AcDbEntity
  8
DEFPOINTS
 62
     0
100
AcDbPoint
 10
149.0
 20
15.0
 30
0.0
  0
POINT
  5
C6E
330
C25
100
AcDbEntity
  8
DEFPOINTS
 62
     0
100
AcDbPoint
 10
149.0
 20
-15.0
 30
0.0
  0
POINT
  5
C6F
330
C25
100
AcDbEntity
  8
DEFPOINTS
 62
     0
100
AcDbPoint
 10
168.5
 20
-15.0
 30
0.0
  0
ENDBLK
  5
C30
330
C25
100
AcDbEntity
  8
0
100
AcDbBlockEnd
  0
BLOCK
  5
C3A
330
C31
100
AcDbEntity
  8
0
100
AcDbBlockBegin
  2
*D5
 70
     1
 10
0.0
 20
0.0
 30
0.0
  3
*D5
  1

  0
LINE
  5
E05
330
C31
100
AcDbEntity
  8
250
  6
CONTINUOUS
100
AcDbLine
 10
150.5
 20
7.0
 30
0.0
 11
162.5
 21
7.0
 31
0.0
  0
LINE
  5
E06
330
C31
100
AcDbEntity
  8
250
  6
CONTINUOUS
100
AcDbLine
 10
161.5
 20
-4.77
 30
0.0
 11
161.5
 21
4.77
 31
0.0
  0
INSERT
  5
E07
330
C31
100
AcDbEntity
  8
250
  6
CONTINUOUS
100
AcDbBlockReference
  2
矢印なし
 10
161.5
 20
-7.0
 30
0.0
 41
2.23
 42
2.23
 43
2.23
 50
270.0
  0
INSERT
  5
E08
330
C31
100
AcDbEntity
  8
250
  6
CONTINUOUS
100
AcDbBlockReference
  2
_OPEN
 10
161.5
 20
7.0
 30
0.0
 41
2.23
 42
2.23
 43
2.23
 50
90.0
  0
MTEXT
  5
E09
330
C31
100
AcDbEntity
  8
250
  6
CONTINUOUS
 62
    40
100
AcDbMText
 10
159.1
 20
-1.46522202
 30
0.0
 40
2.8
 41
0.0
 71
     5
 72
     1
  1
\A1;{\H2.8;\U+2205}14
 11
0.0
 21
1.0
 31
0.0
1001
ACAD
1000
MTEXTBEGIN
1070
    73
1070
     1
1070
    44
1040
1.0
1070
    74
1070
     0
1000
MTEXTEND
1000
MTEXTBEGIN
1070
    73
1070
     1
1070
    44
1040
1.0
1070
    74
1070
     0
1000
MTEXTEND
  0
POINT
  5
E0A
330
C31
100
AcDbEntity
  8
DEFPOINTS
  6
CONTINUOUS
 62
     0
100
AcDbPoint
 10
150.0
 20
-7.0
 30
0.0
  0
POINT
  5
E0B
330
C31
100
AcDbEntity
  8
DEFPOINTS
  6
CONTINUOUS
 62
     0
100
AcDbPoint
 10
150.0
 20
7.0
 30
0.0
  0
POINT
  5
E0C
330
C31
100
AcDbEntity
  8
DEFPOINTS
  6
CONTINUOUS
 62
     0
100
AcDbPoint
 10
161.5
 20
7.0
 30
0.0
  0
ENDBLK
  5
C3B
330
C31
100
AcDbEntity
  8
0
100
AcDbBlockEnd
  0
ENDSEC
  0
SECTION
  2
ENTITIES
  0
INSERT
  5
6E6
330
1A
100
AcDbEntity
  8
245
100
AcDbBlockReference
  2
矢印なし
 10
175.62382697
 20
90.55123572
 30
0.0
  0
INSERT
  5
8F4
330
1A
100
AcDbEntity
  8
245
100
AcDbBlockReference
  2
矢印なし
 10
371.62382697
 20
244.55123572
 30
0.0
  0
INSERT
  5
8F5
330
1A
100
AcDbEntity
  8
245
100
AcDbBlockReference
  2
矢印なし
 10
560.62382697
 20
384.55123572
 30
0.0
  0
INSERT
  5
8F6
330
1A
100
AcDbEntity
  8
245
100
AcDbBlockReference
  2
矢印なし
 10
735.62382697
 20
531.55123572
 30
0.0
  0
INSERT
  5
8F7
330
1A
100
AcDbEntity
  8
245
100
AcDbBlockReference
  2
矢印なし
 10
917.62382697
 20
678.55123572
 30
0.0
  0
INSERT
  5
8F8
330
1A
100
AcDbEntity
  8
245
100
AcDbBlockReference
  2
矢印なし
 10
1106.62382697
 20
818.55123572
 30
0.0
  0
INSERT
  5
8F9
330
1A
100
AcDbEntity
  8
245
100
AcDbBlockReference
  2
矢印なし
 10
1288.62382697
 20
972.55123572
 30
0.0
  0
INSERT
  5
8FA
330
1A
100
AcDbEntity
  8
245
100
AcDbBlockReference
  2
矢印なし
 10
1477.62382697
 20
1119.55123572
 30
0.0
  0
INSERT
  5
8FB
330
1A
100
AcDbEntity
  8
245
100
AcDbBlockReference
  2
矢印なし
 10
1652.62382697
 20
1266.55123572
 30
0.0
  0
INSERT
  5
8FC
330
1A
100
AcDbEntity
  8
245
100
AcDbBlockReference
  2
矢印なし
 10
1820.62382697
 20
1406.55123572
 30
0.0
  0
INSERT
  5
8FD
330
1A
100
AcDbEntity
  8
245
100
AcDbBlockReference
  2
矢印なし
 10
1995.62382697
 20
1546.55123572
 30
0.0
  0
INSERT
  5
8FE
330
1A
100
AcDbEntity
  8
245
100
AcDbBlockReference
  2
矢印なし
 10
2177.62382697
 20
1679.55123572
 30
0.0
  0
INSERT
  5
8FF
330
1A
100
AcDbEntity
  8
245
100
AcDbBlockReference
  2
矢印なし
 10
2352.62382697
 20
1826.55123572
 30
0.0
  0
INSERT
  5
900
330
1A
100
AcDbEntity
  8
245
100
AcDbBlockReference
  2
矢印なし
 10
2541.62382697
 20
1959.55123572
 30
0.0
  0
INSERT
  5
901
330
1A
100
AcDbEntity
  8
245
100
AcDbBlockReference
  2
矢印なし
 10
2730.62382697
 20
2099.55123572
 30
0.0
  0
INSERT
  5
902
330
1A
100
AcDbEntity
  8
245
100
AcDbBlockReference
  2
矢印なし
 10
2905.62382697
 20
2239.55123572
 30
0.0
  0
INSERT
  5
903
330
1A
100
AcDbEntity
  8
245
100
AcDbBlockReference
  2
矢印なし
 10
3080.62382697
 20
2379.55123572
 30
0.0
  0
INSERT
  5
904
330
1A
100
AcDbEntity
  8
245
100
AcDbBlockReference
  2
矢印なし
 10
3269.62382697
 20
2519.55123572
 30
0.0
  0
INSERT
  5
905
330
1A
100
AcDbEntity
  8
245
100
AcDbBlockReference
  2
矢印なし
 10
3451.62382697
 20
2659.55123572
 30
0.0
  0
INSERT
  5
906
330
1A
100
AcDbEntity
  8
245
100
AcDbBlockReference
  2
矢印なし
 10
3633.62382697
 20
2806.55123572
 30
0.0
  0
INSERT
  5
907
330
1A
100
AcDbEntity
  8
245
100
AcDbBlockReference
  2
矢印なし
 10
3815.62382697
 20
2953.55123572
 30
0.0
  0
INSERT
  5
908
330
1A
100
AcDbEntity
  8
245
100
AcDbBlockReference
  2
矢印なし
 10
3962.62382697
 20
3093.55123572
 30
0.0
  0
INSERT
  5
909
330
1A
100
AcDbEntity
  8
245
100
AcDbBlockReference
  2
矢印なし
 10
4137.62382697
 20
3247.55123572
 30
0.0
  0
INSERT
  5
90A
330
1A
100
AcDbEntity
  8
245
100
AcDbBlockReference
  2
矢印なし
 10
4333.62382697
 20
3394.55123572
 30
0.0
  0
INSERT
  5
90B
330
1A
100
AcDbEntity
  8
245
100
AcDbBlockReference
  2
矢印なし
 10
4522.62382697
 20
3527.55123572
 30
0.0
  0
INSERT
  5
90C
330
1A
100
AcDbEntity
  8
245
100
AcDbBlockReference
  2
矢印なし
 10
4683.62382697
 20
3681.55123572
 30
0.0
  0
INSERT
  5
90D
330
1A
100
AcDbEntity
  8
245
100
AcDbBlockReference
  2
矢印なし
 10
4858.62382697
 20
3835.55123572
 30
0.0
  0
INSERT
  5
90E
330
1A
100
AcDbEntity
  8
245
100
AcDbBlockReference
  2
矢印なし
 10
5033.62382697
 20
3968.55123572
 30
0.0
  0
INSERT
  5
90F
330
1A
100
AcDbEntity
  8
245
100
AcDbBlockReference
  2
矢印なし
 10
5187.62382697
 20
4115.55123572
 30
0.0
  0
DIMENSION
  5
C0A
330
1A
100
AcDbEntity
  8
250
  6
CONTINUOUS
100
AcDbDimension
  2
*D3
 10
150.0
 20
35.0
 30
0.0
 11
75.0
 21
37.4
 31
0.0
 70
    32
  3
BIGT$0
100
AcDbAlignedDimension
 13
0.0
 23
19.14125603
 33
0.0
 14
150.0
 24
14.0
 34
0.0
100
AcDbRotatedDimension
  0
TEXT
  5
C0B
330
1A
100
AcDbEntity
  8
241
100
AcDbText
 10
-69.0
 20
49.0
 30
0.0
 40
5.0
  1
MGT20-P3/8-150
  7
YOKO
 11
-69.0
 21
49.0
 31
0.0
100
AcDbText
 73
     1
  0
MTEXT
  5
C0C
330
1A
100
AcDbEntity
  8
251
  6
CONTINUOUS
100
AcDbMText
 10
133.11954017
 20
29.02715416
 30
0.0
 40
2.8
 41
0.0
 71
     7
 72
     1
  1
□11
  7
YOKO
1001
ITEMNAME
1000
LNSP3
1001
ACAD
1000
MTEXTBEGIN
1070
    73
1070
     1
1070
    44
1040
1.0
1070
    74
1070
     0
1000
MTEXTEND
1000
MTEXTBEGIN
1070
    73
1070
     1
1070
    44
1040
1.0
1070
    74
1070
     0
1000
MTEXTEND
1000
MTEXTBEGIN
1070
    73
1070
     1
1070
    44
1040
1.0
1070
    74
1070
     0
1000
MTEXTEND
1000
MTEXTBEGIN
1070
    73
1070
     1
1070
    44
1040
1.0
1070
    74
1070
     0
1000
MTEXTEND
1000
MTEXTBEGIN
1070
    73
1070
     1
1070
    44
1040
1.0
1070
    74
1070
     0
1000
MTEXTEND
1000
MTEXTBEGIN
1070
    73
1070
     1
1070
    44
1040
1.0
1070
    74
1070
     0
1000
MTEXTEND
  0
LINE
  5
C0D
330
1A
100
AcDbEntity
  8
250
  6
CONTINUOUS
100
AcDbLine
 10
130.31954017
 20
28.02715416
 30
0.0
 11
143.03954017
 21
28.02715416
 31
0.0
1001
ITEMNAME
1000
LNSP2
  0
LEADER
  5
C0E
330
1A
100
AcDbEntity
  8
250
  6
CONTINUOUS
100
AcDbLeader
  3
BIGT
 76
     2
 10
122.80345282
 20
7.84888527
 30
0.0
 10
130.31954017
 20
28.02715416
 30
0.0
1001
ACAD
1000
DSTYLE
1002
{
1070
     6
1000
OPEN
1070
    41
1040
2.0
1070
    42
1040
2.0
1070
    44
1040
2.0
1070
   140
1040
4.0
1070
   343
1005
594
1002
}
  0
DIMENSION
  5
C17
330
1A
100
AcDbEntity
  8
AM_5
100
AcDbDimension
  2
*D4
 10
168.5
 20
-15.0
 30
0.0
 11
168.5
 21
-1.48621162
 31
0.0
 70
   160
  1
%%c<>
  3
BIGT$0
100
AcDbAlignedDimension
 13
149.0
 23
15.0
 33
0.0
 14
149.0
 24
-15.0
 34
0.0
 50
90.0
100
AcDbRotatedDimension
  0
DIMENSION
  5
C18
330
1A
100
AcDbEntity
  8
250
  6
CONTINUOUS
100
AcDbDimension
  2
*D5
 10
161.5
 20
7.0
 30
0.0
 11
161.5
 21
-1.46522202
 31
0.0
 70
   160
  1
{\H2.8;\U+2205}<>
  3
BIGT
100
AcDbAlignedDimension
 13
150.0
 23
-7.0
 33
0.0
 14
150.0
 24
7.0
 34
0.0
 50
90.0
100
AcDbRotatedDimension
1001
ACAD
1000
DSTYLE
1002
{
1070
   287
1070
     3
1070
   287
1070
     3
1070
   287
1070
     3
1070
   287
1070
     3
1070
    75
1070
     1
1070
    77
1070
     3
1070
   145
1040
1.0
1070
   279
1070
     0
1070
   289
1070
     3
1070
     6
1000
矢印なし
1002
}
  0
INSERT
  5
1413
330
1A
100
AcDbEntity
  8
245
100
AcDbBlockReference
  2
1
 10
0.0
 20
0.0
 30
0.0
  0
VIEWPORT
  5
22
330
17
100
AcDbEntity
 67
     1
  8
0
100
AcDbViewport
 10
261.51769912
 20
148.5
 30
0.0
 40
523.03539823
 41
297.0
 68
     1
 69
     1
1001
ACAD
1000
MVIEW
1002
{
1070
    16
1010
0.0
1020
0.0
1030
0.0
1010
0.0
1020
0.0
1030
1.0
1040
0.0
1040
297.0
1040
261.51769912
1040
148.5
1040
50.0
1040
0.0
1040
0.0
1070
     0
1070
   100
1070
     1
1070
     1
1070
     0
1070
     0
1070
     0
1070
     0
1040
0.0
1040
0.0
1040
0.0
1040
1.0
1040
1.0
1040
10.0
1040
10.0
1070
     0
1002
{
1002
}
1002
}
  0
ENDSEC
  0
SECTION
  2
OBJECTS
  0
DICTIONARY
  5
C
330
0
100
AcDbDictionary
  3
ACAD_GROUP
350
D
  3
ACAD_LAYOUT
350
565
  3
ACAD_MLINESTYLE
350
E
  3
ACAD_PLOTSETTINGS
350
566
  3
ACAD_PLOTSTYLENAME
350
563
  3
ACDBHEADERROUNDTRIPXREC
350
1415
  3
GRADE_DWG
350
540
  0
DICTIONARY
  5
E02
330
1A
100
AcDbDictionary
280
     1
  3
ACAD_LAYOUTSELFREF
360
1437
  0
DICTIONARY
  5
E00
330
17
100
AcDbDictionary
280
     1
  3
ACAD_LAYOUTSELFREF
360
1436
  0
DICTIONARY
  5
D
102
{ACAD_REACTORS
330
C
102
}
330
C
100
AcDbDictionary
  3
*A1
350
6C7
  3
*A2
350
6C8
  3
*A3
350
6D4
  3
*A4
350
6D5
  3
DREC-1
350
5FC
  3
DREC-2
350
654
  3
DREC-3
350
673
  0
DICTIONARY
  5
565
102
{ACAD_REACTORS
330
C
102
}
330
C
100
AcDbDictionary
  0
DICTIONARY
  5
E
102
{ACAD_REACTORS
330
C
102
}
330
C
100
AcDbDictionary
  3
STANDARD
350
13
  0
DICTIONARY
  5
566
102
{ACAD_REACTORS
330
C
102
}
330
C
100
AcDbDictionary
  3
A3_0_5倍_
350
758
  3
A3_1倍_
350
757
  3
A3_1倍__2000_
350
707
  3
A3_2倍_
350
759
  3
A4_0_5倍_
350
755
  3
A4_1倍_
350
754
  3
A4_1倍__2000_
350
708
  3
A4_2倍_
350
756
  0
ACDBDICTIONARYWDFLT
  5
563
102
{ACAD_REACTORS
330
C
102
}
330
C
100
AcDbDictionary
281
     1
  3
Normal
350
564
100
AcDbDictionaryWithDefault
340
564
  0
DICTIONARY
  5
1415
102
{ACAD_REACTORS
330
C
102
}
330
C
100
AcDbDictionary
  3
CEPSNTYPE
350
141F
  3
DIMSTYLEDATA
350
1423
  3
FINGERPRINTGUID
350
1420
  3
HYPERLINKBASE
350
1418
  3
INSUNITS
350
141E
  3
LAYOUTDICT
350
141A
  3
LWETCUNION
350
141D
  3
PLOTSETDICT
350
141B
  3
PLOTSTYLNAMDICT
350
141C
  3
PSVPSCALE
350
1422
  3
PUCSBASE
350
1426
  3
PUCSORGBACK
350
142C
  3
PUCSORGBOTTOM
350
1428
  3
PUCSORGFRONT
350
142B
  3
PUCSORGLEFT
350
1429
  3
PUCSORGRIGHT
350
142A
  3
PUCSORGTOP
350
1427
  3
PUCSORTHOREF
350
1424
  3
PUCSORTHOVIEW
350
1425
  3
STYLESHEET
350
1419
  3
TSTACKALIGN
350
1416
  3
TSTACKSIZE
350
1417
  3
UCSBASE
350
142F
  3
UCSORGBACK
350
1435
  3
UCSORGBOTTOM
350
1431
  3
UCSORGFRONT
350
1434
  3
UCSORGLEFT
350
1432
  3
UCSORGRIGHT
350
1433
  3
UCSORGTOP
350
1430
  3
UCSORTHOREF
350
142D
  3
UCSORTHOVIEW
350
142E
  3
VERSIONGUID
350
1421
  0
DICTIONARY
  5
540
102
{ACAD_REACTORS
330
C
102
}
330
C
100
AcDbDictionary
  3
VERSION
350
560
  0
XRECORD
  5
1437
102
{ACAD_REACTORS
330
E02
102
}
330
E02
100
AcDbXrecord
340
1A
  0
XRECORD
  5
1436
102
{ACAD_REACTORS
330
E00
102
}
330
E00
100
AcDbXrecord
340
17
  0
GROUP
  5
6C7
102
{ACAD_REACTORS
330
D
102
}
330
D
100
AcDbGroup
300

 70
     0
 71
     1
1001
GRPNAME
1000
DMA00
  0
GROUP
  5
6C8
102
{ACAD_REACTORS
330
D
102
}
330
D
100
AcDbGroup
300

 70
     0
 71
     1
1001
GRPNAME
1000
DMA00
  0
GROUP
  5
6D4
102
{ACAD_REACTORS
330
D
102
}
330
D
100
AcDbGroup
300

 70
     0
 71
     1
1001
GRPNAME
1000
DMA00
  0
GROUP
  5
6D5
102
{ACAD_REACTORS
330
D
102
}
330
D
100
AcDbGroup
300

 70
     0
 71
     1
1001
GRPNAME
1000
DMA00
  0
GROUP
  5
5FC
102
{ACAD_REACTORS
330
D
102
}
330
D
100
AcDbGroup
300

 70
     0
 71
     1
1001
GRPNAME
1000
DREC-
1001
GPARA
1000
xsiz
1000
44.182
1000
ysiz
1000
40.677
1000
angl
1000
0
1000
ctyp
1000
0
1000
csiz
1000
5
1000
lfnt
1000
cont
1000
hcnt
1000
hoff
1000
vcnt
1000
voff
1000
opnt
1000
4
1000
dxpt
1000
0
1000
dypt
1000
0
  0
GROUP
  5
654
102
{ACAD_REACTORS
330
D
102
}
330
D
100
AcDbGroup
300

 70
     0
 71
     1
1001
GRPNAME
1000
DREC-
1001
GPARA
1000
xsiz
1000
54.592
1000
ysiz
1000
53.036
1000
angl
1000
0
1000
ctyp
1000
0
1000
csiz
1000
5
1000
lfnt
1000
cont
1000
hcnt
1000
hoff
1000
vcnt
1000
voff
1000
opnt
1000
4
1000
dxpt
1000
0
1000
dypt
1000
0
  0
GROUP
  5
673
102
{ACAD_REACTORS
330
D
102
}
330
D
100
AcDbGroup
300

 70
     0
 71
     1
1001
GRPNAME
1000
DREC-
1001
GPARA
1000
xsiz
1000
30.363
1000
ysiz
1000
36.175
1000
angl
1000
0
1000
ctyp
1000
0
1000
csiz
1000
5
1000
lfnt
1000
cont
1000
hcnt
1000
hoff
1000
vcnt
1000
voff
1000
opnt
1000
4
1000
dxpt
1000
0
1000
dypt
1000
0
  0
MLINESTYLE
  5
13
102
{ACAD_REACTORS
330
E
102
}
330
E
100
AcDbMlineStyle
  2
STANDARD
 70
     0
  3

 62
     0
 51
90.0
 52
90.0
 71
     2
 49
0.5
 62
   256
  6
BYLAYER
 49
-0.5
 62
   256
  6
BYLAYER
  0
PLOTSETTINGS
  5
758
102
{ACAD_REACTORS
330
566
102
}
330
566
100
AcDbPlotSettings
  1
A3(0.5倍)
  2
\\AWTECPC05\HP DeskJet 1120C
  4
A3
  6

 40
5.95841646
 41
13.49375153
 42
6.04309082
 43
3.67242432
 44
296.92599487
 45
419.94665527
 46
89.96
 47
127.14
 48
0.0
 49
0.0
140
0.0
141
0.0
142
1.0
143
2.0
 70
  1716
 72
     1
 73
     1
 74
     2
  7
big.ctb
 75
    17
147
0.5
148
0.0
149
0.0
  0
PLOTSETTINGS
  5
757
102
{ACAD_REACTORS
330
566
102
}
330
566
100
AcDbPlotSettings
  1
A3(1倍)
  2
\\AWTECPC05\HP DeskJet 1120C
  4
A3
  6

 40
5.95841646
 41
13.49375153
 42
6.04309082
 43
3.67242432
 44
296.92599487
 45
419.94665527
 46
37.46
 47
52.89
 48
0.0
 49
0.0
140
0.0
141
0.0
142
1.0
143
1.0
 70
  1716
 72
     1
 73
     1
 74
     2
  7
big.ctb
 75
    16
147
1.0
148
0.0
149
0.0
  0
PLOTSETTINGS
  5
707
102
{ACAD_REACTORS
330
566
102
}
330
566
100
AcDbPlotSettings
  1
A3(1倍)(2000)
  2
SII LS-1300 (D-SCAN)
  4
User258
  6

 40
3.17499995
 41
3.17499995
 42
3.17498779
 43
3.17498779
 44
419.98898315
 45
296.98950195
 46
58.32
 47
40.32
 48
0.0
 49
0.0
140
0.0
141
0.0
142
1.0
143
1.0
 70
  1716
 72
     1
 73
     0
 74
     2
  7
big.ctb
 75
    16
147
1.0
148
0.0
149
0.0
  0
PLOTSETTINGS
  5
759
102
{ACAD_REACTORS
330
566
102
}
330
566
100
AcDbPlotSettings
  1
A3(2倍)
  2
\\AWTECPC05\HP DeskJet 1120C
  4
A3
  6

 40
5.95841646
 41
13.49375153
 42
6.04309082
 43
3.67242432
 44
296.92599487
 45
419.94665527
 46
-67.54
 47
-95.61
 48
0.0
 49
0.0
140
0.0
141
0.0
142
1.0
143
0.5
 70
  1716
 72
     1
 73
     1
 74
     2
  7
big.ctb
 75
    27
147
2.0
148
0.0
149
0.0
  0
PLOTSETTINGS
  5
755
102
{ACAD_REACTORS
330
566
102
}
330
566
100
AcDbPlotSettings
  1
A4(0.5倍)
  2
\\AWTECPC05\HP DeskJet 1120C
  4
A4
  6

 40
4.18041658
 41
13.49374962
 42
4.18040466
 43
3.92642212
 44
209.97332764
 45
296.92599487
 46
48.31
 47
65.5
 48
0.0
 49
0.0
140
0.0
141
0.0
142
1.0
143
2.0
 70
  1716
 72
     1
 73
     1
 74
     2
  7
big.ctb
 75
    17
147
0.5
148
0.0
149
0.0
  0
PLOTSETTINGS
  5
754
102
{ACAD_REACTORS
330
566
102
}
330
566
100
AcDbPlotSettings
  1
A4(1倍)
  2
\\AWTECPC05\HP DeskJet 1120C
  4
A4
  6

 40
4.18041658
 41
13.49374962
 42
4.18040466
 43
3.92642212
 44
209.97332764
 45
296.92599487
 46
-4.19
 47
-8.75
 48
0.0
 49
0.0
140
0.0
141
0.0
142
1.0
143
1.0
 70
  1716
 72
     1
 73
     1
 74
     2
  7
big.ctb
 75
    16
147
1.0
148
0.0
149
0.0
  0
PLOTSETTINGS
  5
708
102
{ACAD_REACTORS
330
566
102
}
330
566
100
AcDbPlotSettings
  1
A4(1倍)(2000)
  2
SII LS-1300 (D-SCAN)
  4
User259
  6

 40
3.17499995
 41
3.17499995
 42
3.17498779
 43
3.17500305
 44
296.98950195
 45
209.99449158
 46
-3.18
 47
-3.18
 48
0.0
 49
0.0
140
0.0
141
0.0
142
1.0
143
1.0
 70
  1716
 72
     1
 73
     0
 74
     2
  7
big.ctb
 75
    16
147
1.0
148
0.0
149
0.0
  0
PLOTSETTINGS
  5
756
102
{ACAD_REACTORS
330
566
102
}
330
566
100
AcDbPlotSettings
  1
A4(2倍)
  2
\\AWTECPC05\HP DeskJet 1120C
  4
A4
  6

 40
4.18041658
 41
13.49374962
 42
4.18040466
 43
3.92642212
 44
209.97332764
 45
296.92599487
 46
-109.19
 47
-157.25
 48
0.0
 49
0.0
140
0.0
141
0.0
142
1.0
143
0.5
 70
  1716
 72
     1
 73
     1
 74
     2
  7
big.ctb
 75
    27
147
2.0
148
0.0
149
0.0
  0
ACDBPLACEHOLDER
  5
564
102
{ACAD_REACTORS
330
563
102
}
330
563
100
AcDbPlaceHolder
280
     0
  0
XRECORD
  5
141F
102
{ACAD_REACTORS
330
1415
102
}
330
1415
100
AcDbXrecord
 90
        0
  0
XRECORD
  5
1423
102
{ACAD_REACTORS
330
1415
102
}
330
1415
100
AcDbXrecord
1000
DSTYLE
1002
{
1070
    79
 70
     2
1070
   179
 70
     3
1070
   341
340
594
1070
   343
340
594
1070
   344
340
594
1070
   371
 70
    -1
1070
   372
 70
    -1
1002
}
  0
XRECORD
  5
1420
102
{ACAD_REACTORS
330
1415
102
}
330
1415
100
AcDbXrecord
  1
{51294030-9CB4-11D3-8E18-00A0C925D94D}
  0
XRECORD
  5
1418
102
{ACAD_REACTORS
330
1415
102
}
330
1415
100
AcDbXrecord
  1

  0
XRECORD
  5
141E
102
{ACAD_REACTORS
330
1415
102
}
330
1415
100
AcDbXrecord
 90
        0
  0
XRECORD
  5
141A
102
{ACAD_REACTORS
330
1415
102
}
330
1415
100
AcDbXrecord
340
565
  0
XRECORD
  5
141D
102
{ACAD_REACTORS
330
1415
102
}
330
1415
100
AcDbXrecord
 90
    10781
  0
XRECORD
  5
141B
102
{ACAD_REACTORS
330
1415
102
}
330
1415
100
AcDbXrecord
340
566
  0
XRECORD
  5
141C
102
{ACAD_REACTORS
330
1415
102
}
330
1415
100
AcDbXrecord
340
563
  0
XRECORD
  5
1422
102
{ACAD_REACTORS
330
1415
102
}
330
1415
100
AcDbXrecord
 40
0.0
  0
XRECORD
  5
1426
102
{ACAD_REACTORS
330
1415
102
}
330
1415
100
AcDbXrecord
340
0
  0
XRECORD
  5
142C
102
{ACAD_REACTORS
330
1415
102
}
330
1415
100
AcDbXrecord
 10
0.0
 20
0.0
 30
0.0
  0
XRECORD
  5
1428
102
{ACAD_REACTORS
330
1415
102
}
330
1415
100
AcDbXrecord
 10
0.0
 20
0.0
 30
0.0
  0
XRECORD
  5
142B
102
{ACAD_REACTORS
330
1415
102
}
330
1415
100
AcDbXrecord
 10
0.0
 20
0.0
 30
0.0
  0
XRECORD
  5
1429
102
{ACAD_REACTORS
330
1415
102
}
330
1415
100
AcDbXrecord
 10
0.0
 20
0.0
 30
0.0
  0
XRECORD
  5
142A
102
{ACAD_REACTORS
330
1415
102
}
330
1415
100
AcDbXrecord
 10
0.0
 20
0.0
 30
0.0
  0
XRECORD
  5
1427
102
{ACAD_REACTORS
330
1415
102
}
330
1415
100
AcDbXrecord
 10
0.0
 20
0.0
 30
0.0
  0
XRECORD
  5
1424
102
{ACAD_REACTORS
330
1415
102
}
330
1415
100
AcDbXrecord
340
0
  0
XRECORD
  5
1425
102
{ACAD_REACTORS
330
1415
102
}
330
1415
100
AcDbXrecord
 70
     0
  0
XRECORD
  5
1419
102
{ACAD_REACTORS
330
1415
102
}
330
1415
100
AcDbXrecord
  1
big.ctb
  0
XRECORD
  5
1416
102
{ACAD_REACTORS
330
1415
102
}
330
1415
100
AcDbXrecord
 90
        1
  0
XRECORD
  5
1417
102
{ACAD_REACTORS
330
1415
102
}
330
1415
100
AcDbXrecord
 90
       70
  0
XRECORD
  5
142F
102
{ACAD_REACTORS
330
1415
102
}
330
1415
100
AcDbXrecord
340
0
  0
XRECORD
  5
1435
102
{ACAD_REACTORS
330
1415
102
}
330
1415
100
AcDbXrecord
 10
0.0
 20
0.0
 30
0.0
  0
XRECORD
  5
1431
102
{ACAD_REACTORS
330
1415
102
}
330
1415
100
AcDbXrecord
 10
0.0
 20
0.0
 30
0.0
  0
XRECORD
  5
1434
102
{ACAD_REACTORS
330
1415
102
}
330
1415
100
AcDbXrecord
 10
0.0
 20
0.0
 30
0.0
  0
XRECORD
  5
1432
102
{ACAD_REACTORS
330
1415
102
}
330
1415
100
AcDbXrecord
 10
0.0
 20
0.0
 30
0.0
  0
XRECORD
  5
1433
102
{ACAD_REACTORS
330
1415
102
}
330
1415
100
AcDbXrecord
 10
0.0
 20
0.0
 30
0.0
  0
XRECORD
  5
1430
102
{ACAD_REACTORS
330
1415
102
}
330
1415
100
AcDbXrecord
 10
0.0
 20
0.0
 30
0.0
  0
XRECORD
  5
142D
102
{ACAD_REACTORS
330
1415
102
}
330
1415
100
AcDbXrecord
340
0
  0
XRECORD
  5
142E
102
{ACAD_REACTORS
330
1415
102
}
330
1415
100
AcDbXrecord
 70
     0
  0
XRECORD
  5
1421
102
{ACAD_REACTORS
330
1415
102
}
330
1415
100
AcDbXrecord
  1
{76E18277-2269-45F4-A0E6-1E34BFE67EF0}
  0
XRECORD
  5
560
102
{ACAD_REACTORS
330
540
102
}
330
540
100
AcDbXrecord
  1
2.0.0
  0
ENDSEC
  0
EOF
