  0
SECTION
  2
HEADER
  9
$ACADVER
  1
AC1014
  9
$ACADMAINTVER
 70
     9
  9
$DWGCODEPAGE
  3
ANSI_932
  9
$INSBASE
 10
0.0
 20
0.0
 30
0.0
  9
$EXTMIN
 10
-70.01495247
 20
-19.5703201
 30
-0.00152582
  9
$EXTMAX
 10
54.5112617
 20
54.96170761
 30
0.00000003
  9
$LIMMIN
 10
0.0
 20
0.0
  9
$LIMMAX
 10
420.0
 20
297.0
  9
$ORTHOMODE
 70
     1
  9
$REGENMODE
 70
     1
  9
$FILLMODE
 70
     1
  9
$QTEXTMODE
 70
     0
  9
$MIRRTEXT
 70
     1
  9
$DRAGMODE
 70
     2
  9
$LTSCALE
 40
10.0
  9
$OSMODE
 70
   549
  9
$ATTMODE
 70
     1
  9
$TEXTSIZE
 40
3.0
  9
$TRACEWID
 40
1.0
  9
$TEXTSTYLE
  7
YOKO
  9
$CLAYER
  8
245
  9
$CELTYPE
  6
BYLAYER
  9
$CECOLOR
 62
   256
  9
$CELTSCALE
 40
1.0
  9
$DELOBJ
 70
     1
  9
$DISPSILH
 70
     0
  9
$DIMSCALE
 40
1.0
  9
$DIMASZ
 40
2.0
  9
$DIMEXO
 40
2.0
  9
$DIMDLI
 40
2.5
  9
$DIMRND
 40
0.0
  9
$DIMDLE
 40
0.0
  9
$DIMEXE
 40
2.0
  9
$DIMTP
 40
0.0
  9
$DIMTM
 40
0.0
  9
$DIMTXT
 40
4.0
  9
$DIMCEN
 40
0.0
  9
$DIMTSZ
 40
0.0
  9
$DIMTOL
 70
     0
  9
$DIMLIM
 70
     0
  9
$DIMTIH
 70
     0
  9
$DIMTOH
 70
     0
  9
$DIMSE1
 70
     0
  9
$DIMSE2
 70
     0
  9
$DIMTAD
 70
     3
  9
$DIMZIN
 70
     8
  9
$DIMBLK
  1

  9
$DIMASO
 70
     1
  9
$DIMSHO
 70
     1
  9
$DIMPOST
  1

  9
$DIMAPOST
  1

  9
$DIMALT
 70
     0
  9
$DIMALTD
 70
     2
  9
$DIMALTF
 40
25.4
  9
$DIMLFAC
 40
1.0
  9
$DIMTOFL
 70
     1
  9
$DIMTVP
 40
0.0
  9
$DIMTIX
 70
     1
  9
$DIMSOXD
 70
     0
  9
$DIMSAH
 70
     1
  9
$DIMBLK1
  1
OPEN
  9
$DIMBLK2
  1
OPEN
  9
$DIMSTYLE
  2
BIGT
  9
$DIMCLRD
 70
   256
  9
$DIMCLRE
 70
   256
  9
$DIMCLRT
 70
    40
  9
$DIMTFAC
 40
1.0
  9
$DIMGAP
 40
1.0
  9
$DIMJUST
 70
     0
  9
$DIMSD1
 70
     0
  9
$DIMSD2
 70
     0
  9
$DIMTOLJ
 70
     1
  9
$DIMTZIN
 70
     8
  9
$DIMALTZ
 70
     0
  9
$DIMALTTZ
 70
     0
  9
$DIMFIT
 70
     3
  9
$DIMUPT
 70
     0
  9
$DIMUNIT
 70
     2
  9
$DIMDEC
 70
     3
  9
$DIMTDEC
 70
     3
  9
$DIMALTU
 70
     2
  9
$DIMALTTD
 70
     2
  9
$DIMTXSTY
  7
STANDARD
  9
$DIMAUNIT
 70
     0
  9
$LUNITS
 70
     2
  9
$LUPREC
 70
     3
  9
$SKETCHINC
 40
1.0
  9
$FILLETRAD
 40
0.0
  9
$AUNITS
 70
     0
  9
$AUPREC
 70
     3
  9
$MENU
  1
.
  9
$ELEVATION
 40
0.0
  9
$PELEVATION
 40
0.0
  9
$THICKNESS
 40
0.0
  9
$LIMCHECK
 70
     0
  9
$BLIPMODE
 70
     0
  9
$CHAMFERA
 40
10.0
  9
$CHAMFERB
 40
10.0
  9
$CHAMFERC
 40
0.0
  9
$CHAMFERD
 40
0.0
  9
$SKPOLY
 70
     0
  9
$TDCREATE
 40
2455128.615224421
  9
$TDUPDATE
 40
2455316.545900243
  9
$TDINDWG
 40
0.0058624421
  9
$TDUSRTIMER
 40
0.0058624421
  9
$USRTIMER
 70
     1
  9
$ANGBASE
 50
0.0
  9
$ANGDIR
 70
     0
  9
$PDMODE
 70
     1
  9
$PDSIZE
 40
-5.0
  9
$PLINEWID
 40
0.0
  9
$COORDS
 70
     0
  9
$SPLFRAME
 70
     0
  9
$SPLINETYPE
 70
     6
  9
$SPLINESEGS
 70
     8
  9
$ATTDIA
 70
     0
  9
$ATTREQ
 70
     1
  9
$HANDLING
 70
-16383
  9
$HANDSEED
  5
12F8
  9
$SURFTAB1
 70
     6
  9
$SURFTAB2
 70
     6
  9
$SURFTYPE
 70
     6
  9
$SURFU
 70
     6
  9
$SURFV
 70
     6
  9
$UCSNAME
  2

  9
$UCSORG
 10
0.0
 20
0.0
 30
0.0
  9
$UCSXDIR
 10
1.0
 20
0.0
 30
0.0
  9
$UCSYDIR
 10
0.0
 20
1.0
 30
0.0
  9
$PUCSNAME
  2

  9
$PUCSORG
 10
0.0
 20
0.0
 30
0.0
  9
$PUCSXDIR
 10
1.0
 20
0.0
 30
0.0
  9
$PUCSYDIR
 10
0.0
 20
1.0
 30
0.0
  9
$USERI1
 70
     1
  9
$USERI2
 70
     0
  9
$USERI3
 70
     0
  9
$USERI4
 70
     0
  9
$USERI5
 70
     0
  9
$USERR1
 40
0.0
  9
$USERR2
 40
0.0
  9
$USERR3
 40
0.0
  9
$USERR4
 40
0.0
  9
$USERR5
 40
0.0
  9
$WORLDVIEW
 70
     1
  9
$SHADEDGE
 70
     3
  9
$SHADEDIF
 70
    70
  9
$TILEMODE
 70
     1
  9
$MAXACTVP
 70
    16
  9
$PINSBASE
 10
0.0
 20
0.0
 30
0.0
  9
$PLIMCHECK
 70
     0
  9
$PEXTMIN
 10
1.00000000E+20
 20
1.00000000E+20
 30
1.00000000E+20
  9
$PEXTMAX
 10
-1.00000000E+20
 20
-1.00000000E+20
 30
-1.00000000E+20
  9
$PLIMMIN
 10
0.0
 20
0.0
  9
$PLIMMAX
 10
420.0
 20
297.0
  9
$UNITMODE
 70
     0
  9
$VISRETAIN
 70
     0
  9
$PLINEGEN
 70
     0
  9
$PSLTSCALE
 70
     1
  9
$TREEDEPTH
 70
  3020
  9
$PICKSTYLE
 70
     0
  9
$CMLSTYLE
  2
STANDARD
  9
$CMLJUST
 70
     0
  9
$CMLSCALE
 40
1.0
  9
$PROXYGRAPHICS
 70
     1
  9
$MEASUREMENT
 70
     1
  0
ENDSEC
  0
SECTION
  2
CLASSES
  0
CLASS
  1
XRECORD
  2
AcDbXrecord
  3
AutoCAD 2000
 90
        0
280
     0
281
     0
  0
CLASS
  1
ACDBDICTIONARYWDFLT
  2
AcDbDictionaryWithDefault
  3
AutoCAD 2000
 90
        0
280
     0
281
     0
  0
CLASS
  1
ACDBPLACEHOLDER
  2
AcDbPlaceHolder
  3
AutoCAD 2000
 90
        0
280
     0
281
     0
  0
CLASS
  1
LAYOUT
  2
AcDbLayout
  3
AutoCAD 2000
 90
        0
280
     0
281
     0
  0
CLASS
  1
PLOTSETTINGS
  2
AcDbPlotSettings
  3
AutoCAD 2000
 90
        0
280
     0
281
     0
  0
CLASS
  1
LONG_TRANSACTION
  2
AcDbLongTransaction
  3
AutoCAD 2000
 90
        0
280
     0
281
     0
  0
CLASS
  1
LWPOLYLINE
  2
AcDbPolyline
  3
AutoCAD 2000
 90
        0
280
     0
281
     1
  0
CLASS
  1
HATCH
  2
AcDbHatch
  3
AutoCAD 2000
 90
        0
280
     0
281
     1
  0
CLASS
  1
XRECORD
  2
AcDbXrecord
  3
AutoCAD 2000
 90
        0
280
     0
281
     0
  0
CLASS
  1
LONG_TRANSACTION
  2
AcDbLongTransaction
  3
AutoCAD 2000
 90
        0
280
     0
281
     0
  0
CLASS
  1
LWPOLYLINE
  2
AcDbPolyline
  3
AutoCAD 2000
 90
        0
280
     0
281
     1
  0
CLASS
  1
HATCH
  2
AcDbHatch
  3
AutoCAD 2000
 90
        0
280
     0
281
     1
  0
CLASS
  1
XRECORD
  2
AcDbXrecord
  3
AutoCAD 2000
 90
        0
280
     0
281
     0
  0
ENDSEC
  0
SECTION
  2
TABLES
  0
TABLE
  2
VPORT
  5
8
330
0
100
AcDbSymbolTable
 70
     2
  0
VPORT
  5
12D3
330
8
100
AcDbSymbolTableRecord
100
AcDbViewportTableRecord
  2
*ACTIVE
 70
     0
 10
0.0
 20
0.0
 11
1.0
 21
1.0
 12
-7.75184539
 22
17.69569376
 13
0.0
 23
0.0
 14
7.0
 24
7.0
 15
7.0
 25
7.0
 16
0.0
 26
0.0
 36
1.0
 17
0.0
 27
0.0
 37
0.0
 40
87.43258703
 41
1.43184713
 42
50.0
 43
0.0
 44
0.0
 50
0.0
 51
0.0
 71
     0
 72
  2000
 73
     1
 74
     0
 75
     0
 76
     0
 77
     0
 78
     0
  0
ENDTAB
  0
TABLE
  2
LTYPE
  5
5
330
0
100
AcDbSymbolTable
 70
     3
  0
LTYPE
  5
14
330
5
100
AcDbSymbolTableRecord
100
AcDbLinetypeTableRecord
  2
BYBLOCK
 70
     0
  3

 72
    65
 73
     0
 40
0.0
  0
LTYPE
  5
15
330
5
100
AcDbSymbolTableRecord
100
AcDbLinetypeTableRecord
  2
BYLAYER
 70
     0
  3

 72
    65
 73
     0
 40
0.0
  0
LTYPE
  5
16
330
5
100
AcDbSymbolTableRecord
100
AcDbLinetypeTableRecord
  2
CONTINUOUS
 70
     0
  3
Solid line
 72
    65
 73
     0
 40
0.0
  0
LTYPE
  5
258
330
5
100
AcDbSymbolTableRecord
100
AcDbLinetypeTableRecord
  2
CENTER2
 70
     0
  3
___ _ ___ _ ___ _ ___ _ ___ _ ___ _ ___ _ ___ _
 72
    65
 73
     4
 40
1.125
 49
0.75
 74
     0
 49
-0.125
 74
     0
 49
0.125
 74
     0
 49
-0.125
 74
     0
  0
LTYPE
  5
25C
330
5
100
AcDbSymbolTableRecord
100
AcDbLinetypeTableRecord
  2
HIDDEN2
 70
     0
  3
_ _ _ _ _ _ _ _ _ _ _ _ _ _ _ _ _ _ _ _ _ _ _ _
 72
    65
 73
     2
 40
0.1875
 49
0.125
 74
     0
 49
-0.0625
 74
     0
  0
ENDTAB
  0
TABLE
  2
LAYER
  5
2
330
0
100
AcDbSymbolTable
 70
    12
  0
LAYER
  5
F
330
2
100
AcDbSymbolTableRecord
100
AcDbLayerTableRecord
  2
0
 70
     0
 62
     7
  6
CONTINUOUS
  0
LAYER
  5
1AA
330
2
100
AcDbSymbolTableRecord
100
AcDbLayerTableRecord
  2
240
 70
     0
 62
     4
  6
CONTINUOUS
  0
LAYER
  5
1AB
330
2
100
AcDbSymbolTableRecord
100
AcDbLayerTableRecord
  2
241
 70
     0
 62
   211
  6
CONTINUOUS
  0
LAYER
  5
1AC
330
2
100
AcDbSymbolTableRecord
100
AcDbLayerTableRecord
  2
242
 70
     0
 62
     3
  6
CONTINUOUS
  0
LAYER
  5
1AD
330
2
100
AcDbSymbolTableRecord
100
AcDbLayerTableRecord
  2
243
 70
     0
 62
   211
  6
HIDDEN2
  0
LAYER
  5
1AF
330
2
100
AcDbSymbolTableRecord
100
AcDbLayerTableRecord
  2
245
 70
     0
 62
     2
  6
CENTER2
  0
LAYER
  5
21E
330
2
100
AcDbSymbolTableRecord
100
AcDbLayerTableRecord
  2
250
 70
     0
 62
     3
  6
CONTINUOUS
  0
LAYER
  5
21F
330
2
100
AcDbSymbolTableRecord
100
AcDbLayerTableRecord
  2
251
 70
     0
 62
    40
  6
CONTINUOUS
  0
LAYER
  5
5C4
330
2
100
AcDbSymbolTableRecord
100
AcDbLayerTableRecord
  2
DEFPOINTS
 70
     0
 62
     7
  6
CONTINUOUS
  0
LAYER
  5
8C3
330
2
100
AcDbSymbolTableRecord
100
AcDbLayerTableRecord
  2
AM_5
 70
     0
 62
     3
  6
CONTINUOUS
  0
ENDTAB
  0
TABLE
  2
STYLE
  5
3
330
0
100
AcDbSymbolTable
 70
     2
  0
STYLE
  5
10
330
3
100
AcDbSymbolTableRecord
100
AcDbTextStyleTableRecord
  2
STANDARD
 70
     0
 40
0.0
 41
1.0
 50
0.0
 71
     0
 42
3.0
  3
romans.shx
  4
BIGFONT.SHX
  0
STYLE
  5
339
330
3
100
AcDbSymbolTableRecord
100
AcDbTextStyleTableRecord
  2
YOKO
 70
     0
 40
0.0
 41
1.0
 50
0.0
 71
     0
 42
3.0
  3
romans.shx
  4
extfont.shx
  0
ENDTAB
  0
TABLE
  2
VIEW
  5
6
330
0
100
AcDbSymbolTable
 70
     0
  0
ENDTAB
  0
TABLE
  2
UCS
  5
7
330
0
100
AcDbSymbolTable
 70
     0
  0
ENDTAB
  0
TABLE
  2
APPID
  5
9
330
0
100
AcDbSymbolTable
 70
    15
  0
APPID
  5
11
330
9
100
AcDbSymbolTableRecord
100
AcDbRegAppTableRecord
  2
ACAD
 70
     0
  0
APPID
  5
1B1
330
9
100
AcDbSymbolTableRecord
100
AcDbRegAppTableRecord
  2
GLOBAL
 70
     0
  0
APPID
  5
2A4
330
9
100
AcDbSymbolTableRecord
100
AcDbRegAppTableRecord
  2
DETAIL
 70
     0
  0
APPID
  5
5FD
330
9
100
AcDbSymbolTableRecord
100
AcDbRegAppTableRecord
  2
GRPNAME
 70
     0
  0
APPID
  5
5FE
330
9
100
AcDbSymbolTableRecord
100
AcDbRegAppTableRecord
  2
GPARA
 70
     0
  0
APPID
  5
6C4
330
9
100
AcDbSymbolTableRecord
100
AcDbRegAppTableRecord
  2
DCO15
 70
     0
  0
APPID
  5
6C5
330
9
100
AcDbSymbolTableRecord
100
AcDbRegAppTableRecord
  2
ITEMNAME
 70
     0
  0
APPID
  5
6C6
330
9
100
AcDbSymbolTableRecord
100
AcDbRegAppTableRecord
  2
GRADE_0
 70
     0
  0
APPID
  5
8C5
330
9
100
AcDbSymbolTableRecord
100
AcDbRegAppTableRecord
  2
GENIUS_GENODEF_13
 70
     0
  0
APPID
  5
8C6
330
9
100
AcDbSymbolTableRecord
100
AcDbRegAppTableRecord
  2
GENIUS_GENOREF_13
 70
     0
  0
APPID
  5
8C7
330
9
100
AcDbSymbolTableRecord
100
AcDbRegAppTableRecord
  2
GENIUS_GENOBJ-N-FIL_13
 70
     0
  0
APPID
  5
8C8
330
9
100
AcDbSymbolTableRecord
100
AcDbRegAppTableRecord
  2
HATCH_TYPE
 70
     0
  0
APPID
  5
8C9
330
9
100
AcDbSymbolTableRecord
100
AcDbRegAppTableRecord
  2
HATCH_DISPLAY
 70
     0
  0
APPID
  5
8CA
330
9
100
AcDbSymbolTableRecord
100
AcDbRegAppTableRecord
  2
HATCH_DISTANCE
 70
     0
  0
APPID
  5
D81
330
9
100
AcDbSymbolTableRecord
100
AcDbRegAppTableRecord
  2
CONTENTBLOCKICON
 70
     0
  0
ENDTAB
  0
TABLE
  2
DIMSTYLE
  5
A
330
0
100
AcDbSymbolTable
 70
     2
  0
DIMSTYLE
105
725
102
{ACAD_REACTORS
330
114F
102
}
330
A
100
AcDbSymbolTableRecord
100
AcDbDimStyleTableRecord
  2
BIGT
 70
     0
  3

  4

  5

  6
OPEN
  7
OPEN
 40
1.0
 41
2.23
 42
0.5
 43
2.5
 44
1.0
 45
0.0
 46
0.0
 47
0.0
 48
0.0
140
2.8
141
0.0
142
0.0
143
25.4
144
1.0
145
0.0
146
1.0
147
1.0
 71
     0
 72
     0
 73
     0
 74
     0
 75
     0
 76
     0
 77
     3
 78
     8
170
     0
171
     2
172
     1
173
     1
174
     1
175
     0
176
   256
177
   256
178
    40
270
     2
271
     3
272
     3
273
     2
274
     2
340
10
275
     0
280
     0
281
     0
282
     0
283
     1
284
     8
285
     0
286
     0
287
     3
288
     0
  0
DIMSTYLE
105
8C4
102
{ACAD_REACTORS
330
1032
330
1133
102
}
330
A
100
AcDbSymbolTableRecord
100
AcDbDimStyleTableRecord
  2
BIGT$0
 70
     0
  3

  4

  5
OPEN
  6

  7

 40
1.0
 41
2.23
 42
0.5
 43
7.0
 44
1.0
 45
0.0
 46
0.0
 47
0.0
 48
0.01
140
2.8
141
0.0
142
0.0
143
25.4
144
1.0
145
0.0
146
1.0
147
1.0
 71
     0
 72
     0
 73
     0
 74
     0
 75
     0
 76
     0
 77
     3
 78
     9
170
     0
171
     2
172
     1
173
     0
174
     1
175
     0
176
   256
177
   256
178
    40
270
     2
271
     3
272
     3
273
     2
274
     2
340
10
275
     0
280
     0
281
     0
282
     0
283
     1
284
     8
285
     0
286
     0
287
     3
288
     0
  0
ENDTAB
  0
TABLE
  2
BLOCK_RECORD
  5
1
330
0
100
AcDbSymbolTable
 70
    13
  0
BLOCK_RECORD
  5
1A
102
{ACAD_XDICTIONARY
360
D7F
102
}
330
1
100
AcDbSymbolTableRecord
100
AcDbBlockTableRecord
  2
*MODEL_SPACE
  0
BLOCK_RECORD
  5
17
102
{ACAD_XDICTIONARY
360
D7D
102
}
330
1
100
AcDbSymbolTableRecord
100
AcDbBlockTableRecord
  2
*PAPER_SPACE
  0
BLOCK_RECORD
  5
594
330
1
100
AcDbSymbolTableRecord
100
AcDbBlockTableRecord
  2
_OPEN
  0
BLOCK_RECORD
  5
6E3
330
1
100
AcDbSymbolTableRecord
100
AcDbBlockTableRecord
  2
矢印なし
  0
BLOCK_RECORD
  5
762
330
1
100
AcDbSymbolTableRecord
100
AcDbBlockTableRecord
  2
1
1001
CONTENTBLOCKICON
1071
        0
1004
2800000020000000200000000100080000000000000400000000000000000000000000000000000000000000000080000080000000808000800000008000800080800000C0C0C000C0DCC000F0CAA6000020400000206000002080000020A0000020C0000020E00000400000004020000040400000406000004080000040A0
1004
000040C0000040E00000600000006020000060400000606000006080000060A0000060C0000060E00000800000008020000080400000806000008080000080A0000080C0000080E00000A0000000A0200000A0400000A0600000A0800000A0A00000A0C00000A0E00000C0000000C0200000C0400000C0600000C0800000C0
1004
A00000C0C00000C0E00000E0000000E0200000E0400000E0600000E0800000E0A00000E0C00000E0E00040000000400020004000400040006000400080004000A0004000C0004000E00040200000402020004020400040206000402080004020A0004020C0004020E000404000004040200040404000404060004040800040
1004
40A0004040C0004040E00040600000406020004060400040606000406080004060A0004060C0004060E00040800000408020004080400040806000408080004080A0004080C0004080E00040A0000040A0200040A0400040A0600040A0800040A0A00040A0C00040A0E00040C0000040C0200040C0400040C0600040C08000
1004
40C0A00040C0C00040C0E00040E0000040E0200040E0400040E0600040E0800040E0A00040E0C00040E0E00080000000800020008000400080006000800080008000A0008000C0008000E00080200000802020008020400080206000802080008020A0008020C0008020E00080400000804020008040400080406000804080
1004
008040A0008040C0008040E00080600000806020008060400080606000806080008060A0008060C0008060E00080800000808020008080400080806000808080008080A0008080C0008080E00080A0000080A0200080A0400080A0600080A0800080A0A00080A0C00080A0E00080C0000080C0200080C0400080C0600080C0
1004
800080C0A00080C0C00080C0E00080E0000080E0200080E0400080E0600080E0800080E0A00080E0C00080E0E000C0000000C0002000C0004000C0006000C0008000C000A000C000C000C000E000C0200000C0202000C0204000C0206000C0208000C020A000C020C000C020E000C0400000C0402000C0404000C0406000C0
1004
408000C040A000C040C000C040E000C0600000C0602000C0604000C0606000C0608000C060A000C060C000C060E000C0800000C0802000C0804000C0806000C0808000C080A000C080C000C080E000C0A00000C0A02000C0A04000C0A06000C0A08000C0A0A000C0A0C000C0A0E000C0C00000C0C02000C0C04000C0C06000
1004
C0C08000C0C0A000F0FBFF00A4A0A000808080000000FF0000FF000000FFFF00FF000000FF00FF00FFFF0000FFFFFF0000000000000000000000000000000000000000000000000000000000000000000000000000000000000000000000000000000000000000000000000000000000000000000000000000000000000000
1004
00000000000000000000000000000000000000000000000000000000000000000000000000000000000000000000000000000000000000000000000000000000000000000000000000000000000000000000000000000000000000000000000000000000000000000000000000000000000000000000000000000000000000
1004
00000000000000000000000000000000000000000000000000000000000000000000000000000000000000000000000000000000000000000000000000000000000000000000000000000000000000000000000000000000000000000000000000000000000000000000000000000000000000000000000000000000000000
1004
000000FEFEFEFEFE000000000000000000000000000000000000000000000000000000FEFEE7FEFE0000FE00000000000000000000FEFEFEFEFEFEFEFEFEFEFEFEFEFEFEFEE7E7E7FFFFFEFEFEFEFEFEFE00000000FE00000000E7FBE70000E700E7E7E700E7E7E7FFFFE7E700000000FE00000000FE00000000E7FBE70000
1004
E7FBFBE7E700E7E7E7FFFFE7E700000000FE00000000FE00000000E7FBE70000E7FBE7E7E700E7E7E7FFFFE7E700000000FE000000FBFEFBFBFBFBE7FBE7FBFBE7FBE7E7E7FBE7E7E7FFFFE7E7FBE7FBFBFEFB000000FE00000000E7FBE70000E700E7E7E700E7E7E7FFE7E7E7E7E7E7E7FE00000000FE00000000E7FBE700
1004
00E700E7E7E700E7E7E7FFFFE7E700000000FE00000000FEFEFEFEFEFEFEFEFEFEFEFEFEFEFEFEE7E7E7FFFFFEE7FEFEFEFEFE000000000000000000000000000000000000FEFEE7FEFE0000FE000000000000000000000000000000000000000000000000FEFEFEFEFE000000000000000000000000000000000000000000
1004
00000000000000000000000000000000000000000000000000000000000000000000000000000000000000000000000000000000000000000000000000000000000000000000000000000000000000000000000000000000000000000000000000000000000000000000000000000000000000000000000000000000000000
1004
00000000000000000000000000000000000000000000000000000000000000000000000000000000000000000000000000000000000000000000000000000000000000000000000000000000000000000000000000000000000000000000000000000000000000000000000000000000000000000000000000000000000000
1004
0000000000000000000000000000000000000000000000000000000000000000000000000000000000000000000000000000000000000000
  0
BLOCK_RECORD
  5
1153
330
1
100
AcDbSymbolTableRecord
100
AcDbBlockTableRecord
  2
*D10
  0
BLOCK_RECORD
  5
115F
330
1
100
AcDbSymbolTableRecord
100
AcDbBlockTableRecord
  2
*D11
  0
BLOCK_RECORD
  5
116B
330
1
100
AcDbSymbolTableRecord
100
AcDbBlockTableRecord
  2
*D12
  0
ENDTAB
  0
ENDSEC
  0
SECTION
  2
BLOCKS
  0
BLOCK
  5
1B
330
1A
100
AcDbEntity
  8
0
100
AcDbBlockBegin
  2
*MODEL_SPACE
 70
     0
 10
0.0
 20
0.0
 30
0.0
  3
*MODEL_SPACE
  1

  0
ENDBLK
  5
1C
330
1A
100
AcDbEntity
  8
0
100
AcDbBlockEnd
  0
BLOCK
  5
18
330
17
100
AcDbEntity
 67
     1
  8
0
100
AcDbBlockBegin
  2
*PAPER_SPACE
 70
     0
 10
0.0
 20
0.0
 30
0.0
  3
*PAPER_SPACE
  1

  0
ENDBLK
  5
19
330
17
100
AcDbEntity
 67
     1
  8
0
100
AcDbBlockEnd
  0
BLOCK
  5
598
330
594
100
AcDbEntity
  8
0
100
AcDbBlockBegin
  2
_OPEN
 70
     0
 10
0.0
 20
0.0
 30
0.0
  3
_OPEN
  1

  0
LINE
  5
595
330
594
100
AcDbEntity
  8
0
  6
BYBLOCK
 62
     0
100
AcDbLine
 10
-1.0
 20
0.16666667
 30
0.0
 11
0.0
 21
0.0
 31
0.0
  0
LINE
  5
596
330
594
100
AcDbEntity
  8
0
  6
BYBLOCK
 62
     0
100
AcDbLine
 10
-1.0
 20
-0.16666667
 30
0.0
 11
0.0
 21
0.0
 31
0.0
  0
LINE
  5
597
330
594
100
AcDbEntity
  8
0
  6
BYBLOCK
 62
     0
100
AcDbLine
 10
0.0
 20
0.0
 30
0.0
 11
-1.0
 21
0.0
 31
0.0
  0
ENDBLK
  5
599
330
594
100
AcDbEntity
  8
0
100
AcDbBlockEnd
  0
BLOCK
  5
6E4
330
6E3
100
AcDbEntity
  8
0
100
AcDbBlockBegin
  2
矢印なし
 70
     0
 10
0.0
 20
0.0
 30
0.0
  3
矢印なし
  1

  0
ENDBLK
  5
6E5
330
6E3
100
AcDbEntity
  8
0
100
AcDbBlockEnd
  0
BLOCK
  5
89E
330
762
100
AcDbEntity
  8
0
100
AcDbBlockBegin
  2
1
 70
     0
 10
0.0
 20
0.0
 30
0.0
  3
1
  1

  0
LINE
  5
11B4
330
762
100
AcDbEntity
  8
241
  6
HIDDEN2
100
AcDbLine
 10
21.0
 20
5.5
 30
0.0
 11
35.0
 21
5.5
 31
0.0
  0
LINE
  5
11B5
330
762
100
AcDbEntity
  8
240
100
AcDbLine
 10
13.25980762
 20
15.0
 30
0.0
 11
34.0
 21
15.0
 31
0.0
  0
LINE
  5
11B6
330
762
100
AcDbEntity
  8
240
100
AcDbLine
 10
13.25980762
 20
-15.0
 30
0.0
 11
34.0
 21
-15.0
 31
0.0
  0
LINE
  5
11B7
330
762
100
AcDbEntity
  8
245
100
AcDbLine
 10
-70.0
 20
0.0
 30
0.0
 11
36.0
 21
0.0
 31
0.0
  0
LINE
  5
11B8
330
762
100
AcDbEntity
  8
240
100
AcDbLine
 10
-54.0
 20
12.5
 30
0.0
 11
-56.5
 21
15.0
 31
0.0
  0
LINE
  5
11B9
330
762
100
AcDbEntity
  8
240
100
AcDbLine
 10
-54.0
 20
-12.5
 30
0.0
 11
-56.5
 21
-15.0
 31
0.0
  0
LINE
  5
11BA
330
762
100
AcDbEntity
  8
240
100
AcDbLine
 10
-69.0
 20
-14.0
 30
0.0
 11
-69.0
 21
0.0
 31
0.0
  0
LINE
  5
11BB
330
762
100
AcDbEntity
  8
240
100
AcDbLine
 10
-68.0
 20
-15.0
 30
0.0
 11
-56.5
 21
-15.0
 31
0.0
  0
ARC
  5
11BC
330
762
100
AcDbEntity
  8
240
100
AcDbCircle
 10
-68.0
 20
-14.0
 30
0.0
 40
1.0
100
AcDbArc
 50
180.0
 51
270.0
  0
ARC
  5
11BD
330
762
100
AcDbEntity
  8
240
100
AcDbCircle
 10
-68.0
 20
14.0
 30
0.0
 40
1.0
100
AcDbArc
 50
90.0
 51
180.0
  0
LINE
  5
11BE
330
762
100
AcDbEntity
  8
240
100
AcDbLine
 10
-69.0
 20
14.0
 30
0.0
 11
-69.0
 21
0.0
 31
0.0
  0
LINE
  5
11BF
330
762
100
AcDbEntity
  8
240
100
AcDbLine
 10
-68.0
 20
15.0
 30
0.0
 11
-56.5
 21
15.0
 31
0.0
  0
LINE
  5
11C0
330
762
100
AcDbEntity
  8
241
100
AcDbLine
 10
10.0
 20
-11.7
 30
0.0
 11
10.0
 21
0.0
 31
0.0
  0
LINE
  5
11C1
330
762
100
AcDbEntity
  8
241
100
AcDbLine
 10
11.0
 20
-11.7
 30
0.0
 11
11.0
 21
0.0
 31
0.0
  0
LINE
  5
11C2
330
762
100
AcDbEntity
  8
241
100
AcDbLine
 10
13.0
 20
-15.15
 30
0.0
 11
13.0
 21
0.0
 31
0.0
  0
LINE
  5
11C3
330
762
100
AcDbEntity
  8
241
100
AcDbLine
 10
14.2
 20
-15.0
 30
0.0
 11
14.2
 21
0.0
 31
0.0
  0
LINE
  5
11C4
330
762
100
AcDbEntity
  8
241
100
AcDbLine
 10
1.20577137
 20
-15.35874397
 30
0.0
 11
1.20577137
 21
0.0
 31
0.0
  0
LINE
  5
11C5
330
762
100
AcDbEntity
  8
241
100
AcDbLine
 10
-6.12626129
 20
-19.5
 30
0.0
 11
-6.12626129
 21
0.0
 31
0.0
  0
LINE
  5
11C6
330
762
100
AcDbEntity
  8
241
  6
CONTINUOUS
100
AcDbLine
 10
-7.5
 20
-19.00000001
 30
0.0
 11
-7.5
 21
0.0
 31
0.0
  0
LINE
  5
11C7
330
762
100
AcDbEntity
  8
241
100
AcDbLine
 10
0.0
 20
-19.14125603
 30
0.0
 11
0.0
 21
0.0
 31
0.0
  0
LINE
  5
11C8
330
762
100
AcDbEntity
  8
241
100
AcDbLine
 10
-2.0
 20
-18.25
 30
0.0
 11
-2.0
 21
0.0
 31
0.0
  0
LINE
  5
11C9
330
762
100
AcDbEntity
  8
241
100
AcDbLine
 10
-4.5
 20
-18.25
 30
0.0
 11
-4.5
 21
0.0
 31
0.0
  0
LINE
  5
11CA
330
762
100
AcDbEntity
  8
241
100
AcDbLine
 10
-14.5
 20
-15.0
 30
0.0
 11
-14.5
 21
0.0
 31
0.0
  0
LINE
  5
11CB
330
762
100
AcDbEntity
  8
241
100
AcDbLine
 10
-19.0
 20
-13.75
 30
0.0
 11
-19.0
 21
0.0
 31
0.0
  0
LINE
  5
11CC
330
762
100
AcDbEntity
  8
241
100
AcDbLine
 10
-21.5
 20
-13.75
 30
0.0
 11
-21.5
 21
0.0
 31
0.0
  0
LINE
  5
11CD
330
762
100
AcDbEntity
  8
241
100
AcDbLine
 10
-29.5
 20
-13.75
 30
0.0
 11
-29.5
 21
0.0
 31
0.0
  0
LINE
  5
11CE
330
762
100
AcDbEntity
  8
241
100
AcDbLine
 10
-32.0
 20
-13.75
 30
0.0
 11
-32.0
 21
0.0
 31
0.0
  0
LINE
  5
11CF
330
762
100
AcDbEntity
  8
243
100
AcDbLine
 10
-42.0
 20
-12.5
 30
0.0
 11
-42.0
 21
12.5
 31
0.0
1001
GENIUS_GENOREF_13
1005
0
  0
LINE
  5
11D0
330
762
100
AcDbEntity
  8
243
100
AcDbLine
 10
-50.0
 20
-12.5
 30
0.0
 11
-50.0
 21
12.5
 31
0.0
1001
GENIUS_GENOREF_13
1005
0
  0
LINE
  5
11D1
330
762
100
AcDbEntity
  8
245
100
AcDbLine
 10
-46.0
 20
-15.0
 30
0.0
 11
-46.0
 21
15.0
 31
0.0
1001
GENIUS_GENOREF_13
1005
0
  0
ARC
  5
11D2
330
762
100
AcDbEntity
  8
0
100
AcDbCircle
 10
5.30159821
 20
-10.11381166
 30
0.0
 40
0.8911990356445432
100
AcDbArc
 50
0.0
 51
194.77079397
  0
ARC
  5
11D3
330
762
100
AcDbEntity
  8
0
100
AcDbCircle
 10
5.30159821
 20
-10.11381166
 30
0.0
 40
0.7214456176757899
100
AcDbArc
 50
0.0
 51
194.1274365
  0
LINE
  5
11D4
330
762
100
AcDbEntity
  8
0
100
AcDbLine
 10
4.70570239
 20
-9.70712757
 30
0.0
 11
4.58396137
 21
-9.58538656
 31
0.0
  0
LINE
  5
11D5
330
762
100
AcDbEntity
  8
0
100
AcDbLine
 10
6.14523556
 20
-9.8265631
 30
0.0
 11
5.58884677
 21
-9.27017431
 31
0.0
  0
LINE
  5
11D6
330
762
100
AcDbEntity
  8
240
100
AcDbLine
 10
-19.0
 20
-15.0
 30
0.0
 11
-14.5
 21
-15.0
 31
0.0
  0
LINE
  5
11D7
330
762
100
AcDbEntity
  8
240
100
AcDbLine
 10
-38.0
 20
-12.5
 30
0.0
 11
-35.5
 21
-15.0
 31
0.0
  0
LINE
  5
11D8
330
762
100
AcDbEntity
  8
240
100
AcDbLine
 10
-46.0
 20
-12.5
 30
0.0
 11
-38.0
 21
-12.5
 31
0.0
  0
LINE
  5
11D9
330
762
100
AcDbEntity
  8
240
100
AcDbLine
 10
-54.0
 20
-12.5
 30
0.0
 11
-46.0
 21
-12.5
 31
0.0
  0
LINE
  5
11DA
330
762
100
AcDbEntity
  8
240
100
AcDbLine
 10
-29.5
 20
-15.0
 30
0.0
 11
-21.5
 21
-15.0
 31
0.0
  0
ARC
  5
11DB
330
762
100
AcDbEntity
  8
240
100
AcDbCircle
 10
-30.75
 20
-13.75
 30
0.0
 40
1.24999999999827
100
AcDbArc
 50
180.0
 51
0.0
  0
LINE
  5
11DC
330
762
100
AcDbEntity
  8
240
100
AcDbLine
 10
-35.5
 20
-15.0
 30
0.0
 11
-32.0
 21
-15.0
 31
0.0
  0
LINE
  5
11DD
330
762
100
AcDbEntity
  8
240
100
AcDbLine
 10
-32.0
 20
-13.75
 30
0.0
 11
-32.0
 21
-15.0
 31
0.0
  0
LINE
  5
11DE
330
762
100
AcDbEntity
  8
240
100
AcDbLine
 10
-29.5
 20
-13.75
 30
0.0
 11
-29.5
 21
-15.0
 31
0.0
  0
ARC
  5
11DF
330
762
100
AcDbEntity
  8
240
100
AcDbCircle
 10
-20.25
 20
-13.75
 30
0.0
 40
1.249999999998089
100
AcDbArc
 50
180.0
 51
0.0
  0
LINE
  5
11E0
330
762
100
AcDbEntity
  8
240
100
AcDbLine
 10
-21.5
 20
-13.75
 30
0.0
 11
-21.5
 21
-15.0
 31
0.0
  0
LINE
  5
11E1
330
762
100
AcDbEntity
  8
240
100
AcDbLine
 10
-19.0
 20
-13.75
 30
0.0
 11
-19.0
 21
-15.0
 31
0.0
  0
LINE
  5
11E2
330
762
100
AcDbEntity
  8
240
100
AcDbLine
 10
10.0
 20
-15.0
 30
0.0
 11
1.97309836
 21
-15.0
 31
0.0
  0
LINE
  5
11E3
330
762
100
AcDbEntity
  8
240
100
AcDbLine
 10
-7.5
 20
-19.00000001
 30
0.0
 11
-6.12626128
 21
-19.5
 31
0.0
  0
LINE
  5
11E4
330
762
100
AcDbEntity
  8
240
100
AcDbLine
 10
-13.0
 20
-15.5
 30
0.0
 11
-13.5
 21
-16.0
 31
0.0
  0
LINE
  5
11E5
330
762
100
AcDbEntity
  8
240
100
AcDbLine
 10
-7.50000001
 20
-19.0
 30
0.0
 11
-13.5
 21
-19.0
 31
0.0
  0
LINE
  5
11E6
330
762
100
AcDbEntity
  8
240
100
AcDbLine
 10
-13.5
 20
-19.0
 30
0.0
 11
-13.5
 21
-16.0
 31
0.0
  0
LINE
  5
11E7
330
762
100
AcDbEntity
  8
241
  6
CONTINUOUS
100
AcDbLine
 10
-7.5
 20
-15.2
 30
0.0
 11
-13.0
 21
-15.2
 31
0.0
  0
LINE
  5
11E8
330
762
100
AcDbEntity
  8
240
100
AcDbLine
 10
-13.0
 20
-15.5
 30
0.0
 11
-13.0
 21
-14.7
 31
0.0
  0
LINE
  5
11E9
330
762
100
AcDbEntity
  8
240
100
AcDbLine
 10
-14.2
 20
-14.7
 30
0.0
 11
-13.0
 21
-14.7
 31
0.0
  0
LINE
  5
11EA
330
762
100
AcDbEntity
  8
240
100
AcDbLine
 10
-14.2
 20
-14.7
 30
0.0
 11
-14.5
 21
-15.0
 31
0.0
  0
LINE
  5
11EB
330
762
100
AcDbEntity
  8
240
100
AcDbLine
 10
0.19859884
 20
-18.75881905
 30
0.0
 11
1.00717253
 21
-15.74118096
 31
0.0
  0
ARC
  5
11EC
330
762
100
AcDbEntity
  8
240
100
AcDbCircle
 10
-3.25
 20
-18.25
 30
0.0
 40
1.250000000000339
100
AcDbArc
 50
180.0
 51
0.0
  0
LINE
  5
11ED
330
762
100
AcDbEntity
  8
240
100
AcDbLine
 10
-4.5
 20
-19.5
 30
0.0
 11
-6.12626129
 21
-19.5
 31
0.0
  0
LINE
  5
11EE
330
762
100
AcDbEntity
  8
240
100
AcDbLine
 10
-4.5
 20
-18.25
 30
0.0
 11
-4.5
 21
-19.5
 31
0.0
  0
LINE
  5
11EF
330
762
100
AcDbEntity
  8
240
100
AcDbLine
 10
-0.63567449
 20
-19.5
 30
0.0
 11
-2.0
 21
-19.5
 31
0.0
  0
LINE
  5
11F0
330
762
100
AcDbEntity
  8
240
100
AcDbLine
 10
-2.0
 20
-18.25
 30
0.0
 11
-2.0
 21
-19.5
 31
0.0
  0
ARC
  5
11F1
330
762
100
AcDbEntity
  8
240
100
AcDbCircle
 10
-0.76732699
 20
-18.5
 30
0.0
 40
1.0
100
AcDbArc
 50
285.0
 51
345.0
1001
GENIUS_GENOBJ-N-FIL_13
1002
{
1000
OWNER
1000
GEN
1002
}
1001
GENIUS_GENODEF_13
1002
{
1000
HIER
1070
     0
1002
}
1002
{
1000
MANEDIT
1070
     0
1002
}
1002
{
1000
NOSEL
1070
     0
1002
}
1002
{
1000
BEHIND
1070
     0
1002
}
1002
{
1000
OTHER
1070
     0
1002
}
1002
{
1000
REACTOR
1002
}
  0
LINE
  5
11F2
330
762
100
AcDbEntity
  8
240
100
AcDbLine
 10
-0.50850794
 20
-19.46592583
 30
0.0
 11
-0.63567449
 21
-19.5
 31
0.0
  0
ARC
  5
11F3
330
762
100
AcDbEntity
  8
240
100
AcDbCircle
 10
1.97309836
 20
-16.0
 30
0.0
 40
1.0
100
AcDbArc
 50
90.0
 51
165.00000002
  0
LINE
  5
11F4
330
762
100
AcDbEntity
  8
240
100
AcDbLine
 10
11.0
 20
-15.15
 30
0.0
 11
13.0
 21
-15.15
 31
0.0
  0
LINE
  5
11F5
330
762
100
AcDbEntity
  8
0
100
AcDbLine
 10
6.19279744
 20
-11.57139339
 30
0.0
 11
6.02304402
 21
-11.40163997
 31
0.0
  0
LINE
  5
11F6
330
762
100
AcDbEntity
  8
0
100
AcDbLine
 10
6.19279744
 20
-11.75997877
 30
0.0
 11
6.02304402
 21
-11.59022535
 31
0.0
  0
LINE
  5
11F7
330
762
100
AcDbEntity
  8
0
100
AcDbLine
 10
6.19279744
 20
-11.94856414
 30
0.0
 11
6.02304402
 21
-11.77881073
 31
0.0
  0
LINE
  5
11F8
330
762
100
AcDbEntity
  8
0
100
AcDbLine
 10
6.19279744
 20
-12.13714952
 30
0.0
 11
6.02304402
 21
-11.96739611
 31
0.0
  0
LINE
  5
11F9
330
762
100
AcDbEntity
  8
0
100
AcDbLine
 10
5.93816732
 20
-13.47070985
 30
0.0
 11
5.93816732
 21
-12.76626649
 31
0.0
  0
LINE
  5
11FA
330
762
100
AcDbEntity
  8
0
100
AcDbLine
 10
6.19279744
 20
-12.51432028
 30
0.0
 11
6.02304402
 21
-12.34456687
 31
0.0
  0
LINE
  5
11FB
330
762
100
AcDbEntity
  8
0
100
AcDbLine
 10
6.19279744
 20
-12.70290566
 30
0.0
 11
6.02304402
 21
-12.53315224
 31
0.0
  0
LINE
  5
11FC
330
762
100
AcDbEntity
  8
0
100
AcDbLine
 10
6.19279744
 20
-12.89149103
 30
0.0
 11
6.02304402
 21
-12.72173762
 31
0.0
  0
LINE
  5
11FD
330
762
100
AcDbEntity
  8
0
100
AcDbLine
 10
6.19279744
 20
-13.08007642
 30
0.0
 11
6.02304402
 21
-12.910323
 31
0.0
  0
LINE
  5
11FE
330
762
100
AcDbEntity
  8
0
100
AcDbLine
 10
6.19279744
 20
-13.26866179
 30
0.0
 11
6.02304402
 21
-13.09890838
 31
0.0
  0
LINE
  5
11FF
330
762
100
AcDbEntity
  8
0
100
AcDbLine
 10
6.19279744
 20
-13.45724717
 30
0.0
 11
6.02304402
 21
-13.28749376
 31
0.0
  0
LINE
  5
1200
330
762
100
AcDbEntity
  8
0
100
AcDbLine
 10
6.18899411
 20
-13.64202922
 30
0.0
 11
6.02304402
 21
-13.47607914
 31
0.0
  0
LINE
  5
1201
330
762
100
AcDbEntity
  8
0
100
AcDbLine
 10
6.15949866
 20
-13.80111915
 30
0.0
 11
6.01633347
 21
-13.65795396
 31
0.0
  0
LINE
  5
1202
330
762
100
AcDbEntity
  8
0
100
AcDbLine
 10
6.10831598
 20
-13.93852185
 30
0.0
 11
5.97867591
 21
-13.80888177
 31
0.0
  0
LINE
  5
1203
330
762
100
AcDbEntity
  8
0
100
AcDbLine
 10
6.19279744
 20
-12.3257349
 30
0.0
 11
6.02304402
 21
-12.15598148
 31
0.0
  0
LINE
  5
1204
330
762
100
AcDbEntity
  8
0
100
AcDbLine
 10
6.19279744
 20
-10.25129574
 30
0.0
 11
6.02228751
 21
-10.08078581
 31
0.0
  0
LINE
  5
1205
330
762
100
AcDbEntity
  8
0
100
AcDbLine
 10
5.95666351
 20
-14.16404014
 30
0.0
 11
5.83650904
 21
-14.04388567
 31
0.0
  0
LINE
  5
1206
330
762
100
AcDbEntity
  8
0
100
AcDbLine
 10
5.74709638
 20
-14.33164376
 30
0.0
 11
5.62175382
 21
-14.2063012
 31
0.0
  0
LINE
  5
1207
330
762
100
AcDbEntity
  8
0
100
AcDbLine
 10
5.61929903
 20
-14.39243179
 30
0.0
 11
5.48452168
 21
-14.25765443
 31
0.0
  0
LINE
  5
1208
330
762
100
AcDbEntity
  8
0
100
AcDbLine
 10
5.47268827
 20
-14.43440641
 30
0.0
 11
5.31929466
 21
-14.2810128
 31
0.0
  0
LINE
  5
1209
330
762
100
AcDbEntity
  8
0
100
AcDbLine
 10
5.3006793
 20
-14.45098282
 30
0.0
 11
5.10307431
 21
-14.25337783
 31
0.0
  0
LINE
  5
120A
330
762
100
AcDbEntity
  8
0
100
AcDbLine
 10
5.85910652
 20
-14.25506852
 30
0.0
 11
5.73817668
 21
-14.13413869
 31
0.0
  0
ARC
  5
120B
330
762
100
AcDbEntity
  8
0
100
AcDbCircle
 10
5.30159821
 20
-13.55978426
 30
0.0
 40
0.8911990356445432
100
AcDbArc
 50
180.0
 51
0.0
  0
ARC
  5
120C
330
762
100
AcDbEntity
  8
0
100
AcDbCircle
 10
5.30159821
 20
-13.55978426
 30
0.0
 40
0.7214456176757899
100
AcDbArc
 50
180.0
 51
0.0
  0
LINE
  5
120D
330
762
100
AcDbEntity
  8
0
100
AcDbLine
 10
5.085497
 20
-14.42438589
 30
0.0
 11
4.43699657
 21
-13.77588547
 31
0.0
  0
LINE
  5
120E
330
762
100
AcDbEntity
  8
0
100
AcDbLine
 10
6.03999618
 20
-14.05878742
 30
0.0
 11
5.9171932
 21
-13.93598445
 31
0.0
  0
LINE
  5
120F
330
762
100
AcDbEntity
  8
0
100
AcDbLine
 10
4.59409033
 20
-9.97268627
 30
0.0
 11
4.45544997
 21
-9.83404591
 31
0.0
  0
LINE
  5
1210
330
762
100
AcDbEntity
  8
0
100
AcDbLine
 10
6.19124016
 20
-10.06115307
 30
0.0
 11
5.96834836
 21
-9.83826128
 31
0.0
  0
LINE
  5
1211
330
762
100
AcDbEntity
  8
0
100
AcDbLine
 10
4.58015259
 20
-13.54187073
 30
0.0
 11
4.41039917
 21
-13.37211731
 31
0.0
  0
LINE
  5
1212
330
762
100
AcDbEntity
  8
0
100
AcDbLine
 10
4.60800464
 20
-13.75830816
 30
0.0
 11
4.41039965
 21
-13.56070316
 31
0.0
  0
LINE
  5
1213
330
762
100
AcDbEntity
  8
0
100
AcDbLine
 10
4.70331223
 20
-12.5335181
 30
0.0
 11
4.49164226
 21
-12.32184813
 31
0.0
  0
LINE
  5
1214
330
762
100
AcDbEntity
  8
0
100
AcDbLine
 10
5.52406952
 20
-11.17987825
 30
0.0
 11
4.7262323
 21
-10.95110078
 31
0.0
  0
LINE
  5
1215
330
762
100
AcDbEntity
  8
0
100
AcDbLine
 10
5.19332467
 20
-11.51484751
 30
0.0
 11
4.42425106
 21
-10.7457739
 31
0.0
  0
LINE
  5
1216
330
762
100
AcDbEntity
  8
0
100
AcDbLine
 10
4.9421303
 20
-11.45223852
 30
0.0
 11
4.4131055
 21
-10.92321371
 31
0.0
  0
LINE
  5
1217
330
762
100
AcDbEntity
  8
0
100
AcDbLine
 10
5.13448689
 20
-12.02176586
 30
0.0
 11
4.60217525
 21
-11.48945423
 31
0.0
  0
LINE
  5
1218
330
762
100
AcDbEntity
  8
0
100
AcDbLine
 10
4.87008503
 20
-11.94594939
 30
0.0
 11
4.41039917
 21
-11.48626352
 31
0.0
  0
LINE
  5
1219
330
762
100
AcDbEntity
  8
0
100
AcDbLine
 10
4.58458952
 20
-12.65875673
 30
0.0
 11
5.06973815
 21
-12.79786775
 31
0.0
  0
LINE
  5
121A
330
762
100
AcDbEntity
  8
0
100
AcDbLine
 10
4.99203337
 20
-13.19941
 30
0.0
 11
4.41039917
 21
-12.6177758
 31
0.0
  0
LINE
  5
121B
330
762
100
AcDbEntity
  8
0
100
AcDbLine
 10
5.2564347
 20
-13.27522595
 30
0.0
 11
4.66222725
 21
-12.68101849
 31
0.0
  0
ARC
  5
121C
330
762
100
AcDbEntity
  8
0
100
AcDbCircle
 10
4.81780609
 20
-12.76094728
 30
0.0
 40
0.2546230173110999
100
AcDbArc
 50
351.66260169
 51
156.3381551
  0
ARC
  5
121D
330
762
100
AcDbEntity
  8
0
100
AcDbCircle
 10
4.83477631
 20
-12.57156404
 30
0.0
 40
0.4243807411193908
100
AcDbArc
 50
17.66957755
 51
180.23615984
  0
LINE
  5
121E
330
762
100
AcDbEntity
  8
0
100
AcDbLine
 10
4.87014004
 20
-12.51176053
 30
0.0
 11
4.58607408
 21
-12.22769457
 31
0.0
  0
LINE
  5
121F
330
762
100
AcDbEntity
  8
0
100
AcDbLine
 10
5.31968654
 20
-12.77272165
 30
0.0
 11
4.71222755
 21
-12.16526266
 31
0.0
  0
ARC
  5
1220
330
762
100
AcDbEntity
  8
0
100
AcDbCircle
 10
5.57319855
 20
-11.00854189
 30
0.0
 40
0.1782408785820033
100
AcDbArc
 50
254.00027306
 51
74.00027306
  0
LINE
  5
1221
330
762
100
AcDbEntity
  8
0
100
AcDbLine
 10
5.62232758
 20
-10.83720552
 30
0.0
 11
5.24218323
 21
-10.72820009
 31
0.0
  0
LINE
  5
1222
330
762
100
AcDbEntity
  8
0
100
AcDbLine
 10
5.24218323
 20
-10.86947329
 30
0.0
 11
5.24218323
 21
-10.72820009
 31
0.0
  0
LINE
  5
1223
330
762
100
AcDbEntity
  8
0
100
AcDbLine
 10
5.24218323
 20
-10.86947329
 30
0.0
 11
5.07242981
 21
-10.82079927
 31
0.0
  0
ARC
  5
1224
330
762
100
AcDbEntity
  8
0
100
AcDbCircle
 10
5.41548065
 20
-10.08831789
 30
0.0
 40
1.443724365234395
100
AcDbArc
 50
245.20517737
 51
262.79482596
  0
LINE
  5
1225
330
762
100
AcDbEntity
  8
0
100
AcDbLine
 10
5.79448355
 20
-11.36166488
 30
0.0
 11
5.61470205
 21
-11.18188337
 31
0.0
  0
LINE
  5
1226
330
762
100
AcDbEntity
  8
0
100
AcDbLine
 10
5.69315441
 20
-11.44892111
 30
0.0
 11
5.38392573
 21
-11.13969243
 31
0.0
  0
LINE
  5
1227
330
762
100
AcDbEntity
  8
0
100
AcDbLine
 10
5.56721588
 20
-11.51156796
 30
0.0
 11
5.11952391
 21
-11.06387599
 31
0.0
  0
LINE
  5
1228
330
762
100
AcDbEntity
  8
0
100
AcDbLine
 10
5.40863162
 20
-11.54156908
 30
0.0
 11
4.85512209
 21
-10.98805955
 31
0.0
  0
LINE
  5
1229
330
762
100
AcDbEntity
  8
0
100
AcDbLine
 10
5.66329062
 20
-12.17339883
 30
0.0
 11
5.13097691
 21
-11.64108513
 31
0.0
  0
LINE
  5
122A
330
762
100
AcDbEntity
  8
0
100
AcDbLine
 10
5.39888876
 20
-12.09758235
 30
0.0
 11
4.86657608
 21
-11.56526968
 31
0.0
  0
LINE
  5
122B
330
762
100
AcDbEntity
  8
0
100
AcDbLine
 10
5.26358971
 20
-12.85345716
 30
0.0
 11
5.74875274
 21
-12.99257046
 31
0.0
  0
LINE
  5
122C
330
762
100
AcDbEntity
  8
0
100
AcDbLine
 10
5.52083603
 20
-13.3510419
 30
0.0
 11
4.92662607
 21
-12.75683194
 31
0.0
  0
LINE
  5
122D
330
762
100
AcDbEntity
  8
0
100
AcDbLine
 10
5.78523735
 20
-13.42685784
 30
0.0
 11
5.06699285
 21
-12.70861334
 31
0.0
  0
ARC
  5
122E
330
762
100
AcDbEntity
  8
0
100
AcDbCircle
 10
5.49681336
 20
-12.95564974
 30
0.0
 40
0.2546303021907843
100
AcDbArc
 50
351.66285421
 51
156.33819216
  0
LINE
  5
122F
330
762
100
AcDbEntity
  8
0
100
AcDbLine
 10
5.44244232
 20
-12.70689206
 30
0.0
 11
4.88581371
 21
-12.15026344
 31
0.0
  0
LINE
  5
1230
330
762
100
AcDbEntity
  8
0
100
AcDbLine
 10
4.59712281
 20
-11.92949007
 30
0.0
 11
4.59712281
 21
-11.86767824
 31
0.0
  0
LINE
  5
1231
330
762
100
AcDbEntity
  8
0
100
AcDbLine
 10
4.59712281
 20
-11.92949007
 30
0.0
 11
4.41039917
 21
-11.87594545
 31
0.0
  0
LINE
  5
1232
330
762
100
AcDbEntity
  8
0
100
AcDbLine
 10
4.41039917
 20
-11.87594545
 30
0.0
 11
4.41039917
 21
-11.43446352
 31
0.0
  0
LINE
  5
1233
330
762
100
AcDbEntity
  8
0
100
AcDbLine
 10
4.41039917
 20
-11.87594545
 30
0.0
 11
4.59712281
 21
-11.92949007
 31
0.0
1001
HATCH_DISTANCE
1040
1.0
1001
HATCH_DISPLAY
1070
     0
1001
HATCH_TYPE
1070
     7
  0
LINE
  5
1234
330
762
100
AcDbEntity
  8
0
100
AcDbLine
 10
4.59712281
 20
-11.92949007
 30
0.0
 11
4.59712281
 21
-11.86767824
 31
0.0
1001
HATCH_DISTANCE
1040
1.0
1001
HATCH_DISPLAY
1070
     0
1001
HATCH_TYPE
1070
     7
  0
LINE
  5
1235
330
762
100
AcDbEntity
  8
0
100
AcDbLine
 10
4.41039917
 20
-11.43446352
 30
0.0
 11
4.41039917
 21
-11.87594545
 31
0.0
1001
HATCH_DISTANCE
1040
1.0
1001
HATCH_DISPLAY
1070
     0
1001
HATCH_TYPE
1070
     7
  0
LINE
  5
1236
330
762
100
AcDbEntity
  8
0
100
AcDbLine
 10
4.41039917
 20
-11.87594545
 30
0.0
 11
4.59712281
 21
-11.92949007
 31
0.0
  0
LINE
  5
1237
330
762
100
AcDbEntity
  8
0
100
AcDbLine
 10
4.59712281
 20
-11.92949007
 30
0.0
 11
4.59712281
 21
-11.86767824
 31
0.0
  0
LINE
  5
1238
330
762
100
AcDbEntity
  8
0
100
AcDbLine
 10
4.41039917
 20
-11.43446352
 30
0.0
 11
4.41039917
 21
-11.87594545
 31
0.0
  0
LINE
  5
1239
330
762
100
AcDbEntity
  8
0
100
AcDbLine
 10
4.60568317
 20
-11.8701329
 30
0.0
 11
4.41039917
 21
-11.67484891
 31
0.0
  0
LINE
  5
123A
330
762
100
AcDbEntity
  8
0
100
AcDbLine
 10
4.42794046
 20
-11.88097556
 30
0.0
 11
4.41039917
 21
-11.86343428
 31
0.0
  0
ARC
  5
123B
330
762
100
AcDbEntity
  8
0
100
AcDbCircle
 10
4.96209137
 20
-10.86862734
 30
0.0
 40
0.5516930007934647
100
AcDbArc
 50
143.4440122
 51
254.00018439
  0
ARC
  5
123C
330
762
100
AcDbEntity
  8
0
100
AcDbCircle
 10
4.77536774
 20
-10.77976442
 30
0.0
 40
0.1782410037517573
100
AcDbArc
 50
91.71012138
 51
253.99839835
  0
LINE
  5
123D
330
762
100
AcDbEntity
  8
0
100
AcDbLine
 10
5.84995847
 20
-10.66279828
 30
0.0
 11
5.6908172
 21
-10.50365701
 31
0.0
  0
LINE
  5
123E
330
762
100
AcDbEntity
  8
0
100
AcDbLine
 10
5.39279036
 20
-10.7713863
 30
0.0
 11
5.07242981
 21
-10.45102576
 31
0.0
  0
LINE
  5
123F
330
762
100
AcDbEntity
  8
0
100
AcDbLine
 10
5.24218323
 20
-10.80936455
 30
0.0
 11
5.07242981
 21
-10.63961114
 31
0.0
  0
LINE
  5
1240
330
762
100
AcDbEntity
  8
0
100
AcDbLine
 10
4.60268036
 20
-10.73561782
 30
0.0
 11
4.47557015
 21
-10.60850761
 31
0.0
  0
LINE
  5
1241
330
762
100
AcDbEntity
  8
0
100
AcDbLine
 10
5.87259678
 20
-11.25119273
 30
0.0
 11
5.72437224
 21
-11.10296819
 31
0.0
  0
LINE
  5
1242
330
762
100
AcDbEntity
  8
0
100
AcDbLine
 10
4.58097033
 20
-10.14815165
 30
0.0
 11
4.41951172
 21
-9.98669304
 31
0.0
  0
LINE
  5
1243
330
762
100
AcDbEntity
  8
0
100
AcDbLine
 10
4.5503982
 20
-10.30616491
 30
0.0
 11
4.41203614
 21
-10.16780284
 31
0.0
  0
LINE
  5
1244
330
762
100
AcDbEntity
  8
0
100
AcDbLine
 10
4.60196777
 20
-10.28990327
 30
0.0
 11
4.43984711
 21
-10.3410254
 31
0.0
  0
LINE
  5
1245
330
762
100
AcDbEntity
  8
0
100
AcDbLine
 10
4.60196777
 20
-10.28990327
 30
0.0
 11
4.43984711
 21
-10.3410254
 31
0.0
1001
HATCH_DISTANCE
1040
1.0
1001
HATCH_DISPLAY
1070
     0
1001
HATCH_TYPE
1070
     7
  0
LINE
  5
1246
330
762
100
AcDbEntity
  8
0
100
AcDbLine
 10
4.43984711
 20
-10.3410254
 30
0.0
 11
4.43984711
 21
-10.3410254
 31
0.0
1001
HATCH_DISTANCE
1040
1.0
1001
HATCH_DISPLAY
1070
     0
1001
HATCH_TYPE
1070
     7
  0
LINE
  5
1247
330
762
100
AcDbEntity
  8
0
100
AcDbLine
 10
4.43984711
 20
-10.3410254
 30
0.0
 11
4.60196777
 21
-10.28990327
 31
0.0
1001
HATCH_DISTANCE
1040
1.0
1001
HATCH_DISPLAY
1070
     0
1001
HATCH_TYPE
1070
     7
  0
LINE
  5
1248
330
762
100
AcDbEntity
  8
0
100
AcDbLine
 10
4.60196777
 20
-10.28990327
 30
0.0
 11
4.60196777
 21
-10.28990327
 31
0.0
1001
HATCH_DISTANCE
1040
1.0
1001
HATCH_DISPLAY
1070
     0
1001
HATCH_TYPE
1070
     7
  0
LINE
  5
1249
330
762
100
AcDbEntity
  8
0
100
AcDbLine
 10
4.60196777
 20
-10.28990327
 30
0.0
 11
4.43984711
 21
-10.3410254
 31
0.0
  0
LINE
  5
124A
330
762
100
AcDbEntity
  8
0
100
AcDbLine
 10
4.43984711
 20
-10.3410254
 30
0.0
 11
4.43984711
 21
-10.3410254
 31
0.0
  0
LINE
  5
124B
330
762
100
AcDbEntity
  8
0
100
AcDbLine
 10
4.43984711
 20
-10.3410254
 30
0.0
 11
4.60196777
 21
-10.28990327
 31
0.0
  0
LINE
  5
124C
330
762
100
AcDbEntity
  8
0
100
AcDbLine
 10
4.60196777
 20
-10.28990327
 30
0.0
 11
4.60196777
 21
-10.28990327
 31
0.0
  0
LINE
  5
124D
330
762
100
AcDbEntity
  8
0
100
AcDbLine
 10
4.60196777
 20
-10.28990327
 30
0.0
 11
4.43984711
 21
-10.3410254
 31
0.0
1001
HATCH_DISTANCE
1040
1.0
1001
HATCH_DISPLAY
1070
     0
1001
HATCH_TYPE
1070
     7
  0
LINE
  5
124E
330
762
100
AcDbEntity
  8
0
100
AcDbLine
 10
4.43984711
 20
-10.3410254
 30
0.0
 11
4.43984711
 21
-10.3410254
 31
0.0
1001
HATCH_DISTANCE
1040
1.0
1001
HATCH_DISPLAY
1070
     0
1001
HATCH_TYPE
1070
     7
  0
LINE
  5
124F
330
762
100
AcDbEntity
  8
0
100
AcDbLine
 10
4.43984711
 20
-10.3410254
 30
0.0
 11
4.60196777
 21
-10.28990327
 31
0.0
1001
HATCH_DISTANCE
1040
1.0
1001
HATCH_DISPLAY
1070
     0
1001
HATCH_TYPE
1070
     7
  0
LINE
  5
1250
330
762
100
AcDbEntity
  8
0
100
AcDbLine
 10
4.60196777
 20
-10.28990327
 30
0.0
 11
4.60196777
 21
-10.28990327
 31
0.0
1001
HATCH_DISTANCE
1040
1.0
1001
HATCH_DISPLAY
1070
     0
1001
HATCH_TYPE
1070
     7
  0
LINE
  5
1251
330
762
100
AcDbEntity
  8
0
100
AcDbLine
 10
4.60196777
 20
-10.28990327
 30
0.0
 11
4.43984711
 21
-10.3410254
 31
0.0
  0
LINE
  5
1252
330
762
100
AcDbEntity
  8
0
100
AcDbLine
 10
4.43984711
 20
-10.3410254
 30
0.0
 11
4.43984711
 21
-10.3410254
 31
0.0
  0
LINE
  5
1253
330
762
100
AcDbEntity
  8
0
100
AcDbLine
 10
4.43984711
 20
-10.3410254
 30
0.0
 11
4.60196777
 21
-10.28990327
 31
0.0
  0
LINE
  5
1254
330
762
100
AcDbEntity
  8
0
100
AcDbLine
 10
4.60196777
 20
-10.28990327
 30
0.0
 11
4.60196777
 21
-10.28990327
 31
0.0
  0
LINE
  5
1255
330
762
100
AcDbEntity
  8
0
100
AcDbLine
 10
6.19279744
 20
-10.43988112
 30
0.0
 11
6.02304402
 21
-10.2701277
 31
0.0
  0
LINE
  5
1256
330
762
100
AcDbEntity
  8
0
100
AcDbLine
 10
6.02304402
 20
-13.55978426
 30
0.0
 11
6.02304402
 21
-10.11381166
 31
0.0
  0
LINE
  5
1257
330
762
100
AcDbEntity
  8
0
100
AcDbLine
 10
6.19279744
 20
-13.55978426
 30
0.0
 11
6.19279744
 21
-10.11381166
 31
0.0
  0
LINE
  5
1258
330
762
100
AcDbEntity
  8
0
100
AcDbLine
 10
6.19279744
 20
-10.62846649
 30
0.0
 11
6.02304402
 21
-10.45871308
 31
0.0
  0
LINE
  5
1259
330
762
100
AcDbEntity
  8
0
100
AcDbLine
 10
5.93816732
 20
-12.25221895
 30
0.0
 11
5.93816732
 21
-11.87254243
 31
0.0
  0
LINE
  5
125A
330
762
100
AcDbEntity
  8
0
100
AcDbLine
 10
5.93816732
 20
-12.25221895
 30
0.0
 11
5.93816732
 21
-11.87254243
 31
0.0
1001
HATCH_DISTANCE
1040
1.0
1001
HATCH_DISPLAY
1070
     0
1001
HATCH_TYPE
1070
     7
  0
LINE
  5
125B
330
762
100
AcDbEntity
  8
0
100
AcDbLine
 10
5.93816732
 20
-12.25221895
 30
0.0
 11
5.93816732
 21
-11.87254243
 31
0.0
  0
LINE
  5
125C
330
762
100
AcDbEntity
  8
0
100
AcDbLine
 10
5.93816732
 20
-11.8825194
 30
0.0
 11
5.9241794
 21
-11.86853148
 31
0.0
  0
LINE
  5
125D
330
762
100
AcDbEntity
  8
0
100
AcDbLine
 10
6.19279744
 20
-10.81705187
 30
0.0
 11
6.02304402
 21
-10.64729846
 31
0.0
  0
LINE
  5
125E
330
762
100
AcDbEntity
  8
0
100
AcDbLine
 10
6.19279744
 20
-11.00563725
 30
0.0
 11
6.02304402
 21
-10.83588384
 31
0.0
  0
LINE
  5
125F
330
762
100
AcDbEntity
  8
0
100
AcDbLine
 10
6.19279744
 20
-11.19422263
 30
0.0
 11
6.02304402
 21
-11.02446922
 31
0.0
  0
LINE
  5
1260
330
762
100
AcDbEntity
  8
0
100
AcDbLine
 10
6.19279744
 20
-11.38280801
 30
0.0
 11
6.02304402
 21
-11.21305459
 31
0.0
  0
LINE
  5
1261
330
762
100
AcDbEntity
  8
0
100
AcDbLine
 10
4.63882285
 20
-9.82883342
 30
0.0
 11
4.51150484
 21
-9.70151541
 31
0.0
  0
LINE
  5
1262
330
762
100
AcDbEntity
  8
0
100
AcDbLine
 10
5.93816732
 20
-12.25221895
 30
0.0
 11
4.59712281
 21
-11.86767824
 31
0.0
  0
LINE
  5
1263
330
762
100
AcDbEntity
  8
0
100
AcDbLine
 10
5.93816732
 20
-11.87254243
 30
0.0
 11
4.41039917
 21
-11.43446352
 31
0.0
  0
LINE
  5
1264
330
762
100
AcDbEntity
  8
0
100
AcDbLine
 10
4.59712281
 20
-11.86767824
 30
0.0
 11
5.93816732
 21
-12.25221895
 31
0.0
1001
HATCH_DISTANCE
1040
1.0
1001
HATCH_DISPLAY
1070
     0
1001
HATCH_TYPE
1070
     7
  0
LINE
  5
1265
330
762
100
AcDbEntity
  8
0
100
AcDbLine
 10
5.93816732
 20
-11.87254243
 30
0.0
 11
4.41039917
 21
-11.43446352
 31
0.0
1001
HATCH_DISTANCE
1040
1.0
1001
HATCH_DISPLAY
1070
     0
1001
HATCH_TYPE
1070
     7
  0
LINE
  5
1266
330
762
100
AcDbEntity
  8
0
100
AcDbLine
 10
4.59712281
 20
-11.86767824
 30
0.0
 11
5.93816732
 21
-12.25221895
 31
0.0
  0
LINE
  5
1267
330
762
100
AcDbEntity
  8
0
100
AcDbLine
 10
5.93816732
 20
-11.87254243
 30
0.0
 11
4.41039917
 21
-11.43446352
 31
0.0
  0
LINE
  5
1268
330
762
100
AcDbEntity
  8
0
100
AcDbLine
 10
5.93816732
 20
-13.47070985
 30
0.0
 11
4.58015259
 21
-13.08130495
 31
0.0
  0
ARC
  5
1269
330
762
100
AcDbEntity
  8
0
100
AcDbCircle
 10
5.38647492
 20
-10.99031557
 30
0.0
 40
0.5516986083984456
100
AcDbArc
 50
253.9997507
 51
34.96387329
  0
LINE
  5
126A
330
762
100
AcDbEntity
  8
0
100
AcDbLine
 10
5.83859548
 20
-10.674162
 30
0.0
 11
5.93816732
 21
-10.57458376
 31
0.0
  0
LINE
  5
126B
330
762
100
AcDbEntity
  8
0
100
AcDbLine
 10
5.93816732
 20
-10.57458376
 30
0.0
 11
5.07242981
 21
-10.32633669
 31
0.0
  0
LINE
  5
126C
330
762
100
AcDbEntity
  8
0
100
AcDbLine
 10
5.93559307
 20
-10.93701827
 30
0.0
 11
5.42641564
 21
-10.42784083
 31
0.0
  0
LINE
  5
126D
330
762
100
AcDbEntity
  8
0
100
AcDbLine
 10
5.9241041
 20
-11.11411467
 30
0.0
 11
5.72481081
 21
-10.91482137
 31
0.0
  0
LINE
  5
126E
330
762
100
AcDbEntity
  8
0
100
AcDbLine
 10
5.93816732
 20
-12.07110478
 30
0.0
 11
5.65977857
 21
-11.79271603
 31
0.0
  0
LINE
  5
126F
330
762
100
AcDbEntity
  8
0
100
AcDbLine
 10
5.92769248
 20
-12.24921532
 30
0.0
 11
5.39537774
 21
-11.71690058
 31
0.0
  0
LINE
  5
1270
330
762
100
AcDbEntity
  8
0
100
AcDbLine
 10
5.90634949
 20
-12.60504308
 30
0.0
 11
5.67501339
 21
-12.37370699
 31
0.0
  0
LINE
  5
1271
330
762
100
AcDbEntity
  8
0
100
AcDbLine
 10
5.93816732
 20
-13.20261705
 30
0.0
 11
5.71982659
 21
-12.98427632
 31
0.0
  0
LINE
  5
1272
330
762
100
AcDbEntity
  8
0
100
AcDbLine
 10
5.93816732
 20
-13.39120243
 30
0.0
 11
5.45542917
 21
-12.90846428
 31
0.0
  0
LINE
  5
1273
330
762
100
AcDbEntity
  8
0
100
AcDbLine
 10
5.93816732
 20
-13.01403167
 30
0.0
 11
5.31530343
 21
-12.39116779
 31
0.0
  0
LINE
  5
1274
330
762
100
AcDbEntity
  8
0
100
AcDbLine
 10
5.93816732
 20
-12.82544629
 30
0.0
 11
5.45825924
 21
-12.34553821
 31
0.0
  0
ARC
  5
1275
330
762
100
AcDbEntity
  8
0
100
AcDbCircle
 10
5.51378998
 20
-12.76626649
 30
0.0
 40
0.4243771362304749
100
AcDbArc
 50
0.0
 51
130.32984065
  0
ARC
  5
1276
330
762
100
AcDbEntity
  8
0
100
AcDbCircle
 10
5.30159821
 20
-10.11381166
 30
0.0
 40
0.7214476203918543
100
AcDbArc
 50
200.8721834
 51
222.54194894
  0
LINE
  5
1277
330
762
100
AcDbEntity
  8
0
100
AcDbLine
 10
4.62749359
 20
-10.37085146
 30
0.0
 11
4.46537293
 21
-10.42197359
 31
0.0
  0
LINE
  5
1278
330
762
100
AcDbEntity
  8
0
100
AcDbLine
 10
4.63573358
 20
-10.39150029
 30
0.0
 11
4.61805961
 21
-10.37382631
 31
0.0
  0
LINE
  5
1279
330
762
100
AcDbEntity
  8
0
100
AcDbLine
 10
5.07242981
 20
-10.82079927
 30
0.0
 11
5.07242981
 21
-10.32633669
 31
0.0
  0
LINE
  5
127A
330
762
100
AcDbEntity
  8
0
100
AcDbLine
 10
5.66691906
 20
-10.85692963
 30
0.0
 11
5.16201408
 21
-10.35202465
 31
0.0
  0
ARC
  5
127B
330
762
100
AcDbEntity
  8
0
100
AcDbCircle
 10
5.30159821
 20
-10.11381166
 30
0.0
 40
0.8911994361877553
100
AcDbArc
 50
200.22964506
 51
208.57168892
  0
LINE
  5
127C
330
762
100
AcDbEntity
  8
0
100
AcDbLine
 10
4.68298257
 20
-10.62733465
 30
0.0
 11
4.47468507
 21
-10.41903716
 31
0.0
  0
LINE
  5
127D
330
762
100
AcDbEntity
  8
0
100
AcDbLine
 10
4.60395349
 20
-12.62274473
 30
0.0
 11
4.4288821
 21
-12.44767334
 31
0.0
  0
LINE
  5
127E
330
762
100
AcDbEntity
  8
0
100
AcDbLine
 10
4.41039917
 20
-13.20922243
 30
0.0
 11
4.58015259
 21
-13.25789644
 31
0.0
  0
LINE
  5
127F
330
762
100
AcDbEntity
  8
0
100
AcDbLine
 10
4.58015259
 20
-13.55978426
 30
0.0
 11
4.58015259
 21
-13.25789644
 31
0.0
  0
LINE
  5
1280
330
762
100
AcDbEntity
  8
0
100
AcDbLine
 10
4.41039917
 20
-13.55978426
 30
0.0
 11
4.41039917
 21
-13.20922243
 31
0.0
  0
LINE
  5
1281
330
762
100
AcDbEntity
  8
0
100
AcDbLine
 10
4.58015259
 20
-13.1696039
 30
0.0
 11
4.58015259
 21
-13.08130495
 31
0.0
  0
LINE
  5
1282
330
762
100
AcDbEntity
  8
0
100
AcDbLine
 10
4.41039917
 20
-13.12092989
 30
0.0
 11
4.58015259
 21
-13.1696039
 31
0.0
  0
LINE
  5
1283
330
762
100
AcDbEntity
  8
0
100
AcDbLine
 10
4.72763205
 20
-13.12359405
 30
0.0
 11
4.41039917
 21
-12.80636118
 31
0.0
  0
LINE
  5
1284
330
762
100
AcDbEntity
  8
0
100
AcDbLine
 10
4.58015259
 20
-13.16469997
 30
0.0
 11
4.41039917
 21
-12.99494655
 31
0.0
  0
LINE
  5
1285
330
762
100
AcDbEntity
  8
0
100
AcDbLine
 10
4.41039917
 20
-13.12092989
 30
0.0
 11
4.41039917
 21
-12.57331324
 31
0.0
  0
LINE
  5
1286
330
762
100
AcDbEntity
  8
0
100
AcDbLine
 10
4.58015259
 20
-13.35328535
 30
0.0
 11
4.44641727
 21
-13.21955003
 31
0.0
  0
LINE
  5
1287
330
762
100
AcDbEntity
  8
240
100
AcDbLine
 10
11.0
 20
-11.7
 30
0.0
 11
11.0
 21
-15.15
 31
0.0
  0
LINE
  5
1288
330
762
100
AcDbEntity
  8
240
100
AcDbLine
 10
11.0
 20
-11.7
 30
0.0
 11
10.0
 21
-11.7
 31
0.0
  0
LINE
  5
1289
330
762
100
AcDbEntity
  8
240
100
AcDbLine
 10
10.0
 20
-11.7
 30
0.0
 11
10.0
 21
-15.0
 31
0.0
  0
LINE
  5
128A
330
762
100
AcDbEntity
  8
240
100
AcDbLine
 10
13.25980762
 20
-15.0
 30
0.0
 11
13.0
 21
-15.15
 31
0.0
  0
LINE
  5
128B
330
762
100
AcDbEntity
  8
240
100
AcDbLine
 10
-19.0
 20
15.0
 30
0.0
 11
-14.5
 21
15.0
 31
0.0
  0
LINE
  5
128C
330
762
100
AcDbEntity
  8
240
100
AcDbLine
 10
-38.0
 20
12.5
 30
0.0
 11
-35.5
 21
15.0
 31
0.0
  0
LINE
  5
128D
330
762
100
AcDbEntity
  8
240
100
AcDbLine
 10
-46.0
 20
12.5
 30
0.0
 11
-38.0
 21
12.5
 31
0.0
  0
LINE
  5
128E
330
762
100
AcDbEntity
  8
240
100
AcDbLine
 10
-54.0
 20
12.5
 30
0.0
 11
-46.0
 21
12.5
 31
0.0
  0
LINE
  5
128F
330
762
100
AcDbEntity
  8
241
100
AcDbLine
 10
-32.0
 20
13.75
 30
0.0
 11
-32.0
 21
0.0
 31
0.0
  0
LINE
  5
1290
330
762
100
AcDbEntity
  8
241
100
AcDbLine
 10
-29.5
 20
13.75
 30
0.0
 11
-29.5
 21
0.0
 31
0.0
  0
LINE
  5
1291
330
762
100
AcDbEntity
  8
241
100
AcDbLine
 10
-21.5
 20
13.75
 30
0.0
 11
-21.5
 21
0.0
 31
0.0
  0
LINE
  5
1292
330
762
100
AcDbEntity
  8
241
100
AcDbLine
 10
-19.0
 20
13.75
 30
0.0
 11
-19.0
 21
0.0
 31
0.0
  0
ELLIPSE
  5
1293
330
762
100
AcDbEntity
  8
241
100
AcDbEllipse
 10
-25.5000349
 20
-5.08449496
 30
0.0
 11
-2.000524505802109
 21
0.0
 31
0.0
210
0.0
220
0.0
230
1.0
 40
0.93944625
 41
0.0
 42
6.283185307179584
  0
LINE
  5
1294
330
762
100
AcDbEntity
  8
245
100
AcDbLine
 10
-27.4999651
 20
-5.13030215
 30
0.0
 11
-23.5000349
 21
-5.13030215
 31
0.0
  0
LINE
  5
1295
330
762
100
AcDbEntity
  8
245
100
AcDbLine
 10
-25.5000349
 20
-3.20510972
 30
0.0
 11
-25.5000349
 21
-6.96388021
 31
0.0
  0
LINE
  5
1296
330
762
100
AcDbEntity
  8
240
100
AcDbLine
 10
-29.5
 20
15.0
 30
0.0
 11
-21.5
 21
15.0
 31
0.0
  0
ARC
  5
1297
330
762
100
AcDbEntity
  8
240
100
AcDbCircle
 10
-30.75
 20
13.75
 30
0.0
 40
1.24999999999827
100
AcDbArc
 50
0.0
 51
180.0
  0
LINE
  5
1298
330
762
100
AcDbEntity
  8
240
100
AcDbLine
 10
-35.5
 20
15.0
 30
0.0
 11
-32.0
 21
15.0
 31
0.0
  0
LINE
  5
1299
330
762
100
AcDbEntity
  8
240
100
AcDbLine
 10
-32.0
 20
13.75
 30
0.0
 11
-32.0
 21
15.0
 31
0.0
  0
LINE
  5
129A
330
762
100
AcDbEntity
  8
240
100
AcDbLine
 10
-29.5
 20
13.75
 30
0.0
 11
-29.5
 21
15.0
 31
0.0
  0
ARC
  5
129B
330
762
100
AcDbEntity
  8
240
100
AcDbCircle
 10
-20.25
 20
13.75
 30
0.0
 40
1.249999999998089
100
AcDbArc
 50
0.0
 51
180.0
  0
LINE
  5
129C
330
762
100
AcDbEntity
  8
240
100
AcDbLine
 10
-21.5
 20
13.75
 30
0.0
 11
-21.5
 21
15.0
 31
0.0
  0
LINE
  5
129D
330
762
100
AcDbEntity
  8
240
100
AcDbLine
 10
-19.0
 20
13.75
 30
0.0
 11
-19.0
 21
15.0
 31
0.0
  0
LINE
  5
129E
330
762
100
AcDbEntity
  8
240
100
AcDbLine
 10
11.0
 20
11.7
 30
0.0
 11
11.0
 21
15.15
 31
0.0
  0
LINE
  5
129F
330
762
100
AcDbEntity
  8
240
100
AcDbLine
 10
13.25980762
 20
15.0
 30
0.0
 11
13.0
 21
15.15
 31
0.0
  0
LINE
  5
12A0
330
762
100
AcDbEntity
  8
241
100
AcDbLine
 10
13.0
 20
15.15
 30
0.0
 11
13.0
 21
0.0
 31
0.0
  0
LINE
  5
12A1
330
762
100
AcDbEntity
  8
241
100
AcDbLine
 10
-4.5
 20
18.25
 30
0.0
 11
-4.5
 21
0.0
 31
0.0
  0
LINE
  5
12A2
330
762
100
AcDbEntity
  8
241
100
AcDbLine
 10
-2.0
 20
18.25
 30
0.0
 11
-2.0
 21
0.0
 31
0.0
  0
LINE
  5
12A3
330
762
100
AcDbEntity
  8
241
100
AcDbLine
 10
0.0
 20
19.14125603
 30
0.0
 11
0.0
 21
0.0
 31
0.0
  0
LINE
  5
12A4
330
762
100
AcDbEntity
  8
241
  6
CONTINUOUS
100
AcDbLine
 10
-7.5
 20
19.00000001
 30
0.0
 11
-7.5
 21
0.0
 31
0.0
  0
LINE
  5
12A5
330
762
100
AcDbEntity
  8
241
100
AcDbLine
 10
-6.12626129
 20
19.5
 30
0.0
 11
-6.12626129
 21
0.0
 31
0.0
  0
LINE
  5
12A6
330
762
100
AcDbEntity
  8
241
100
AcDbLine
 10
1.20577137
 20
15.35874397
 30
0.0
 11
1.20577137
 21
0.0
 31
0.0
  0
ARC
  5
12A7
330
762
100
AcDbEntity
  8
240
100
AcDbCircle
 10
1.97309836
 20
16.0
 30
0.0
 40
1.0
100
AcDbArc
 50
194.99999998
 51
270.0
  0
LINE
  5
12A8
330
762
100
AcDbEntity
  8
240
100
AcDbLine
 10
-13.0
 20
15.5
 30
0.0
 11
-13.0
 21
14.7
 31
0.0
  0
LINE
  5
12A9
330
762
100
AcDbEntity
  8
240
100
AcDbLine
 10
10.0
 20
15.0
 30
0.0
 11
1.97309836
 21
15.0
 31
0.0
  0
LINE
  5
12AA
330
762
100
AcDbEntity
  8
241
100
AcDbLine
 10
-14.5
 20
15.0
 30
0.0
 11
-14.5
 21
0.0
 31
0.0
  0
LINE
  5
12AB
330
762
100
AcDbEntity
  8
240
100
AcDbLine
 10
-14.2
 20
14.7
 30
0.0
 11
-14.5
 21
15.0
 31
0.0
  0
LINE
  5
12AC
330
762
100
AcDbEntity
  8
240
100
AcDbLine
 10
-14.2
 20
14.7
 30
0.0
 11
-13.0
 21
14.7
 31
0.0
  0
LINE
  5
12AD
330
762
100
AcDbEntity
  8
241
  6
HIDDEN2
100
AcDbLine
 10
16.0
 20
6.43467171
 30
0.0
 11
16.0
 21
0.0
 31
0.0
  0
LINE
  5
12AE
330
762
100
AcDbEntity
  8
241
  6
HIDDEN2
100
AcDbLine
 10
21.0
 20
6.25
 30
0.0
 11
21.0
 21
0.0
 31
0.0
  0
LINE
  5
12AF
330
762
100
AcDbEntity
  8
242
  6
HIDDEN2
100
AcDbLine
 10
8.0
 20
6.43467171
 30
0.0
 11
16.0
 21
0.0
 31
0.0
  0
LINE
  5
12B0
330
762
100
AcDbEntity
  8
242
  6
HIDDEN2
100
AcDbLine
 10
8.0
 20
0.0
 30
0.0
 11
16.0
 21
6.43467171
 31
0.0
  0
LINE
  5
12B1
330
762
100
AcDbEntity
  8
241
  6
HIDDEN2
100
AcDbLine
 10
8.0
 20
6.43467171
 30
0.0
 11
8.0
 21
0.0
 31
0.0
  0
LINE
  5
12B2
330
762
100
AcDbEntity
  8
241
100
AcDbLine
 10
11.0
 20
11.7
 30
0.0
 11
11.0
 21
0.0
 31
0.0
  0
LINE
  5
12B3
330
762
100
AcDbEntity
  8
241
100
AcDbLine
 10
10.0
 20
11.7
 30
0.0
 11
10.0
 21
0.0
 31
0.0
  0
LINE
  5
12B4
330
762
100
AcDbEntity
  8
241
100
AcDbLine
 10
14.2
 20
15.0
 30
0.0
 11
14.2
 21
0.0
 31
0.0
  0
TEXT
  5
12B5
330
762
100
AcDbEntity
  8
0
100
AcDbText
 10
6.07726772
 20
-8.88815484
 30
0.0
 40
1.8
  1
MGT20-P1/4-35
 50
90.0
  7
YOKO
100
AcDbText
  0
LINE
  5
12B6
330
762
100
AcDbEntity
  8
0
100
AcDbLine
 10
4.79114604
 20
-9.60398585
 30
0.0
 11
4.67111223
 21
-9.48395203
 31
0.0
  0
LINE
  5
12B7
330
762
100
AcDbEntity
  8
0
100
AcDbLine
 10
5.57714859
 20
-9.44706151
 30
0.0
 11
5.35425679
 21
-9.22416971
 31
0.0
  0
LINE
  5
12B8
330
762
100
AcDbEntity
  8
0
100
AcDbLine
 10
5.33462406
 20
-9.39312236
 30
0.0
 11
5.17338527
 21
-9.23188357
 31
0.0
  0
LINE
  5
12B9
330
762
100
AcDbEntity
  8
0
100
AcDbLine
 10
5.15942909
 20
-9.40651277
 30
0.0
 11
5.02089145
 21
-9.26797513
 31
0.0
  0
LINE
  5
12BA
330
762
100
AcDbEntity
  8
0
100
AcDbLine
 10
5.0157444
 20
-9.45141346
 30
0.0
 11
4.88847916
 21
-9.32414821
 31
0.0
  0
LINE
  5
12BB
330
762
100
AcDbEntity
  8
0
100
AcDbLine
 10
4.89416996
 20
-9.51842439
 30
0.0
 11
4.77245196
 21
-9.39670639
 31
0.0
  0
LINE
  5
12BC
330
762
100
AcDbEntity
  8
241
  6
HIDDEN2
100
AcDbLine
 10
8.0
 20
6.43467171
 30
0.0
 11
16.0
 21
6.43467171
 31
0.0
  0
LINE
  5
12BD
330
762
100
AcDbEntity
  8
240
100
AcDbLine
 10
11.0
 20
11.7
 30
0.0
 11
10.0
 21
11.7
 31
0.0
  0
LINE
  5
12BE
330
762
100
AcDbEntity
  8
240
100
AcDbLine
 10
10.0
 20
11.7
 30
0.0
 11
10.0
 21
15.0
 31
0.0
  0
LINE
  5
12BF
330
762
100
AcDbEntity
  8
241
  6
HIDDEN2
100
AcDbLine
 10
16.0
 20
6.25
 30
0.0
 11
21.0
 21
6.25
 31
0.0
  0
LINE
  5
12C0
330
762
100
AcDbEntity
  8
240
100
AcDbLine
 10
-7.5
 20
19.00000001
 30
0.0
 11
-6.12626128
 21
19.5
 31
0.0
  0
LINE
  5
12C1
330
762
100
AcDbEntity
  8
241
  6
CONTINUOUS
100
AcDbLine
 10
-7.5
 20
15.2
 30
0.0
 11
-13.0
 21
15.2
 31
0.0
  0
LINE
  5
12C2
330
762
100
AcDbEntity
  8
240
100
AcDbLine
 10
-7.50000001
 20
19.0
 30
0.0
 11
-13.5
 21
19.0
 31
0.0
  0
LINE
  5
12C3
330
762
100
AcDbEntity
  8
240
100
AcDbLine
 10
-13.5
 20
19.0
 30
0.0
 11
-13.5
 21
16.0
 31
0.0
  0
LINE
  5
12C4
330
762
100
AcDbEntity
  8
240
100
AcDbLine
 10
-13.0
 20
15.5
 30
0.0
 11
-13.5
 21
16.0
 31
0.0
  0
ARC
  5
12C5
330
762
100
AcDbEntity
  8
240
100
AcDbCircle
 10
-3.25
 20
18.25
 30
0.0
 40
1.250000000000339
100
AcDbArc
 50
0.0
 51
180.0
  0
LINE
  5
12C6
330
762
100
AcDbEntity
  8
240
100
AcDbLine
 10
-4.5
 20
18.25
 30
0.0
 11
-4.5
 21
19.5
 31
0.0
  0
LINE
  5
12C7
330
762
100
AcDbEntity
  8
240
100
AcDbLine
 10
-4.5
 20
19.5
 30
0.0
 11
-6.12626129
 21
19.5
 31
0.0
  0
LINE
  5
12C8
330
762
100
AcDbEntity
  8
240
100
AcDbLine
 10
-0.50850794
 20
19.46592583
 30
0.0
 11
-0.63567449
 21
19.5
 31
0.0
  0
ARC
  5
12C9
330
762
100
AcDbEntity
  8
240
100
AcDbCircle
 10
-0.76732699
 20
18.5
 30
0.0
 40
1.0
100
AcDbArc
 50
15.0
 51
75.0
1001
GENIUS_GENOBJ-N-FIL_13
1002
{
1000
OWNER
1000
GEN
1002
}
1001
GENIUS_GENODEF_13
1002
{
1000
HIER
1070
     0
1002
}
1002
{
1000
MANEDIT
1070
     0
1002
}
1002
{
1000
NOSEL
1070
     0
1002
}
1002
{
1000
BEHIND
1070
     0
1002
}
1002
{
1000
OTHER
1070
     0
1002
}
1002
{
1000
REACTOR
1002
}
  0
LINE
  5
12CA
330
762
100
AcDbEntity
  8
240
100
AcDbLine
 10
-2.0
 20
18.25
 30
0.0
 11
-2.0
 21
19.5
 31
0.0
  0
LINE
  5
12CB
330
762
100
AcDbEntity
  8
240
100
AcDbLine
 10
-0.63567449
 20
19.5
 30
0.0
 11
-2.0
 21
19.5
 31
0.0
  0
LINE
  5
12CC
330
762
100
AcDbEntity
  8
240
100
AcDbLine
 10
0.19859884
 20
18.75881905
 30
0.0
 11
1.00717253
 21
15.74118096
 31
0.0
  0
LINE
  5
12CD
330
762
100
AcDbEntity
  8
240
100
AcDbLine
 10
11.0
 20
15.15
 30
0.0
 11
13.0
 21
15.15
 31
0.0
  0
LINE
  5
12CE
330
762
100
AcDbEntity
  8
240
100
AcDbLine
 10
35.0
 20
-14.0
 30
0.0
 11
35.0
 21
0.0
 31
0.0
  0
ARC
  5
12CF
330
762
100
AcDbEntity
  8
240
100
AcDbCircle
 10
34.0
 20
-14.0
 30
0.0
 40
1.0
100
AcDbArc
 50
270.0
 51
0.0
1001
GENIUS_GENOBJ-N-FIL_13
1002
{
1000
OWNER
1000
GEN
1002
}
1001
GENIUS_GENODEF_13
1002
{
1000
HIER
1070
     0
1002
}
1002
{
1000
MANEDIT
1070
     0
1002
}
1002
{
1000
NOSEL
1070
     0
1002
}
1002
{
1000
BEHIND
1070
     0
1002
}
1002
{
1000
OTHER
1070
     0
1002
}
1002
{
1000
REACTOR
1002
}
  0
ARC
  5
12D0
330
762
100
AcDbEntity
  8
240
100
AcDbCircle
 10
34.0
 20
14.0
 30
0.0
 40
1.0
100
AcDbArc
 50
0.0
 51
90.0
1001
GENIUS_GENOBJ-N-FIL_13
1002
{
1000
OWNER
1000
GEN
1002
}
1001
GENIUS_GENODEF_13
1002
{
1000
HIER
1070
     0
1002
}
1002
{
1000
MANEDIT
1070
     0
1002
}
1002
{
1000
NOSEL
1070
     0
1002
}
1002
{
1000
BEHIND
1070
     0
1002
}
1002
{
1000
OTHER
1070
     0
1002
}
1002
{
1000
REACTOR
1002
}
  0
LINE
  5
12D1
330
762
100
AcDbEntity
  8
240
100
AcDbLine
 10
35.0
 20
14.0
 30
0.0
 11
35.0
 21
0.0
 31
0.0
  0
ENDBLK
  5
89F
330
762
100
AcDbEntity
  8
0
100
AcDbBlockEnd
  0
BLOCK
  5
115D
330
1153
100
AcDbEntity
  8
0
100
AcDbBlockBegin
  2
*D10
 70
     1
 10
0.0
 20
0.0
 30
0.0
  3
*D10
  1

  0
LINE
  5
119A
330
1153
100
AcDbEntity
  8
250
  6
CONTINUOUS
100
AcDbLine
 10
0.0
 20
19.64125603
 30
0.0
 11
0.0
 21
36.0
 31
0.0
  0
LINE
  5
119B
330
1153
100
AcDbEntity
  8
250
  6
CONTINUOUS
100
AcDbLine
 10
35.0
 20
14.5
 30
0.0
 11
35.0
 21
36.0
 31
0.0
  0
LINE
  5
119C
330
1153
100
AcDbEntity
  8
250
  6
CONTINUOUS
100
AcDbLine
 10
2.23
 20
35.0
 30
0.0
 11
32.77
 21
35.0
 31
0.0
  0
INSERT
  5
119D
330
1153
100
AcDbEntity
  8
250
  6
CONTINUOUS
100
AcDbBlockReference
  2
_OPEN
 10
0.0
 20
35.0
 30
0.0
 41
2.23
 42
2.23
 43
2.23
 50
180.0
  0
INSERT
  5
119E
330
1153
100
AcDbEntity
  8
250
  6
CONTINUOUS
100
AcDbBlockReference
  2
_OPEN
 10
35.0
 20
35.0
 30
0.0
 41
2.23
 42
2.23
 43
2.23
  0
MTEXT
  5
119F
330
1153
100
AcDbEntity
  8
250
  6
CONTINUOUS
 62
    40
100
AcDbMText
 10
17.5
 20
37.4
 30
0.0
 40
2.8
 41
0.0
 71
     5
 72
     1
  1
\A1;35
1001
ACAD
1000
MTEXTBEGIN
1070
    73
1070
     1
1070
    44
1040
1.0
1070
    74
1070
     0
1000
MTEXTEND
  0
POINT
  5
11A0
330
1153
100
AcDbEntity
  8
DEFPOINTS
  6
CONTINUOUS
 62
     0
100
AcDbPoint
 10
0.0
 20
19.14125603
 30
0.0
  0
POINT
  5
11A1
330
1153
100
AcDbEntity
  8
DEFPOINTS
  6
CONTINUOUS
 62
     0
100
AcDbPoint
 10
35.0
 20
14.0
 30
0.0
  0
POINT
  5
11A2
330
1153
100
AcDbEntity
  8
DEFPOINTS
  6
CONTINUOUS
 62
     0
100
AcDbPoint
 10
35.0
 20
35.0
 30
0.0
  0
ENDBLK
  5
115E
330
1153
100
AcDbEntity
  8
0
100
AcDbBlockEnd
  0
BLOCK
  5
1169
330
115F
100
AcDbEntity
  8
0
100
AcDbBlockBegin
  2
*D11
 70
     1
 10
0.0
 20
0.0
 30
0.0
  3
*D11
  1

  0
LINE
  5
11A3
330
115F
100
AcDbEntity
  8
AM_5
100
AcDbLine
 10
34.5
 20
15.0
 30
0.0
 11
54.5
 21
15.0
 31
0.0
  0
LINE
  5
11A4
330
115F
100
AcDbEntity
  8
AM_5
100
AcDbLine
 10
34.5
 20
-15.0
 30
0.0
 11
54.5
 21
-15.0
 31
0.0
  0
LINE
  5
11A5
330
115F
100
AcDbEntity
  8
AM_5
100
AcDbLine
 10
53.5
 20
12.77
 30
0.0
 11
53.5
 21
-12.77
 31
0.0
  0
INSERT
  5
11A6
330
115F
100
AcDbEntity
  8
AM_5
100
AcDbBlockReference
  2
_OPEN
 10
53.5
 20
15.0
 30
0.0
 41
2.23
 42
2.23
 43
2.23
 50
90.0
  0
INSERT
  5
11A7
330
115F
100
AcDbEntity
  8
AM_5
100
AcDbBlockReference
  2
_OPEN
 10
53.5
 20
-15.0
 30
0.0
 41
2.23
 42
2.23
 43
2.23
 50
270.0
  0
MTEXT
  5
11A8
330
115F
100
AcDbEntity
  8
AM_5
 62
    40
100
AcDbMText
 10
51.1
 20
-1.48621162
 30
0.0
 40
2.8
 41
0.0
 71
     5
 72
     1
  1
\A1;%%c30
 11
0.0
 21
1.0
 31
0.0
1001
ACAD
1000
MTEXTBEGIN
1070
    73
1070
     1
1070
    44
1040
1.0
1070
    74
1070
     0
1000
MTEXTEND
  0
POINT
  5
11A9
330
115F
100
AcDbEntity
  8
DEFPOINTS
 62
     0
100
AcDbPoint
 10
34.0
 20
15.0
 30
0.0
  0
POINT
  5
11AA
330
115F
100
AcDbEntity
  8
DEFPOINTS
 62
     0
100
AcDbPoint
 10
34.0
 20
-15.0
 30
0.0
  0
POINT
  5
11AB
330
115F
100
AcDbEntity
  8
DEFPOINTS
 62
     0
100
AcDbPoint
 10
53.5
 20
-15.0
 30
0.0
  0
ENDBLK
  5
116A
330
115F
100
AcDbEntity
  8
0
100
AcDbBlockEnd
  0
BLOCK
  5
1174
330
116B
100
AcDbEntity
  8
0
100
AcDbBlockBegin
  2
*D12
 70
     1
 10
0.0
 20
0.0
 30
0.0
  3
*D12
  1

  0
LINE
  5
11AC
330
116B
100
AcDbEntity
  8
250
  6
CONTINUOUS
100
AcDbLine
 10
35.5
 20
5.5
 30
0.0
 11
47.5
 21
5.5
 31
0.0
  0
LINE
  5
11AD
330
116B
100
AcDbEntity
  8
250
  6
CONTINUOUS
100
AcDbLine
 10
46.5
 20
-3.27
 30
0.0
 11
46.5
 21
3.27
 31
0.0
  0
INSERT
  5
11AE
330
116B
100
AcDbEntity
  8
250
  6
CONTINUOUS
100
AcDbBlockReference
  2
矢印なし
 10
46.5
 20
-5.5
 30
0.0
 41
2.23
 42
2.23
 43
2.23
 50
270.0
  0
INSERT
  5
11AF
330
116B
100
AcDbEntity
  8
250
  6
CONTINUOUS
100
AcDbBlockReference
  2
_OPEN
 10
46.5
 20
5.5
 30
0.0
 41
2.23
 42
2.23
 43
2.23
 50
90.0
  0
MTEXT
  5
11B0
330
116B
100
AcDbEntity
  8
250
  6
CONTINUOUS
 62
    40
100
AcDbMText
 10
44.1
 20
-1.46522202
 30
0.0
 40
2.8
 41
0.0
 71
     5
 72
     1
  1
\A1;{\H2.8;\U+2205}11
 11
0.0
 21
1.0
 31
0.0
1001
ACAD
1000
MTEXTBEGIN
1070
    73
1070
     1
1070
    44
1040
1.0
1070
    74
1070
     0
1000
MTEXTEND
  0
POINT
  5
11B1
330
116B
100
AcDbEntity
  8
DEFPOINTS
  6
CONTINUOUS
 62
     0
100
AcDbPoint
 10
35.0
 20
-5.5
 30
0.0
  0
POINT
  5
11B2
330
116B
100
AcDbEntity
  8
DEFPOINTS
  6
CONTINUOUS
 62
     0
100
AcDbPoint
 10
35.0
 20
5.5
 30
0.0
  0
POINT
  5
11B3
330
116B
100
AcDbEntity
  8
DEFPOINTS
  6
CONTINUOUS
 62
     0
100
AcDbPoint
 10
46.5
 20
5.5
 30
0.0
  0
ENDBLK
  5
1175
330
116B
100
AcDbEntity
  8
0
100
AcDbBlockEnd
  0
ENDSEC
  0
SECTION
  2
ENTITIES
  0
INSERT
  5
6E6
330
1A
100
AcDbEntity
  8
245
100
AcDbBlockReference
  2
矢印なし
 10
175.62382697
 20
90.55123572
 30
0.0
  0
INSERT
  5
8E6
330
1A
100
AcDbEntity
  8
245
100
AcDbBlockReference
  2
矢印なし
 10
364.62382697
 20
230.55123572
 30
0.0
  0
INSERT
  5
8E7
330
1A
100
AcDbEntity
  8
245
100
AcDbBlockReference
  2
矢印なし
 10
539.62382697
 20
370.55123572
 30
0.0
  0
INSERT
  5
8E8
330
1A
100
AcDbEntity
  8
245
100
AcDbBlockReference
  2
矢印なし
 10
714.62382697
 20
510.55123572
 30
0.0
  0
INSERT
  5
8E9
330
1A
100
AcDbEntity
  8
245
100
AcDbBlockReference
  2
矢印なし
 10
903.62382697
 20
650.55123572
 30
0.0
  0
INSERT
  5
8EA
330
1A
100
AcDbEntity
  8
245
100
AcDbBlockReference
  2
矢印なし
 10
1085.62382697
 20
790.55123572
 30
0.0
  0
INSERT
  5
8EB
330
1A
100
AcDbEntity
  8
245
100
AcDbBlockReference
  2
矢印なし
 10
1267.62382697
 20
937.55123572
 30
0.0
  0
INSERT
  5
8EC
330
1A
100
AcDbEntity
  8
245
100
AcDbBlockReference
  2
矢印なし
 10
1449.62382697
 20
1084.55123572
 30
0.0
  0
INSERT
  5
8ED
330
1A
100
AcDbEntity
  8
245
100
AcDbBlockReference
  2
矢印なし
 10
1596.62382697
 20
1224.55123572
 30
0.0
  0
INSERT
  5
8EE
330
1A
100
AcDbEntity
  8
245
100
AcDbBlockReference
  2
矢印なし
 10
1771.62382697
 20
1378.55123572
 30
0.0
  0
INSERT
  5
8EF
330
1A
100
AcDbEntity
  8
245
100
AcDbBlockReference
  2
矢印なし
 10
1967.62382697
 20
1525.55123572
 30
0.0
  0
INSERT
  5
8F0
330
1A
100
AcDbEntity
  8
245
100
AcDbBlockReference
  2
矢印なし
 10
2156.62382697
 20
1658.55123572
 30
0.0
  0
INSERT
  5
8F1
330
1A
100
AcDbEntity
  8
245
100
AcDbBlockReference
  2
矢印なし
 10
2317.62382697
 20
1812.55123572
 30
0.0
  0
INSERT
  5
8F2
330
1A
100
AcDbEntity
  8
245
100
AcDbBlockReference
  2
矢印なし
 10
2492.62382697
 20
1966.55123572
 30
0.0
  0
INSERT
  5
8F3
330
1A
100
AcDbEntity
  8
245
100
AcDbBlockReference
  2
矢印なし
 10
2667.62382697
 20
2099.55123572
 30
0.0
  0
INSERT
  5
8F4
330
1A
100
AcDbEntity
  8
245
100
AcDbBlockReference
  2
矢印なし
 10
2821.62382697
 20
2246.55123572
 30
0.0
  0
TEXT
  5
8F6
330
1A
100
AcDbEntity
  8
241
100
AcDbText
 10
-69.0
 20
49.0
 30
0.0
 40
5.0
  1
MGT20-P1/4-35
  7
YOKO
 11
-69.0
 21
49.0
 31
0.0
100
AcDbText
 73
     1
  0
INSERT
  5
EE0
330
1A
100
AcDbEntity
  8
250
  6
CONTINUOUS
100
AcDbBlockReference
  2
矢印なし
 10
46.5
 20
-5.5
 30
0.0
 41
2.23
 42
2.23
 43
2.23
 50
270.0
  0
DIMENSION
  5
1032
330
1A
100
AcDbEntity
  8
250
  6
CONTINUOUS
100
AcDbDimension
  2
*D10
 10
35.0
 20
35.0
 30
0.0
 11
17.5
 21
37.4
 31
0.0
 70
    32
  3
BIGT$0
100
AcDbAlignedDimension
 13
0.0
 23
19.14125603
 33
0.0
 14
35.0
 24
14.0
 34
0.0
100
AcDbRotatedDimension
  0
DIMENSION
  5
1133
330
1A
100
AcDbEntity
  8
AM_5
100
AcDbDimension
  2
*D11
 10
53.5
 20
-15.0
 30
0.0
 11
53.5
 21
-1.48621162
 31
0.0
 70
   160
  1
%%c<>
  3
BIGT$0
100
AcDbAlignedDimension
 13
34.0
 23
15.0
 33
0.0
 14
34.0
 24
-15.0
 34
0.0
 50
90.0
100
AcDbRotatedDimension
  0
LEADER
  5
113D
330
1A
100
AcDbEntity
  8
250
  6
CONTINUOUS
100
AcDbLeader
  3
BIGT
 76
     2
 10
11.39695282
 20
6.43467171
 30
0.0
 10
22.0
 20
28.0
 30
0.0
1001
ACAD
1000
DSTYLE
1002
{
1070
     6
1000
OPEN
1070
   343
1005
594
1002
}
  0
DIMENSION
  5
114F
330
1A
100
AcDbEntity
  8
250
  6
CONTINUOUS
100
AcDbDimension
  2
*D12
 10
46.5
 20
5.5
 30
0.0
 11
46.5
 21
-1.46522202
 31
0.0
 70
   160
  1
{\H2.8;\U+2205}<>
  3
BIGT
100
AcDbAlignedDimension
 13
35.0
 23
-5.5
 33
0.0
 14
35.0
 24
5.5
 34
0.0
 50
90.0
100
AcDbRotatedDimension
1001
ACAD
1000
DSTYLE
1002
{
1070
   287
1070
     3
1070
   287
1070
     3
1070
   287
1070
     3
1070
   287
1070
     3
1070
    75
1070
     1
1070
    77
1070
     3
1070
   145
1040
1.0
1070
   279
1070
     0
1070
   289
1070
     3
1070
     6
1000
矢印なし
1002
}
  0
LINE
  5
1151
330
1A
100
AcDbEntity
  8
250
  6
CONTINUOUS
100
AcDbLine
 10
22.0
 20
28.0
 30
0.0
 11
34.37936977
 21
28.0
 31
0.0
1001
ITEMNAME
1000
LNSP2
  0
MTEXT
  5
1152
330
1A
100
AcDbEntity
  8
251
  6
CONTINUOUS
100
AcDbMText
 10
26.32603644
 20
29.0
 30
0.0
 40
2.8
 41
0.0
 71
     7
 72
     1
  1
\U+25A19
  7
YOKO
1001
ITEMNAME
1000
LNSP3
1001
ACAD
1000
MTEXTBEGIN
1070
    73
1070
     1
1070
    44
1040
1.0
1070
    74
1070
     0
1000
MTEXTEND
1000
MTEXTBEGIN
1070
    73
1070
     1
1070
    44
1040
1.0
1070
    74
1070
     0
1000
MTEXTEND
1000
MTEXTBEGIN
1070
    73
1070
     1
1070
    44
1040
1.0
1070
    74
1070
     0
1000
MTEXTEND
1000
MTEXTBEGIN
1070
    73
1070
     1
1070
    44
1040
1.0
1070
    74
1070
     0
1000
MTEXTEND
1000
MTEXTBEGIN
1070
    73
1070
     1
1070
    44
1040
1.0
1070
    74
1070
     0
1000
MTEXTEND
1000
MTEXTBEGIN
1070
    73
1070
     1
1070
    44
1040
1.0
1070
    74
1070
     0
1000
MTEXTEND
  0
INSERT
  5
12D2
330
1A
100
AcDbEntity
  8
245
100
AcDbBlockReference
  2
1
 10
0.0
 20
0.0
 30
0.0
  0
VIEWPORT
  5
22
330
17
100
AcDbEntity
 67
     1
  8
0
100
AcDbViewport
 10
261.51769912
 20
148.5
 30
0.0
 40
523.03539823
 41
297.0
 68
     1
 69
     1
1001
ACAD
1000
MVIEW
1002
{
1070
    16
1010
0.0
1020
0.0
1030
0.0
1010
0.0
1020
0.0
1030
1.0
1040
0.0
1040
297.0
1040
261.51769912
1040
148.5
1040
50.0
1040
0.0
1040
0.0
1070
     0
1070
   100
1070
     1
1070
     1
1070
     0
1070
     0
1070
     0
1070
     0
1040
0.0
1040
0.0
1040
0.0
1040
1.0
1040
1.0
1040
10.0
1040
10.0
1070
     0
1002
{
1002
}
1002
}
  0
ENDSEC
  0
SECTION
  2
OBJECTS
  0
DICTIONARY
  5
C
330
0
100
AcDbDictionary
  3
ACAD_GROUP
350
D
  3
ACAD_LAYOUT
350
565
  3
ACAD_MLINESTYLE
350
E
  3
ACAD_PLOTSETTINGS
350
566
  3
ACAD_PLOTSTYLENAME
350
563
  3
ACDBHEADERROUNDTRIPXREC
350
12D4
  3
GRADE_DWG
350
540
  0
DICTIONARY
  5
D7F
330
1A
100
AcDbDictionary
280
     1
  3
ACAD_LAYOUTSELFREF
360
12F6
  0
DICTIONARY
  5
D7D
330
17
100
AcDbDictionary
280
     1
  3
ACAD_LAYOUTSELFREF
360
12F5
  0
DICTIONARY
  5
D
102
{ACAD_REACTORS
330
C
102
}
330
C
100
AcDbDictionary
  3
*A1
350
6C7
  3
*A2
350
6C8
  3
*A3
350
6D4
  3
*A4
350
6D5
  3
DREC-1
350
5FC
  3
DREC-2
350
654
  3
DREC-3
350
673
  0
DICTIONARY
  5
565
102
{ACAD_REACTORS
330
C
102
}
330
C
100
AcDbDictionary
  0
DICTIONARY
  5
E
102
{ACAD_REACTORS
330
C
102
}
330
C
100
AcDbDictionary
  3
STANDARD
350
13
  0
DICTIONARY
  5
566
102
{ACAD_REACTORS
330
C
102
}
330
C
100
AcDbDictionary
  3
A3_0_5倍_
350
758
  3
A3_1倍_
350
757
  3
A3_1倍__2000_
350
707
  3
A3_2倍_
350
759
  3
A4_0_5倍_
350
755
  3
A4_1倍_
350
754
  3
A4_1倍__2000_
350
708
  3
A4_2倍_
350
756
  0
ACDBDICTIONARYWDFLT
  5
563
102
{ACAD_REACTORS
330
C
102
}
330
C
100
AcDbDictionary
281
     1
  3
Normal
350
564
100
AcDbDictionaryWithDefault
340
564
  0
DICTIONARY
  5
12D4
102
{ACAD_REACTORS
330
C
102
}
330
C
100
AcDbDictionary
  3
CEPSNTYPE
350
12DE
  3
DIMSTYLEDATA
350
12E2
  3
FINGERPRINTGUID
350
12DF
  3
HYPERLINKBASE
350
12D7
  3
INSUNITS
350
12DD
  3
LAYOUTDICT
350
12D9
  3
LWETCUNION
350
12DC
  3
PLOTSETDICT
350
12DA
  3
PLOTSTYLNAMDICT
350
12DB
  3
PSVPSCALE
350
12E1
  3
PUCSBASE
350
12E5
  3
PUCSORGBACK
350
12EB
  3
PUCSORGBOTTOM
350
12E7
  3
PUCSORGFRONT
350
12EA
  3
PUCSORGLEFT
350
12E8
  3
PUCSORGRIGHT
350
12E9
  3
PUCSORGTOP
350
12E6
  3
PUCSORTHOREF
350
12E3
  3
PUCSORTHOVIEW
350
12E4
  3
STYLESHEET
350
12D8
  3
TSTACKALIGN
350
12D5
  3
TSTACKSIZE
350
12D6
  3
UCSBASE
350
12EE
  3
UCSORGBACK
350
12F4
  3
UCSORGBOTTOM
350
12F0
  3
UCSORGFRONT
350
12F3
  3
UCSORGLEFT
350
12F1
  3
UCSORGRIGHT
350
12F2
  3
UCSORGTOP
350
12EF
  3
UCSORTHOREF
350
12EC
  3
UCSORTHOVIEW
350
12ED
  3
VERSIONGUID
350
12E0
  0
DICTIONARY
  5
540
102
{ACAD_REACTORS
330
C
102
}
330
C
100
AcDbDictionary
  3
VERSION
350
560
  0
XRECORD
  5
12F6
102
{ACAD_REACTORS
330
D7F
102
}
330
D7F
100
AcDbXrecord
340
1A
  0
XRECORD
  5
12F5
102
{ACAD_REACTORS
330
D7D
102
}
330
D7D
100
AcDbXrecord
340
17
  0
GROUP
  5
6C7
102
{ACAD_REACTORS
330
D
102
}
330
D
100
AcDbGroup
300

 70
     0
 71
     1
1001
GRPNAME
1000
DMA00
  0
GROUP
  5
6C8
102
{ACAD_REACTORS
330
D
102
}
330
D
100
AcDbGroup
300

 70
     0
 71
     1
1001
GRPNAME
1000
DMA00
  0
GROUP
  5
6D4
102
{ACAD_REACTORS
330
D
102
}
330
D
100
AcDbGroup
300

 70
     0
 71
     1
1001
GRPNAME
1000
DMA00
  0
GROUP
  5
6D5
102
{ACAD_REACTORS
330
D
102
}
330
D
100
AcDbGroup
300

 70
     0
 71
     1
1001
GRPNAME
1000
DMA00
  0
GROUP
  5
5FC
102
{ACAD_REACTORS
330
D
102
}
330
D
100
AcDbGroup
300

 70
     0
 71
     1
1001
GRPNAME
1000
DREC-
1001
GPARA
1000
xsiz
1000
44.182
1000
ysiz
1000
40.677
1000
angl
1000
0
1000
ctyp
1000
0
1000
csiz
1000
5
1000
lfnt
1000
cont
1000
hcnt
1000
hoff
1000
vcnt
1000
voff
1000
opnt
1000
4
1000
dxpt
1000
0
1000
dypt
1000
0
  0
GROUP
  5
654
102
{ACAD_REACTORS
330
D
102
}
330
D
100
AcDbGroup
300

 70
     0
 71
     1
1001
GRPNAME
1000
DREC-
1001
GPARA
1000
xsiz
1000
54.592
1000
ysiz
1000
53.036
1000
angl
1000
0
1000
ctyp
1000
0
1000
csiz
1000
5
1000
lfnt
1000
cont
1000
hcnt
1000
hoff
1000
vcnt
1000
voff
1000
opnt
1000
4
1000
dxpt
1000
0
1000
dypt
1000
0
  0
GROUP
  5
673
102
{ACAD_REACTORS
330
D
102
}
330
D
100
AcDbGroup
300

 70
     0
 71
     1
1001
GRPNAME
1000
DREC-
1001
GPARA
1000
xsiz
1000
30.363
1000
ysiz
1000
36.175
1000
angl
1000
0
1000
ctyp
1000
0
1000
csiz
1000
5
1000
lfnt
1000
cont
1000
hcnt
1000
hoff
1000
vcnt
1000
voff
1000
opnt
1000
4
1000
dxpt
1000
0
1000
dypt
1000
0
  0
MLINESTYLE
  5
13
102
{ACAD_REACTORS
330
E
102
}
330
E
100
AcDbMlineStyle
  2
STANDARD
 70
     0
  3

 62
     0
 51
90.0
 52
90.0
 71
     2
 49
0.5
 62
   256
  6
BYLAYER
 49
-0.5
 62
   256
  6
BYLAYER
  0
PLOTSETTINGS
  5
758
102
{ACAD_REACTORS
330
566
102
}
330
566
100
AcDbPlotSettings
  1
A3(0.5倍)
  2
\\AWTECPC05\HP DeskJet 1120C
  4
A3
  6

 40
5.95841646
 41
13.49375153
 42
6.04309082
 43
3.67242432
 44
296.92599487
 45
419.94665527
 46
89.96
 47
127.14
 48
0.0
 49
0.0
140
0.0
141
0.0
142
1.0
143
2.0
 70
  1716
 72
     1
 73
     1
 74
     2
  7
big.ctb
 75
    17
147
0.5
148
0.0
149
0.0
  0
PLOTSETTINGS
  5
757
102
{ACAD_REACTORS
330
566
102
}
330
566
100
AcDbPlotSettings
  1
A3(1倍)
  2
\\AWTECPC05\HP DeskJet 1120C
  4
A3
  6

 40
5.95841646
 41
13.49375153
 42
6.04309082
 43
3.67242432
 44
296.92599487
 45
419.94665527
 46
37.46
 47
52.89
 48
0.0
 49
0.0
140
0.0
141
0.0
142
1.0
143
1.0
 70
  1716
 72
     1
 73
     1
 74
     2
  7
big.ctb
 75
    16
147
1.0
148
0.0
149
0.0
  0
PLOTSETTINGS
  5
707
102
{ACAD_REACTORS
330
566
102
}
330
566
100
AcDbPlotSettings
  1
A3(1倍)(2000)
  2
SII LS-1300 (D-SCAN)
  4
User258
  6

 40
3.17499995
 41
3.17499995
 42
3.17498779
 43
3.17498779
 44
419.98898315
 45
296.98950195
 46
58.32
 47
40.32
 48
0.0
 49
0.0
140
0.0
141
0.0
142
1.0
143
1.0
 70
  1716
 72
     1
 73
     0
 74
     2
  7
big.ctb
 75
    16
147
1.0
148
0.0
149
0.0
  0
PLOTSETTINGS
  5
759
102
{ACAD_REACTORS
330
566
102
}
330
566
100
AcDbPlotSettings
  1
A3(2倍)
  2
\\AWTECPC05\HP DeskJet 1120C
  4
A3
  6

 40
5.95841646
 41
13.49375153
 42
6.04309082
 43
3.67242432
 44
296.92599487
 45
419.94665527
 46
-67.54
 47
-95.61
 48
0.0
 49
0.0
140
0.0
141
0.0
142
1.0
143
0.5
 70
  1716
 72
     1
 73
     1
 74
     2
  7
big.ctb
 75
    27
147
2.0
148
0.0
149
0.0
  0
PLOTSETTINGS
  5
755
102
{ACAD_REACTORS
330
566
102
}
330
566
100
AcDbPlotSettings
  1
A4(0.5倍)
  2
\\AWTECPC05\HP DeskJet 1120C
  4
A4
  6

 40
4.18041658
 41
13.49374962
 42
4.18040466
 43
3.92642212
 44
209.97332764
 45
296.92599487
 46
48.31
 47
65.5
 48
0.0
 49
0.0
140
0.0
141
0.0
142
1.0
143
2.0
 70
  1716
 72
     1
 73
     1
 74
     2
  7
big.ctb
 75
    17
147
0.5
148
0.0
149
0.0
  0
PLOTSETTINGS
  5
754
102
{ACAD_REACTORS
330
566
102
}
330
566
100
AcDbPlotSettings
  1
A4(1倍)
  2
\\AWTECPC05\HP DeskJet 1120C
  4
A4
  6

 40
4.18041658
 41
13.49374962
 42
4.18040466
 43
3.92642212
 44
209.97332764
 45
296.92599487
 46
-4.19
 47
-8.75
 48
0.0
 49
0.0
140
0.0
141
0.0
142
1.0
143
1.0
 70
  1716
 72
     1
 73
     1
 74
     2
  7
big.ctb
 75
    16
147
1.0
148
0.0
149
0.0
  0
PLOTSETTINGS
  5
708
102
{ACAD_REACTORS
330
566
102
}
330
566
100
AcDbPlotSettings
  1
A4(1倍)(2000)
  2
SII LS-1300 (D-SCAN)
  4
User259
  6

 40
3.17499995
 41
3.17499995
 42
3.17498779
 43
3.17500305
 44
296.98950195
 45
209.99449158
 46
-3.18
 47
-3.18
 48
0.0
 49
0.0
140
0.0
141
0.0
142
1.0
143
1.0
 70
  1716
 72
     1
 73
     0
 74
     2
  7
big.ctb
 75
    16
147
1.0
148
0.0
149
0.0
  0
PLOTSETTINGS
  5
756
102
{ACAD_REACTORS
330
566
102
}
330
566
100
AcDbPlotSettings
  1
A4(2倍)
  2
\\AWTECPC05\HP DeskJet 1120C
  4
A4
  6

 40
4.18041658
 41
13.49374962
 42
4.18040466
 43
3.92642212
 44
209.97332764
 45
296.92599487
 46
-109.19
 47
-157.25
 48
0.0
 49
0.0
140
0.0
141
0.0
142
1.0
143
0.5
 70
  1716
 72
     1
 73
     1
 74
     2
  7
big.ctb
 75
    27
147
2.0
148
0.0
149
0.0
  0
ACDBPLACEHOLDER
  5
564
102
{ACAD_REACTORS
330
563
102
}
330
563
100
AcDbPlaceHolder
280
     0
  0
XRECORD
  5
12DE
102
{ACAD_REACTORS
330
12D4
102
}
330
12D4
100
AcDbXrecord
 90
        0
  0
XRECORD
  5
12E2
102
{ACAD_REACTORS
330
12D4
102
}
330
12D4
100
AcDbXrecord
1000
DSTYLE
1002
{
1070
    79
 70
     2
1070
   179
 70
     3
1070
   341
340
594
1070
   343
340
594
1070
   344
340
594
1070
   371
 70
    -1
1070
   372
 70
    -1
1002
}
  0
XRECORD
  5
12DF
102
{ACAD_REACTORS
330
12D4
102
}
330
12D4
100
AcDbXrecord
  1
{51294030-9CB4-11D3-8E18-00A0C925D94D}
  0
XRECORD
  5
12D7
102
{ACAD_REACTORS
330
12D4
102
}
330
12D4
100
AcDbXrecord
  1

  0
XRECORD
  5
12DD
102
{ACAD_REACTORS
330
12D4
102
}
330
12D4
100
AcDbXrecord
 90
        0
  0
XRECORD
  5
12D9
102
{ACAD_REACTORS
330
12D4
102
}
330
12D4
100
AcDbXrecord
340
565
  0
XRECORD
  5
12DC
102
{ACAD_REACTORS
330
12D4
102
}
330
12D4
100
AcDbXrecord
 90
    10781
  0
XRECORD
  5
12DA
102
{ACAD_REACTORS
330
12D4
102
}
330
12D4
100
AcDbXrecord
340
566
  0
XRECORD
  5
12DB
102
{ACAD_REACTORS
330
12D4
102
}
330
12D4
100
AcDbXrecord
340
563
  0
XRECORD
  5
12E1
102
{ACAD_REACTORS
330
12D4
102
}
330
12D4
100
AcDbXrecord
 40
0.0
  0
XRECORD
  5
12E5
102
{ACAD_REACTORS
330
12D4
102
}
330
12D4
100
AcDbXrecord
340
0
  0
XRECORD
  5
12EB
102
{ACAD_REACTORS
330
12D4
102
}
330
12D4
100
AcDbXrecord
 10
0.0
 20
0.0
 30
0.0
  0
XRECORD
  5
12E7
102
{ACAD_REACTORS
330
12D4
102
}
330
12D4
100
AcDbXrecord
 10
0.0
 20
0.0
 30
0.0
  0
XRECORD
  5
12EA
102
{ACAD_REACTORS
330
12D4
102
}
330
12D4
100
AcDbXrecord
 10
0.0
 20
0.0
 30
0.0
  0
XRECORD
  5
12E8
102
{ACAD_REACTORS
330
12D4
102
}
330
12D4
100
AcDbXrecord
 10
0.0
 20
0.0
 30
0.0
  0
XRECORD
  5
12E9
102
{ACAD_REACTORS
330
12D4
102
}
330
12D4
100
AcDbXrecord
 10
0.0
 20
0.0
 30
0.0
  0
XRECORD
  5
12E6
102
{ACAD_REACTORS
330
12D4
102
}
330
12D4
100
AcDbXrecord
 10
0.0
 20
0.0
 30
0.0
  0
XRECORD
  5
12E3
102
{ACAD_REACTORS
330
12D4
102
}
330
12D4
100
AcDbXrecord
340
0
  0
XRECORD
  5
12E4
102
{ACAD_REACTORS
330
12D4
102
}
330
12D4
100
AcDbXrecord
 70
     0
  0
XRECORD
  5
12D8
102
{ACAD_REACTORS
330
12D4
102
}
330
12D4
100
AcDbXrecord
  1
big.ctb
  0
XRECORD
  5
12D5
102
{ACAD_REACTORS
330
12D4
102
}
330
12D4
100
AcDbXrecord
 90
        1
  0
XRECORD
  5
12D6
102
{ACAD_REACTORS
330
12D4
102
}
330
12D4
100
AcDbXrecord
 90
       70
  0
XRECORD
  5
12EE
102
{ACAD_REACTORS
330
12D4
102
}
330
12D4
100
AcDbXrecord
340
0
  0
XRECORD
  5
12F4
102
{ACAD_REACTORS
330
12D4
102
}
330
12D4
100
AcDbXrecord
 10
0.0
 20
0.0
 30
0.0
  0
XRECORD
  5
12F0
102
{ACAD_REACTORS
330
12D4
102
}
330
12D4
100
AcDbXrecord
 10
0.0
 20
0.0
 30
0.0
  0
XRECORD
  5
12F3
102
{ACAD_REACTORS
330
12D4
102
}
330
12D4
100
AcDbXrecord
 10
0.0
 20
0.0
 30
0.0
  0
XRECORD
  5
12F1
102
{ACAD_REACTORS
330
12D4
102
}
330
12D4
100
AcDbXrecord
 10
0.0
 20
0.0
 30
0.0
  0
XRECORD
  5
12F2
102
{ACAD_REACTORS
330
12D4
102
}
330
12D4
100
AcDbXrecord
 10
0.0
 20
0.0
 30
0.0
  0
XRECORD
  5
12EF
102
{ACAD_REACTORS
330
12D4
102
}
330
12D4
100
AcDbXrecord
 10
0.0
 20
0.0
 30
0.0
  0
XRECORD
  5
12EC
102
{ACAD_REACTORS
330
12D4
102
}
330
12D4
100
AcDbXrecord
340
0
  0
XRECORD
  5
12ED
102
{ACAD_REACTORS
330
12D4
102
}
330
12D4
100
AcDbXrecord
 70
     0
  0
XRECORD
  5
12E0
102
{ACAD_REACTORS
330
12D4
102
}
330
12D4
100
AcDbXrecord
  1
{2393F1CC-D112-4DC8-A714-9DA6CB1D6E13}
  0
XRECORD
  5
560
102
{ACAD_REACTORS
330
540
102
}
330
540
100
AcDbXrecord
  1
2.0.0
  0
ENDSEC
  0
EOF
