  0
SECTION
  2
HEADER
  9
$ACADVER
  1
AC1014
  9
$ACADMAINTVER
 70
     9
  9
$DWGCODEPAGE
  3
ANSI_932
  9
$INSBASE
 10
0.0
 20
0.0
 30
0.0
  9
$EXTMIN
 10
-70.01495247
 20
-19.5703201
 30
-0.00152582
  9
$EXTMAX
 10
54.5112617
 20
54.0197928
 30
0.00000003
  9
$LIMMIN
 10
0.0
 20
0.0
  9
$LIMMAX
 10
420.0
 20
297.0
  9
$ORTHOMODE
 70
     1
  9
$REGENMODE
 70
     1
  9
$FILLMODE
 70
     1
  9
$QTEXTMODE
 70
     0
  9
$MIRRTEXT
 70
     1
  9
$DRAGMODE
 70
     2
  9
$LTSCALE
 40
10.0
  9
$OSMODE
 70
   549
  9
$ATTMODE
 70
     1
  9
$TEXTSIZE
 40
3.0
  9
$TRACEWID
 40
1.0
  9
$TEXTSTYLE
  7
YOKO
  9
$CLAYER
  8
245
  9
$CELTYPE
  6
BYLAYER
  9
$CECOLOR
 62
   256
  9
$CELTSCALE
 40
1.0
  9
$DELOBJ
 70
     1
  9
$DISPSILH
 70
     0
  9
$DIMSCALE
 40
1.0
  9
$DIMASZ
 40
2.0
  9
$DIMEXO
 40
2.0
  9
$DIMDLI
 40
2.5
  9
$DIMRND
 40
0.0
  9
$DIMDLE
 40
0.0
  9
$DIMEXE
 40
2.0
  9
$DIMTP
 40
0.0
  9
$DIMTM
 40
0.0
  9
$DIMTXT
 40
4.0
  9
$DIMCEN
 40
0.0
  9
$DIMTSZ
 40
0.0
  9
$DIMTOL
 70
     0
  9
$DIMLIM
 70
     0
  9
$DIMTIH
 70
     0
  9
$DIMTOH
 70
     0
  9
$DIMSE1
 70
     0
  9
$DIMSE2
 70
     0
  9
$DIMTAD
 70
     3
  9
$DIMZIN
 70
     8
  9
$DIMBLK
  1

  9
$DIMASO
 70
     1
  9
$DIMSHO
 70
     1
  9
$DIMPOST
  1

  9
$DIMAPOST
  1

  9
$DIMALT
 70
     0
  9
$DIMALTD
 70
     2
  9
$DIMALTF
 40
25.4
  9
$DIMLFAC
 40
1.0
  9
$DIMTOFL
 70
     1
  9
$DIMTVP
 40
0.0
  9
$DIMTIX
 70
     1
  9
$DIMSOXD
 70
     0
  9
$DIMSAH
 70
     1
  9
$DIMBLK1
  1
OPEN
  9
$DIMBLK2
  1
OPEN
  9
$DIMSTYLE
  2
BIGT
  9
$DIMCLRD
 70
   256
  9
$DIMCLRE
 70
   256
  9
$DIMCLRT
 70
    40
  9
$DIMTFAC
 40
1.0
  9
$DIMGAP
 40
1.0
  9
$DIMJUST
 70
     0
  9
$DIMSD1
 70
     0
  9
$DIMSD2
 70
     0
  9
$DIMTOLJ
 70
     1
  9
$DIMTZIN
 70
     8
  9
$DIMALTZ
 70
     0
  9
$DIMALTTZ
 70
     0
  9
$DIMFIT
 70
     3
  9
$DIMUPT
 70
     0
  9
$DIMUNIT
 70
     2
  9
$DIMDEC
 70
     3
  9
$DIMTDEC
 70
     3
  9
$DIMALTU
 70
     2
  9
$DIMALTTD
 70
     2
  9
$DIMTXSTY
  7
STANDARD
  9
$DIMAUNIT
 70
     0
  9
$LUNITS
 70
     2
  9
$LUPREC
 70
     3
  9
$SKETCHINC
 40
1.0
  9
$FILLETRAD
 40
0.0
  9
$AUNITS
 70
     0
  9
$AUPREC
 70
     3
  9
$MENU
  1
.
  9
$ELEVATION
 40
0.0
  9
$PELEVATION
 40
0.0
  9
$THICKNESS
 40
0.0
  9
$LIMCHECK
 70
     0
  9
$BLIPMODE
 70
     0
  9
$CHAMFERA
 40
10.0
  9
$CHAMFERB
 40
10.0
  9
$CHAMFERC
 40
0.0
  9
$CHAMFERD
 40
0.0
  9
$SKPOLY
 70
     0
  9
$TDCREATE
 40
2455128.646657616
  9
$TDUPDATE
 40
2455316.562491852
  9
$TDINDWG
 40
0.0046032292
  9
$TDUSRTIMER
 40
0.0046032292
  9
$USRTIMER
 70
     1
  9
$ANGBASE
 50
0.0
  9
$ANGDIR
 70
     0
  9
$PDMODE
 70
     1
  9
$PDSIZE
 40
-5.0
  9
$PLINEWID
 40
0.0
  9
$COORDS
 70
     2
  9
$SPLFRAME
 70
     0
  9
$SPLINETYPE
 70
     6
  9
$SPLINESEGS
 70
     8
  9
$ATTDIA
 70
     0
  9
$ATTREQ
 70
     1
  9
$HANDLING
 70
-16383
  9
$HANDSEED
  5
130A
  9
$SURFTAB1
 70
     6
  9
$SURFTAB2
 70
     6
  9
$SURFTYPE
 70
     6
  9
$SURFU
 70
     6
  9
$SURFV
 70
     6
  9
$UCSNAME
  2

  9
$UCSORG
 10
0.0
 20
0.0
 30
0.0
  9
$UCSXDIR
 10
1.0
 20
0.0
 30
0.0
  9
$UCSYDIR
 10
0.0
 20
1.0
 30
0.0
  9
$PUCSNAME
  2

  9
$PUCSORG
 10
0.0
 20
0.0
 30
0.0
  9
$PUCSXDIR
 10
1.0
 20
0.0
 30
0.0
  9
$PUCSYDIR
 10
0.0
 20
1.0
 30
0.0
  9
$USERI1
 70
     1
  9
$USERI2
 70
     0
  9
$USERI3
 70
     0
  9
$USERI4
 70
     0
  9
$USERI5
 70
     0
  9
$USERR1
 40
0.0
  9
$USERR2
 40
0.0
  9
$USERR3
 40
0.0
  9
$USERR4
 40
0.0
  9
$USERR5
 40
0.0
  9
$WORLDVIEW
 70
     1
  9
$SHADEDGE
 70
     3
  9
$SHADEDIF
 70
    70
  9
$TILEMODE
 70
     1
  9
$MAXACTVP
 70
    16
  9
$PINSBASE
 10
0.0
 20
0.0
 30
0.0
  9
$PLIMCHECK
 70
     0
  9
$PEXTMIN
 10
1.00000000E+20
 20
1.00000000E+20
 30
1.00000000E+20
  9
$PEXTMAX
 10
-1.00000000E+20
 20
-1.00000000E+20
 30
-1.00000000E+20
  9
$PLIMMIN
 10
0.0
 20
0.0
  9
$PLIMMAX
 10
420.0
 20
297.0
  9
$UNITMODE
 70
     0
  9
$VISRETAIN
 70
     0
  9
$PLINEGEN
 70
     0
  9
$PSLTSCALE
 70
     1
  9
$TREEDEPTH
 70
  3020
  9
$PICKSTYLE
 70
     0
  9
$CMLSTYLE
  2
STANDARD
  9
$CMLJUST
 70
     0
  9
$CMLSCALE
 40
1.0
  9
$PROXYGRAPHICS
 70
     1
  9
$MEASUREMENT
 70
     1
  0
ENDSEC
  0
SECTION
  2
CLASSES
  0
CLASS
  1
XRECORD
  2
AcDbXrecord
  3
AutoCAD 2000
 90
        0
280
     0
281
     0
  0
CLASS
  1
ACDBDICTIONARYWDFLT
  2
AcDbDictionaryWithDefault
  3
AutoCAD 2000
 90
        0
280
     0
281
     0
  0
CLASS
  1
ACDBPLACEHOLDER
  2
AcDbPlaceHolder
  3
AutoCAD 2000
 90
        0
280
     0
281
     0
  0
CLASS
  1
LAYOUT
  2
AcDbLayout
  3
AutoCAD 2000
 90
        0
280
     0
281
     0
  0
CLASS
  1
PLOTSETTINGS
  2
AcDbPlotSettings
  3
AutoCAD 2000
 90
        0
280
     0
281
     0
  0
CLASS
  1
LONG_TRANSACTION
  2
AcDbLongTransaction
  3
AutoCAD 2000
 90
        0
280
     0
281
     0
  0
CLASS
  1
LWPOLYLINE
  2
AcDbPolyline
  3
AutoCAD 2000
 90
        0
280
     0
281
     1
  0
CLASS
  1
HATCH
  2
AcDbHatch
  3
AutoCAD 2000
 90
        0
280
     0
281
     1
  0
CLASS
  1
XRECORD
  2
AcDbXrecord
  3
AutoCAD 2000
 90
        0
280
     0
281
     0
  0
CLASS
  1
LONG_TRANSACTION
  2
AcDbLongTransaction
  3
AutoCAD 2000
 90
        0
280
     0
281
     0
  0
CLASS
  1
LWPOLYLINE
  2
AcDbPolyline
  3
AutoCAD 2000
 90
        0
280
     0
281
     1
  0
CLASS
  1
HATCH
  2
AcDbHatch
  3
AutoCAD 2000
 90
        0
280
     0
281
     1
  0
CLASS
  1
XRECORD
  2
AcDbXrecord
  3
AutoCAD 2000
 90
        0
280
     0
281
     0
  0
ENDSEC
  0
SECTION
  2
TABLES
  0
TABLE
  2
VPORT
  5
8
330
0
100
AcDbSymbolTable
 70
     2
  0
VPORT
  5
12E5
330
8
100
AcDbSymbolTableRecord
100
AcDbViewportTableRecord
  2
*ACTIVE
 70
     0
 10
0.0
 20
0.0
 11
1.0
 21
1.0
 12
-7.75184539
 22
17.22473635
 13
0.0
 23
0.0
 14
7.0
 24
7.0
 15
7.0
 25
7.0
 16
0.0
 26
0.0
 36
1.0
 17
0.0
 27
0.0
 37
0.0
 40
87.43258703
 41
1.43184713
 42
50.0
 43
0.0
 44
0.0
 50
0.0
 51
0.0
 71
     0
 72
  2000
 73
     1
 74
     0
 75
     0
 76
     0
 77
     0
 78
     0
  0
ENDTAB
  0
TABLE
  2
LTYPE
  5
5
330
0
100
AcDbSymbolTable
 70
     3
  0
LTYPE
  5
14
330
5
100
AcDbSymbolTableRecord
100
AcDbLinetypeTableRecord
  2
BYBLOCK
 70
     0
  3

 72
    65
 73
     0
 40
0.0
  0
LTYPE
  5
15
330
5
100
AcDbSymbolTableRecord
100
AcDbLinetypeTableRecord
  2
BYLAYER
 70
     0
  3

 72
    65
 73
     0
 40
0.0
  0
LTYPE
  5
16
330
5
100
AcDbSymbolTableRecord
100
AcDbLinetypeTableRecord
  2
CONTINUOUS
 70
     0
  3
Solid line
 72
    65
 73
     0
 40
0.0
  0
LTYPE
  5
258
330
5
100
AcDbSymbolTableRecord
100
AcDbLinetypeTableRecord
  2
CENTER2
 70
     0
  3
___ _ ___ _ ___ _ ___ _ ___ _ ___ _ ___ _ ___ _
 72
    65
 73
     4
 40
1.125
 49
0.75
 74
     0
 49
-0.125
 74
     0
 49
0.125
 74
     0
 49
-0.125
 74
     0
  0
LTYPE
  5
25C
330
5
100
AcDbSymbolTableRecord
100
AcDbLinetypeTableRecord
  2
HIDDEN2
 70
     0
  3
_ _ _ _ _ _ _ _ _ _ _ _ _ _ _ _ _ _ _ _ _ _ _ _
 72
    65
 73
     2
 40
0.1875
 49
0.125
 74
     0
 49
-0.0625
 74
     0
  0
ENDTAB
  0
TABLE
  2
LAYER
  5
2
330
0
100
AcDbSymbolTable
 70
    12
  0
LAYER
  5
F
330
2
100
AcDbSymbolTableRecord
100
AcDbLayerTableRecord
  2
0
 70
     0
 62
     7
  6
CONTINUOUS
  0
LAYER
  5
1AA
330
2
100
AcDbSymbolTableRecord
100
AcDbLayerTableRecord
  2
240
 70
     0
 62
     4
  6
CONTINUOUS
  0
LAYER
  5
1AB
330
2
100
AcDbSymbolTableRecord
100
AcDbLayerTableRecord
  2
241
 70
     0
 62
   211
  6
CONTINUOUS
  0
LAYER
  5
1AC
330
2
100
AcDbSymbolTableRecord
100
AcDbLayerTableRecord
  2
242
 70
     0
 62
     3
  6
CONTINUOUS
  0
LAYER
  5
1AD
330
2
100
AcDbSymbolTableRecord
100
AcDbLayerTableRecord
  2
243
 70
     0
 62
   211
  6
HIDDEN2
  0
LAYER
  5
1AF
330
2
100
AcDbSymbolTableRecord
100
AcDbLayerTableRecord
  2
245
 70
     0
 62
     2
  6
CENTER2
  0
LAYER
  5
21E
330
2
100
AcDbSymbolTableRecord
100
AcDbLayerTableRecord
  2
250
 70
     0
 62
     3
  6
CONTINUOUS
  0
LAYER
  5
21F
330
2
100
AcDbSymbolTableRecord
100
AcDbLayerTableRecord
  2
251
 70
     0
 62
    40
  6
CONTINUOUS
  0
LAYER
  5
5C4
330
2
100
AcDbSymbolTableRecord
100
AcDbLayerTableRecord
  2
DEFPOINTS
 70
     0
 62
     7
  6
CONTINUOUS
  0
LAYER
  5
8C3
330
2
100
AcDbSymbolTableRecord
100
AcDbLayerTableRecord
  2
AM_5
 70
     0
 62
     3
  6
CONTINUOUS
  0
ENDTAB
  0
TABLE
  2
STYLE
  5
3
330
0
100
AcDbSymbolTable
 70
     2
  0
STYLE
  5
10
330
3
100
AcDbSymbolTableRecord
100
AcDbTextStyleTableRecord
  2
STANDARD
 70
     0
 40
0.0
 41
1.0
 50
0.0
 71
     0
 42
3.0
  3
romans.shx
  4
BIGFONT.SHX
  0
STYLE
  5
339
330
3
100
AcDbSymbolTableRecord
100
AcDbTextStyleTableRecord
  2
YOKO
 70
     0
 40
0.0
 41
1.0
 50
0.0
 71
     0
 42
3.0
  3
romans.shx
  4
extfont.shx
  0
ENDTAB
  0
TABLE
  2
VIEW
  5
6
330
0
100
AcDbSymbolTable
 70
     0
  0
ENDTAB
  0
TABLE
  2
UCS
  5
7
330
0
100
AcDbSymbolTable
 70
     0
  0
ENDTAB
  0
TABLE
  2
APPID
  5
9
330
0
100
AcDbSymbolTable
 70
    15
  0
APPID
  5
11
330
9
100
AcDbSymbolTableRecord
100
AcDbRegAppTableRecord
  2
ACAD
 70
     0
  0
APPID
  5
1B1
330
9
100
AcDbSymbolTableRecord
100
AcDbRegAppTableRecord
  2
GLOBAL
 70
     0
  0
APPID
  5
2A4
330
9
100
AcDbSymbolTableRecord
100
AcDbRegAppTableRecord
  2
DETAIL
 70
     0
  0
APPID
  5
5FD
330
9
100
AcDbSymbolTableRecord
100
AcDbRegAppTableRecord
  2
GRPNAME
 70
     0
  0
APPID
  5
5FE
330
9
100
AcDbSymbolTableRecord
100
AcDbRegAppTableRecord
  2
GPARA
 70
     0
  0
APPID
  5
6C4
330
9
100
AcDbSymbolTableRecord
100
AcDbRegAppTableRecord
  2
DCO15
 70
     0
  0
APPID
  5
6C5
330
9
100
AcDbSymbolTableRecord
100
AcDbRegAppTableRecord
  2
ITEMNAME
 70
     0
  0
APPID
  5
6C6
330
9
100
AcDbSymbolTableRecord
100
AcDbRegAppTableRecord
  2
GRADE_0
 70
     0
  0
APPID
  5
8C5
330
9
100
AcDbSymbolTableRecord
100
AcDbRegAppTableRecord
  2
GENIUS_GENODEF_13
 70
     0
  0
APPID
  5
8C6
330
9
100
AcDbSymbolTableRecord
100
AcDbRegAppTableRecord
  2
GENIUS_GENOREF_13
 70
     0
  0
APPID
  5
8C7
330
9
100
AcDbSymbolTableRecord
100
AcDbRegAppTableRecord
  2
GENIUS_GENOBJ-N-FIL_13
 70
     0
  0
APPID
  5
8C8
330
9
100
AcDbSymbolTableRecord
100
AcDbRegAppTableRecord
  2
HATCH_TYPE
 70
     0
  0
APPID
  5
8C9
330
9
100
AcDbSymbolTableRecord
100
AcDbRegAppTableRecord
  2
HATCH_DISPLAY
 70
     0
  0
APPID
  5
8CA
330
9
100
AcDbSymbolTableRecord
100
AcDbRegAppTableRecord
  2
HATCH_DISTANCE
 70
     0
  0
APPID
  5
DA7
330
9
100
AcDbSymbolTableRecord
100
AcDbRegAppTableRecord
  2
CONTENTBLOCKICON
 70
     0
  0
ENDTAB
  0
TABLE
  2
DIMSTYLE
  5
A
330
0
100
AcDbSymbolTable
 70
     2
  0
DIMSTYLE
105
725
102
{ACAD_REACTORS
330
1163
102
}
330
A
100
AcDbSymbolTableRecord
100
AcDbDimStyleTableRecord
  2
BIGT
 70
     0
  3

  4

  5

  6
OPEN
  7
OPEN
 40
1.0
 41
2.23
 42
0.5
 43
2.5
 44
1.0
 45
0.0
 46
0.0
 47
0.0
 48
0.0
140
2.8
141
0.0
142
0.0
143
25.4
144
1.0
145
0.0
146
1.0
147
1.0
 71
     0
 72
     0
 73
     0
 74
     0
 75
     0
 76
     0
 77
     3
 78
     8
170
     0
171
     2
172
     1
173
     1
174
     1
175
     0
176
   256
177
   256
178
    40
270
     2
271
     3
272
     3
273
     2
274
     2
340
10
275
     0
280
     0
281
     0
282
     0
283
     1
284
     8
285
     0
286
     0
287
     3
288
     0
  0
DIMSTYLE
105
8C4
102
{ACAD_REACTORS
330
1147
330
1046
102
}
330
A
100
AcDbSymbolTableRecord
100
AcDbDimStyleTableRecord
  2
BIGT$0
 70
     0
  3

  4

  5
OPEN
  6

  7

 40
1.0
 41
2.23
 42
0.5
 43
7.0
 44
1.0
 45
0.0
 46
0.0
 47
0.0
 48
0.01
140
2.8
141
0.0
142
0.0
143
25.4
144
1.0
145
0.0
146
1.0
147
1.0
 71
     0
 72
     0
 73
     0
 74
     0
 75
     0
 76
     0
 77
     3
 78
     9
170
     0
171
     2
172
     1
173
     0
174
     1
175
     0
176
   256
177
   256
178
    40
270
     2
271
     3
272
     3
273
     2
274
     2
340
10
275
     0
280
     0
281
     0
282
     0
283
     1
284
     8
285
     0
286
     0
287
     3
288
     0
  0
ENDTAB
  0
TABLE
  2
BLOCK_RECORD
  5
1
330
0
100
AcDbSymbolTable
 70
    13
  0
BLOCK_RECORD
  5
1A
102
{ACAD_XDICTIONARY
360
DA5
102
}
330
1
100
AcDbSymbolTableRecord
100
AcDbBlockTableRecord
  2
*MODEL_SPACE
  0
BLOCK_RECORD
  5
17
102
{ACAD_XDICTIONARY
360
DA3
102
}
330
1
100
AcDbSymbolTableRecord
100
AcDbBlockTableRecord
  2
*PAPER_SPACE
  0
BLOCK_RECORD
  5
594
330
1
100
AcDbSymbolTableRecord
100
AcDbBlockTableRecord
  2
_OPEN
  0
BLOCK_RECORD
  5
6E3
330
1
100
AcDbSymbolTableRecord
100
AcDbBlockTableRecord
  2
矢印なし
  0
BLOCK_RECORD
  5
762
330
1
100
AcDbSymbolTableRecord
100
AcDbBlockTableRecord
  2
1
1001
CONTENTBLOCKICON
1071
        0
1004
2800000020000000200000000100080000000000000400000000000000000000000000000000000000000000000080000080000000808000800000008000800080800000C0C0C000C0DCC000F0CAA6000020400000206000002080000020A0000020C0000020E00000400000004020000040400000406000004080000040A0
1004
000040C0000040E00000600000006020000060400000606000006080000060A0000060C0000060E00000800000008020000080400000806000008080000080A0000080C0000080E00000A0000000A0200000A0400000A0600000A0800000A0A00000A0C00000A0E00000C0000000C0200000C0400000C0600000C0800000C0
1004
A00000C0C00000C0E00000E0000000E0200000E0400000E0600000E0800000E0A00000E0C00000E0E00040000000400020004000400040006000400080004000A0004000C0004000E00040200000402020004020400040206000402080004020A0004020C0004020E000404000004040200040404000404060004040800040
1004
40A0004040C0004040E00040600000406020004060400040606000406080004060A0004060C0004060E00040800000408020004080400040806000408080004080A0004080C0004080E00040A0000040A0200040A0400040A0600040A0800040A0A00040A0C00040A0E00040C0000040C0200040C0400040C0600040C08000
1004
40C0A00040C0C00040C0E00040E0000040E0200040E0400040E0600040E0800040E0A00040E0C00040E0E00080000000800020008000400080006000800080008000A0008000C0008000E00080200000802020008020400080206000802080008020A0008020C0008020E00080400000804020008040400080406000804080
1004
008040A0008040C0008040E00080600000806020008060400080606000806080008060A0008060C0008060E00080800000808020008080400080806000808080008080A0008080C0008080E00080A0000080A0200080A0400080A0600080A0800080A0A00080A0C00080A0E00080C0000080C0200080C0400080C0600080C0
1004
800080C0A00080C0C00080C0E00080E0000080E0200080E0400080E0600080E0800080E0A00080E0C00080E0E000C0000000C0002000C0004000C0006000C0008000C000A000C000C000C000E000C0200000C0202000C0204000C0206000C0208000C020A000C020C000C020E000C0400000C0402000C0404000C0406000C0
1004
408000C040A000C040C000C040E000C0600000C0602000C0604000C0606000C0608000C060A000C060C000C060E000C0800000C0802000C0804000C0806000C0808000C080A000C080C000C080E000C0A00000C0A02000C0A04000C0A06000C0A08000C0A0A000C0A0C000C0A0E000C0C00000C0C02000C0C04000C0C06000
1004
C0C08000C0C0A000F0FBFF00A4A0A000808080000000FF0000FF000000FFFF00FF000000FF00FF00FFFF0000FFFFFF0000000000000000000000000000000000000000000000000000000000000000000000000000000000000000000000000000000000000000000000000000000000000000000000000000000000000000
1004
00000000000000000000000000000000000000000000000000000000000000000000000000000000000000000000000000000000000000000000000000000000000000000000000000000000000000000000000000000000000000000000000000000000000000000000000000000000000000000000000000000000000000
1004
00000000000000000000000000000000000000000000000000000000000000000000000000000000000000000000000000000000000000000000000000000000000000000000000000000000000000000000000000000000000000000000000000000000000000000000000000000000000000000000000000000000000000
1004
000000FEFEFEFEFE000000000000000000000000000000000000000000000000000000FEFEE7FEFE0000FE00000000000000000000FEFEFEFEFEFEFEFEFEFEFEFEFEFEFEFEE7E7E7FFFEFEFEFEFEFEFEFE00000000FE00000000E7FBE70000E700E7E7E700E7E7E7FFFFE7E700000000FE00000000FE00000000E7FBE70000
1004
E7FBFBE7E700E7E7E700FFE7E700000000FE00000000FE00000000E7FBE70000E7FBE7E7E700E7E7E700FFE7E700000000FE000000FBFEFBFBFBFBE7FBE7FBFBE7FBE7E7E7FBE7E7E7E7FBE7E7E7FBFBFBFEFB000000FE00000000E7FBE70000E700E7E7E700E7E7E7E7FAE7E7E7E7E7E7FE00000000FE00000000E7FBE700
1004
00E700E7E7E700E7E7E7E7E7E7E7E7000000FE00000000FEFEFEFEFEFEFEFEFEFEFEFEFEFEFEFEE7E7E7FEFEFEE7FEFEFEFEFE000000000000000000000000000000000000FEFEE7FEFE0000FE000000000000000000000000000000000000000000000000FEFEFEFEFE000000000000000000000000000000000000000000
1004
00000000000000000000000000000000000000000000000000000000000000000000000000000000000000000000000000000000000000000000000000000000000000000000000000000000000000000000000000000000000000000000000000000000000000000000000000000000000000000000000000000000000000
1004
00000000000000000000000000000000000000000000000000000000000000000000000000000000000000000000000000000000000000000000000000000000000000000000000000000000000000000000000000000000000000000000000000000000000000000000000000000000000000000000000000000000000000
1004
0000000000000000000000000000000000000000000000000000000000000000000000000000000000000000000000000000000000000000
  0
BLOCK_RECORD
  5
1165
330
1
100
AcDbSymbolTableRecord
100
AcDbBlockTableRecord
  2
*D10
  0
BLOCK_RECORD
  5
1171
330
1
100
AcDbSymbolTableRecord
100
AcDbBlockTableRecord
  2
*D11
  0
BLOCK_RECORD
  5
117C
330
1
100
AcDbSymbolTableRecord
100
AcDbBlockTableRecord
  2
*D12
  0
ENDTAB
  0
ENDSEC
  0
SECTION
  2
BLOCKS
  0
BLOCK
  5
1B
330
1A
100
AcDbEntity
  8
0
100
AcDbBlockBegin
  2
*MODEL_SPACE
 70
     0
 10
0.0
 20
0.0
 30
0.0
  3
*MODEL_SPACE
  1

  0
ENDBLK
  5
1C
330
1A
100
AcDbEntity
  8
0
100
AcDbBlockEnd
  0
BLOCK
  5
18
330
17
100
AcDbEntity
 67
     1
  8
0
100
AcDbBlockBegin
  2
*PAPER_SPACE
 70
     0
 10
0.0
 20
0.0
 30
0.0
  3
*PAPER_SPACE
  1

  0
ENDBLK
  5
19
330
17
100
AcDbEntity
 67
     1
  8
0
100
AcDbBlockEnd
  0
BLOCK
  5
598
330
594
100
AcDbEntity
  8
0
100
AcDbBlockBegin
  2
_OPEN
 70
     0
 10
0.0
 20
0.0
 30
0.0
  3
_OPEN
  1

  0
LINE
  5
595
330
594
100
AcDbEntity
  8
0
  6
BYBLOCK
 62
     0
100
AcDbLine
 10
-1.0
 20
0.16666667
 30
0.0
 11
0.0
 21
0.0
 31
0.0
  0
LINE
  5
596
330
594
100
AcDbEntity
  8
0
  6
BYBLOCK
 62
     0
100
AcDbLine
 10
-1.0
 20
-0.16666667
 30
0.0
 11
0.0
 21
0.0
 31
0.0
  0
LINE
  5
597
330
594
100
AcDbEntity
  8
0
  6
BYBLOCK
 62
     0
100
AcDbLine
 10
0.0
 20
0.0
 30
0.0
 11
-1.0
 21
0.0
 31
0.0
  0
ENDBLK
  5
599
330
594
100
AcDbEntity
  8
0
100
AcDbBlockEnd
  0
BLOCK
  5
6E4
330
6E3
100
AcDbEntity
  8
0
100
AcDbBlockBegin
  2
矢印なし
 70
     0
 10
0.0
 20
0.0
 30
0.0
  3
矢印なし
  1

  0
ENDBLK
  5
6E5
330
6E3
100
AcDbEntity
  8
0
100
AcDbBlockEnd
  0
BLOCK
  5
89E
330
762
100
AcDbEntity
  8
0
100
AcDbBlockBegin
  2
1
 70
     0
 10
0.0
 20
0.0
 30
0.0
  3
1
  1

  0
LINE
  5
11C6
330
762
100
AcDbEntity
  8
241
  6
HIDDEN2
100
AcDbLine
 10
18.0
 20
7.5
 30
0.0
 11
35.0
 21
7.5
 31
0.0
  0
LINE
  5
11C7
330
762
100
AcDbEntity
  8
240
100
AcDbLine
 10
13.25980762
 20
15.0
 30
0.0
 11
34.0
 21
15.0
 31
0.0
  0
LINE
  5
11C8
330
762
100
AcDbEntity
  8
240
100
AcDbLine
 10
13.25980762
 20
-15.0
 30
0.0
 11
34.0
 21
-15.0
 31
0.0
  0
LINE
  5
11C9
330
762
100
AcDbEntity
  8
245
100
AcDbLine
 10
-70.0
 20
0.0
 30
0.0
 11
36.0
 21
0.0
 31
0.0
  0
LINE
  5
11CA
330
762
100
AcDbEntity
  8
240
100
AcDbLine
 10
-54.0
 20
12.5
 30
0.0
 11
-56.5
 21
15.0
 31
0.0
  0
LINE
  5
11CB
330
762
100
AcDbEntity
  8
240
100
AcDbLine
 10
-54.0
 20
-12.5
 30
0.0
 11
-56.5
 21
-15.0
 31
0.0
  0
LINE
  5
11CC
330
762
100
AcDbEntity
  8
240
100
AcDbLine
 10
-69.0
 20
-14.0
 30
0.0
 11
-69.0
 21
0.0
 31
0.0
  0
LINE
  5
11CD
330
762
100
AcDbEntity
  8
240
100
AcDbLine
 10
-68.0
 20
-15.0
 30
0.0
 11
-56.5
 21
-15.0
 31
0.0
  0
ARC
  5
11CE
330
762
100
AcDbEntity
  8
240
100
AcDbCircle
 10
-68.0
 20
-14.0
 30
0.0
 40
1.0
100
AcDbArc
 50
180.0
 51
270.0
  0
ARC
  5
11CF
330
762
100
AcDbEntity
  8
240
100
AcDbCircle
 10
-68.0
 20
14.0
 30
0.0
 40
1.0
100
AcDbArc
 50
90.0
 51
180.0
  0
LINE
  5
11D0
330
762
100
AcDbEntity
  8
240
100
AcDbLine
 10
-69.0
 20
14.0
 30
0.0
 11
-69.0
 21
0.0
 31
0.0
  0
LINE
  5
11D1
330
762
100
AcDbEntity
  8
240
100
AcDbLine
 10
-68.0
 20
15.0
 30
0.0
 11
-56.5
 21
15.0
 31
0.0
  0
TEXT
  5
11D2
330
762
100
AcDbEntity
  8
0
100
AcDbText
 10
7.36161494
 20
-14.83401192
 30
0.0
 40
1.2
  1
MGT20-M20-35
 50
90.0
  7
YOKO
100
AcDbText
  0
ARC
  5
11D3
330
762
100
AcDbEntity
  8
0
100
AcDbCircle
 10
4.08870224
 20
-9.89405681
 30
0.0
 40
0.7214456176757899
100
AcDbArc
 50
0.0
 51
194.1274365
  0
ARC
  5
11D4
330
762
100
AcDbEntity
  8
0
100
AcDbCircle
 10
4.08870224
 20
-9.89405681
 30
0.0
 40
0.8911990356445432
100
AcDbArc
 50
0.0
 51
194.77079397
  0
LINE
  5
11D5
330
762
100
AcDbEntity
  8
0
100
AcDbLine
 10
3.38119436
 20
-9.75293142
 30
0.0
 11
3.242554
 21
-9.61429106
 31
0.0
  0
LINE
  5
11D6
330
762
100
AcDbEntity
  8
0
100
AcDbLine
 10
4.97834419
 20
-9.84139822
 30
0.0
 11
4.75545239
 21
-9.61850643
 31
0.0
  0
LINE
  5
11D7
330
762
100
AcDbEntity
  8
241
100
AcDbLine
 10
10.0
 20
-11.7
 30
0.0
 11
10.0
 21
0.0
 31
0.0
  0
LINE
  5
11D8
330
762
100
AcDbEntity
  8
241
100
AcDbLine
 10
11.0
 20
-11.7
 30
0.0
 11
11.0
 21
0.0
 31
0.0
  0
LINE
  5
11D9
330
762
100
AcDbEntity
  8
241
100
AcDbLine
 10
13.0
 20
-15.15
 30
0.0
 11
13.0
 21
0.0
 31
0.0
  0
LINE
  5
11DA
330
762
100
AcDbEntity
  8
241
100
AcDbLine
 10
14.2
 20
-15.0
 30
0.0
 11
14.2
 21
0.0
 31
0.0
  0
LINE
  5
11DB
330
762
100
AcDbEntity
  8
241
100
AcDbLine
 10
1.20577137
 20
-15.35874397
 30
0.0
 11
1.20577137
 21
0.0
 31
0.0
  0
LINE
  5
11DC
330
762
100
AcDbEntity
  8
241
100
AcDbLine
 10
-6.12626129
 20
-19.5
 30
0.0
 11
-6.12626129
 21
0.0
 31
0.0
  0
LINE
  5
11DD
330
762
100
AcDbEntity
  8
241
  6
CONTINUOUS
100
AcDbLine
 10
-7.5
 20
-19.00000001
 30
0.0
 11
-7.5
 21
0.0
 31
0.0
  0
LINE
  5
11DE
330
762
100
AcDbEntity
  8
241
100
AcDbLine
 10
0.0
 20
-19.14125603
 30
0.0
 11
0.0
 21
0.0
 31
0.0
  0
LINE
  5
11DF
330
762
100
AcDbEntity
  8
241
100
AcDbLine
 10
-2.0
 20
-18.25
 30
0.0
 11
-2.0
 21
0.0
 31
0.0
  0
LINE
  5
11E0
330
762
100
AcDbEntity
  8
241
100
AcDbLine
 10
-4.5
 20
-18.25
 30
0.0
 11
-4.5
 21
0.0
 31
0.0
  0
LINE
  5
11E1
330
762
100
AcDbEntity
  8
241
100
AcDbLine
 10
-14.5
 20
-15.0
 30
0.0
 11
-14.5
 21
0.0
 31
0.0
  0
LINE
  5
11E2
330
762
100
AcDbEntity
  8
241
100
AcDbLine
 10
-19.0
 20
-13.75
 30
0.0
 11
-19.0
 21
0.0
 31
0.0
  0
LINE
  5
11E3
330
762
100
AcDbEntity
  8
241
100
AcDbLine
 10
-21.5
 20
-13.75
 30
0.0
 11
-21.5
 21
0.0
 31
0.0
  0
LINE
  5
11E4
330
762
100
AcDbEntity
  8
241
100
AcDbLine
 10
-29.5
 20
-13.75
 30
0.0
 11
-29.5
 21
0.0
 31
0.0
  0
LINE
  5
11E5
330
762
100
AcDbEntity
  8
241
100
AcDbLine
 10
-32.0
 20
-13.75
 30
0.0
 11
-32.0
 21
0.0
 31
0.0
  0
LINE
  5
11E6
330
762
100
AcDbEntity
  8
243
100
AcDbLine
 10
-42.0
 20
-12.5
 30
0.0
 11
-42.0
 21
12.5
 31
0.0
1001
GENIUS_GENOREF_13
1005
0
  0
LINE
  5
11E7
330
762
100
AcDbEntity
  8
243
100
AcDbLine
 10
-50.0
 20
-12.5
 30
0.0
 11
-50.0
 21
12.5
 31
0.0
1001
GENIUS_GENOREF_13
1005
0
  0
LINE
  5
11E8
330
762
100
AcDbEntity
  8
245
100
AcDbLine
 10
-46.0
 20
-15.0
 30
0.0
 11
-46.0
 21
15.0
 31
0.0
1001
GENIUS_GENOREF_13
1005
0
  0
LINE
  5
11E9
330
762
100
AcDbEntity
  8
240
100
AcDbLine
 10
-19.0
 20
-15.0
 30
0.0
 11
-14.5
 21
-15.0
 31
0.0
  0
LINE
  5
11EA
330
762
100
AcDbEntity
  8
240
100
AcDbLine
 10
-38.0
 20
-12.5
 30
0.0
 11
-35.5
 21
-15.0
 31
0.0
  0
LINE
  5
11EB
330
762
100
AcDbEntity
  8
240
100
AcDbLine
 10
-46.0
 20
-12.5
 30
0.0
 11
-38.0
 21
-12.5
 31
0.0
  0
LINE
  5
11EC
330
762
100
AcDbEntity
  8
240
100
AcDbLine
 10
-54.0
 20
-12.5
 30
0.0
 11
-46.0
 21
-12.5
 31
0.0
  0
LINE
  5
11ED
330
762
100
AcDbEntity
  8
240
100
AcDbLine
 10
-29.5
 20
-15.0
 30
0.0
 11
-21.5
 21
-15.0
 31
0.0
  0
ARC
  5
11EE
330
762
100
AcDbEntity
  8
240
100
AcDbCircle
 10
-30.75
 20
-13.75
 30
0.0
 40
1.24999999999827
100
AcDbArc
 50
180.0
 51
0.0
  0
LINE
  5
11EF
330
762
100
AcDbEntity
  8
240
100
AcDbLine
 10
-35.5
 20
-15.0
 30
0.0
 11
-32.0
 21
-15.0
 31
0.0
  0
LINE
  5
11F0
330
762
100
AcDbEntity
  8
240
100
AcDbLine
 10
-32.0
 20
-13.75
 30
0.0
 11
-32.0
 21
-15.0
 31
0.0
  0
LINE
  5
11F1
330
762
100
AcDbEntity
  8
240
100
AcDbLine
 10
-29.5
 20
-13.75
 30
0.0
 11
-29.5
 21
-15.0
 31
0.0
  0
ARC
  5
11F2
330
762
100
AcDbEntity
  8
240
100
AcDbCircle
 10
-20.25
 20
-13.75
 30
0.0
 40
1.249999999998089
100
AcDbArc
 50
180.0
 51
0.0
  0
LINE
  5
11F3
330
762
100
AcDbEntity
  8
240
100
AcDbLine
 10
-21.5
 20
-13.75
 30
0.0
 11
-21.5
 21
-15.0
 31
0.0
  0
LINE
  5
11F4
330
762
100
AcDbEntity
  8
240
100
AcDbLine
 10
-19.0
 20
-13.75
 30
0.0
 11
-19.0
 21
-15.0
 31
0.0
  0
LINE
  5
11F5
330
762
100
AcDbEntity
  8
240
100
AcDbLine
 10
10.0
 20
-15.0
 30
0.0
 11
1.97309836
 21
-15.0
 31
0.0
  0
LINE
  5
11F6
330
762
100
AcDbEntity
  8
240
100
AcDbLine
 10
-7.5
 20
-19.00000001
 30
0.0
 11
-6.12626128
 21
-19.5
 31
0.0
  0
LINE
  5
11F7
330
762
100
AcDbEntity
  8
240
100
AcDbLine
 10
-13.0
 20
-15.5
 30
0.0
 11
-13.5
 21
-16.0
 31
0.0
  0
LINE
  5
11F8
330
762
100
AcDbEntity
  8
240
100
AcDbLine
 10
-7.50000001
 20
-19.0
 30
0.0
 11
-13.5
 21
-19.0
 31
0.0
  0
LINE
  5
11F9
330
762
100
AcDbEntity
  8
240
100
AcDbLine
 10
-13.5
 20
-19.0
 30
0.0
 11
-13.5
 21
-16.0
 31
0.0
  0
LINE
  5
11FA
330
762
100
AcDbEntity
  8
241
  6
CONTINUOUS
100
AcDbLine
 10
-7.5
 20
-15.2
 30
0.0
 11
-13.0
 21
-15.2
 31
0.0
  0
LINE
  5
11FB
330
762
100
AcDbEntity
  8
240
100
AcDbLine
 10
-13.0
 20
-15.5
 30
0.0
 11
-13.0
 21
-14.7
 31
0.0
  0
LINE
  5
11FC
330
762
100
AcDbEntity
  8
240
100
AcDbLine
 10
-14.2
 20
-14.7
 30
0.0
 11
-13.0
 21
-14.7
 31
0.0
  0
LINE
  5
11FD
330
762
100
AcDbEntity
  8
240
100
AcDbLine
 10
-14.2
 20
-14.7
 30
0.0
 11
-14.5
 21
-15.0
 31
0.0
  0
LINE
  5
11FE
330
762
100
AcDbEntity
  8
240
100
AcDbLine
 10
0.19859884
 20
-18.75881905
 30
0.0
 11
1.00717253
 21
-15.74118096
 31
0.0
  0
ARC
  5
11FF
330
762
100
AcDbEntity
  8
240
100
AcDbCircle
 10
-3.25
 20
-18.25
 30
0.0
 40
1.250000000000339
100
AcDbArc
 50
180.0
 51
0.0
  0
LINE
  5
1200
330
762
100
AcDbEntity
  8
240
100
AcDbLine
 10
-4.5
 20
-19.5
 30
0.0
 11
-6.12626129
 21
-19.5
 31
0.0
  0
LINE
  5
1201
330
762
100
AcDbEntity
  8
240
100
AcDbLine
 10
-4.5
 20
-18.25
 30
0.0
 11
-4.5
 21
-19.5
 31
0.0
  0
LINE
  5
1202
330
762
100
AcDbEntity
  8
240
100
AcDbLine
 10
-0.63567449
 20
-19.5
 30
0.0
 11
-2.0
 21
-19.5
 31
0.0
  0
LINE
  5
1203
330
762
100
AcDbEntity
  8
240
100
AcDbLine
 10
-2.0
 20
-18.25
 30
0.0
 11
-2.0
 21
-19.5
 31
0.0
  0
ARC
  5
1204
330
762
100
AcDbEntity
  8
240
100
AcDbCircle
 10
-0.76732699
 20
-18.5
 30
0.0
 40
1.0
100
AcDbArc
 50
285.0
 51
345.0
1001
GENIUS_GENOBJ-N-FIL_13
1002
{
1000
OWNER
1000
GEN
1002
}
1001
GENIUS_GENODEF_13
1002
{
1000
HIER
1070
     0
1002
}
1002
{
1000
MANEDIT
1070
     0
1002
}
1002
{
1000
NOSEL
1070
     0
1002
}
1002
{
1000
BEHIND
1070
     0
1002
}
1002
{
1000
OTHER
1070
     0
1002
}
1002
{
1000
REACTOR
1002
}
  0
LINE
  5
1205
330
762
100
AcDbEntity
  8
240
100
AcDbLine
 10
-0.50850794
 20
-19.46592583
 30
0.0
 11
-0.63567449
 21
-19.5
 31
0.0
  0
ARC
  5
1206
330
762
100
AcDbEntity
  8
240
100
AcDbCircle
 10
1.97309836
 20
-16.0
 30
0.0
 40
1.0
100
AcDbArc
 50
90.0
 51
165.00000002
  0
LINE
  5
1207
330
762
100
AcDbEntity
  8
240
100
AcDbLine
 10
11.0
 20
-15.15
 30
0.0
 11
13.0
 21
-15.15
 31
0.0
  0
LINE
  5
1208
330
762
100
AcDbEntity
  8
0
100
AcDbLine
 10
3.36807436
 20
-9.9283968
 30
0.0
 11
3.20661575
 21
-9.76693819
 31
0.0
  0
ARC
  5
1209
330
762
100
AcDbEntity
  8
0
100
AcDbCircle
 10
4.08870224
 20
-13.34002941
 30
0.0
 40
0.7214456176757899
100
AcDbArc
 50
180.0
 51
0.0
  0
LINE
  5
120A
330
762
100
AcDbEntity
  8
0
100
AcDbLine
 10
4.64621055
 20
-14.03531367
 30
0.0
 11
4.52528071
 21
-13.91438384
 31
0.0
  0
LINE
  5
120B
330
762
100
AcDbEntity
  8
0
100
AcDbLine
 10
3.87260103
 20
-14.20463104
 30
0.0
 11
3.2241006
 21
-13.55613062
 31
0.0
  0
ARC
  5
120C
330
762
100
AcDbEntity
  8
0
100
AcDbCircle
 10
4.08870224
 20
-13.34002941
 30
0.0
 40
0.8911990356445432
100
AcDbArc
 50
180.0
 51
0.0
  0
LINE
  5
120D
330
762
100
AcDbEntity
  8
0
100
AcDbLine
 10
4.02928726
 20
-10.64971844
 30
0.0
 11
3.85953384
 21
-10.60104442
 31
0.0
  0
LINE
  5
120E
330
762
100
AcDbEntity
  8
0
100
AcDbLine
 10
4.02928726
 20
-10.5896097
 30
0.0
 11
3.85953384
 21
-10.41985629
 31
0.0
  0
ARC
  5
120F
330
762
100
AcDbEntity
  8
0
100
AcDbCircle
 10
3.56247177
 20
-10.56000957
 30
0.0
 40
0.1782410037517573
100
AcDbArc
 50
91.71012138
 51
253.99839835
  0
LINE
  5
1210
330
762
100
AcDbEntity
  8
0
100
AcDbLine
 10
4.7226971
 20
-10.71726342
 30
0.0
 11
4.21351967
 21
-10.20808598
 31
0.0
  0
ARC
  5
1211
330
762
100
AcDbEntity
  8
0
100
AcDbCircle
 10
3.7491954
 20
-10.64887249
 30
0.0
 40
0.5516930007934647
100
AcDbArc
 50
143.4440122
 51
254.00018439
  0
LINE
  5
1212
330
762
100
AcDbEntity
  8
0
100
AcDbLine
 10
4.81014805
 20
-13.34002941
 30
0.0
 11
4.81014805
 21
-9.89405681
 31
0.0
  0
LINE
  5
1213
330
762
100
AcDbEntity
  8
0
100
AcDbLine
 10
4.62569951
 20
-10.45440715
 30
0.0
 11
4.72527135
 21
-10.35482891
 31
0.0
  0
LINE
  5
1214
330
762
100
AcDbEntity
  8
0
100
AcDbLine
 10
3.38978439
 20
-10.51586297
 30
0.0
 11
3.26267418
 21
-10.38875276
 31
0.0
  0
LINE
  5
1215
330
762
100
AcDbEntity
  8
0
100
AcDbLine
 10
3.85953384
 20
-10.60104442
 30
0.0
 11
3.85953384
 21
-10.10658184
 31
0.0
  0
LINE
  5
1216
330
762
100
AcDbEntity
  8
0
100
AcDbLine
 10
4.6370625
 20
-10.44304343
 30
0.0
 11
4.47792123
 21
-10.28390216
 31
0.0
  0
LINE
  5
1217
330
762
100
AcDbEntity
  8
0
100
AcDbLine
 10
4.45402309
 20
-10.63717478
 30
0.0
 11
3.94911811
 21
-10.1322698
 31
0.0
  0
LINE
  5
1218
330
762
100
AcDbEntity
  8
0
100
AcDbLine
 10
4.17989439
 20
-10.55163145
 30
0.0
 11
3.85953384
 21
-10.23127091
 31
0.0
  0
LINE
  5
1219
330
762
100
AcDbEntity
  8
0
100
AcDbLine
 10
3.4700866
 20
-10.4075798
 30
0.0
 11
3.2617891
 21
-10.19928231
 31
0.0
  0
ARC
  5
121A
330
762
100
AcDbEntity
  8
0
100
AcDbCircle
 10
4.17357895
 20
-10.77056072
 30
0.0
 40
0.5516986083984456
100
AcDbArc
 50
253.9997507
 51
34.96387329
  0
LINE
  5
121B
330
762
100
AcDbEntity
  8
0
100
AcDbLine
 10
4.97990147
 20
-10.7858824
 30
0.0
 11
4.81014805
 21
-10.61612899
 31
0.0
  0
LINE
  5
121C
330
762
100
AcDbEntity
  8
0
100
AcDbLine
 10
4.97990147
 20
-10.97446778
 30
0.0
 11
4.81014805
 21
-10.80471437
 31
0.0
  0
LINE
  5
121D
330
762
100
AcDbEntity
  8
0
100
AcDbLine
 10
4.97990147
 20
-11.16305316
 30
0.0
 11
4.81014805
 21
-10.99329974
 31
0.0
  0
LINE
  5
121E
330
762
100
AcDbEntity
  8
0
100
AcDbLine
 10
4.97990147
 20
-11.35163854
 30
0.0
 11
4.81014805
 21
-11.18188512
 31
0.0
  0
LINE
  5
121F
330
762
100
AcDbEntity
  8
0
100
AcDbLine
 10
4.97990147
 20
-11.54022392
 30
0.0
 11
4.81014805
 21
-11.3704705
 31
0.0
  0
LINE
  5
1220
330
762
100
AcDbEntity
  8
0
100
AcDbLine
 10
4.97990147
 20
-11.72880929
 30
0.0
 11
4.81014805
 21
-11.55905588
 31
0.0
  0
LINE
  5
1221
330
762
100
AcDbEntity
  8
0
100
AcDbLine
 10
4.97990147
 20
-11.91739467
 30
0.0
 11
4.81014805
 21
-11.74764126
 31
0.0
  0
LINE
  5
1222
330
762
100
AcDbEntity
  8
0
100
AcDbLine
 10
4.97990147
 20
-12.29456543
 30
0.0
 11
4.81014805
 21
-12.12481202
 31
0.0
  0
LINE
  5
1223
330
762
100
AcDbEntity
  8
0
100
AcDbLine
 10
4.97990147
 20
-12.48315081
 30
0.0
 11
4.81014805
 21
-12.31339739
 31
0.0
  0
LINE
  5
1224
330
762
100
AcDbEntity
  8
0
100
AcDbLine
 10
4.97990147
 20
-12.67173618
 30
0.0
 11
4.81014805
 21
-12.50198277
 31
0.0
  0
LINE
  5
1225
330
762
100
AcDbEntity
  8
0
100
AcDbLine
 10
4.97990147
 20
-12.86032157
 30
0.0
 11
4.81014805
 21
-12.69056815
 31
0.0
  0
LINE
  5
1226
330
762
100
AcDbEntity
  8
0
100
AcDbLine
 10
4.97990147
 20
-13.04890694
 30
0.0
 11
4.81014805
 21
-12.87915353
 31
0.0
  0
LINE
  5
1227
330
762
100
AcDbEntity
  8
0
100
AcDbLine
 10
4.97990147
 20
-13.23749232
 30
0.0
 11
4.81014805
 21
-13.06773891
 31
0.0
  0
LINE
  5
1228
330
762
100
AcDbEntity
  8
0
100
AcDbLine
 10
4.97609814
 20
-13.42227437
 30
0.0
 11
4.81014805
 21
-13.25632429
 31
0.0
  0
LINE
  5
1229
330
762
100
AcDbEntity
  8
0
100
AcDbLine
 10
4.94660269
 20
-13.5813643
 30
0.0
 11
4.8034375
 21
-13.43819911
 31
0.0
  0
LINE
  5
122A
330
762
100
AcDbEntity
  8
0
100
AcDbLine
 10
4.97990147
 20
-12.10598005
 30
0.0
 11
4.81014805
 21
-11.93622663
 31
0.0
  0
LINE
  5
122B
330
762
100
AcDbEntity
  8
0
100
AcDbLine
 10
4.97990147
 20
-10.03154089
 30
0.0
 11
4.80939154
 21
-9.86103096
 31
0.0
  0
LINE
  5
122C
330
762
100
AcDbEntity
  8
0
100
AcDbLine
 10
4.97990147
 20
-10.22012627
 30
0.0
 11
4.81014805
 21
-10.05037285
 31
0.0
  0
LINE
  5
122D
330
762
100
AcDbEntity
  8
0
100
AcDbLine
 10
4.97990147
 20
-10.59729702
 30
0.0
 11
4.81014805
 21
-10.42754361
 31
0.0
  0
LINE
  5
122E
330
762
100
AcDbEntity
  8
0
100
AcDbLine
 10
4.97990147
 20
-10.40871164
 30
0.0
 11
4.81014805
 21
-10.23895823
 31
0.0
  0
LINE
  5
122F
330
762
100
AcDbEntity
  8
0
100
AcDbLine
 10
4.53420041
 20
-14.11188891
 30
0.0
 11
4.40885785
 21
-13.98654635
 31
0.0
  0
LINE
  5
1230
330
762
100
AcDbEntity
  8
0
100
AcDbLine
 10
4.40640306
 20
-14.17267694
 30
0.0
 11
4.27162571
 21
-14.03789958
 31
0.0
  0
LINE
  5
1231
330
762
100
AcDbEntity
  8
0
100
AcDbLine
 10
4.2597923
 20
-14.21465156
 30
0.0
 11
4.10639869
 21
-14.06125795
 31
0.0
  0
LINE
  5
1232
330
762
100
AcDbEntity
  8
0
100
AcDbLine
 10
4.08778333
 20
-14.23122797
 30
0.0
 11
3.89017834
 21
-14.03362298
 31
0.0
  0
LINE
  5
1233
330
762
100
AcDbEntity
  8
0
100
AcDbLine
 10
4.97990147
 20
-13.34002941
 30
0.0
 11
4.97990147
 21
-9.89405681
 31
0.0
  0
LINE
  5
1234
330
762
100
AcDbEntity
  8
0
100
AcDbLine
 10
3.33750223
 20
-10.08641006
 30
0.0
 11
3.19914017
 21
-9.94804799
 31
0.0
  0
LINE
  5
1235
330
762
100
AcDbEntity
  8
0
100
AcDbLine
 10
3.3890718
 20
-10.07014842
 30
0.0
 11
3.22695114
 21
-10.12127055
 31
0.0
  0
ARC
  5
1236
330
762
100
AcDbEntity
  8
0
100
AcDbCircle
 10
4.08870224
 20
-9.89405681
 30
0.0
 40
0.8911994361877553
100
AcDbArc
 50
200.22964506
 51
208.57168892
  0
LINE
  5
1237
330
762
100
AcDbEntity
  8
0
100
AcDbLine
 10
3.41459762
 20
-10.15109661
 30
0.0
 11
3.25247696
 21
-10.20221874
 31
0.0
  0
LINE
  5
1238
330
762
100
AcDbEntity
  8
0
100
AcDbLine
 10
3.42283761
 20
-10.17174544
 30
0.0
 11
3.40516364
 21
-10.15407146
 31
0.0
  0
LINE
  5
1239
330
762
100
AcDbEntity
  8
0
100
AcDbLine
 10
3.3890718
 20
-10.07014842
 30
0.0
 11
3.22695114
 21
-10.12127055
 31
0.0
1001
HATCH_DISTANCE
1040
1.0
1001
HATCH_DISPLAY
1070
     0
1001
HATCH_TYPE
1070
     7
  0
LINE
  5
123A
330
762
100
AcDbEntity
  8
0
100
AcDbLine
 10
3.22695114
 20
-10.12127055
 30
0.0
 11
3.22695114
 21
-10.12127055
 31
0.0
1001
HATCH_DISTANCE
1040
1.0
1001
HATCH_DISPLAY
1070
     0
1001
HATCH_TYPE
1070
     7
  0
LINE
  5
123B
330
762
100
AcDbEntity
  8
0
100
AcDbLine
 10
3.22695114
 20
-10.12127055
 30
0.0
 11
3.3890718
 21
-10.07014842
 31
0.0
1001
HATCH_DISTANCE
1040
1.0
1001
HATCH_DISPLAY
1070
     0
1001
HATCH_TYPE
1070
     7
  0
LINE
  5
123C
330
762
100
AcDbEntity
  8
0
100
AcDbLine
 10
3.3890718
 20
-10.07014842
 30
0.0
 11
3.3890718
 21
-10.07014842
 31
0.0
1001
HATCH_DISTANCE
1040
1.0
1001
HATCH_DISPLAY
1070
     0
1001
HATCH_TYPE
1070
     7
  0
LINE
  5
123D
330
762
100
AcDbEntity
  8
0
100
AcDbLine
 10
3.3890718
 20
-10.07014842
 30
0.0
 11
3.22695114
 21
-10.12127055
 31
0.0
  0
LINE
  5
123E
330
762
100
AcDbEntity
  8
0
100
AcDbLine
 10
3.22695114
 20
-10.12127055
 30
0.0
 11
3.22695114
 21
-10.12127055
 31
0.0
  0
LINE
  5
123F
330
762
100
AcDbEntity
  8
0
100
AcDbLine
 10
3.22695114
 20
-10.12127055
 30
0.0
 11
3.3890718
 21
-10.07014842
 31
0.0
  0
LINE
  5
1240
330
762
100
AcDbEntity
  8
0
100
AcDbLine
 10
3.3890718
 20
-10.07014842
 30
0.0
 11
3.3890718
 21
-10.07014842
 31
0.0
  0
LINE
  5
1241
330
762
100
AcDbEntity
  8
0
100
AcDbLine
 10
3.3890718
 20
-10.07014842
 30
0.0
 11
3.22695114
 21
-10.12127055
 31
0.0
1001
HATCH_DISTANCE
1040
1.0
1001
HATCH_DISPLAY
1070
     0
1001
HATCH_TYPE
1070
     7
  0
LINE
  5
1242
330
762
100
AcDbEntity
  8
0
100
AcDbLine
 10
3.22695114
 20
-10.12127055
 30
0.0
 11
3.22695114
 21
-10.12127055
 31
0.0
1001
HATCH_DISTANCE
1040
1.0
1001
HATCH_DISPLAY
1070
     0
1001
HATCH_TYPE
1070
     7
  0
LINE
  5
1243
330
762
100
AcDbEntity
  8
0
100
AcDbLine
 10
3.22695114
 20
-10.12127055
 30
0.0
 11
3.3890718
 21
-10.07014842
 31
0.0
1001
HATCH_DISTANCE
1040
1.0
1001
HATCH_DISPLAY
1070
     0
1001
HATCH_TYPE
1070
     7
  0
LINE
  5
1244
330
762
100
AcDbEntity
  8
0
100
AcDbLine
 10
3.3890718
 20
-10.07014842
 30
0.0
 11
3.3890718
 21
-10.07014842
 31
0.0
1001
HATCH_DISTANCE
1040
1.0
1001
HATCH_DISPLAY
1070
     0
1001
HATCH_TYPE
1070
     7
  0
LINE
  5
1245
330
762
100
AcDbEntity
  8
0
100
AcDbLine
 10
3.3890718
 20
-10.07014842
 30
0.0
 11
3.22695114
 21
-10.12127055
 31
0.0
  0
LINE
  5
1246
330
762
100
AcDbEntity
  8
0
100
AcDbLine
 10
3.22695114
 20
-10.12127055
 30
0.0
 11
3.22695114
 21
-10.12127055
 31
0.0
  0
LINE
  5
1247
330
762
100
AcDbEntity
  8
0
100
AcDbLine
 10
3.22695114
 20
-10.12127055
 30
0.0
 11
3.3890718
 21
-10.07014842
 31
0.0
  0
LINE
  5
1248
330
762
100
AcDbEntity
  8
0
100
AcDbLine
 10
3.3890718
 20
-10.07014842
 30
0.0
 11
3.3890718
 21
-10.07014842
 31
0.0
  0
LINE
  5
1249
330
762
100
AcDbEntity
  8
0
100
AcDbLine
 10
4.72527135
 20
-10.35482891
 30
0.0
 11
3.85953384
 21
-10.10658184
 31
0.0
  0
ARC
  5
124A
330
762
100
AcDbEntity
  8
0
100
AcDbCircle
 10
4.08870224
 20
-9.89405681
 30
0.0
 40
0.7214476203918543
100
AcDbArc
 50
200.8721834
 51
222.54194894
  0
LINE
  5
124B
330
762
100
AcDbEntity
  8
0
100
AcDbLine
 10
4.71120813
 20
-10.89435982
 30
0.0
 11
4.51191484
 21
-10.69506652
 31
0.0
  0
LINE
  5
124C
330
762
100
AcDbEntity
  8
0
100
AcDbLine
 10
3.9804287
 20
-11.29509266
 30
0.0
 11
3.21135509
 21
-10.52601905
 31
0.0
  0
LINE
  5
124D
330
762
100
AcDbEntity
  8
0
100
AcDbLine
 10
3.72923433
 20
-11.23248367
 30
0.0
 11
3.20020953
 21
-10.70345886
 31
0.0
  0
ARC
  5
124E
330
762
100
AcDbEntity
  8
0
100
AcDbCircle
 10
4.36030258
 20
-10.78878704
 30
0.0
 40
0.1782408785820033
100
AcDbArc
 50
254.00027306
 51
74.00027306
  0
LINE
  5
124F
330
762
100
AcDbEntity
  8
0
100
AcDbLine
 10
4.72527135
 20
-12.0324641
 30
0.0
 11
3.38422684
 21
-11.64792339
 31
0.0
  0
LINE
  5
1250
330
762
100
AcDbEntity
  8
0
100
AcDbLine
 10
4.72527135
 20
-11.65278758
 30
0.0
 11
3.1975032
 21
-11.21470867
 31
0.0
  0
LINE
  5
1251
330
762
100
AcDbEntity
  8
0
100
AcDbLine
 10
3.38422684
 20
-11.64792339
 30
0.0
 11
4.72527135
 21
-12.0324641
 31
0.0
1001
HATCH_DISTANCE
1040
1.0
1001
HATCH_DISPLAY
1070
     0
1001
HATCH_TYPE
1070
     7
  0
LINE
  5
1252
330
762
100
AcDbEntity
  8
0
100
AcDbLine
 10
4.72527135
 20
-11.65278758
 30
0.0
 11
3.1975032
 21
-11.21470867
 31
0.0
1001
HATCH_DISTANCE
1040
1.0
1001
HATCH_DISPLAY
1070
     0
1001
HATCH_TYPE
1070
     7
  0
LINE
  5
1253
330
762
100
AcDbEntity
  8
0
100
AcDbLine
 10
3.38422684
 20
-11.64792339
 30
0.0
 11
4.72527135
 21
-12.0324641
 31
0.0
  0
LINE
  5
1254
330
762
100
AcDbEntity
  8
0
100
AcDbLine
 10
4.72527135
 20
-11.65278758
 30
0.0
 11
3.1975032
 21
-11.21470867
 31
0.0
  0
LINE
  5
1255
330
762
100
AcDbEntity
  8
0
100
AcDbLine
 10
4.72527135
 20
-13.250955
 30
0.0
 11
3.36725662
 21
-12.8615501
 31
0.0
  0
LINE
  5
1256
330
762
100
AcDbEntity
  8
0
100
AcDbLine
 10
4.72527135
 20
-11.85134993
 30
0.0
 11
4.4468826
 21
-11.57296118
 31
0.0
  0
LINE
  5
1257
330
762
100
AcDbEntity
  8
0
100
AcDbLine
 10
4.71479651
 20
-12.02946047
 30
0.0
 11
4.18248177
 21
-11.49714573
 31
0.0
  0
LINE
  5
1258
330
762
100
AcDbEntity
  8
0
100
AcDbLine
 10
4.69345352
 20
-12.38528823
 30
0.0
 11
4.46211742
 21
-12.15395214
 31
0.0
  0
LINE
  5
1259
330
762
100
AcDbEntity
  8
0
100
AcDbLine
 10
4.72527135
 20
-12.9828622
 30
0.0
 11
4.50693062
 21
-12.76452147
 31
0.0
  0
LINE
  5
125A
330
762
100
AcDbEntity
  8
0
100
AcDbLine
 10
4.72527135
 20
-13.17144758
 30
0.0
 11
4.2425332
 21
-12.68870943
 31
0.0
  0
LINE
  5
125B
330
762
100
AcDbEntity
  8
0
100
AcDbLine
 10
4.72527135
 20
-12.79427682
 30
0.0
 11
4.10240746
 21
-12.17141294
 31
0.0
  0
LINE
  5
125C
330
762
100
AcDbEntity
  8
0
100
AcDbLine
 10
4.72527135
 20
-12.60569144
 30
0.0
 11
4.24536327
 21
-12.12578336
 31
0.0
  0
LINE
  5
125D
330
762
100
AcDbEntity
  8
0
100
AcDbLine
 10
4.74376754
 20
-13.94428529
 30
0.0
 11
4.62361307
 21
-13.82413082
 31
0.0
  0
ARC
  5
125E
330
762
100
AcDbEntity
  8
0
100
AcDbCircle
 10
4.30089401
 20
-12.54651164
 30
0.0
 40
0.4243771362304749
100
AcDbArc
 50
0.0
 51
130.32984065
  0
LINE
  5
125F
330
762
100
AcDbEntity
  8
0
100
AcDbLine
 10
3.39105752
 20
-12.40298988
 30
0.0
 11
3.21598613
 21
-12.22791849
 31
0.0
  0
LINE
  5
1260
330
762
100
AcDbEntity
  8
0
100
AcDbLine
 10
3.1975032
 20
-12.98946758
 30
0.0
 11
3.36725662
 21
-13.03814159
 31
0.0
  0
LINE
  5
1261
330
762
100
AcDbEntity
  8
0
100
AcDbLine
 10
3.36725662
 20
-13.34002941
 30
0.0
 11
3.36725662
 21
-13.03814159
 31
0.0
  0
LINE
  5
1262
330
762
100
AcDbEntity
  8
0
100
AcDbLine
 10
3.1975032
 20
-13.34002941
 30
0.0
 11
3.1975032
 21
-12.98946758
 31
0.0
  0
LINE
  5
1263
330
762
100
AcDbEntity
  8
0
100
AcDbLine
 10
3.36725662
 20
-12.94984905
 30
0.0
 11
3.36725662
 21
-12.8615501
 31
0.0
  0
LINE
  5
1264
330
762
100
AcDbEntity
  8
0
100
AcDbLine
 10
3.1975032
 20
-12.90117504
 30
0.0
 11
3.36725662
 21
-12.94984905
 31
0.0
  0
LINE
  5
1265
330
762
100
AcDbEntity
  8
0
100
AcDbLine
 10
3.51473608
 20
-12.9038392
 30
0.0
 11
3.1975032
 21
-12.58660633
 31
0.0
  0
LINE
  5
1266
330
762
100
AcDbEntity
  8
0
100
AcDbLine
 10
3.36725662
 20
-12.94494512
 30
0.0
 11
3.1975032
 21
-12.7751917
 31
0.0
  0
LINE
  5
1267
330
762
100
AcDbEntity
  8
0
100
AcDbLine
 10
3.1975032
 20
-12.90117504
 30
0.0
 11
3.1975032
 21
-12.35355839
 31
0.0
  0
LINE
  5
1268
330
762
100
AcDbEntity
  8
0
100
AcDbLine
 10
3.36725662
 20
-13.1335305
 30
0.0
 11
3.2335213
 21
-12.99979518
 31
0.0
  0
LINE
  5
1269
330
762
100
AcDbEntity
  8
0
100
AcDbLine
 10
3.36725662
 20
-13.32211588
 30
0.0
 11
3.1975032
 21
-13.15236246
 31
0.0
  0
LINE
  5
126A
330
762
100
AcDbEntity
  8
0
100
AcDbLine
 10
3.39510867
 20
-13.53855331
 30
0.0
 11
3.19750368
 21
-13.34094831
 31
0.0
  0
LINE
  5
126B
330
762
100
AcDbEntity
  8
0
100
AcDbLine
 10
3.49041626
 20
-12.31376325
 30
0.0
 11
3.27874629
 21
-12.10209328
 31
0.0
  0
LINE
  5
126C
330
762
100
AcDbEntity
  8
0
100
AcDbLine
 10
4.31117355
 20
-10.9601234
 30
0.0
 11
3.51333633
 21
-10.73134593
 31
0.0
  0
LINE
  5
126D
330
762
100
AcDbEntity
  8
0
100
AcDbLine
 10
3.92159092
 20
-11.80201101
 30
0.0
 11
3.38927928
 21
-11.26969938
 31
0.0
  0
LINE
  5
126E
330
762
100
AcDbEntity
  8
0
100
AcDbLine
 10
3.65718906
 20
-11.72619454
 30
0.0
 11
3.1975032
 21
-11.26650867
 31
0.0
  0
LINE
  5
126F
330
762
100
AcDbEntity
  8
0
100
AcDbLine
 10
3.37169355
 20
-12.43900188
 30
0.0
 11
3.85684218
 21
-12.5781129
 31
0.0
  0
LINE
  5
1270
330
762
100
AcDbEntity
  8
0
100
AcDbLine
 10
3.7791374
 20
-12.97965515
 30
0.0
 11
3.1975032
 21
-12.39802095
 31
0.0
  0
LINE
  5
1271
330
762
100
AcDbEntity
  8
0
100
AcDbLine
 10
4.04353873
 20
-13.0554711
 30
0.0
 11
3.44933128
 21
-12.46126364
 31
0.0
  0
ARC
  5
1272
330
762
100
AcDbEntity
  8
0
100
AcDbCircle
 10
3.60491012
 20
-12.54119243
 30
0.0
 40
0.2546230173110999
100
AcDbArc
 50
351.66260169
 51
156.3381551
  0
ARC
  5
1273
330
762
100
AcDbEntity
  8
0
100
AcDbCircle
 10
3.62188034
 20
-12.35180919
 30
0.0
 40
0.4243807411193908
100
AcDbArc
 50
17.66957755
 51
180.23615984
  0
LINE
  5
1274
330
762
100
AcDbEntity
  8
0
100
AcDbLine
 10
3.65724407
 20
-12.29200568
 30
0.0
 11
3.37317811
 21
-12.00793972
 31
0.0
  0
LINE
  5
1275
330
762
100
AcDbEntity
  8
0
100
AcDbLine
 10
4.10679057
 20
-12.5529668
 30
0.0
 11
3.49933158
 21
-11.94550781
 31
0.0
  0
ARC
  5
1276
330
762
100
AcDbEntity
  8
0
100
AcDbCircle
 10
4.20258468
 20
-9.86856304
 30
0.0
 40
1.443724365234395
100
AcDbArc
 50
245.20517737
 51
262.79482596
  0
LINE
  5
1277
330
762
100
AcDbEntity
  8
0
100
AcDbLine
 10
4.65970081
 20
-11.03143788
 30
0.0
 11
4.51147627
 21
-10.88321334
 31
0.0
  0
LINE
  5
1278
330
762
100
AcDbEntity
  8
0
100
AcDbLine
 10
4.58158758
 20
-11.14191003
 30
0.0
 11
4.40180608
 21
-10.96212852
 31
0.0
  0
LINE
  5
1279
330
762
100
AcDbEntity
  8
0
100
AcDbLine
 10
4.48025844
 20
-11.22916626
 30
0.0
 11
4.17102976
 21
-10.91993758
 31
0.0
  0
LINE
  5
127A
330
762
100
AcDbEntity
  8
0
100
AcDbLine
 10
4.35431991
 20
-11.29181311
 30
0.0
 11
3.90662794
 21
-10.84412114
 31
0.0
  0
LINE
  5
127B
330
762
100
AcDbEntity
  8
0
100
AcDbLine
 10
4.19573565
 20
-11.32181423
 30
0.0
 11
3.64222612
 21
-10.7683047
 31
0.0
  0
LINE
  5
127C
330
762
100
AcDbEntity
  8
0
100
AcDbLine
 10
4.45039465
 20
-11.95364398
 30
0.0
 11
3.91808094
 21
-11.42133028
 31
0.0
  0
LINE
  5
127D
330
762
100
AcDbEntity
  8
0
100
AcDbLine
 10
4.18599279
 20
-11.8778275
 30
0.0
 11
3.65368011
 21
-11.34551483
 31
0.0
  0
LINE
  5
127E
330
762
100
AcDbEntity
  8
0
100
AcDbLine
 10
4.05069374
 20
-12.63370231
 30
0.0
 11
4.53585677
 21
-12.77281561
 31
0.0
  0
LINE
  5
127F
330
762
100
AcDbEntity
  8
0
100
AcDbLine
 10
4.30794006
 20
-13.13128705
 30
0.0
 11
3.7137301
 21
-12.53707709
 31
0.0
  0
LINE
  5
1280
330
762
100
AcDbEntity
  8
0
100
AcDbLine
 10
4.57234138
 20
-13.20710299
 30
0.0
 11
3.85409688
 21
-12.48885849
 31
0.0
  0
ARC
  5
1281
330
762
100
AcDbEntity
  8
0
100
AcDbCircle
 10
4.28391739
 20
-12.73589489
 30
0.0
 40
0.2546303021907843
100
AcDbArc
 50
351.66285421
 51
156.33819216
  0
LINE
  5
1282
330
762
100
AcDbEntity
  8
0
100
AcDbLine
 10
4.22954635
 20
-12.48713721
 30
0.0
 11
3.67291774
 21
-11.93050859
 31
0.0
  0
LINE
  5
1283
330
762
100
AcDbEntity
  8
0
100
AcDbLine
 10
3.38422684
 20
-11.70973522
 30
0.0
 11
3.38422684
 21
-11.64792339
 31
0.0
  0
LINE
  5
1284
330
762
100
AcDbEntity
  8
0
100
AcDbLine
 10
3.38422684
 20
-11.70973522
 30
0.0
 11
3.1975032
 21
-11.6561906
 31
0.0
  0
LINE
  5
1285
330
762
100
AcDbEntity
  8
0
100
AcDbLine
 10
3.1975032
 20
-11.6561906
 30
0.0
 11
3.1975032
 21
-11.21470867
 31
0.0
  0
LINE
  5
1286
330
762
100
AcDbEntity
  8
0
100
AcDbLine
 10
3.1975032
 20
-11.6561906
 30
0.0
 11
3.38422684
 21
-11.70973522
 31
0.0
1001
HATCH_DISTANCE
1040
1.0
1001
HATCH_DISPLAY
1070
     0
1001
HATCH_TYPE
1070
     7
  0
LINE
  5
1287
330
762
100
AcDbEntity
  8
0
100
AcDbLine
 10
3.38422684
 20
-11.70973522
 30
0.0
 11
3.38422684
 21
-11.64792339
 31
0.0
1001
HATCH_DISTANCE
1040
1.0
1001
HATCH_DISPLAY
1070
     0
1001
HATCH_TYPE
1070
     7
  0
LINE
  5
1288
330
762
100
AcDbEntity
  8
0
100
AcDbLine
 10
3.1975032
 20
-11.21470867
 30
0.0
 11
3.1975032
 21
-11.6561906
 31
0.0
1001
HATCH_DISTANCE
1040
1.0
1001
HATCH_DISPLAY
1070
     0
1001
HATCH_TYPE
1070
     7
  0
LINE
  5
1289
330
762
100
AcDbEntity
  8
0
100
AcDbLine
 10
3.1975032
 20
-11.6561906
 30
0.0
 11
3.38422684
 21
-11.70973522
 31
0.0
  0
LINE
  5
128A
330
762
100
AcDbEntity
  8
0
100
AcDbLine
 10
3.38422684
 20
-11.70973522
 30
0.0
 11
3.38422684
 21
-11.64792339
 31
0.0
  0
LINE
  5
128B
330
762
100
AcDbEntity
  8
0
100
AcDbLine
 10
3.1975032
 20
-11.21470867
 30
0.0
 11
3.1975032
 21
-11.6561906
 31
0.0
  0
LINE
  5
128C
330
762
100
AcDbEntity
  8
0
100
AcDbLine
 10
3.3927872
 20
-11.65037805
 30
0.0
 11
3.1975032
 21
-11.45509406
 31
0.0
  0
LINE
  5
128D
330
762
100
AcDbEntity
  8
0
100
AcDbLine
 10
3.21504449
 20
-11.66122071
 30
0.0
 11
3.1975032
 21
-11.64367943
 31
0.0
  0
LINE
  5
128E
330
762
100
AcDbEntity
  8
0
100
AcDbLine
 10
4.72527135
 20
-12.0324641
 30
0.0
 11
4.72527135
 21
-11.65278758
 31
0.0
  0
LINE
  5
128F
330
762
100
AcDbEntity
  8
0
100
AcDbLine
 10
4.72527135
 20
-12.0324641
 30
0.0
 11
4.72527135
 21
-11.65278758
 31
0.0
1001
HATCH_DISTANCE
1040
1.0
1001
HATCH_DISPLAY
1070
     0
1001
HATCH_TYPE
1070
     7
  0
LINE
  5
1290
330
762
100
AcDbEntity
  8
0
100
AcDbLine
 10
4.72527135
 20
-12.0324641
 30
0.0
 11
4.72527135
 21
-11.65278758
 31
0.0
  0
LINE
  5
1291
330
762
100
AcDbEntity
  8
0
100
AcDbLine
 10
4.72527135
 20
-11.66276455
 30
0.0
 11
4.71128343
 21
-11.64877663
 31
0.0
  0
LINE
  5
1292
330
762
100
AcDbEntity
  8
0
100
AcDbLine
 10
4.72527135
 20
-13.250955
 30
0.0
 11
4.72527135
 21
-12.54651164
 31
0.0
  0
LINE
  5
1293
330
762
100
AcDbEntity
  8
0
100
AcDbLine
 10
4.89542001
 20
-13.718767
 30
0.0
 11
4.76577994
 21
-13.58912692
 31
0.0
  0
LINE
  5
1294
330
762
100
AcDbEntity
  8
0
100
AcDbLine
 10
4.82710021
 20
-13.83903257
 30
0.0
 11
4.70429723
 21
-13.7162296
 31
0.0
  0
LINE
  5
1295
330
762
100
AcDbEntity
  8
0
100
AcDbLine
 10
4.40943161
 20
-10.61745067
 30
0.0
 11
4.02928726
 21
-10.50844524
 31
0.0
  0
LINE
  5
1296
330
762
100
AcDbEntity
  8
0
100
AcDbLine
 10
4.02928726
 20
-10.64971844
 30
0.0
 11
4.02928726
 21
-10.50844524
 31
0.0
  0
LINE
  5
1297
330
762
100
AcDbEntity
  8
240
100
AcDbLine
 10
11.0
 20
-11.7
 30
0.0
 11
10.0
 21
-11.7
 31
0.0
  0
LINE
  5
1298
330
762
100
AcDbEntity
  8
240
100
AcDbLine
 10
10.0
 20
-11.7
 30
0.0
 11
10.0
 21
-15.0
 31
0.0
  0
LINE
  5
1299
330
762
100
AcDbEntity
  8
240
100
AcDbLine
 10
11.0
 20
-11.7
 30
0.0
 11
11.0
 21
-15.15
 31
0.0
  0
LINE
  5
129A
330
762
100
AcDbEntity
  8
240
100
AcDbLine
 10
13.25980762
 20
-15.0
 30
0.0
 11
13.0
 21
-15.15
 31
0.0
  0
LINE
  5
129B
330
762
100
AcDbEntity
  8
240
100
AcDbLine
 10
-19.0
 20
15.0
 30
0.0
 11
-14.5
 21
15.0
 31
0.0
  0
LINE
  5
129C
330
762
100
AcDbEntity
  8
240
100
AcDbLine
 10
-38.0
 20
12.5
 30
0.0
 11
-35.5
 21
15.0
 31
0.0
  0
LINE
  5
129D
330
762
100
AcDbEntity
  8
240
100
AcDbLine
 10
-46.0
 20
12.5
 30
0.0
 11
-38.0
 21
12.5
 31
0.0
  0
LINE
  5
129E
330
762
100
AcDbEntity
  8
240
100
AcDbLine
 10
-54.0
 20
12.5
 30
0.0
 11
-46.0
 21
12.5
 31
0.0
  0
LINE
  5
129F
330
762
100
AcDbEntity
  8
241
100
AcDbLine
 10
-32.0
 20
13.75
 30
0.0
 11
-32.0
 21
0.0
 31
0.0
  0
LINE
  5
12A0
330
762
100
AcDbEntity
  8
241
100
AcDbLine
 10
-29.5
 20
13.75
 30
0.0
 11
-29.5
 21
0.0
 31
0.0
  0
LINE
  5
12A1
330
762
100
AcDbEntity
  8
241
100
AcDbLine
 10
-21.5
 20
13.75
 30
0.0
 11
-21.5
 21
0.0
 31
0.0
  0
LINE
  5
12A2
330
762
100
AcDbEntity
  8
241
100
AcDbLine
 10
-19.0
 20
13.75
 30
0.0
 11
-19.0
 21
0.0
 31
0.0
  0
ELLIPSE
  5
12A3
330
762
100
AcDbEntity
  8
241
100
AcDbEllipse
 10
-25.5000349
 20
-5.08449496
 30
0.0
 11
-2.000524505802109
 21
0.0
 31
0.0
210
0.0
220
0.0
230
1.0
 40
0.93944625
 41
0.0
 42
6.283185307179584
  0
LINE
  5
12A4
330
762
100
AcDbEntity
  8
245
100
AcDbLine
 10
-27.4999651
 20
-5.13030215
 30
0.0
 11
-23.5000349
 21
-5.13030215
 31
0.0
  0
LINE
  5
12A5
330
762
100
AcDbEntity
  8
245
100
AcDbLine
 10
-25.5000349
 20
-3.20510972
 30
0.0
 11
-25.5000349
 21
-6.96388021
 31
0.0
  0
LINE
  5
12A6
330
762
100
AcDbEntity
  8
240
100
AcDbLine
 10
-29.5
 20
15.0
 30
0.0
 11
-21.5
 21
15.0
 31
0.0
  0
ARC
  5
12A7
330
762
100
AcDbEntity
  8
240
100
AcDbCircle
 10
-30.75
 20
13.75
 30
0.0
 40
1.24999999999827
100
AcDbArc
 50
0.0
 51
180.0
  0
LINE
  5
12A8
330
762
100
AcDbEntity
  8
240
100
AcDbLine
 10
-35.5
 20
15.0
 30
0.0
 11
-32.0
 21
15.0
 31
0.0
  0
LINE
  5
12A9
330
762
100
AcDbEntity
  8
240
100
AcDbLine
 10
-32.0
 20
13.75
 30
0.0
 11
-32.0
 21
15.0
 31
0.0
  0
LINE
  5
12AA
330
762
100
AcDbEntity
  8
240
100
AcDbLine
 10
-29.5
 20
13.75
 30
0.0
 11
-29.5
 21
15.0
 31
0.0
  0
ARC
  5
12AB
330
762
100
AcDbEntity
  8
240
100
AcDbCircle
 10
-20.25
 20
13.75
 30
0.0
 40
1.249999999998089
100
AcDbArc
 50
0.0
 51
180.0
  0
LINE
  5
12AC
330
762
100
AcDbEntity
  8
240
100
AcDbLine
 10
-21.5
 20
13.75
 30
0.0
 11
-21.5
 21
15.0
 31
0.0
  0
LINE
  5
12AD
330
762
100
AcDbEntity
  8
240
100
AcDbLine
 10
-19.0
 20
13.75
 30
0.0
 11
-19.0
 21
15.0
 31
0.0
  0
LINE
  5
12AE
330
762
100
AcDbEntity
  8
241
100
AcDbLine
 10
13.0
 20
15.15
 30
0.0
 11
13.0
 21
0.0
 31
0.0
  0
LINE
  5
12AF
330
762
100
AcDbEntity
  8
240
100
AcDbLine
 10
11.0
 20
11.7
 30
0.0
 11
11.0
 21
15.15
 31
0.0
  0
LINE
  5
12B0
330
762
100
AcDbEntity
  8
240
100
AcDbLine
 10
13.25980762
 20
15.0
 30
0.0
 11
13.0
 21
15.15
 31
0.0
  0
LINE
  5
12B1
330
762
100
AcDbEntity
  8
241
100
AcDbLine
 10
-4.5
 20
18.25
 30
0.0
 11
-4.5
 21
0.0
 31
0.0
  0
LINE
  5
12B2
330
762
100
AcDbEntity
  8
241
100
AcDbLine
 10
-2.0
 20
18.25
 30
0.0
 11
-2.0
 21
0.0
 31
0.0
  0
LINE
  5
12B3
330
762
100
AcDbEntity
  8
241
100
AcDbLine
 10
0.0
 20
19.14125603
 30
0.0
 11
0.0
 21
0.0
 31
0.0
  0
LINE
  5
12B4
330
762
100
AcDbEntity
  8
241
  6
CONTINUOUS
100
AcDbLine
 10
-7.5
 20
19.00000001
 30
0.0
 11
-7.5
 21
0.0
 31
0.0
  0
LINE
  5
12B5
330
762
100
AcDbEntity
  8
241
100
AcDbLine
 10
-6.12626129
 20
19.5
 30
0.0
 11
-6.12626129
 21
0.0
 31
0.0
  0
LINE
  5
12B6
330
762
100
AcDbEntity
  8
241
100
AcDbLine
 10
1.20577137
 20
15.35874397
 30
0.0
 11
1.20577137
 21
0.0
 31
0.0
  0
ARC
  5
12B7
330
762
100
AcDbEntity
  8
240
100
AcDbCircle
 10
1.97309836
 20
16.0
 30
0.0
 40
1.0
100
AcDbArc
 50
194.99999998
 51
270.0
  0
LINE
  5
12B8
330
762
100
AcDbEntity
  8
240
100
AcDbLine
 10
-13.0
 20
15.5
 30
0.0
 11
-13.0
 21
14.7
 31
0.0
  0
LINE
  5
12B9
330
762
100
AcDbEntity
  8
241
  6
HIDDEN2
100
AcDbLine
 10
2.0
 20
8.55599205
 30
0.0
 11
13.0
 21
8.55599205
 31
0.0
  0
LINE
  5
12BA
330
762
100
AcDbEntity
  8
242
  6
HIDDEN2
100
AcDbLine
 10
2.0
 20
8.55599205
 30
0.0
 11
13.0
 21
0.0
 31
0.0
  0
LINE
  5
12BB
330
762
100
AcDbEntity
  8
242
  6
HIDDEN2
100
AcDbLine
 10
13.0
 20
8.55599205
 30
0.0
 11
2.0
 21
0.0
 31
0.0
  0
LINE
  5
12BC
330
762
100
AcDbEntity
  8
240
100
AcDbLine
 10
10.0
 20
15.0
 30
0.0
 11
1.97309836
 21
15.0
 31
0.0
  0
LINE
  5
12BD
330
762
100
AcDbEntity
  8
241
  6
HIDDEN2
100
AcDbLine
 10
2.0
 20
8.55599205
 30
0.0
 11
2.0
 21
0.0
 31
0.0
  0
LINE
  5
12BE
330
762
100
AcDbEntity
  8
241
100
AcDbLine
 10
-14.5
 20
15.0
 30
0.0
 11
-14.5
 21
0.0
 31
0.0
  0
LINE
  5
12BF
330
762
100
AcDbEntity
  8
240
100
AcDbLine
 10
-14.2
 20
14.7
 30
0.0
 11
-14.5
 21
15.0
 31
0.0
  0
LINE
  5
12C0
330
762
100
AcDbEntity
  8
240
100
AcDbLine
 10
-14.2
 20
14.7
 30
0.0
 11
-13.0
 21
14.7
 31
0.0
  0
LINE
  5
12C1
330
762
100
AcDbEntity
  8
241
  6
HIDDEN2
100
AcDbLine
 10
13.0
 20
8.55599205
 30
0.0
 11
13.0
 21
0.0
 31
0.0
  0
LINE
  5
12C2
330
762
100
AcDbEntity
  8
241
  6
HIDDEN2
100
AcDbLine
 10
18.0
 20
7.75
 30
0.0
 11
18.0
 21
0.0
 31
0.0
  0
LINE
  5
12C3
330
762
100
AcDbEntity
  8
241
100
AcDbLine
 10
14.2
 20
15.0
 30
0.0
 11
14.2
 21
0.0
 31
0.0
  0
LINE
  5
12C4
330
762
100
AcDbEntity
  8
241
100
AcDbLine
 10
10.0
 20
11.7
 30
0.0
 11
10.0
 21
0.0
 31
0.0
  0
LINE
  5
12C5
330
762
100
AcDbEntity
  8
241
100
AcDbLine
 10
11.0
 20
11.7
 30
0.0
 11
11.0
 21
0.0
 31
0.0
  0
LINE
  5
12C6
330
762
100
AcDbEntity
  8
0
100
AcDbLine
 10
3.49280642
 20
-9.48737272
 30
0.0
 11
3.3710654
 21
-9.36563171
 31
0.0
  0
LINE
  5
12C7
330
762
100
AcDbEntity
  8
0
100
AcDbLine
 10
3.42592688
 20
-9.60907857
 30
0.0
 11
3.29860887
 21
-9.48176056
 31
0.0
  0
LINE
  5
12C8
330
762
100
AcDbEntity
  8
0
100
AcDbLine
 10
3.57825007
 20
-9.384231
 30
0.0
 11
3.45821626
 21
-9.26419718
 31
0.0
  0
LINE
  5
12C9
330
762
100
AcDbEntity
  8
0
100
AcDbLine
 10
4.36425262
 20
-9.22730666
 30
0.0
 11
4.14136082
 21
-9.00441486
 31
0.0
  0
LINE
  5
12CA
330
762
100
AcDbEntity
  8
0
100
AcDbLine
 10
4.12172809
 20
-9.17336751
 30
0.0
 11
3.9604893
 21
-9.01212872
 31
0.0
  0
LINE
  5
12CB
330
762
100
AcDbEntity
  8
0
100
AcDbLine
 10
3.94653312
 20
-9.18675792
 30
0.0
 11
3.80799548
 21
-9.04822028
 31
0.0
  0
LINE
  5
12CC
330
762
100
AcDbEntity
  8
0
100
AcDbLine
 10
3.80284843
 20
-9.23165861
 30
0.0
 11
3.67558319
 21
-9.10439336
 31
0.0
  0
LINE
  5
12CD
330
762
100
AcDbEntity
  8
0
100
AcDbLine
 10
3.68127399
 20
-9.29866954
 30
0.0
 11
3.55955599
 21
-9.17695154
 31
0.0
  0
LINE
  5
12CE
330
762
100
AcDbEntity
  8
0
100
AcDbLine
 10
4.93233959
 20
-9.60680825
 30
0.0
 11
4.3759508
 21
-9.05041946
 31
0.0
  0
LINE
  5
12CF
330
762
100
AcDbEntity
  8
240
100
AcDbLine
 10
11.0
 20
11.7
 30
0.0
 11
10.0
 21
11.7
 31
0.0
  0
LINE
  5
12D0
330
762
100
AcDbEntity
  8
240
100
AcDbLine
 10
10.0
 20
11.7
 30
0.0
 11
10.0
 21
15.0
 31
0.0
  0
LINE
  5
12D1
330
762
100
AcDbEntity
  8
241
  6
HIDDEN2
100
AcDbLine
 10
13.0
 20
7.75
 30
0.0
 11
18.0
 21
7.75
 31
0.0
  0
LINE
  5
12D2
330
762
100
AcDbEntity
  8
240
100
AcDbLine
 10
-7.5
 20
19.00000001
 30
0.0
 11
-6.12626128
 21
19.5
 31
0.0
  0
LINE
  5
12D3
330
762
100
AcDbEntity
  8
241
  6
CONTINUOUS
100
AcDbLine
 10
-7.5
 20
15.2
 30
0.0
 11
-13.0
 21
15.2
 31
0.0
  0
LINE
  5
12D4
330
762
100
AcDbEntity
  8
240
100
AcDbLine
 10
-7.50000001
 20
19.0
 30
0.0
 11
-13.5
 21
19.0
 31
0.0
  0
LINE
  5
12D5
330
762
100
AcDbEntity
  8
240
100
AcDbLine
 10
-13.5
 20
19.0
 30
0.0
 11
-13.5
 21
16.0
 31
0.0
  0
LINE
  5
12D6
330
762
100
AcDbEntity
  8
240
100
AcDbLine
 10
-13.0
 20
15.5
 30
0.0
 11
-13.5
 21
16.0
 31
0.0
  0
ARC
  5
12D7
330
762
100
AcDbEntity
  8
240
100
AcDbCircle
 10
-3.25
 20
18.25
 30
0.0
 40
1.250000000000339
100
AcDbArc
 50
0.0
 51
180.0
  0
LINE
  5
12D8
330
762
100
AcDbEntity
  8
240
100
AcDbLine
 10
-4.5
 20
18.25
 30
0.0
 11
-4.5
 21
19.5
 31
0.0
  0
LINE
  5
12D9
330
762
100
AcDbEntity
  8
240
100
AcDbLine
 10
-4.5
 20
19.5
 30
0.0
 11
-6.12626129
 21
19.5
 31
0.0
  0
LINE
  5
12DA
330
762
100
AcDbEntity
  8
240
100
AcDbLine
 10
-0.50850794
 20
19.46592583
 30
0.0
 11
-0.63567449
 21
19.5
 31
0.0
  0
ARC
  5
12DB
330
762
100
AcDbEntity
  8
240
100
AcDbCircle
 10
-0.76732699
 20
18.5
 30
0.0
 40
1.0
100
AcDbArc
 50
15.0
 51
75.0
1001
GENIUS_GENOBJ-N-FIL_13
1002
{
1000
OWNER
1000
GEN
1002
}
1001
GENIUS_GENODEF_13
1002
{
1000
HIER
1070
     0
1002
}
1002
{
1000
MANEDIT
1070
     0
1002
}
1002
{
1000
NOSEL
1070
     0
1002
}
1002
{
1000
BEHIND
1070
     0
1002
}
1002
{
1000
OTHER
1070
     0
1002
}
1002
{
1000
REACTOR
1002
}
  0
LINE
  5
12DC
330
762
100
AcDbEntity
  8
240
100
AcDbLine
 10
-2.0
 20
18.25
 30
0.0
 11
-2.0
 21
19.5
 31
0.0
  0
LINE
  5
12DD
330
762
100
AcDbEntity
  8
240
100
AcDbLine
 10
-0.63567449
 20
19.5
 30
0.0
 11
-2.0
 21
19.5
 31
0.0
  0
LINE
  5
12DE
330
762
100
AcDbEntity
  8
240
100
AcDbLine
 10
0.19859884
 20
18.75881905
 30
0.0
 11
1.00717253
 21
15.74118096
 31
0.0
  0
LINE
  5
12DF
330
762
100
AcDbEntity
  8
240
100
AcDbLine
 10
11.0
 20
15.15
 30
0.0
 11
13.0
 21
15.15
 31
0.0
  0
LINE
  5
12E0
330
762
100
AcDbEntity
  8
240
100
AcDbLine
 10
35.0
 20
-14.0
 30
0.0
 11
35.0
 21
0.0
 31
0.0
  0
ARC
  5
12E1
330
762
100
AcDbEntity
  8
240
100
AcDbCircle
 10
34.0
 20
-14.0
 30
0.0
 40
1.0
100
AcDbArc
 50
270.0
 51
0.0
1001
GENIUS_GENOBJ-N-FIL_13
1002
{
1000
OWNER
1000
GEN
1002
}
1001
GENIUS_GENODEF_13
1002
{
1000
HIER
1070
     0
1002
}
1002
{
1000
MANEDIT
1070
     0
1002
}
1002
{
1000
NOSEL
1070
     0
1002
}
1002
{
1000
BEHIND
1070
     0
1002
}
1002
{
1000
OTHER
1070
     0
1002
}
1002
{
1000
REACTOR
1002
}
  0
ARC
  5
12E2
330
762
100
AcDbEntity
  8
240
100
AcDbCircle
 10
34.0
 20
14.0
 30
0.0
 40
1.0
100
AcDbArc
 50
0.0
 51
90.0
1001
GENIUS_GENOBJ-N-FIL_13
1002
{
1000
OWNER
1000
GEN
1002
}
1001
GENIUS_GENODEF_13
1002
{
1000
HIER
1070
     0
1002
}
1002
{
1000
MANEDIT
1070
     0
1002
}
1002
{
1000
NOSEL
1070
     0
1002
}
1002
{
1000
BEHIND
1070
     0
1002
}
1002
{
1000
OTHER
1070
     0
1002
}
1002
{
1000
REACTOR
1002
}
  0
LINE
  5
12E3
330
762
100
AcDbEntity
  8
240
100
AcDbLine
 10
35.0
 20
14.0
 30
0.0
 11
35.0
 21
0.0
 31
0.0
  0
ENDBLK
  5
89F
330
762
100
AcDbEntity
  8
0
100
AcDbBlockEnd
  0
BLOCK
  5
116F
330
1165
100
AcDbEntity
  8
0
100
AcDbBlockBegin
  2
*D10
 70
     1
 10
0.0
 20
0.0
 30
0.0
  3
*D10
  1

  0
LINE
  5
11B5
330
1165
100
AcDbEntity
  8
AM_5
100
AcDbLine
 10
34.5
 20
15.0
 30
0.0
 11
54.5
 21
15.0
 31
0.0
  0
LINE
  5
11B6
330
1165
100
AcDbEntity
  8
AM_5
100
AcDbLine
 10
34.5
 20
-15.0
 30
0.0
 11
54.5
 21
-15.0
 31
0.0
  0
LINE
  5
11B7
330
1165
100
AcDbEntity
  8
AM_5
100
AcDbLine
 10
53.5
 20
12.77
 30
0.0
 11
53.5
 21
-12.77
 31
0.0
  0
INSERT
  5
11B8
330
1165
100
AcDbEntity
  8
AM_5
100
AcDbBlockReference
  2
_OPEN
 10
53.5
 20
15.0
 30
0.0
 41
2.23
 42
2.23
 43
2.23
 50
90.0
  0
INSERT
  5
11B9
330
1165
100
AcDbEntity
  8
AM_5
100
AcDbBlockReference
  2
_OPEN
 10
53.5
 20
-15.0
 30
0.0
 41
2.23
 42
2.23
 43
2.23
 50
270.0
  0
MTEXT
  5
11BA
330
1165
100
AcDbEntity
  8
AM_5
 62
    40
100
AcDbMText
 10
51.1
 20
-1.48621162
 30
0.0
 40
2.8
 41
0.0
 71
     5
 72
     1
  1
\A1;%%c30
 11
0.0
 21
1.0
 31
0.0
1001
ACAD
1000
MTEXTBEGIN
1070
    73
1070
     1
1070
    44
1040
1.0
1070
    74
1070
     0
1000
MTEXTEND
  0
POINT
  5
11BB
330
1165
100
AcDbEntity
  8
DEFPOINTS
 62
     0
100
AcDbPoint
 10
34.0
 20
15.0
 30
0.0
  0
POINT
  5
11BC
330
1165
100
AcDbEntity
  8
DEFPOINTS
 62
     0
100
AcDbPoint
 10
34.0
 20
-15.0
 30
0.0
  0
POINT
  5
11BD
330
1165
100
AcDbEntity
  8
DEFPOINTS
 62
     0
100
AcDbPoint
 10
53.5
 20
-15.0
 30
0.0
  0
ENDBLK
  5
1170
330
1165
100
AcDbEntity
  8
0
100
AcDbBlockEnd
  0
BLOCK
  5
117A
330
1171
100
AcDbEntity
  8
0
100
AcDbBlockBegin
  2
*D11
 70
     1
 10
0.0
 20
0.0
 30
0.0
  3
*D11
  1

  0
LINE
  5
11BE
330
1171
100
AcDbEntity
  8
250
  6
CONTINUOUS
100
AcDbLine
 10
35.5
 20
7.5
 30
0.0
 11
47.5
 21
7.5
 31
0.0
  0
LINE
  5
11BF
330
1171
100
AcDbEntity
  8
250
  6
CONTINUOUS
100
AcDbLine
 10
46.5
 20
-5.27
 30
0.0
 11
46.5
 21
5.27
 31
0.0
  0
INSERT
  5
11C0
330
1171
100
AcDbEntity
  8
250
  6
CONTINUOUS
100
AcDbBlockReference
  2
矢印なし
 10
46.5
 20
-7.5
 30
0.0
 41
2.23
 42
2.23
 43
2.23
 50
270.0
  0
INSERT
  5
11C1
330
1171
100
AcDbEntity
  8
250
  6
CONTINUOUS
100
AcDbBlockReference
  2
_OPEN
 10
46.5
 20
7.5
 30
0.0
 41
2.23
 42
2.23
 43
2.23
 50
90.0
  0
MTEXT
  5
11C2
330
1171
100
AcDbEntity
  8
250
  6
CONTINUOUS
 62
    40
100
AcDbMText
 10
44.1
 20
-0.95040029
 30
0.0
 40
2.8
 41
0.0
 71
     5
 72
     1
  1
\A1;{\H2.8;\U+2205}15
 11
0.0
 21
1.0
 31
0.0
1001
ACAD
1000
MTEXTBEGIN
1070
    73
1070
     1
1070
    44
1040
1.0
1070
    74
1070
     0
1000
MTEXTEND
  0
POINT
  5
11C3
330
1171
100
AcDbEntity
  8
DEFPOINTS
  6
CONTINUOUS
 62
     0
100
AcDbPoint
 10
35.0
 20
-7.5
 30
0.0
  0
POINT
  5
11C4
330
1171
100
AcDbEntity
  8
DEFPOINTS
  6
CONTINUOUS
 62
     0
100
AcDbPoint
 10
35.0
 20
7.5
 30
0.0
  0
POINT
  5
11C5
330
1171
100
AcDbEntity
  8
DEFPOINTS
  6
CONTINUOUS
 62
     0
100
AcDbPoint
 10
46.5
 20
7.5
 30
0.0
  0
ENDBLK
  5
117B
330
1171
100
AcDbEntity
  8
0
100
AcDbBlockEnd
  0
BLOCK
  5
1186
330
117C
100
AcDbEntity
  8
0
100
AcDbBlockBegin
  2
*D12
 70
     1
 10
0.0
 20
0.0
 30
0.0
  3
*D12
  1

  0
LINE
  5
11AC
330
117C
100
AcDbEntity
  8
250
  6
CONTINUOUS
100
AcDbLine
 10
0.0
 20
19.64125603
 30
0.0
 11
0.0
 21
36.0
 31
0.0
  0
LINE
  5
11AD
330
117C
100
AcDbEntity
  8
250
  6
CONTINUOUS
100
AcDbLine
 10
35.0
 20
14.5
 30
0.0
 11
35.0
 21
36.0
 31
0.0
  0
LINE
  5
11AE
330
117C
100
AcDbEntity
  8
250
  6
CONTINUOUS
100
AcDbLine
 10
2.23
 20
35.0
 30
0.0
 11
32.77
 21
35.0
 31
0.0
  0
INSERT
  5
11AF
330
117C
100
AcDbEntity
  8
250
  6
CONTINUOUS
100
AcDbBlockReference
  2
_OPEN
 10
0.0
 20
35.0
 30
0.0
 41
2.23
 42
2.23
 43
2.23
 50
180.0
  0
INSERT
  5
11B0
330
117C
100
AcDbEntity
  8
250
  6
CONTINUOUS
100
AcDbBlockReference
  2
_OPEN
 10
35.0
 20
35.0
 30
0.0
 41
2.23
 42
2.23
 43
2.23
  0
MTEXT
  5
11B1
330
117C
100
AcDbEntity
  8
250
  6
CONTINUOUS
 62
    40
100
AcDbMText
 10
17.5
 20
37.4
 30
0.0
 40
2.8
 41
0.0
 71
     5
 72
     1
  1
\A1;35
1001
ACAD
1000
MTEXTBEGIN
1070
    73
1070
     1
1070
    44
1040
1.0
1070
    74
1070
     0
1000
MTEXTEND
  0
POINT
  5
11B2
330
117C
100
AcDbEntity
  8
DEFPOINTS
  6
CONTINUOUS
 62
     0
100
AcDbPoint
 10
0.0
 20
19.14125603
 30
0.0
  0
POINT
  5
11B3
330
117C
100
AcDbEntity
  8
DEFPOINTS
  6
CONTINUOUS
 62
     0
100
AcDbPoint
 10
35.0
 20
14.0
 30
0.0
  0
POINT
  5
11B4
330
117C
100
AcDbEntity
  8
DEFPOINTS
  6
CONTINUOUS
 62
     0
100
AcDbPoint
 10
35.0
 20
35.0
 30
0.0
  0
ENDBLK
  5
1187
330
117C
100
AcDbEntity
  8
0
100
AcDbBlockEnd
  0
ENDSEC
  0
SECTION
  2
ENTITIES
  0
INSERT
  5
6E6
330
1A
100
AcDbEntity
  8
245
100
AcDbBlockReference
  2
矢印なし
 10
175.62382697
 20
90.55123572
 30
0.0
  0
INSERT
  5
8F9
330
1A
100
AcDbEntity
  8
245
100
AcDbBlockReference
  2
矢印なし
 10
364.62382697
 20
230.55123572
 30
0.0
  0
INSERT
  5
8FA
330
1A
100
AcDbEntity
  8
245
100
AcDbBlockReference
  2
矢印なし
 10
546.62382697
 20
377.55123572
 30
0.0
  0
INSERT
  5
8FB
330
1A
100
AcDbEntity
  8
245
100
AcDbBlockReference
  2
矢印なし
 10
721.62382697
 20
517.55123572
 30
0.0
  0
INSERT
  5
8FC
330
1A
100
AcDbEntity
  8
245
100
AcDbBlockReference
  2
矢印なし
 10
917.62382697
 20
664.55123572
 30
0.0
  0
INSERT
  5
8FD
330
1A
100
AcDbEntity
  8
245
100
AcDbBlockReference
  2
矢印なし
 10
1085.62382697
 20
811.55123572
 30
0.0
  0
INSERT
  5
8FE
330
1A
100
AcDbEntity
  8
245
100
AcDbBlockReference
  2
矢印なし
 10
1260.62382697
 20
965.55123572
 30
0.0
  0
INSERT
  5
8FF
330
1A
100
AcDbEntity
  8
245
100
AcDbBlockReference
  2
矢印なし
 10
1456.62382697
 20
1119.55123572
 30
0.0
  0
INSERT
  5
900
330
1A
100
AcDbEntity
  8
245
100
AcDbBlockReference
  2
矢印なし
 10
1645.62382697
 20
1259.55123572
 30
0.0
  0
INSERT
  5
901
330
1A
100
AcDbEntity
  8
245
100
AcDbBlockReference
  2
矢印なし
 10
1820.62382697
 20
1406.55123572
 30
0.0
  0
INSERT
  5
902
330
1A
100
AcDbEntity
  8
245
100
AcDbBlockReference
  2
矢印なし
 10
2002.62382697
 20
1553.55123572
 30
0.0
  0
INSERT
  5
903
330
1A
100
AcDbEntity
  8
245
100
AcDbBlockReference
  2
矢印なし
 10
2191.62382697
 20
1693.55123572
 30
0.0
  0
INSERT
  5
904
330
1A
100
AcDbEntity
  8
245
100
AcDbBlockReference
  2
矢印なし
 10
2373.62382697
 20
1847.55123572
 30
0.0
  0
INSERT
  5
905
330
1A
100
AcDbEntity
  8
245
100
AcDbBlockReference
  2
矢印なし
 10
2562.62382697
 20
1994.55123572
 30
0.0
  0
INSERT
  5
906
330
1A
100
AcDbEntity
  8
245
100
AcDbBlockReference
  2
矢印なし
 10
2737.62382697
 20
2141.55123572
 30
0.0
  0
INSERT
  5
907
330
1A
100
AcDbEntity
  8
245
100
AcDbBlockReference
  2
矢印なし
 10
2905.62382697
 20
2281.55123572
 30
0.0
  0
INSERT
  5
908
330
1A
100
AcDbEntity
  8
245
100
AcDbBlockReference
  2
矢印なし
 10
3080.62382697
 20
2421.55123572
 30
0.0
  0
INSERT
  5
909
330
1A
100
AcDbEntity
  8
245
100
AcDbBlockReference
  2
矢印なし
 10
3262.62382697
 20
2554.55123572
 30
0.0
  0
INSERT
  5
90A
330
1A
100
AcDbEntity
  8
245
100
AcDbBlockReference
  2
矢印なし
 10
3437.62382697
 20
2701.55123572
 30
0.0
  0
INSERT
  5
90B
330
1A
100
AcDbEntity
  8
245
100
AcDbBlockReference
  2
矢印なし
 10
3626.62382697
 20
2834.55123572
 30
0.0
  0
INSERT
  5
90C
330
1A
100
AcDbEntity
  8
245
100
AcDbBlockReference
  2
矢印なし
 10
3815.62382697
 20
2974.55123572
 30
0.0
  0
INSERT
  5
90D
330
1A
100
AcDbEntity
  8
245
100
AcDbBlockReference
  2
矢印なし
 10
3990.62382697
 20
3114.55123572
 30
0.0
  0
INSERT
  5
90E
330
1A
100
AcDbEntity
  8
245
100
AcDbBlockReference
  2
矢印なし
 10
4165.62382697
 20
3254.55123572
 30
0.0
  0
INSERT
  5
90F
330
1A
100
AcDbEntity
  8
245
100
AcDbBlockReference
  2
矢印なし
 10
4354.62382697
 20
3394.55123572
 30
0.0
  0
INSERT
  5
910
330
1A
100
AcDbEntity
  8
245
100
AcDbBlockReference
  2
矢印なし
 10
4536.62382697
 20
3534.55123572
 30
0.0
  0
INSERT
  5
911
330
1A
100
AcDbEntity
  8
245
100
AcDbBlockReference
  2
矢印なし
 10
4718.62382697
 20
3681.55123572
 30
0.0
  0
INSERT
  5
912
330
1A
100
AcDbEntity
  8
245
100
AcDbBlockReference
  2
矢印なし
 10
4900.62382697
 20
3828.55123572
 30
0.0
  0
INSERT
  5
913
330
1A
100
AcDbEntity
  8
245
100
AcDbBlockReference
  2
矢印なし
 10
5047.62382697
 20
3968.55123572
 30
0.0
  0
INSERT
  5
914
330
1A
100
AcDbEntity
  8
245
100
AcDbBlockReference
  2
矢印なし
 10
5222.62382697
 20
4122.55123572
 30
0.0
  0
INSERT
  5
915
330
1A
100
AcDbEntity
  8
245
100
AcDbBlockReference
  2
矢印なし
 10
5418.62382697
 20
4269.55123572
 30
0.0
  0
INSERT
  5
916
330
1A
100
AcDbEntity
  8
245
100
AcDbBlockReference
  2
矢印なし
 10
5607.62382697
 20
4402.55123572
 30
0.0
  0
INSERT
  5
917
330
1A
100
AcDbEntity
  8
245
100
AcDbBlockReference
  2
矢印なし
 10
5768.62382697
 20
4556.55123572
 30
0.0
  0
INSERT
  5
918
330
1A
100
AcDbEntity
  8
245
100
AcDbBlockReference
  2
矢印なし
 10
5943.62382697
 20
4710.55123572
 30
0.0
  0
INSERT
  5
919
330
1A
100
AcDbEntity
  8
245
100
AcDbBlockReference
  2
矢印なし
 10
6118.62382697
 20
4843.55123572
 30
0.0
  0
INSERT
  5
91A
330
1A
100
AcDbEntity
  8
245
100
AcDbBlockReference
  2
矢印なし
 10
6272.62382697
 20
4990.55123572
 30
0.0
  0
TEXT
  5
91C
330
1A
100
AcDbEntity
  8
241
100
AcDbText
 10
-69.0
 20
49.0
 30
0.0
 40
5.0
  1
MGT20-M20-35
  7
YOKO
 11
-69.0
 21
49.0
 31
0.0
100
AcDbText
 73
     1
  0
MTEXT
  5
1041
330
1A
100
AcDbEntity
  8
251
  6
CONTINUOUS
100
AcDbMText
 10
18.11954017
 20
29.02715416
 30
0.0
 40
2.8
 41
0.0
 71
     7
 72
     1
  1
\U+25A112
  7
YOKO
1001
ITEMNAME
1000
LNSP3
1001
ACAD
1000
MTEXTBEGIN
1070
    73
1070
     1
1070
    44
1040
1.0
1070
    74
1070
     0
1000
MTEXTEND
1000
MTEXTBEGIN
1070
    73
1070
     1
1070
    44
1040
1.0
1070
    74
1070
     0
1000
MTEXTEND
1000
MTEXTBEGIN
1070
    73
1070
     1
1070
    44
1040
1.0
1070
    74
1070
     0
1000
MTEXTEND
1000
MTEXTBEGIN
1070
    73
1070
     1
1070
    44
1040
1.0
1070
    74
1070
     0
1000
MTEXTEND
1000
MTEXTBEGIN
1070
    73
1070
     1
1070
    44
1040
1.0
1070
    74
1070
     0
1000
MTEXTEND
  0
LEADER
  5
1042
330
1A
100
AcDbEntity
  8
250
  6
CONTINUOUS
100
AcDbLeader
  3
BIGT
 76
     2
 10
6.36639898
 20
8.55599205
 30
0.0
 10
15.31954017
 20
28.02715416
 30
0.0
1001
ACAD
1000
DSTYLE
1002
{
1070
     6
1000
OPEN
1070
    41
1040
2.0
1070
    42
1040
2.0
1070
    44
1040
2.0
1070
   140
1040
4.0
1070
   343
1005
594
1002
}
  0
DIMENSION
  5
1046
330
1A
100
AcDbEntity
  8
250
  6
CONTINUOUS
100
AcDbDimension
  2
*D12
 10
35.0
 20
35.0
 30
0.0
 11
17.5
 21
37.4
 31
0.0
 70
    32
  3
BIGT$0
100
AcDbAlignedDimension
 13
0.0
 23
19.14125603
 33
0.0
 14
35.0
 24
14.0
 34
0.0
100
AcDbRotatedDimension
  0
DIMENSION
  5
1147
330
1A
100
AcDbEntity
  8
AM_5
100
AcDbDimension
  2
*D10
 10
53.5
 20
-15.0
 30
0.0
 11
53.5
 21
-1.48621162
 31
0.0
 70
   160
  1
%%c<>
  3
BIGT$0
100
AcDbAlignedDimension
 13
34.0
 23
15.0
 33
0.0
 14
34.0
 24
-15.0
 34
0.0
 50
90.0
100
AcDbRotatedDimension
  0
LINE
  5
1151
330
1A
100
AcDbEntity
  8
250
  6
CONTINUOUS
100
AcDbLine
 10
15.31954017
 20
28.02715416
 30
0.0
 11
28.03954017
 21
28.02715416
 31
0.0
1001
ITEMNAME
1000
LNSP2
  0
DIMENSION
  5
1163
330
1A
100
AcDbEntity
  8
250
  6
CONTINUOUS
100
AcDbDimension
  2
*D11
 10
46.5
 20
7.5
 30
0.0
 11
46.5
 21
-0.95040029
 31
0.0
 70
   160
  1
{\H2.8;\U+2205}<>
  3
BIGT
100
AcDbAlignedDimension
 13
35.0
 23
-7.5
 33
0.0
 14
35.0
 24
7.5
 34
0.0
 50
90.0
100
AcDbRotatedDimension
1001
ACAD
1000
DSTYLE
1002
{
1070
   287
1070
     3
1070
   287
1070
     3
1070
   287
1070
     3
1070
   287
1070
     3
1070
    75
1070
     1
1070
    77
1070
     3
1070
   145
1040
1.0
1070
   279
1070
     0
1070
   289
1070
     3
1070
     6
1000
矢印なし
1002
}
  0
INSERT
  5
12E4
330
1A
100
AcDbEntity
  8
245
100
AcDbBlockReference
  2
1
 10
0.0
 20
0.0
 30
0.0
  0
VIEWPORT
  5
22
330
17
100
AcDbEntity
 67
     1
  8
0
100
AcDbViewport
 10
261.51769912
 20
148.5
 30
0.0
 40
523.03539823
 41
297.0
 68
     1
 69
     1
1001
ACAD
1000
MVIEW
1002
{
1070
    16
1010
0.0
1020
0.0
1030
0.0
1010
0.0
1020
0.0
1030
1.0
1040
0.0
1040
297.0
1040
261.51769912
1040
148.5
1040
50.0
1040
0.0
1040
0.0
1070
     0
1070
   100
1070
     1
1070
     1
1070
     0
1070
     0
1070
     0
1070
     0
1040
0.0
1040
0.0
1040
0.0
1040
1.0
1040
1.0
1040
10.0
1040
10.0
1070
     0
1002
{
1002
}
1002
}
  0
ENDSEC
  0
SECTION
  2
OBJECTS
  0
DICTIONARY
  5
C
330
0
100
AcDbDictionary
  3
ACAD_GROUP
350
D
  3
ACAD_LAYOUT
350
565
  3
ACAD_MLINESTYLE
350
E
  3
ACAD_PLOTSETTINGS
350
566
  3
ACAD_PLOTSTYLENAME
350
563
  3
ACDBHEADERROUNDTRIPXREC
350
12E6
  3
GRADE_DWG
350
540
  0
DICTIONARY
  5
DA5
330
1A
100
AcDbDictionary
280
     1
  3
ACAD_LAYOUTSELFREF
360
1308
  0
DICTIONARY
  5
DA3
330
17
100
AcDbDictionary
280
     1
  3
ACAD_LAYOUTSELFREF
360
1307
  0
DICTIONARY
  5
D
102
{ACAD_REACTORS
330
C
102
}
330
C
100
AcDbDictionary
  3
*A1
350
6C7
  3
*A2
350
6C8
  3
*A3
350
6D4
  3
*A4
350
6D5
  3
DREC-1
350
5FC
  3
DREC-2
350
654
  3
DREC-3
350
673
  0
DICTIONARY
  5
565
102
{ACAD_REACTORS
330
C
102
}
330
C
100
AcDbDictionary
  0
DICTIONARY
  5
E
102
{ACAD_REACTORS
330
C
102
}
330
C
100
AcDbDictionary
  3
STANDARD
350
13
  0
DICTIONARY
  5
566
102
{ACAD_REACTORS
330
C
102
}
330
C
100
AcDbDictionary
  3
A3_0_5倍_
350
758
  3
A3_1倍_
350
757
  3
A3_1倍__2000_
350
707
  3
A3_2倍_
350
759
  3
A4_0_5倍_
350
755
  3
A4_1倍_
350
754
  3
A4_1倍__2000_
350
708
  3
A4_2倍_
350
756
  0
ACDBDICTIONARYWDFLT
  5
563
102
{ACAD_REACTORS
330
C
102
}
330
C
100
AcDbDictionary
281
     1
  3
Normal
350
564
100
AcDbDictionaryWithDefault
340
564
  0
DICTIONARY
  5
12E6
102
{ACAD_REACTORS
330
C
102
}
330
C
100
AcDbDictionary
  3
CEPSNTYPE
350
12F0
  3
DIMSTYLEDATA
350
12F4
  3
FINGERPRINTGUID
350
12F1
  3
HYPERLINKBASE
350
12E9
  3
INSUNITS
350
12EF
  3
LAYOUTDICT
350
12EB
  3
LWETCUNION
350
12EE
  3
PLOTSETDICT
350
12EC
  3
PLOTSTYLNAMDICT
350
12ED
  3
PSVPSCALE
350
12F3
  3
PUCSBASE
350
12F7
  3
PUCSORGBACK
350
12FD
  3
PUCSORGBOTTOM
350
12F9
  3
PUCSORGFRONT
350
12FC
  3
PUCSORGLEFT
350
12FA
  3
PUCSORGRIGHT
350
12FB
  3
PUCSORGTOP
350
12F8
  3
PUCSORTHOREF
350
12F5
  3
PUCSORTHOVIEW
350
12F6
  3
STYLESHEET
350
12EA
  3
TSTACKALIGN
350
12E7
  3
TSTACKSIZE
350
12E8
  3
UCSBASE
350
1300
  3
UCSORGBACK
350
1306
  3
UCSORGBOTTOM
350
1302
  3
UCSORGFRONT
350
1305
  3
UCSORGLEFT
350
1303
  3
UCSORGRIGHT
350
1304
  3
UCSORGTOP
350
1301
  3
UCSORTHOREF
350
12FE
  3
UCSORTHOVIEW
350
12FF
  3
VERSIONGUID
350
12F2
  0
DICTIONARY
  5
540
102
{ACAD_REACTORS
330
C
102
}
330
C
100
AcDbDictionary
  3
VERSION
350
560
  0
XRECORD
  5
1308
102
{ACAD_REACTORS
330
DA5
102
}
330
DA5
100
AcDbXrecord
340
1A
  0
XRECORD
  5
1307
102
{ACAD_REACTORS
330
DA3
102
}
330
DA3
100
AcDbXrecord
340
17
  0
GROUP
  5
6C7
102
{ACAD_REACTORS
330
D
102
}
330
D
100
AcDbGroup
300

 70
     0
 71
     1
1001
GRPNAME
1000
DMA00
  0
GROUP
  5
6C8
102
{ACAD_REACTORS
330
D
102
}
330
D
100
AcDbGroup
300

 70
     0
 71
     1
1001
GRPNAME
1000
DMA00
  0
GROUP
  5
6D4
102
{ACAD_REACTORS
330
D
102
}
330
D
100
AcDbGroup
300

 70
     0
 71
     1
1001
GRPNAME
1000
DMA00
  0
GROUP
  5
6D5
102
{ACAD_REACTORS
330
D
102
}
330
D
100
AcDbGroup
300

 70
     0
 71
     1
1001
GRPNAME
1000
DMA00
  0
GROUP
  5
5FC
102
{ACAD_REACTORS
330
D
102
}
330
D
100
AcDbGroup
300

 70
     0
 71
     1
1001
GRPNAME
1000
DREC-
1001
GPARA
1000
xsiz
1000
44.182
1000
ysiz
1000
40.677
1000
angl
1000
0
1000
ctyp
1000
0
1000
csiz
1000
5
1000
lfnt
1000
cont
1000
hcnt
1000
hoff
1000
vcnt
1000
voff
1000
opnt
1000
4
1000
dxpt
1000
0
1000
dypt
1000
0
  0
GROUP
  5
654
102
{ACAD_REACTORS
330
D
102
}
330
D
100
AcDbGroup
300

 70
     0
 71
     1
1001
GRPNAME
1000
DREC-
1001
GPARA
1000
xsiz
1000
54.592
1000
ysiz
1000
53.036
1000
angl
1000
0
1000
ctyp
1000
0
1000
csiz
1000
5
1000
lfnt
1000
cont
1000
hcnt
1000
hoff
1000
vcnt
1000
voff
1000
opnt
1000
4
1000
dxpt
1000
0
1000
dypt
1000
0
  0
GROUP
  5
673
102
{ACAD_REACTORS
330
D
102
}
330
D
100
AcDbGroup
300

 70
     0
 71
     1
1001
GRPNAME
1000
DREC-
1001
GPARA
1000
xsiz
1000
30.363
1000
ysiz
1000
36.175
1000
angl
1000
0
1000
ctyp
1000
0
1000
csiz
1000
5
1000
lfnt
1000
cont
1000
hcnt
1000
hoff
1000
vcnt
1000
voff
1000
opnt
1000
4
1000
dxpt
1000
0
1000
dypt
1000
0
  0
MLINESTYLE
  5
13
102
{ACAD_REACTORS
330
E
102
}
330
E
100
AcDbMlineStyle
  2
STANDARD
 70
     0
  3

 62
     0
 51
90.0
 52
90.0
 71
     2
 49
0.5
 62
   256
  6
BYLAYER
 49
-0.5
 62
   256
  6
BYLAYER
  0
PLOTSETTINGS
  5
758
102
{ACAD_REACTORS
330
566
102
}
330
566
100
AcDbPlotSettings
  1
A3(0.5倍)
  2
\\AWTECPC05\HP DeskJet 1120C
  4
A3
  6

 40
5.95841646
 41
13.49375153
 42
6.04309082
 43
3.67242432
 44
296.92599487
 45
419.94665527
 46
89.96
 47
127.14
 48
0.0
 49
0.0
140
0.0
141
0.0
142
1.0
143
2.0
 70
  1716
 72
     1
 73
     1
 74
     2
  7
big.ctb
 75
    17
147
0.5
148
0.0
149
0.0
  0
PLOTSETTINGS
  5
757
102
{ACAD_REACTORS
330
566
102
}
330
566
100
AcDbPlotSettings
  1
A3(1倍)
  2
\\AWTECPC05\HP DeskJet 1120C
  4
A3
  6

 40
5.95841646
 41
13.49375153
 42
6.04309082
 43
3.67242432
 44
296.92599487
 45
419.94665527
 46
37.46
 47
52.89
 48
0.0
 49
0.0
140
0.0
141
0.0
142
1.0
143
1.0
 70
  1716
 72
     1
 73
     1
 74
     2
  7
big.ctb
 75
    16
147
1.0
148
0.0
149
0.0
  0
PLOTSETTINGS
  5
707
102
{ACAD_REACTORS
330
566
102
}
330
566
100
AcDbPlotSettings
  1
A3(1倍)(2000)
  2
SII LS-1300 (D-SCAN)
  4
User258
  6

 40
3.17499995
 41
3.17499995
 42
3.17498779
 43
3.17498779
 44
419.98898315
 45
296.98950195
 46
58.32
 47
40.32
 48
0.0
 49
0.0
140
0.0
141
0.0
142
1.0
143
1.0
 70
  1716
 72
     1
 73
     0
 74
     2
  7
big.ctb
 75
    16
147
1.0
148
0.0
149
0.0
  0
PLOTSETTINGS
  5
759
102
{ACAD_REACTORS
330
566
102
}
330
566
100
AcDbPlotSettings
  1
A3(2倍)
  2
\\AWTECPC05\HP DeskJet 1120C
  4
A3
  6

 40
5.95841646
 41
13.49375153
 42
6.04309082
 43
3.67242432
 44
296.92599487
 45
419.94665527
 46
-67.54
 47
-95.61
 48
0.0
 49
0.0
140
0.0
141
0.0
142
1.0
143
0.5
 70
  1716
 72
     1
 73
     1
 74
     2
  7
big.ctb
 75
    27
147
2.0
148
0.0
149
0.0
  0
PLOTSETTINGS
  5
755
102
{ACAD_REACTORS
330
566
102
}
330
566
100
AcDbPlotSettings
  1
A4(0.5倍)
  2
\\AWTECPC05\HP DeskJet 1120C
  4
A4
  6

 40
4.18041658
 41
13.49374962
 42
4.18040466
 43
3.92642212
 44
209.97332764
 45
296.92599487
 46
48.31
 47
65.5
 48
0.0
 49
0.0
140
0.0
141
0.0
142
1.0
143
2.0
 70
  1716
 72
     1
 73
     1
 74
     2
  7
big.ctb
 75
    17
147
0.5
148
0.0
149
0.0
  0
PLOTSETTINGS
  5
754
102
{ACAD_REACTORS
330
566
102
}
330
566
100
AcDbPlotSettings
  1
A4(1倍)
  2
\\AWTECPC05\HP DeskJet 1120C
  4
A4
  6

 40
4.18041658
 41
13.49374962
 42
4.18040466
 43
3.92642212
 44
209.97332764
 45
296.92599487
 46
-4.19
 47
-8.75
 48
0.0
 49
0.0
140
0.0
141
0.0
142
1.0
143
1.0
 70
  1716
 72
     1
 73
     1
 74
     2
  7
big.ctb
 75
    16
147
1.0
148
0.0
149
0.0
  0
PLOTSETTINGS
  5
708
102
{ACAD_REACTORS
330
566
102
}
330
566
100
AcDbPlotSettings
  1
A4(1倍)(2000)
  2
SII LS-1300 (D-SCAN)
  4
User259
  6

 40
3.17499995
 41
3.17499995
 42
3.17498779
 43
3.17500305
 44
296.98950195
 45
209.99449158
 46
-3.18
 47
-3.18
 48
0.0
 49
0.0
140
0.0
141
0.0
142
1.0
143
1.0
 70
  1716
 72
     1
 73
     0
 74
     2
  7
big.ctb
 75
    16
147
1.0
148
0.0
149
0.0
  0
PLOTSETTINGS
  5
756
102
{ACAD_REACTORS
330
566
102
}
330
566
100
AcDbPlotSettings
  1
A4(2倍)
  2
\\AWTECPC05\HP DeskJet 1120C
  4
A4
  6

 40
4.18041658
 41
13.49374962
 42
4.18040466
 43
3.92642212
 44
209.97332764
 45
296.92599487
 46
-109.19
 47
-157.25
 48
0.0
 49
0.0
140
0.0
141
0.0
142
1.0
143
0.5
 70
  1716
 72
     1
 73
     1
 74
     2
  7
big.ctb
 75
    27
147
2.0
148
0.0
149
0.0
  0
ACDBPLACEHOLDER
  5
564
102
{ACAD_REACTORS
330
563
102
}
330
563
100
AcDbPlaceHolder
280
     0
  0
XRECORD
  5
12F0
102
{ACAD_REACTORS
330
12E6
102
}
330
12E6
100
AcDbXrecord
 90
        0
  0
XRECORD
  5
12F4
102
{ACAD_REACTORS
330
12E6
102
}
330
12E6
100
AcDbXrecord
1000
DSTYLE
1002
{
1070
    79
 70
     2
1070
   179
 70
     3
1070
   341
340
594
1070
   343
340
594
1070
   344
340
594
1070
   371
 70
    -1
1070
   372
 70
    -1
1002
}
  0
XRECORD
  5
12F1
102
{ACAD_REACTORS
330
12E6
102
}
330
12E6
100
AcDbXrecord
  1
{51294030-9CB4-11D3-8E18-00A0C925D94D}
  0
XRECORD
  5
12E9
102
{ACAD_REACTORS
330
12E6
102
}
330
12E6
100
AcDbXrecord
  1

  0
XRECORD
  5
12EF
102
{ACAD_REACTORS
330
12E6
102
}
330
12E6
100
AcDbXrecord
 90
        0
  0
XRECORD
  5
12EB
102
{ACAD_REACTORS
330
12E6
102
}
330
12E6
100
AcDbXrecord
340
565
  0
XRECORD
  5
12EE
102
{ACAD_REACTORS
330
12E6
102
}
330
12E6
100
AcDbXrecord
 90
    10781
  0
XRECORD
  5
12EC
102
{ACAD_REACTORS
330
12E6
102
}
330
12E6
100
AcDbXrecord
340
566
  0
XRECORD
  5
12ED
102
{ACAD_REACTORS
330
12E6
102
}
330
12E6
100
AcDbXrecord
340
563
  0
XRECORD
  5
12F3
102
{ACAD_REACTORS
330
12E6
102
}
330
12E6
100
AcDbXrecord
 40
0.0
  0
XRECORD
  5
12F7
102
{ACAD_REACTORS
330
12E6
102
}
330
12E6
100
AcDbXrecord
340
0
  0
XRECORD
  5
12FD
102
{ACAD_REACTORS
330
12E6
102
}
330
12E6
100
AcDbXrecord
 10
0.0
 20
0.0
 30
0.0
  0
XRECORD
  5
12F9
102
{ACAD_REACTORS
330
12E6
102
}
330
12E6
100
AcDbXrecord
 10
0.0
 20
0.0
 30
0.0
  0
XRECORD
  5
12FC
102
{ACAD_REACTORS
330
12E6
102
}
330
12E6
100
AcDbXrecord
 10
0.0
 20
0.0
 30
0.0
  0
XRECORD
  5
12FA
102
{ACAD_REACTORS
330
12E6
102
}
330
12E6
100
AcDbXrecord
 10
0.0
 20
0.0
 30
0.0
  0
XRECORD
  5
12FB
102
{ACAD_REACTORS
330
12E6
102
}
330
12E6
100
AcDbXrecord
 10
0.0
 20
0.0
 30
0.0
  0
XRECORD
  5
12F8
102
{ACAD_REACTORS
330
12E6
102
}
330
12E6
100
AcDbXrecord
 10
0.0
 20
0.0
 30
0.0
  0
XRECORD
  5
12F5
102
{ACAD_REACTORS
330
12E6
102
}
330
12E6
100
AcDbXrecord
340
0
  0
XRECORD
  5
12F6
102
{ACAD_REACTORS
330
12E6
102
}
330
12E6
100
AcDbXrecord
 70
     0
  0
XRECORD
  5
12EA
102
{ACAD_REACTORS
330
12E6
102
}
330
12E6
100
AcDbXrecord
  1
big.ctb
  0
XRECORD
  5
12E7
102
{ACAD_REACTORS
330
12E6
102
}
330
12E6
100
AcDbXrecord
 90
        1
  0
XRECORD
  5
12E8
102
{ACAD_REACTORS
330
12E6
102
}
330
12E6
100
AcDbXrecord
 90
       70
  0
XRECORD
  5
1300
102
{ACAD_REACTORS
330
12E6
102
}
330
12E6
100
AcDbXrecord
340
0
  0
XRECORD
  5
1306
102
{ACAD_REACTORS
330
12E6
102
}
330
12E6
100
AcDbXrecord
 10
0.0
 20
0.0
 30
0.0
  0
XRECORD
  5
1302
102
{ACAD_REACTORS
330
12E6
102
}
330
12E6
100
AcDbXrecord
 10
0.0
 20
0.0
 30
0.0
  0
XRECORD
  5
1305
102
{ACAD_REACTORS
330
12E6
102
}
330
12E6
100
AcDbXrecord
 10
0.0
 20
0.0
 30
0.0
  0
XRECORD
  5
1303
102
{ACAD_REACTORS
330
12E6
102
}
330
12E6
100
AcDbXrecord
 10
0.0
 20
0.0
 30
0.0
  0
XRECORD
  5
1304
102
{ACAD_REACTORS
330
12E6
102
}
330
12E6
100
AcDbXrecord
 10
0.0
 20
0.0
 30
0.0
  0
XRECORD
  5
1301
102
{ACAD_REACTORS
330
12E6
102
}
330
12E6
100
AcDbXrecord
 10
0.0
 20
0.0
 30
0.0
  0
XRECORD
  5
12FE
102
{ACAD_REACTORS
330
12E6
102
}
330
12E6
100
AcDbXrecord
340
0
  0
XRECORD
  5
12FF
102
{ACAD_REACTORS
330
12E6
102
}
330
12E6
100
AcDbXrecord
 70
     0
  0
XRECORD
  5
12F2
102
{ACAD_REACTORS
330
12E6
102
}
330
12E6
100
AcDbXrecord
  1
{7F132CDC-FB9E-4700-B577-53607B4AAB20}
  0
XRECORD
  5
560
102
{ACAD_REACTORS
330
540
102
}
330
540
100
AcDbXrecord
  1
2.0.0
  0
ENDSEC
  0
EOF
