  0
SECTION
  2
HEADER
  9
$ACADVER
  1
AC1014
  9
$ACADMAINTVER
 70
     9
  9
$DWGCODEPAGE
  3
ANSI_932
  9
$INSBASE
 10
0.0
 20
0.0
 30
0.0
  9
$EXTMIN
 10
-70.01495247
 20
-19.5703201
 30
-0.00152582
  9
$EXTMAX
 10
54.5112617
 20
54.96170761
 30
0.00000003
  9
$LIMMIN
 10
0.0
 20
0.0
  9
$LIMMAX
 10
420.0
 20
297.0
  9
$ORTHOMODE
 70
     1
  9
$REGENMODE
 70
     1
  9
$FILLMODE
 70
     1
  9
$QTEXTMODE
 70
     0
  9
$MIRRTEXT
 70
     1
  9
$DRAGMODE
 70
     2
  9
$LTSCALE
 40
10.0
  9
$OSMODE
 70
   549
  9
$ATTMODE
 70
     1
  9
$TEXTSIZE
 40
3.0
  9
$TRACEWID
 40
1.0
  9
$TEXTSTYLE
  7
YOKO
  9
$CLAYER
  8
245
  9
$CELTYPE
  6
BYLAYER
  9
$CECOLOR
 62
   256
  9
$CELTSCALE
 40
1.0
  9
$DELOBJ
 70
     1
  9
$DISPSILH
 70
     0
  9
$DIMSCALE
 40
1.0
  9
$DIMASZ
 40
2.0
  9
$DIMEXO
 40
2.0
  9
$DIMDLI
 40
2.5
  9
$DIMRND
 40
0.0
  9
$DIMDLE
 40
0.0
  9
$DIMEXE
 40
2.0
  9
$DIMTP
 40
0.0
  9
$DIMTM
 40
0.0
  9
$DIMTXT
 40
4.0
  9
$DIMCEN
 40
0.0
  9
$DIMTSZ
 40
0.0
  9
$DIMTOL
 70
     0
  9
$DIMLIM
 70
     0
  9
$DIMTIH
 70
     0
  9
$DIMTOH
 70
     0
  9
$DIMSE1
 70
     0
  9
$DIMSE2
 70
     0
  9
$DIMTAD
 70
     3
  9
$DIMZIN
 70
     8
  9
$DIMBLK
  1

  9
$DIMASO
 70
     1
  9
$DIMSHO
 70
     1
  9
$DIMPOST
  1

  9
$DIMAPOST
  1

  9
$DIMALT
 70
     0
  9
$DIMALTD
 70
     2
  9
$DIMALTF
 40
25.4
  9
$DIMLFAC
 40
1.0
  9
$DIMTOFL
 70
     1
  9
$DIMTVP
 40
0.0
  9
$DIMTIX
 70
     1
  9
$DIMSOXD
 70
     0
  9
$DIMSAH
 70
     1
  9
$DIMBLK1
  1
OPEN
  9
$DIMBLK2
  1
OPEN
  9
$DIMSTYLE
  2
BIGT
  9
$DIMCLRD
 70
   256
  9
$DIMCLRE
 70
   256
  9
$DIMCLRT
 70
    40
  9
$DIMTFAC
 40
1.0
  9
$DIMGAP
 40
1.0
  9
$DIMJUST
 70
     0
  9
$DIMSD1
 70
     0
  9
$DIMSD2
 70
     0
  9
$DIMTOLJ
 70
     1
  9
$DIMTZIN
 70
     8
  9
$DIMALTZ
 70
     0
  9
$DIMALTTZ
 70
     0
  9
$DIMFIT
 70
     3
  9
$DIMUPT
 70
     0
  9
$DIMUNIT
 70
     2
  9
$DIMDEC
 70
     3
  9
$DIMTDEC
 70
     3
  9
$DIMALTU
 70
     2
  9
$DIMALTTD
 70
     2
  9
$DIMTXSTY
  7
STANDARD
  9
$DIMAUNIT
 70
     0
  9
$LUNITS
 70
     2
  9
$LUPREC
 70
     3
  9
$SKETCHINC
 40
1.0
  9
$FILLETRAD
 40
0.0
  9
$AUNITS
 70
     0
  9
$AUPREC
 70
     3
  9
$MENU
  1
.
  9
$ELEVATION
 40
0.0
  9
$PELEVATION
 40
0.0
  9
$THICKNESS
 40
0.0
  9
$LIMCHECK
 70
     0
  9
$BLIPMODE
 70
     0
  9
$CHAMFERA
 40
10.0
  9
$CHAMFERB
 40
10.0
  9
$CHAMFERC
 40
0.0
  9
$CHAMFERD
 40
0.0
  9
$SKPOLY
 70
     0
  9
$TDCREATE
 40
2455128.633813657
  9
$TDUPDATE
 40
2455316.555765509
  9
$TDINDWG
 40
0.0055859491
  9
$TDUSRTIMER
 40
0.0055857639
  9
$USRTIMER
 70
     1
  9
$ANGBASE
 50
0.0
  9
$ANGDIR
 70
     0
  9
$PDMODE
 70
     1
  9
$PDSIZE
 40
-5.0
  9
$PLINEWID
 40
0.0
  9
$COORDS
 70
     0
  9
$SPLFRAME
 70
     0
  9
$SPLINETYPE
 70
     6
  9
$SPLINESEGS
 70
     8
  9
$ATTDIA
 70
     0
  9
$ATTREQ
 70
     1
  9
$HANDLING
 70
-16383
  9
$HANDSEED
  5
15AC
  9
$SURFTAB1
 70
     6
  9
$SURFTAB2
 70
     6
  9
$SURFTYPE
 70
     6
  9
$SURFU
 70
     6
  9
$SURFV
 70
     6
  9
$UCSNAME
  2

  9
$UCSORG
 10
0.0
 20
0.0
 30
0.0
  9
$UCSXDIR
 10
1.0
 20
0.0
 30
0.0
  9
$UCSYDIR
 10
0.0
 20
1.0
 30
0.0
  9
$PUCSNAME
  2

  9
$PUCSORG
 10
0.0
 20
0.0
 30
0.0
  9
$PUCSXDIR
 10
1.0
 20
0.0
 30
0.0
  9
$PUCSYDIR
 10
0.0
 20
1.0
 30
0.0
  9
$USERI1
 70
     1
  9
$USERI2
 70
     0
  9
$USERI3
 70
     0
  9
$USERI4
 70
     0
  9
$USERI5
 70
     0
  9
$USERR1
 40
0.0
  9
$USERR2
 40
0.0
  9
$USERR3
 40
0.0
  9
$USERR4
 40
0.0
  9
$USERR5
 40
0.0
  9
$WORLDVIEW
 70
     1
  9
$SHADEDGE
 70
     3
  9
$SHADEDIF
 70
    70
  9
$TILEMODE
 70
     1
  9
$MAXACTVP
 70
    16
  9
$PINSBASE
 10
0.0
 20
0.0
 30
0.0
  9
$PLIMCHECK
 70
     0
  9
$PEXTMIN
 10
1.00000000E+20
 20
1.00000000E+20
 30
1.00000000E+20
  9
$PEXTMAX
 10
-1.00000000E+20
 20
-1.00000000E+20
 30
-1.00000000E+20
  9
$PLIMMIN
 10
0.0
 20
0.0
  9
$PLIMMAX
 10
420.0
 20
297.0
  9
$UNITMODE
 70
     0
  9
$VISRETAIN
 70
     0
  9
$PLINEGEN
 70
     0
  9
$PSLTSCALE
 70
     1
  9
$TREEDEPTH
 70
  3020
  9
$PICKSTYLE
 70
     0
  9
$CMLSTYLE
  2
STANDARD
  9
$CMLJUST
 70
     0
  9
$CMLSCALE
 40
1.0
  9
$PROXYGRAPHICS
 70
     1
  9
$MEASUREMENT
 70
     1
  0
ENDSEC
  0
SECTION
  2
CLASSES
  0
CLASS
  1
XRECORD
  2
AcDbXrecord
  3
AutoCAD 2000
 90
        0
280
     0
281
     0
  0
CLASS
  1
ACDBDICTIONARYWDFLT
  2
AcDbDictionaryWithDefault
  3
AutoCAD 2000
 90
        0
280
     0
281
     0
  0
CLASS
  1
ACDBPLACEHOLDER
  2
AcDbPlaceHolder
  3
AutoCAD 2000
 90
        0
280
     0
281
     0
  0
CLASS
  1
LAYOUT
  2
AcDbLayout
  3
AutoCAD 2000
 90
        0
280
     0
281
     0
  0
CLASS
  1
PLOTSETTINGS
  2
AcDbPlotSettings
  3
AutoCAD 2000
 90
        0
280
     0
281
     0
  0
CLASS
  1
LONG_TRANSACTION
  2
AcDbLongTransaction
  3
AutoCAD 2000
 90
        0
280
     0
281
     0
  0
CLASS
  1
LWPOLYLINE
  2
AcDbPolyline
  3
AutoCAD 2000
 90
        0
280
     0
281
     1
  0
CLASS
  1
HATCH
  2
AcDbHatch
  3
AutoCAD 2000
 90
        0
280
     0
281
     1
  0
CLASS
  1
XRECORD
  2
AcDbXrecord
  3
AutoCAD 2000
 90
        0
280
     0
281
     0
  0
CLASS
  1
LONG_TRANSACTION
  2
AcDbLongTransaction
  3
AutoCAD 2000
 90
        0
280
     0
281
     0
  0
CLASS
  1
LWPOLYLINE
  2
AcDbPolyline
  3
AutoCAD 2000
 90
        0
280
     0
281
     1
  0
CLASS
  1
HATCH
  2
AcDbHatch
  3
AutoCAD 2000
 90
        0
280
     0
281
     1
  0
CLASS
  1
XRECORD
  2
AcDbXrecord
  3
AutoCAD 2000
 90
        0
280
     0
281
     0
  0
CLASS
  1
LONG_TRANSACTION
  2
AcDbLongTransaction
  3
AutoCAD 2000
 90
        0
280
     0
281
     0
  0
CLASS
  1
LWPOLYLINE
  2
AcDbPolyline
  3
AutoCAD 2000
 90
        0
280
     0
281
     1
  0
CLASS
  1
HATCH
  2
AcDbHatch
  3
AutoCAD 2000
 90
        0
280
     0
281
     1
  0
CLASS
  1
XRECORD
  2
AcDbXrecord
  3
AutoCAD 2000
 90
        0
280
     0
281
     0
  0
ENDSEC
  0
SECTION
  2
TABLES
  0
TABLE
  2
VPORT
  5
8
330
0
100
AcDbSymbolTable
 70
     2
  0
VPORT
  5
1587
330
8
100
AcDbSymbolTableRecord
100
AcDbViewportTableRecord
  2
*ACTIVE
 70
     0
 10
0.0
 20
0.0
 11
1.0
 21
1.0
 12
-7.75184539
 22
17.69569376
 13
0.0
 23
0.0
 14
7.0
 24
7.0
 15
7.0
 25
7.0
 16
0.0
 26
0.0
 36
1.0
 17
0.0
 27
0.0
 37
0.0
 40
87.43258703
 41
1.43184713
 42
50.0
 43
0.0
 44
0.0
 50
0.0
 51
0.0
 71
     0
 72
  2000
 73
     1
 74
     0
 75
     0
 76
     0
 77
     0
 78
     0
  0
ENDTAB
  0
TABLE
  2
LTYPE
  5
5
330
0
100
AcDbSymbolTable
 70
     3
  0
LTYPE
  5
14
330
5
100
AcDbSymbolTableRecord
100
AcDbLinetypeTableRecord
  2
BYBLOCK
 70
     0
  3

 72
    65
 73
     0
 40
0.0
  0
LTYPE
  5
15
330
5
100
AcDbSymbolTableRecord
100
AcDbLinetypeTableRecord
  2
BYLAYER
 70
     0
  3

 72
    65
 73
     0
 40
0.0
  0
LTYPE
  5
16
330
5
100
AcDbSymbolTableRecord
100
AcDbLinetypeTableRecord
  2
CONTINUOUS
 70
     0
  3
Solid line
 72
    65
 73
     0
 40
0.0
  0
LTYPE
  5
258
330
5
100
AcDbSymbolTableRecord
100
AcDbLinetypeTableRecord
  2
CENTER2
 70
     0
  3
___ _ ___ _ ___ _ ___ _ ___ _ ___ _ ___ _ ___ _
 72
    65
 73
     4
 40
1.125
 49
0.75
 74
     0
 49
-0.125
 74
     0
 49
0.125
 74
     0
 49
-0.125
 74
     0
  0
LTYPE
  5
25C
330
5
100
AcDbSymbolTableRecord
100
AcDbLinetypeTableRecord
  2
HIDDEN2
 70
     0
  3
_ _ _ _ _ _ _ _ _ _ _ _ _ _ _ _ _ _ _ _ _ _ _ _
 72
    65
 73
     2
 40
0.1875
 49
0.125
 74
     0
 49
-0.0625
 74
     0
  0
ENDTAB
  0
TABLE
  2
LAYER
  5
2
330
0
100
AcDbSymbolTable
 70
    12
  0
LAYER
  5
F
330
2
100
AcDbSymbolTableRecord
100
AcDbLayerTableRecord
  2
0
 70
     0
 62
     7
  6
CONTINUOUS
  0
LAYER
  5
1AA
330
2
100
AcDbSymbolTableRecord
100
AcDbLayerTableRecord
  2
240
 70
     0
 62
     4
  6
CONTINUOUS
  0
LAYER
  5
1AB
330
2
100
AcDbSymbolTableRecord
100
AcDbLayerTableRecord
  2
241
 70
     0
 62
   211
  6
CONTINUOUS
  0
LAYER
  5
1AC
330
2
100
AcDbSymbolTableRecord
100
AcDbLayerTableRecord
  2
242
 70
     0
 62
     3
  6
CONTINUOUS
  0
LAYER
  5
1AD
330
2
100
AcDbSymbolTableRecord
100
AcDbLayerTableRecord
  2
243
 70
     0
 62
   211
  6
HIDDEN2
  0
LAYER
  5
1AF
330
2
100
AcDbSymbolTableRecord
100
AcDbLayerTableRecord
  2
245
 70
     0
 62
     2
  6
CENTER2
  0
LAYER
  5
21E
330
2
100
AcDbSymbolTableRecord
100
AcDbLayerTableRecord
  2
250
 70
     0
 62
     3
  6
CONTINUOUS
  0
LAYER
  5
21F
330
2
100
AcDbSymbolTableRecord
100
AcDbLayerTableRecord
  2
251
 70
     0
 62
    40
  6
CONTINUOUS
  0
LAYER
  5
5C4
330
2
100
AcDbSymbolTableRecord
100
AcDbLayerTableRecord
  2
DEFPOINTS
 70
     0
 62
     7
  6
CONTINUOUS
  0
LAYER
  5
8C4
330
2
100
AcDbSymbolTableRecord
100
AcDbLayerTableRecord
  2
AM_5
 70
     0
 62
     3
  6
CONTINUOUS
  0
ENDTAB
  0
TABLE
  2
STYLE
  5
3
330
0
100
AcDbSymbolTable
 70
     2
  0
STYLE
  5
10
330
3
100
AcDbSymbolTableRecord
100
AcDbTextStyleTableRecord
  2
STANDARD
 70
     0
 40
0.0
 41
1.0
 50
0.0
 71
     0
 42
3.0
  3
romans.shx
  4
BIGFONT.SHX
  0
STYLE
  5
339
330
3
100
AcDbSymbolTableRecord
100
AcDbTextStyleTableRecord
  2
YOKO
 70
     0
 40
0.0
 41
1.0
 50
0.0
 71
     0
 42
3.0
  3
romans.shx
  4
extfont.shx
  0
ENDTAB
  0
TABLE
  2
VIEW
  5
6
330
0
100
AcDbSymbolTable
 70
     0
  0
ENDTAB
  0
TABLE
  2
UCS
  5
7
330
0
100
AcDbSymbolTable
 70
     0
  0
ENDTAB
  0
TABLE
  2
APPID
  5
9
330
0
100
AcDbSymbolTable
 70
    15
  0
APPID
  5
11
330
9
100
AcDbSymbolTableRecord
100
AcDbRegAppTableRecord
  2
ACAD
 70
     0
  0
APPID
  5
1B1
330
9
100
AcDbSymbolTableRecord
100
AcDbRegAppTableRecord
  2
GLOBAL
 70
     0
  0
APPID
  5
2A4
330
9
100
AcDbSymbolTableRecord
100
AcDbRegAppTableRecord
  2
DETAIL
 70
     0
  0
APPID
  5
5FD
330
9
100
AcDbSymbolTableRecord
100
AcDbRegAppTableRecord
  2
GRPNAME
 70
     0
  0
APPID
  5
5FE
330
9
100
AcDbSymbolTableRecord
100
AcDbRegAppTableRecord
  2
GPARA
 70
     0
  0
APPID
  5
6C4
330
9
100
AcDbSymbolTableRecord
100
AcDbRegAppTableRecord
  2
DCO15
 70
     0
  0
APPID
  5
6C5
330
9
100
AcDbSymbolTableRecord
100
AcDbRegAppTableRecord
  2
ITEMNAME
 70
     0
  0
APPID
  5
6C6
330
9
100
AcDbSymbolTableRecord
100
AcDbRegAppTableRecord
  2
GRADE_0
 70
     0
  0
APPID
  5
8C6
330
9
100
AcDbSymbolTableRecord
100
AcDbRegAppTableRecord
  2
GENIUS_GENODEF_13
 70
     0
  0
APPID
  5
8C7
330
9
100
AcDbSymbolTableRecord
100
AcDbRegAppTableRecord
  2
GENIUS_GENOREF_13
 70
     0
  0
APPID
  5
8C8
330
9
100
AcDbSymbolTableRecord
100
AcDbRegAppTableRecord
  2
GENIUS_GENOBJ-N-FIL_13
 70
     0
  0
APPID
  5
8C9
330
9
100
AcDbSymbolTableRecord
100
AcDbRegAppTableRecord
  2
HATCH_TYPE
 70
     0
  0
APPID
  5
8CA
330
9
100
AcDbSymbolTableRecord
100
AcDbRegAppTableRecord
  2
HATCH_DISPLAY
 70
     0
  0
APPID
  5
8CB
330
9
100
AcDbSymbolTableRecord
100
AcDbRegAppTableRecord
  2
HATCH_DISTANCE
 70
     0
  0
APPID
  5
D9C
330
9
100
AcDbSymbolTableRecord
100
AcDbRegAppTableRecord
  2
CONTENTBLOCKICON
 70
     0
  0
ENDTAB
  0
TABLE
  2
DIMSTYLE
  5
A
330
0
100
AcDbSymbolTable
 70
     2
  0
DIMSTYLE
105
725
102
{ACAD_REACTORS
330
12E1
102
}
330
A
100
AcDbSymbolTableRecord
100
AcDbDimStyleTableRecord
  2
BIGT
 70
     0
  3

  4

  5

  6
OPEN
  7
OPEN
 40
1.0
 41
2.23
 42
0.5
 43
2.5
 44
1.0
 45
0.0
 46
0.0
 47
0.0
 48
0.0
140
2.8
141
0.0
142
0.0
143
25.4
144
1.0
145
0.0
146
1.0
147
1.0
 71
     0
 72
     0
 73
     0
 74
     0
 75
     0
 76
     0
 77
     3
 78
     8
170
     0
171
     2
172
     1
173
     1
174
     1
175
     0
176
   256
177
   256
178
    40
270
     2
271
     3
272
     3
273
     2
274
     2
340
10
275
     0
280
     0
281
     0
282
     0
283
     1
284
     8
285
     0
286
     0
287
     3
288
     0
  0
DIMSTYLE
105
8C5
102
{ACAD_REACTORS
330
12E2
330
12E3
102
}
330
A
100
AcDbSymbolTableRecord
100
AcDbDimStyleTableRecord
  2
BIGT$0
 70
     0
  3

  4

  5
OPEN
  6

  7

 40
1.0
 41
2.23
 42
0.5
 43
7.0
 44
1.0
 45
0.0
 46
0.0
 47
0.0
 48
0.01
140
2.8
141
0.0
142
0.0
143
25.4
144
1.0
145
0.0
146
1.0
147
1.0
 71
     0
 72
     0
 73
     0
 74
     0
 75
     0
 76
     0
 77
     3
 78
     9
170
     0
171
     2
172
     1
173
     0
174
     1
175
     0
176
   256
177
   256
178
    40
270
     2
271
     3
272
     3
273
     2
274
     2
340
10
275
     0
280
     0
281
     0
282
     0
283
     1
284
     8
285
     0
286
     0
287
     3
288
     0
  0
ENDTAB
  0
TABLE
  2
BLOCK_RECORD
  5
1
330
0
100
AcDbSymbolTable
 70
    13
  0
BLOCK_RECORD
  5
1A
102
{ACAD_XDICTIONARY
360
D9A
102
}
330
1
100
AcDbSymbolTableRecord
100
AcDbBlockTableRecord
  2
*MODEL_SPACE
  0
BLOCK_RECORD
  5
17
102
{ACAD_XDICTIONARY
360
D98
102
}
330
1
100
AcDbSymbolTableRecord
100
AcDbBlockTableRecord
  2
*PAPER_SPACE
  0
BLOCK_RECORD
  5
594
330
1
100
AcDbSymbolTableRecord
100
AcDbBlockTableRecord
  2
_OPEN
  0
BLOCK_RECORD
  5
6E3
330
1
100
AcDbSymbolTableRecord
100
AcDbBlockTableRecord
  2
矢印なし
  0
BLOCK_RECORD
  5
762
330
1
100
AcDbSymbolTableRecord
100
AcDbBlockTableRecord
  2
1
1001
CONTENTBLOCKICON
1071
        0
1004
2800000020000000200000000100080000000000000400000000000000000000000000000000000000000000000080000080000000808000800000008000800080800000C0C0C000C0DCC000F0CAA6000020400000206000002080000020A0000020C0000020E00000400000004020000040400000406000004080000040A0
1004
000040C0000040E00000600000006020000060400000606000006080000060A0000060C0000060E00000800000008020000080400000806000008080000080A0000080C0000080E00000A0000000A0200000A0400000A0600000A0800000A0A00000A0C00000A0E00000C0000000C0200000C0400000C0600000C0800000C0
1004
A00000C0C00000C0E00000E0000000E0200000E0400000E0600000E0800000E0A00000E0C00000E0E00040000000400020004000400040006000400080004000A0004000C0004000E00040200000402020004020400040206000402080004020A0004020C0004020E000404000004040200040404000404060004040800040
1004
40A0004040C0004040E00040600000406020004060400040606000406080004060A0004060C0004060E00040800000408020004080400040806000408080004080A0004080C0004080E00040A0000040A0200040A0400040A0600040A0800040A0A00040A0C00040A0E00040C0000040C0200040C0400040C0600040C08000
1004
40C0A00040C0C00040C0E00040E0000040E0200040E0400040E0600040E0800040E0A00040E0C00040E0E00080000000800020008000400080006000800080008000A0008000C0008000E00080200000802020008020400080206000802080008020A0008020C0008020E00080400000804020008040400080406000804080
1004
008040A0008040C0008040E00080600000806020008060400080606000806080008060A0008060C0008060E00080800000808020008080400080806000808080008080A0008080C0008080E00080A0000080A0200080A0400080A0600080A0800080A0A00080A0C00080A0E00080C0000080C0200080C0400080C0600080C0
1004
800080C0A00080C0C00080C0E00080E0000080E0200080E0400080E0600080E0800080E0A00080E0C00080E0E000C0000000C0002000C0004000C0006000C0008000C000A000C000C000C000E000C0200000C0202000C0204000C0206000C0208000C020A000C020C000C020E000C0400000C0402000C0404000C0406000C0
1004
408000C040A000C040C000C040E000C0600000C0602000C0604000C0606000C0608000C060A000C060C000C060E000C0800000C0802000C0804000C0806000C0808000C080A000C080C000C080E000C0A00000C0A02000C0A04000C0A06000C0A08000C0A0A000C0A0C000C0A0E000C0C00000C0C02000C0C04000C0C06000
1004
C0C08000C0C0A000F0FBFF00A4A0A000808080000000FF0000FF000000FFFF00FF000000FF00FF00FFFF0000FFFFFF0000000000000000000000000000000000000000000000000000000000000000000000000000000000000000000000000000000000000000000000000000000000000000000000000000000000000000
1004
00000000000000000000000000000000000000000000000000000000000000000000000000000000000000000000000000000000000000000000000000000000000000000000000000000000000000000000000000000000000000000000000000000000000000000000000000000000000000000000000000000000000000
1004
00000000000000000000000000000000000000000000000000000000000000000000000000000000000000000000000000000000000000000000000000000000000000000000000000000000000000000000000000000000000000000000000000000000000000000000000000000000000000000000000000000000000000
1004
000000FEFEFEFEFE000000000000000000000000000000000000000000000000000000FEFEE7FEFE0000FE00000000000000000000FEFEFEFEFEFEFEFEFEFEFEFEFEFEFEFEE7E7E7FFFEFEFEFEFEFEFEFE00000000FE00000000E7FBE70000E700E7E7E700E7E7E7FFFFE7E700000000FE00000000FE00000000E7FBE70000
1004
E7FBE7E7E700E7E7E700FFE7E700000000FE00000000FE00000000E7FBE70000E7FBE7E7E700E7E7E700FFE7E700000000FE000000FBFEFBFBFBFBE7FBE7FBFBE7FBE7E7E7FBE7E7E7E7FFE7E7E7FBFBFBFEFB000000FE00000000E7FBE70000E700E7E7E700E7E7E7E7FAE7E7E7E7E7E7FE00000000FE00000000E7FBE700
1004
00E700E7E7E700E7E7E7E7E7E7E7E7000000FE00000000FEFEFEFEFEFEFEFEFEFEFEFEFEFEFEFEE7E7E7FEFEFEE7FEFEFEFEFE000000000000000000000000000000000000FEFEE7FEFE0000FE000000000000000000000000000000000000000000000000FEFEFEFEFE000000000000000000000000000000000000000000
1004
00000000000000000000000000000000000000000000000000000000000000000000000000000000000000000000000000000000000000000000000000000000000000000000000000000000000000000000000000000000000000000000000000000000000000000000000000000000000000000000000000000000000000
1004
00000000000000000000000000000000000000000000000000000000000000000000000000000000000000000000000000000000000000000000000000000000000000000000000000000000000000000000000000000000000000000000000000000000000000000000000000000000000000000000000000000000000000
1004
0000000000000000000000000000000000000000000000000000000000000000000000000000000000000000000000000000000000000000
  0
BLOCK_RECORD
  5
1406
330
1
100
AcDbSymbolTableRecord
100
AcDbBlockTableRecord
  2
*D10
  0
BLOCK_RECORD
  5
1411
330
1
100
AcDbSymbolTableRecord
100
AcDbBlockTableRecord
  2
*D11
  0
BLOCK_RECORD
  5
141D
330
1
100
AcDbSymbolTableRecord
100
AcDbBlockTableRecord
  2
*D12
  0
ENDTAB
  0
ENDSEC
  0
SECTION
  2
BLOCKS
  0
BLOCK
  5
1B
330
1A
100
AcDbEntity
  8
0
100
AcDbBlockBegin
  2
*MODEL_SPACE
 70
     0
 10
0.0
 20
0.0
 30
0.0
  3
*MODEL_SPACE
  1

  0
ENDBLK
  5
1C
330
1A
100
AcDbEntity
  8
0
100
AcDbBlockEnd
  0
BLOCK
  5
18
330
17
100
AcDbEntity
 67
     1
  8
0
100
AcDbBlockBegin
  2
*PAPER_SPACE
 70
     0
 10
0.0
 20
0.0
 30
0.0
  3
*PAPER_SPACE
  1

  0
ENDBLK
  5
19
330
17
100
AcDbEntity
 67
     1
  8
0
100
AcDbBlockEnd
  0
BLOCK
  5
598
330
594
100
AcDbEntity
  8
0
100
AcDbBlockBegin
  2
_OPEN
 70
     0
 10
0.0
 20
0.0
 30
0.0
  3
_OPEN
  1

  0
LINE
  5
595
330
594
100
AcDbEntity
  8
0
  6
BYBLOCK
 62
     0
100
AcDbLine
 10
-1.0
 20
0.16666667
 30
0.0
 11
0.0
 21
0.0
 31
0.0
  0
LINE
  5
596
330
594
100
AcDbEntity
  8
0
  6
BYBLOCK
 62
     0
100
AcDbLine
 10
-1.0
 20
-0.16666667
 30
0.0
 11
0.0
 21
0.0
 31
0.0
  0
LINE
  5
597
330
594
100
AcDbEntity
  8
0
  6
BYBLOCK
 62
     0
100
AcDbLine
 10
0.0
 20
0.0
 30
0.0
 11
-1.0
 21
0.0
 31
0.0
  0
ENDBLK
  5
599
330
594
100
AcDbEntity
  8
0
100
AcDbBlockEnd
  0
BLOCK
  5
6E4
330
6E3
100
AcDbEntity
  8
0
100
AcDbBlockBegin
  2
矢印なし
 70
     0
 10
0.0
 20
0.0
 30
0.0
  3
矢印なし
  1

  0
ENDBLK
  5
6E5
330
6E3
100
AcDbEntity
  8
0
100
AcDbBlockEnd
  0
BLOCK
  5
89F
330
762
100
AcDbEntity
  8
0
100
AcDbBlockBegin
  2
1
 70
     0
 10
0.0
 20
0.0
 30
0.0
  3
1
  1

  0
LINE
  5
1467
330
762
100
AcDbEntity
  8
240
100
AcDbLine
 10
13.25980762
 20
15.0
 30
0.0
 11
34.0
 21
15.0
 31
0.0
  0
LINE
  5
1468
330
762
100
AcDbEntity
  8
241
  6
HIDDEN2
100
AcDbLine
 10
18.0
 20
7.0
 30
0.0
 11
35.0
 21
7.0
 31
0.0
  0
LINE
  5
1469
330
762
100
AcDbEntity
  8
240
100
AcDbLine
 10
13.25980762
 20
-15.0
 30
0.0
 11
34.0
 21
-15.0
 31
0.0
  0
LINE
  5
146A
330
762
100
AcDbEntity
  8
245
100
AcDbLine
 10
-70.0
 20
0.0
 30
0.0
 11
36.0
 21
0.0
 31
0.0
  0
LINE
  5
146B
330
762
100
AcDbEntity
  8
240
100
AcDbLine
 10
-54.0
 20
12.5
 30
0.0
 11
-56.5
 21
15.0
 31
0.0
  0
LINE
  5
146C
330
762
100
AcDbEntity
  8
240
100
AcDbLine
 10
-54.0
 20
-12.5
 30
0.0
 11
-56.5
 21
-15.0
 31
0.0
  0
LINE
  5
146D
330
762
100
AcDbEntity
  8
240
100
AcDbLine
 10
-69.0
 20
-14.0
 30
0.0
 11
-69.0
 21
0.0
 31
0.0
  0
LINE
  5
146E
330
762
100
AcDbEntity
  8
240
100
AcDbLine
 10
-68.0
 20
-15.0
 30
0.0
 11
-56.5
 21
-15.0
 31
0.0
  0
ARC
  5
146F
330
762
100
AcDbEntity
  8
240
100
AcDbCircle
 10
-68.0
 20
-14.0
 30
0.0
 40
1.0
100
AcDbArc
 50
180.0
 51
270.0
  0
ARC
  5
1470
330
762
100
AcDbEntity
  8
240
100
AcDbCircle
 10
-68.0
 20
14.0
 30
0.0
 40
1.0
100
AcDbArc
 50
90.0
 51
180.0
  0
LINE
  5
1471
330
762
100
AcDbEntity
  8
240
100
AcDbLine
 10
-69.0
 20
14.0
 30
0.0
 11
-69.0
 21
0.0
 31
0.0
  0
LINE
  5
1472
330
762
100
AcDbEntity
  8
240
100
AcDbLine
 10
-68.0
 20
15.0
 30
0.0
 11
-56.5
 21
15.0
 31
0.0
  0
TEXT
  5
1473
330
762
100
AcDbEntity
  8
0
100
AcDbText
 10
7.22681444
 20
-14.87099621
 30
0.0
 40
1.0
  1
MGT20-M18,U3/4-35
 50
90.0
  7
YOKO
100
AcDbText
  0
LINE
  5
1474
330
762
100
AcDbEntity
  8
0
100
AcDbLine
 10
3.30009075
 20
-9.78963062
 30
0.0
 11
3.13863214
 21
-9.62817201
 31
0.0
  0
LINE
  5
1475
330
762
100
AcDbEntity
  8
0
100
AcDbLine
 10
4.91036058
 20
-9.70263204
 30
0.0
 11
4.68746878
 21
-9.47974025
 31
0.0
  0
ARC
  5
1476
330
762
100
AcDbEntity
  8
0
100
AcDbCircle
 10
4.02071863
 20
-9.75529063
 30
0.0
 40
0.7214456176757899
100
AcDbArc
 50
0.0
 51
194.1274365
  0
ARC
  5
1477
330
762
100
AcDbEntity
  8
0
100
AcDbCircle
 10
4.02071863
 20
-9.75529063
 30
0.0
 40
0.8911990356445432
100
AcDbArc
 50
0.0
 51
194.77079397
  0
LINE
  5
1478
330
762
100
AcDbEntity
  8
241
100
AcDbLine
 10
10.0
 20
-11.7
 30
0.0
 11
10.0
 21
0.0
 31
0.0
  0
LINE
  5
1479
330
762
100
AcDbEntity
  8
241
100
AcDbLine
 10
11.0
 20
-11.7
 30
0.0
 11
11.0
 21
0.0
 31
0.0
  0
LINE
  5
147A
330
762
100
AcDbEntity
  8
241
100
AcDbLine
 10
13.0
 20
-15.15
 30
0.0
 11
13.0
 21
0.0
 31
0.0
  0
LINE
  5
147B
330
762
100
AcDbEntity
  8
241
100
AcDbLine
 10
14.2
 20
-15.0
 30
0.0
 11
14.2
 21
0.0
 31
0.0
  0
LINE
  5
147C
330
762
100
AcDbEntity
  8
245
100
AcDbLine
 10
-46.0
 20
-15.0
 30
0.0
 11
-46.0
 21
15.0
 31
0.0
1001
GENIUS_GENOREF_13
1005
0
  0
LINE
  5
147D
330
762
100
AcDbEntity
  8
243
100
AcDbLine
 10
-50.0
 20
-12.5
 30
0.0
 11
-50.0
 21
12.5
 31
0.0
1001
GENIUS_GENOREF_13
1005
0
  0
LINE
  5
147E
330
762
100
AcDbEntity
  8
243
100
AcDbLine
 10
-42.0
 20
-12.5
 30
0.0
 11
-42.0
 21
12.5
 31
0.0
1001
GENIUS_GENOREF_13
1005
0
  0
LINE
  5
147F
330
762
100
AcDbEntity
  8
241
100
AcDbLine
 10
-32.0
 20
-13.75
 30
0.0
 11
-32.0
 21
0.0
 31
0.0
  0
LINE
  5
1480
330
762
100
AcDbEntity
  8
241
100
AcDbLine
 10
-29.5
 20
-13.75
 30
0.0
 11
-29.5
 21
0.0
 31
0.0
  0
LINE
  5
1481
330
762
100
AcDbEntity
  8
241
100
AcDbLine
 10
-21.5
 20
-13.75
 30
0.0
 11
-21.5
 21
0.0
 31
0.0
  0
LINE
  5
1482
330
762
100
AcDbEntity
  8
241
100
AcDbLine
 10
-19.0
 20
-13.75
 30
0.0
 11
-19.0
 21
0.0
 31
0.0
  0
LINE
  5
1483
330
762
100
AcDbEntity
  8
241
100
AcDbLine
 10
-14.5
 20
-15.0
 30
0.0
 11
-14.5
 21
0.0
 31
0.0
  0
LINE
  5
1484
330
762
100
AcDbEntity
  8
241
100
AcDbLine
 10
-4.5
 20
-18.25
 30
0.0
 11
-4.5
 21
0.0
 31
0.0
  0
LINE
  5
1485
330
762
100
AcDbEntity
  8
241
100
AcDbLine
 10
-2.0
 20
-18.25
 30
0.0
 11
-2.0
 21
0.0
 31
0.0
  0
LINE
  5
1486
330
762
100
AcDbEntity
  8
241
100
AcDbLine
 10
0.0
 20
-19.14125603
 30
0.0
 11
0.0
 21
0.0
 31
0.0
  0
LINE
  5
1487
330
762
100
AcDbEntity
  8
241
  6
CONTINUOUS
100
AcDbLine
 10
-7.5
 20
-19.00000001
 30
0.0
 11
-7.5
 21
0.0
 31
0.0
  0
LINE
  5
1488
330
762
100
AcDbEntity
  8
241
100
AcDbLine
 10
-6.12626129
 20
-19.5
 30
0.0
 11
-6.12626129
 21
0.0
 31
0.0
  0
LINE
  5
1489
330
762
100
AcDbEntity
  8
241
100
AcDbLine
 10
1.20577137
 20
-15.35874397
 30
0.0
 11
1.20577137
 21
0.0
 31
0.0
  0
LINE
  5
148A
330
762
100
AcDbEntity
  8
240
100
AcDbLine
 10
-19.0
 20
-15.0
 30
0.0
 11
-14.5
 21
-15.0
 31
0.0
  0
LINE
  5
148B
330
762
100
AcDbEntity
  8
240
100
AcDbLine
 10
-38.0
 20
-12.5
 30
0.0
 11
-35.5
 21
-15.0
 31
0.0
  0
LINE
  5
148C
330
762
100
AcDbEntity
  8
240
100
AcDbLine
 10
-46.0
 20
-12.5
 30
0.0
 11
-38.0
 21
-12.5
 31
0.0
  0
LINE
  5
148D
330
762
100
AcDbEntity
  8
240
100
AcDbLine
 10
-54.0
 20
-12.5
 30
0.0
 11
-46.0
 21
-12.5
 31
0.0
  0
LINE
  5
148E
330
762
100
AcDbEntity
  8
240
100
AcDbLine
 10
-29.5
 20
-15.0
 30
0.0
 11
-21.5
 21
-15.0
 31
0.0
  0
ARC
  5
148F
330
762
100
AcDbEntity
  8
240
100
AcDbCircle
 10
-30.75
 20
-13.75
 30
0.0
 40
1.24999999999827
100
AcDbArc
 50
180.0
 51
0.0
  0
LINE
  5
1490
330
762
100
AcDbEntity
  8
240
100
AcDbLine
 10
-32.0
 20
-13.75
 30
0.0
 11
-32.0
 21
-15.0
 31
0.0
  0
LINE
  5
1491
330
762
100
AcDbEntity
  8
240
100
AcDbLine
 10
-35.5
 20
-15.0
 30
0.0
 11
-32.0
 21
-15.0
 31
0.0
  0
LINE
  5
1492
330
762
100
AcDbEntity
  8
240
100
AcDbLine
 10
-29.5
 20
-13.75
 30
0.0
 11
-29.5
 21
-15.0
 31
0.0
  0
ARC
  5
1493
330
762
100
AcDbEntity
  8
240
100
AcDbCircle
 10
-20.25
 20
-13.75
 30
0.0
 40
1.249999999998089
100
AcDbArc
 50
180.0
 51
0.0
  0
LINE
  5
1494
330
762
100
AcDbEntity
  8
240
100
AcDbLine
 10
-21.5
 20
-13.75
 30
0.0
 11
-21.5
 21
-15.0
 31
0.0
  0
LINE
  5
1495
330
762
100
AcDbEntity
  8
240
100
AcDbLine
 10
-19.0
 20
-13.75
 30
0.0
 11
-19.0
 21
-15.0
 31
0.0
  0
LINE
  5
1496
330
762
100
AcDbEntity
  8
240
100
AcDbLine
 10
10.0
 20
-15.0
 30
0.0
 11
1.97309836
 21
-15.0
 31
0.0
  0
LINE
  5
1497
330
762
100
AcDbEntity
  8
240
100
AcDbLine
 10
-7.5
 20
-19.00000001
 30
0.0
 11
-6.12626128
 21
-19.5
 31
0.0
  0
LINE
  5
1498
330
762
100
AcDbEntity
  8
240
100
AcDbLine
 10
-13.0
 20
-15.5
 30
0.0
 11
-13.5
 21
-16.0
 31
0.0
  0
LINE
  5
1499
330
762
100
AcDbEntity
  8
240
100
AcDbLine
 10
-7.50000001
 20
-19.0
 30
0.0
 11
-13.5
 21
-19.0
 31
0.0
  0
LINE
  5
149A
330
762
100
AcDbEntity
  8
240
100
AcDbLine
 10
-13.5
 20
-19.0
 30
0.0
 11
-13.5
 21
-16.0
 31
0.0
  0
LINE
  5
149B
330
762
100
AcDbEntity
  8
241
  6
CONTINUOUS
100
AcDbLine
 10
-7.5
 20
-15.2
 30
0.0
 11
-13.0
 21
-15.2
 31
0.0
  0
LINE
  5
149C
330
762
100
AcDbEntity
  8
240
100
AcDbLine
 10
-14.2
 20
-14.7
 30
0.0
 11
-14.5
 21
-15.0
 31
0.0
  0
LINE
  5
149D
330
762
100
AcDbEntity
  8
240
100
AcDbLine
 10
-14.2
 20
-14.7
 30
0.0
 11
-13.0
 21
-14.7
 31
0.0
  0
LINE
  5
149E
330
762
100
AcDbEntity
  8
240
100
AcDbLine
 10
-13.0
 20
-15.5
 30
0.0
 11
-13.0
 21
-14.7
 31
0.0
  0
LINE
  5
149F
330
762
100
AcDbEntity
  8
240
100
AcDbLine
 10
0.19859884
 20
-18.75881905
 30
0.0
 11
1.00717253
 21
-15.74118096
 31
0.0
  0
ARC
  5
14A0
330
762
100
AcDbEntity
  8
240
100
AcDbCircle
 10
-3.25
 20
-18.25
 30
0.0
 40
1.250000000000339
100
AcDbArc
 50
180.0
 51
0.0
  0
LINE
  5
14A1
330
762
100
AcDbEntity
  8
240
100
AcDbLine
 10
-4.5
 20
-18.25
 30
0.0
 11
-4.5
 21
-19.5
 31
0.0
  0
LINE
  5
14A2
330
762
100
AcDbEntity
  8
240
100
AcDbLine
 10
-4.5
 20
-19.5
 30
0.0
 11
-6.12626129
 21
-19.5
 31
0.0
  0
LINE
  5
14A3
330
762
100
AcDbEntity
  8
240
100
AcDbLine
 10
-0.50850794
 20
-19.46592583
 30
0.0
 11
-0.63567449
 21
-19.5
 31
0.0
  0
LINE
  5
14A4
330
762
100
AcDbEntity
  8
240
100
AcDbLine
 10
-2.0
 20
-18.25
 30
0.0
 11
-2.0
 21
-19.5
 31
0.0
  0
LINE
  5
14A5
330
762
100
AcDbEntity
  8
240
100
AcDbLine
 10
-0.63567449
 20
-19.5
 30
0.0
 11
-2.0
 21
-19.5
 31
0.0
  0
ARC
  5
14A6
330
762
100
AcDbEntity
  8
240
100
AcDbCircle
 10
-0.76732699
 20
-18.5
 30
0.0
 40
1.0
100
AcDbArc
 50
285.0
 51
345.0
1001
GENIUS_GENOBJ-N-FIL_13
1002
{
1000
OWNER
1000
GEN
1002
}
1001
GENIUS_GENODEF_13
1002
{
1000
HIER
1070
     0
1002
}
1002
{
1000
MANEDIT
1070
     0
1002
}
1002
{
1000
NOSEL
1070
     0
1002
}
1002
{
1000
BEHIND
1070
     0
1002
}
1002
{
1000
OTHER
1070
     0
1002
}
1002
{
1000
REACTOR
1002
}
  0
ARC
  5
14A7
330
762
100
AcDbEntity
  8
240
100
AcDbCircle
 10
1.97309836
 20
-16.0
 30
0.0
 40
1.0
100
AcDbArc
 50
90.0
 51
165.00000002
  0
LINE
  5
14A8
330
762
100
AcDbEntity
  8
240
100
AcDbLine
 10
11.0
 20
-15.15
 30
0.0
 11
13.0
 21
-15.15
 31
0.0
  0
LINE
  5
14A9
330
762
100
AcDbEntity
  8
0
100
AcDbLine
 10
4.91191786
 20
-12.15579925
 30
0.0
 11
4.74216444
 21
-11.98604584
 31
0.0
  0
LINE
  5
14AA
330
762
100
AcDbEntity
  8
0
100
AcDbLine
 10
4.65728774
 20
-13.11218882
 30
0.0
 11
4.65728774
 21
-12.40774546
 31
0.0
  0
LINE
  5
14AB
330
762
100
AcDbEntity
  8
0
100
AcDbLine
 10
4.91191786
 20
-11.77862849
 30
0.0
 11
4.74216444
 21
-11.60887508
 31
0.0
  0
LINE
  5
14AC
330
762
100
AcDbEntity
  8
0
100
AcDbLine
 10
4.91191786
 20
-11.59004311
 30
0.0
 11
4.74216444
 21
-11.4202897
 31
0.0
  0
LINE
  5
14AD
330
762
100
AcDbEntity
  8
0
100
AcDbLine
 10
4.91191786
 20
-11.40145774
 30
0.0
 11
4.74216444
 21
-11.23170432
 31
0.0
  0
LINE
  5
14AE
330
762
100
AcDbEntity
  8
0
100
AcDbLine
 10
4.91191786
 20
-11.21287236
 30
0.0
 11
4.74216444
 21
-11.04311894
 31
0.0
  0
LINE
  5
14AF
330
762
100
AcDbEntity
  8
0
100
AcDbLine
 10
4.91191786
 20
-11.02428698
 30
0.0
 11
4.74216444
 21
-10.85453356
 31
0.0
  0
LINE
  5
14B0
330
762
100
AcDbEntity
  8
0
100
AcDbLine
 10
4.91191786
 20
-10.8357016
 30
0.0
 11
4.74216444
 21
-10.66594819
 31
0.0
  0
LINE
  5
14B1
330
762
100
AcDbEntity
  8
0
100
AcDbLine
 10
4.91191786
 20
-10.64711622
 30
0.0
 11
4.74216444
 21
-10.47736281
 31
0.0
  0
LINE
  5
14B2
330
762
100
AcDbEntity
  8
0
100
AcDbLine
 10
4.65728774
 20
-11.52399837
 30
0.0
 11
4.64329982
 21
-11.51001045
 31
0.0
  0
LINE
  5
14B3
330
762
100
AcDbEntity
  8
0
100
AcDbLine
 10
4.65728774
 20
-11.89369792
 30
0.0
 11
4.65728774
 21
-11.5140214
 31
0.0
  0
LINE
  5
14B4
330
762
100
AcDbEntity
  8
0
100
AcDbLine
 10
4.65728774
 20
-11.89369792
 30
0.0
 11
4.65728774
 21
-11.5140214
 31
0.0
1001
HATCH_DISTANCE
1040
1.0
1001
HATCH_DISPLAY
1070
     0
1001
HATCH_TYPE
1070
     7
  0
LINE
  5
14B5
330
762
100
AcDbEntity
  8
0
100
AcDbLine
 10
4.65728774
 20
-11.89369792
 30
0.0
 11
4.65728774
 21
-11.5140214
 31
0.0
  0
LINE
  5
14B6
330
762
100
AcDbEntity
  8
0
100
AcDbLine
 10
3.14706088
 20
-11.52245453
 30
0.0
 11
3.12951959
 21
-11.50491325
 31
0.0
  0
LINE
  5
14B7
330
762
100
AcDbEntity
  8
0
100
AcDbLine
 10
3.32480359
 20
-11.51161187
 30
0.0
 11
3.12951959
 21
-11.31632788
 31
0.0
  0
LINE
  5
14B8
330
762
100
AcDbEntity
  8
0
100
AcDbLine
 10
3.12951959
 20
-11.07594249
 30
0.0
 11
3.12951959
 21
-11.51742442
 31
0.0
  0
LINE
  5
14B9
330
762
100
AcDbEntity
  8
0
100
AcDbLine
 10
3.31624323
 20
-11.57096904
 30
0.0
 11
3.31624323
 21
-11.50915721
 31
0.0
  0
LINE
  5
14BA
330
762
100
AcDbEntity
  8
0
100
AcDbLine
 10
3.12951959
 20
-11.51742442
 30
0.0
 11
3.31624323
 21
-11.57096904
 31
0.0
  0
LINE
  5
14BB
330
762
100
AcDbEntity
  8
0
100
AcDbLine
 10
3.12951959
 20
-11.07594249
 30
0.0
 11
3.12951959
 21
-11.51742442
 31
0.0
1001
HATCH_DISTANCE
1040
1.0
1001
HATCH_DISPLAY
1070
     0
1001
HATCH_TYPE
1070
     7
  0
LINE
  5
14BC
330
762
100
AcDbEntity
  8
0
100
AcDbLine
 10
3.31624323
 20
-11.57096904
 30
0.0
 11
3.31624323
 21
-11.50915721
 31
0.0
1001
HATCH_DISTANCE
1040
1.0
1001
HATCH_DISPLAY
1070
     0
1001
HATCH_TYPE
1070
     7
  0
LINE
  5
14BD
330
762
100
AcDbEntity
  8
0
100
AcDbLine
 10
3.12951959
 20
-11.51742442
 30
0.0
 11
3.31624323
 21
-11.57096904
 31
0.0
1001
HATCH_DISTANCE
1040
1.0
1001
HATCH_DISPLAY
1070
     0
1001
HATCH_TYPE
1070
     7
  0
LINE
  5
14BE
330
762
100
AcDbEntity
  8
0
100
AcDbLine
 10
3.12951959
 20
-11.51742442
 30
0.0
 11
3.12951959
 21
-11.07594249
 31
0.0
  0
LINE
  5
14BF
330
762
100
AcDbEntity
  8
0
100
AcDbLine
 10
3.31624323
 20
-11.57096904
 30
0.0
 11
3.12951959
 21
-11.51742442
 31
0.0
  0
LINE
  5
14C0
330
762
100
AcDbEntity
  8
0
100
AcDbLine
 10
3.31624323
 20
-11.57096904
 30
0.0
 11
3.31624323
 21
-11.50915721
 31
0.0
  0
LINE
  5
14C1
330
762
100
AcDbEntity
  8
0
100
AcDbLine
 10
4.16156274
 20
-12.34837103
 30
0.0
 11
3.60493413
 21
-11.79174241
 31
0.0
  0
LINE
  5
14C2
330
762
100
AcDbEntity
  8
0
100
AcDbLine
 10
4.91191786
 20
-13.09872614
 30
0.0
 11
4.74216444
 21
-12.92897273
 31
0.0
  0
LINE
  5
14C3
330
762
100
AcDbEntity
  8
0
100
AcDbLine
 10
4.91191786
 20
-12.91014076
 30
0.0
 11
4.74216444
 21
-12.74038735
 31
0.0
  0
LINE
  5
14C4
330
762
100
AcDbEntity
  8
0
100
AcDbLine
 10
4.91191786
 20
-12.72155539
 30
0.0
 11
4.74216444
 21
-12.55180197
 31
0.0
  0
LINE
  5
14C5
330
762
100
AcDbEntity
  8
0
100
AcDbLine
 10
4.91191786
 20
-12.53297
 30
0.0
 11
4.74216444
 21
-12.36321659
 31
0.0
  0
LINE
  5
14C6
330
762
100
AcDbEntity
  8
0
100
AcDbLine
 10
4.91191786
 20
-12.34438463
 30
0.0
 11
4.74216444
 21
-12.17463121
 31
0.0
  0
LINE
  5
14C7
330
762
100
AcDbEntity
  8
0
100
AcDbLine
 10
4.19180869
 20
-14.07588538
 30
0.0
 11
4.03841508
 21
-13.92249177
 31
0.0
  0
LINE
  5
14C8
330
762
100
AcDbEntity
  8
0
100
AcDbLine
 10
4.33841945
 20
-14.03391076
 30
0.0
 11
4.2036421
 21
-13.8991334
 31
0.0
  0
LINE
  5
14C9
330
762
100
AcDbEntity
  8
0
100
AcDbLine
 10
4.4662168
 20
-13.97312273
 30
0.0
 11
4.34087424
 21
-13.84778017
 31
0.0
  0
ARC
  5
14CA
330
762
100
AcDbEntity
  8
0
100
AcDbCircle
 10
4.02071863
 20
-13.20126323
 30
0.0
 40
0.8911990356445432
100
AcDbArc
 50
180.0
 51
0.0
  0
LINE
  5
14CB
330
762
100
AcDbEntity
  8
0
100
AcDbLine
 10
4.91191786
 20
-13.20126323
 30
0.0
 11
4.91191786
 21
-9.75529063
 31
0.0
  0
LINE
  5
14CC
330
762
100
AcDbEntity
  8
0
100
AcDbLine
 10
4.74216444
 20
-13.20126323
 30
0.0
 11
4.74216444
 21
-9.75529063
 31
0.0
  0
LINE
  5
14CD
330
762
100
AcDbEntity
  8
0
100
AcDbLine
 10
4.91191786
 20
-9.89277471
 30
0.0
 11
4.74140793
 21
-9.72226478
 31
0.0
  0
LINE
  5
14CE
330
762
100
AcDbEntity
  8
0
100
AcDbLine
 10
3.26951862
 20
-9.94764388
 30
0.0
 11
3.13115656
 21
-9.80928181
 31
0.0
  0
ARC
  5
14CF
330
762
100
AcDbEntity
  8
0
100
AcDbCircle
 10
4.21593378
 20
-12.59712871
 30
0.0
 40
0.2546303021907843
100
AcDbArc
 50
351.66285421
 51
156.33819216
  0
LINE
  5
14D0
330
762
100
AcDbEntity
  8
0
100
AcDbLine
 10
4.50435777
 20
-13.06833681
 30
0.0
 11
3.78611327
 21
-12.35009231
 31
0.0
  0
LINE
  5
14D1
330
762
100
AcDbEntity
  8
0
100
AcDbLine
 10
4.23995645
 20
-12.99252087
 30
0.0
 11
3.64574649
 21
-12.39831091
 31
0.0
  0
LINE
  5
14D2
330
762
100
AcDbEntity
  8
0
100
AcDbLine
 10
3.98271013
 20
-12.49493613
 30
0.0
 11
4.46787316
 21
-12.63404943
 31
0.0
  0
LINE
  5
14D3
330
762
100
AcDbEntity
  8
0
100
AcDbLine
 10
4.11800918
 20
-11.73906132
 30
0.0
 11
3.5856965
 21
-11.20674865
 31
0.0
  0
LINE
  5
14D4
330
762
100
AcDbEntity
  8
0
100
AcDbLine
 10
4.38241104
 20
-11.8148778
 30
0.0
 11
3.85009733
 21
-11.2825641
 31
0.0
  0
LINE
  5
14D5
330
762
100
AcDbEntity
  8
0
100
AcDbLine
 10
4.12775204
 20
-11.18304805
 30
0.0
 11
3.57424251
 21
-10.62953852
 31
0.0
  0
LINE
  5
14D6
330
762
100
AcDbEntity
  8
0
100
AcDbLine
 10
4.2863363
 20
-11.15304693
 30
0.0
 11
3.83864433
 21
-10.70535496
 31
0.0
  0
LINE
  5
14D7
330
762
100
AcDbEntity
  8
0
100
AcDbLine
 10
4.41227483
 20
-11.09040008
 30
0.0
 11
4.10304615
 21
-10.7811714
 31
0.0
  0
LINE
  5
14D8
330
762
100
AcDbEntity
  8
0
100
AcDbLine
 10
4.51360397
 20
-11.00314385
 30
0.0
 11
4.33382247
 21
-10.82336234
 31
0.0
  0
LINE
  5
14D9
330
762
100
AcDbEntity
  8
0
100
AcDbLine
 10
4.5917172
 20
-10.8926717
 30
0.0
 11
4.44349266
 21
-10.74444716
 31
0.0
  0
ARC
  5
14DA
330
762
100
AcDbEntity
  8
0
100
AcDbCircle
 10
4.13460107
 20
-9.72979686
 30
0.0
 40
1.443724365234395
100
AcDbArc
 50
245.20517737
 51
262.79482596
  0
LINE
  5
14DB
330
762
100
AcDbEntity
  8
0
100
AcDbLine
 10
3.96130365
 20
-10.51095226
 30
0.0
 11
3.79155023
 21
-10.46227824
 31
0.0
  0
ARC
  5
14DC
330
762
100
AcDbEntity
  8
0
100
AcDbCircle
 10
4.29231897
 20
-10.65002086
 30
0.0
 40
0.1782408785820033
100
AcDbArc
 50
254.00027306
 51
74.00027306
  0
LINE
  5
14DD
330
762
100
AcDbEntity
  8
0
100
AcDbLine
 10
4.57822694
 20
-13.89654749
 30
0.0
 11
4.4572971
 21
-13.77561766
 31
0.0
  0
LINE
  5
14DE
330
762
100
AcDbEntity
  8
0
100
AcDbLine
 10
4.03880696
 20
-12.41420062
 30
0.0
 11
3.43134797
 21
-11.80674163
 31
0.0
  0
LINE
  5
14DF
330
762
100
AcDbEntity
  8
0
100
AcDbLine
 10
3.58926046
 20
-12.1532395
 30
0.0
 11
3.3051945
 21
-11.86917354
 31
0.0
  0
ARC
  5
14E0
330
762
100
AcDbEntity
  8
0
100
AcDbCircle
 10
3.55389673
 20
-12.21304301
 30
0.0
 40
0.4243807411193908
100
AcDbArc
 50
17.66957755
 51
180.23615984
  0
ARC
  5
14E1
330
762
100
AcDbEntity
  8
0
100
AcDbCircle
 10
3.53692651
 20
-12.40242625
 30
0.0
 40
0.2546230173110999
100
AcDbArc
 50
351.66260169
 51
156.3381551
  0
LINE
  5
14E2
330
762
100
AcDbEntity
  8
0
100
AcDbLine
 10
3.97555512
 20
-12.91670492
 30
0.0
 11
3.38134767
 21
-12.32249746
 31
0.0
  0
LINE
  5
14E3
330
762
100
AcDbEntity
  8
0
100
AcDbLine
 10
3.71115379
 20
-12.84088897
 30
0.0
 11
3.12951959
 21
-12.25925477
 31
0.0
  0
LINE
  5
14E4
330
762
100
AcDbEntity
  8
0
100
AcDbLine
 10
3.30370994
 20
-12.3002357
 30
0.0
 11
3.78885857
 21
-12.43934672
 31
0.0
  0
LINE
  5
14E5
330
762
100
AcDbEntity
  8
0
100
AcDbLine
 10
3.58920545
 20
-11.58742836
 30
0.0
 11
3.12951959
 21
-11.12774249
 31
0.0
  0
LINE
  5
14E6
330
762
100
AcDbEntity
  8
0
100
AcDbLine
 10
3.85360731
 20
-11.66324483
 30
0.0
 11
3.32129567
 21
-11.1309332
 31
0.0
  0
LINE
  5
14E7
330
762
100
AcDbEntity
  8
0
100
AcDbLine
 10
3.66125072
 20
-11.09371749
 30
0.0
 11
3.13222592
 21
-10.56469268
 31
0.0
  0
LINE
  5
14E8
330
762
100
AcDbEntity
  8
0
100
AcDbLine
 10
4.24318994
 20
-10.82135722
 30
0.0
 11
3.44535272
 21
-10.59257975
 31
0.0
  0
LINE
  5
14E9
330
762
100
AcDbEntity
  8
0
100
AcDbLine
 10
3.42243265
 20
-12.17499707
 30
0.0
 11
3.21076268
 21
-11.9633271
 31
0.0
  0
LINE
  5
14EA
330
762
100
AcDbEntity
  8
0
100
AcDbLine
 10
3.32712506
 20
-13.39978713
 30
0.0
 11
3.12952007
 21
-13.20218213
 31
0.0
  0
LINE
  5
14EB
330
762
100
AcDbEntity
  8
0
100
AcDbLine
 10
3.29927301
 20
-13.1833497
 30
0.0
 11
3.12951959
 21
-13.01359628
 31
0.0
  0
LINE
  5
14EC
330
762
100
AcDbEntity
  8
0
100
AcDbLine
 10
3.29927301
 20
-12.99476432
 30
0.0
 11
3.16553769
 21
-12.861029
 31
0.0
  0
LINE
  5
14ED
330
762
100
AcDbEntity
  8
0
100
AcDbLine
 10
3.12951959
 20
-12.76240886
 30
0.0
 11
3.12951959
 21
-12.21479221
 31
0.0
  0
LINE
  5
14EE
330
762
100
AcDbEntity
  8
0
100
AcDbLine
 10
3.29927301
 20
-12.80617894
 30
0.0
 11
3.12951959
 21
-12.63642552
 31
0.0
  0
LINE
  5
14EF
330
762
100
AcDbEntity
  8
0
100
AcDbLine
 10
3.44675247
 20
-12.76507302
 30
0.0
 11
3.12951959
 21
-12.44784015
 31
0.0
  0
LINE
  5
14F0
330
762
100
AcDbEntity
  8
0
100
AcDbLine
 10
3.12951959
 20
-12.76240886
 30
0.0
 11
3.29927301
 21
-12.81108287
 31
0.0
  0
LINE
  5
14F1
330
762
100
AcDbEntity
  8
0
100
AcDbLine
 10
3.29927301
 20
-12.81108287
 30
0.0
 11
3.29927301
 21
-12.72278392
 31
0.0
  0
LINE
  5
14F2
330
762
100
AcDbEntity
  8
0
100
AcDbLine
 10
3.12951959
 20
-13.20126323
 30
0.0
 11
3.12951959
 21
-12.8507014
 31
0.0
  0
LINE
  5
14F3
330
762
100
AcDbEntity
  8
0
100
AcDbLine
 10
3.29927301
 20
-13.20126323
 30
0.0
 11
3.29927301
 21
-12.89937541
 31
0.0
  0
LINE
  5
14F4
330
762
100
AcDbEntity
  8
0
100
AcDbLine
 10
3.12951959
 20
-12.8507014
 30
0.0
 11
3.29927301
 21
-12.89937541
 31
0.0
  0
LINE
  5
14F5
330
762
100
AcDbEntity
  8
0
100
AcDbLine
 10
3.32307391
 20
-12.2642237
 30
0.0
 11
3.14800252
 21
-12.08915231
 31
0.0
  0
ARC
  5
14F6
330
762
100
AcDbEntity
  8
0
100
AcDbCircle
 10
4.2329104
 20
-12.40774546
 30
0.0
 40
0.4243771362304749
100
AcDbArc
 50
0.0
 51
130.32984065
  0
LINE
  5
14F7
330
762
100
AcDbEntity
  8
0
100
AcDbLine
 10
4.67578393
 20
-13.80551911
 30
0.0
 11
4.55562946
 21
-13.68536464
 31
0.0
  0
LINE
  5
14F8
330
762
100
AcDbEntity
  8
0
100
AcDbLine
 10
4.65728774
 20
-12.46692526
 30
0.0
 11
4.17737966
 21
-11.98701718
 31
0.0
  0
LINE
  5
14F9
330
762
100
AcDbEntity
  8
0
100
AcDbLine
 10
4.65728774
 20
-12.65551064
 30
0.0
 11
4.03442385
 21
-12.03264676
 31
0.0
  0
LINE
  5
14FA
330
762
100
AcDbEntity
  8
0
100
AcDbLine
 10
4.65728774
 20
-13.0326814
 30
0.0
 11
4.17454959
 21
-12.54994325
 31
0.0
  0
LINE
  5
14FB
330
762
100
AcDbEntity
  8
0
100
AcDbLine
 10
4.65728774
 20
-12.84409602
 30
0.0
 11
4.43894701
 21
-12.62575529
 31
0.0
  0
LINE
  5
14FC
330
762
100
AcDbEntity
  8
0
100
AcDbLine
 10
4.62546991
 20
-12.24652205
 30
0.0
 11
4.39413381
 21
-12.01518596
 31
0.0
  0
LINE
  5
14FD
330
762
100
AcDbEntity
  8
0
100
AcDbLine
 10
4.6468129
 20
-11.89069429
 30
0.0
 11
4.11449816
 21
-11.35837955
 31
0.0
  0
LINE
  5
14FE
330
762
100
AcDbEntity
  8
0
100
AcDbLine
 10
4.65728774
 20
-11.71258375
 30
0.0
 11
4.37889899
 21
-11.434195
 31
0.0
  0
LINE
  5
14FF
330
762
100
AcDbEntity
  8
0
100
AcDbLine
 10
4.64322452
 20
-10.75559364
 30
0.0
 11
4.44393123
 21
-10.55630034
 31
0.0
  0
ARC
  5
1500
330
762
100
AcDbEntity
  8
0
100
AcDbCircle
 10
4.02071863
 20
-13.20126323
 30
0.0
 40
0.7214456176757899
100
AcDbArc
 50
180.0
 51
0.0
  0
LINE
  5
1501
330
762
100
AcDbEntity
  8
0
100
AcDbLine
 10
4.65728774
 20
-13.11218882
 30
0.0
 11
3.29927301
 21
-12.72278392
 31
0.0
  0
LINE
  5
1502
330
762
100
AcDbEntity
  8
0
100
AcDbLine
 10
4.65728774
 20
-11.5140214
 30
0.0
 11
3.12951959
 21
-11.07594249
 31
0.0
  0
LINE
  5
1503
330
762
100
AcDbEntity
  8
0
100
AcDbLine
 10
3.31624323
 20
-11.50915721
 30
0.0
 11
4.65728774
 21
-11.89369792
 31
0.0
  0
LINE
  5
1504
330
762
100
AcDbEntity
  8
0
100
AcDbLine
 10
4.65728774
 20
-11.5140214
 30
0.0
 11
3.12951959
 21
-11.07594249
 31
0.0
1001
HATCH_DISTANCE
1040
1.0
1001
HATCH_DISPLAY
1070
     0
1001
HATCH_TYPE
1070
     7
  0
LINE
  5
1505
330
762
100
AcDbEntity
  8
0
100
AcDbLine
 10
3.31624323
 20
-11.50915721
 30
0.0
 11
4.65728774
 21
-11.89369792
 31
0.0
1001
HATCH_DISTANCE
1040
1.0
1001
HATCH_DISPLAY
1070
     0
1001
HATCH_TYPE
1070
     7
  0
LINE
  5
1506
330
762
100
AcDbEntity
  8
0
100
AcDbLine
 10
4.65728774
 20
-11.5140214
 30
0.0
 11
3.12951959
 21
-11.07594249
 31
0.0
  0
LINE
  5
1507
330
762
100
AcDbEntity
  8
0
100
AcDbLine
 10
4.65728774
 20
-11.89369792
 30
0.0
 11
3.31624323
 21
-11.50915721
 31
0.0
  0
LINE
  5
1508
330
762
100
AcDbEntity
  8
0
100
AcDbLine
 10
4.91191786
 20
-10.26994546
 30
0.0
 11
4.74216444
 21
-10.10019205
 31
0.0
  0
LINE
  5
1509
330
762
100
AcDbEntity
  8
0
100
AcDbLine
 10
4.91191786
 20
-10.08136009
 30
0.0
 11
4.74216444
 21
-9.91160667
 31
0.0
  0
LINE
  5
150A
330
762
100
AcDbEntity
  8
0
100
AcDbLine
 10
3.32108819
 20
-9.93138224
 30
0.0
 11
3.32108819
 21
-9.93138224
 31
0.0
  0
LINE
  5
150B
330
762
100
AcDbEntity
  8
0
100
AcDbLine
 10
3.15896753
 20
-9.98250437
 30
0.0
 11
3.32108819
 21
-9.93138224
 31
0.0
  0
LINE
  5
150C
330
762
100
AcDbEntity
  8
0
100
AcDbLine
 10
3.15896753
 20
-9.98250437
 30
0.0
 11
3.15896753
 21
-9.98250437
 31
0.0
  0
LINE
  5
150D
330
762
100
AcDbEntity
  8
0
100
AcDbLine
 10
3.32108819
 20
-9.93138224
 30
0.0
 11
3.15896753
 21
-9.98250437
 31
0.0
  0
LINE
  5
150E
330
762
100
AcDbEntity
  8
0
100
AcDbLine
 10
3.32108819
 20
-9.93138224
 30
0.0
 11
3.32108819
 21
-9.93138224
 31
0.0
1001
HATCH_DISTANCE
1040
1.0
1001
HATCH_DISPLAY
1070
     0
1001
HATCH_TYPE
1070
     7
  0
LINE
  5
150F
330
762
100
AcDbEntity
  8
0
100
AcDbLine
 10
3.15896753
 20
-9.98250437
 30
0.0
 11
3.32108819
 21
-9.93138224
 31
0.0
1001
HATCH_DISTANCE
1040
1.0
1001
HATCH_DISPLAY
1070
     0
1001
HATCH_TYPE
1070
     7
  0
LINE
  5
1510
330
762
100
AcDbEntity
  8
0
100
AcDbLine
 10
3.15896753
 20
-9.98250437
 30
0.0
 11
3.15896753
 21
-9.98250437
 31
0.0
1001
HATCH_DISTANCE
1040
1.0
1001
HATCH_DISPLAY
1070
     0
1001
HATCH_TYPE
1070
     7
  0
LINE
  5
1511
330
762
100
AcDbEntity
  8
0
100
AcDbLine
 10
3.32108819
 20
-9.93138224
 30
0.0
 11
3.15896753
 21
-9.98250437
 31
0.0
1001
HATCH_DISTANCE
1040
1.0
1001
HATCH_DISPLAY
1070
     0
1001
HATCH_TYPE
1070
     7
  0
LINE
  5
1512
330
762
100
AcDbEntity
  8
0
100
AcDbLine
 10
3.32108819
 20
-9.93138224
 30
0.0
 11
3.32108819
 21
-9.93138224
 31
0.0
  0
LINE
  5
1513
330
762
100
AcDbEntity
  8
0
100
AcDbLine
 10
3.15896753
 20
-9.98250437
 30
0.0
 11
3.32108819
 21
-9.93138224
 31
0.0
  0
LINE
  5
1514
330
762
100
AcDbEntity
  8
0
100
AcDbLine
 10
3.15896753
 20
-9.98250437
 30
0.0
 11
3.15896753
 21
-9.98250437
 31
0.0
  0
LINE
  5
1515
330
762
100
AcDbEntity
  8
0
100
AcDbLine
 10
3.32108819
 20
-9.93138224
 30
0.0
 11
3.15896753
 21
-9.98250437
 31
0.0
  0
LINE
  5
1516
330
762
100
AcDbEntity
  8
0
100
AcDbLine
 10
3.32108819
 20
-9.93138224
 30
0.0
 11
3.32108819
 21
-9.93138224
 31
0.0
1001
HATCH_DISTANCE
1040
1.0
1001
HATCH_DISPLAY
1070
     0
1001
HATCH_TYPE
1070
     7
  0
LINE
  5
1517
330
762
100
AcDbEntity
  8
0
100
AcDbLine
 10
3.15896753
 20
-9.98250437
 30
0.0
 11
3.32108819
 21
-9.93138224
 31
0.0
1001
HATCH_DISTANCE
1040
1.0
1001
HATCH_DISPLAY
1070
     0
1001
HATCH_TYPE
1070
     7
  0
LINE
  5
1518
330
762
100
AcDbEntity
  8
0
100
AcDbLine
 10
3.15896753
 20
-9.98250437
 30
0.0
 11
3.15896753
 21
-9.98250437
 31
0.0
1001
HATCH_DISTANCE
1040
1.0
1001
HATCH_DISPLAY
1070
     0
1001
HATCH_TYPE
1070
     7
  0
LINE
  5
1519
330
762
100
AcDbEntity
  8
0
100
AcDbLine
 10
3.32108819
 20
-9.93138224
 30
0.0
 11
3.15896753
 21
-9.98250437
 31
0.0
1001
HATCH_DISTANCE
1040
1.0
1001
HATCH_DISPLAY
1070
     0
1001
HATCH_TYPE
1070
     7
  0
LINE
  5
151A
330
762
100
AcDbEntity
  8
0
100
AcDbLine
 10
3.32180078
 20
-10.37709679
 30
0.0
 11
3.19469057
 21
-10.24998658
 31
0.0
  0
LINE
  5
151B
330
762
100
AcDbEntity
  8
0
100
AcDbLine
 10
3.40210299
 20
-10.26881362
 30
0.0
 11
3.19380549
 21
-10.06051613
 31
0.0
  0
LINE
  5
151C
330
762
100
AcDbEntity
  8
0
100
AcDbLine
 10
3.354854
 20
-10.03297926
 30
0.0
 11
3.33718003
 21
-10.01530528
 31
0.0
  0
LINE
  5
151D
330
762
100
AcDbEntity
  8
0
100
AcDbLine
 10
3.34661401
 20
-10.01233043
 30
0.0
 11
3.18449335
 21
-10.06345256
 31
0.0
  0
ARC
  5
151E
330
762
100
AcDbEntity
  8
0
100
AcDbCircle
 10
4.02071863
 20
-9.75529063
 30
0.0
 40
0.8911994361877553
100
AcDbArc
 50
200.22964506
 51
208.57168892
  0
LINE
  5
151F
330
762
100
AcDbEntity
  8
0
100
AcDbLine
 10
3.32108819
 20
-9.93138224
 30
0.0
 11
3.15896753
 21
-9.98250437
 31
0.0
  0
LINE
  5
1520
330
762
100
AcDbEntity
  8
0
100
AcDbLine
 10
4.56907889
 20
-10.30427725
 30
0.0
 11
4.40993762
 21
-10.14513598
 31
0.0
  0
ARC
  5
1521
330
762
100
AcDbEntity
  8
0
100
AcDbCircle
 10
4.02071863
 20
-9.75529063
 30
0.0
 40
0.7214476203918543
100
AcDbArc
 50
200.8721834
 51
222.54194894
  0
LINE
  5
1522
330
762
100
AcDbEntity
  8
0
100
AcDbLine
 10
4.65728774
 20
-10.21606273
 30
0.0
 11
3.79155023
 21
-9.96781566
 31
0.0
  0
LINE
  5
1523
330
762
100
AcDbEntity
  8
0
100
AcDbLine
 10
4.5577159
 20
-10.31564097
 30
0.0
 11
4.65728774
 21
-10.21606273
 31
0.0
  0
LINE
  5
1524
330
762
100
AcDbEntity
  8
0
100
AcDbLine
 10
3.80461742
 20
-14.06586486
 30
0.0
 11
3.15611699
 21
-13.41736444
 31
0.0
  0
LINE
  5
1525
330
762
100
AcDbEntity
  8
0
100
AcDbLine
 10
4.01979972
 20
-14.09246179
 30
0.0
 11
3.82219473
 21
-13.8948568
 31
0.0
  0
LINE
  5
1526
330
762
100
AcDbEntity
  8
0
100
AcDbLine
 10
4.91191786
 20
-10.45853084
 30
0.0
 11
4.74216444
 21
-10.28877743
 31
0.0
  0
LINE
  5
1527
330
762
100
AcDbEntity
  8
0
100
AcDbLine
 10
3.96130365
 20
-10.45084352
 30
0.0
 11
3.79155023
 21
-10.28109011
 31
0.0
  0
LINE
  5
1528
330
762
100
AcDbEntity
  8
0
100
AcDbLine
 10
4.11191078
 20
-10.41286527
 30
0.0
 11
3.79155023
 21
-10.09250473
 31
0.0
  0
LINE
  5
1529
330
762
100
AcDbEntity
  8
0
100
AcDbLine
 10
4.38603948
 20
-10.4984086
 30
0.0
 11
3.8811345
 21
-9.99350362
 31
0.0
  0
LINE
  5
152A
330
762
100
AcDbEntity
  8
0
100
AcDbLine
 10
3.79155023
 20
-10.46227824
 30
0.0
 11
3.79155023
 21
-9.96781566
 31
0.0
  0
LINE
  5
152B
330
762
100
AcDbEntity
  8
0
100
AcDbLine
 10
3.96130365
 20
-10.51095226
 30
0.0
 11
3.96130365
 21
-10.36967906
 31
0.0
  0
LINE
  5
152C
330
762
100
AcDbEntity
  8
0
100
AcDbLine
 10
4.341448
 20
-10.47868449
 30
0.0
 11
3.96130365
 21
-10.36967906
 31
0.0
  0
LINE
  5
152D
330
762
100
AcDbEntity
  8
0
100
AcDbLine
 10
3.91244509
 20
-11.15632648
 30
0.0
 11
3.14337148
 21
-10.38725287
 31
0.0
  0
ARC
  5
152E
330
762
100
AcDbEntity
  8
0
100
AcDbCircle
 10
3.49448816
 20
-10.42124339
 30
0.0
 40
0.1782410037517573
100
AcDbArc
 50
91.71012138
 51
253.99839835
  0
ARC
  5
152F
330
762
100
AcDbEntity
  8
0
100
AcDbCircle
 10
3.68121179
 20
-10.51010631
 30
0.0
 40
0.5516930007934647
100
AcDbArc
 50
143.4440122
 51
254.00018439
  0
LINE
  5
1530
330
762
100
AcDbEntity
  8
0
100
AcDbLine
 10
4.65471349
 20
-10.57849724
 30
0.0
 11
4.14553606
 21
-10.0693198
 31
0.0
  0
ARC
  5
1531
330
762
100
AcDbEntity
  8
0
100
AcDbCircle
 10
4.10559534
 20
-10.63179454
 30
0.0
 40
0.5516986083984456
100
AcDbArc
 50
253.9997507
 51
34.96387329
  0
LINE
  5
1532
330
762
100
AcDbEntity
  8
0
100
AcDbLine
 10
4.91191786
 20
-11.96721387
 30
0.0
 11
4.74216444
 21
-11.79746045
 31
0.0
  0
LINE
  5
1533
330
762
100
AcDbEntity
  8
0
100
AcDbLine
 10
4.7591166
 20
-13.70026639
 30
0.0
 11
4.63631362
 21
-13.57746342
 31
0.0
  0
LINE
  5
1534
330
762
100
AcDbEntity
  8
0
100
AcDbLine
 10
4.8274364
 20
-13.58000082
 30
0.0
 11
4.69779633
 21
-13.45036074
 31
0.0
  0
LINE
  5
1535
330
762
100
AcDbEntity
  8
0
100
AcDbLine
 10
4.87861908
 20
-13.44259812
 30
0.0
 11
4.73545389
 21
-13.29943293
 31
0.0
  0
LINE
  5
1536
330
762
100
AcDbEntity
  8
0
100
AcDbLine
 10
4.90811453
 20
-13.28350819
 30
0.0
 11
4.74216444
 21
-13.11755811
 31
0.0
  0
LINE
  5
1537
330
762
100
AcDbEntity
  8
240
100
AcDbLine
 10
11.0
 20
-11.7
 30
0.0
 11
11.0
 21
-15.15
 31
0.0
  0
LINE
  5
1538
330
762
100
AcDbEntity
  8
240
100
AcDbLine
 10
10.0
 20
-11.7
 30
0.0
 11
10.0
 21
-15.0
 31
0.0
  0
LINE
  5
1539
330
762
100
AcDbEntity
  8
240
100
AcDbLine
 10
11.0
 20
-11.7
 30
0.0
 11
10.0
 21
-11.7
 31
0.0
  0
LINE
  5
153A
330
762
100
AcDbEntity
  8
240
100
AcDbLine
 10
13.25980762
 20
-15.0
 30
0.0
 11
13.0
 21
-15.15
 31
0.0
  0
LINE
  5
153B
330
762
100
AcDbEntity
  8
240
100
AcDbLine
 10
-19.0
 20
15.0
 30
0.0
 11
-14.5
 21
15.0
 31
0.0
  0
LINE
  5
153C
330
762
100
AcDbEntity
  8
240
100
AcDbLine
 10
-38.0
 20
12.5
 30
0.0
 11
-35.5
 21
15.0
 31
0.0
  0
LINE
  5
153D
330
762
100
AcDbEntity
  8
240
100
AcDbLine
 10
-46.0
 20
12.5
 30
0.0
 11
-38.0
 21
12.5
 31
0.0
  0
LINE
  5
153E
330
762
100
AcDbEntity
  8
240
100
AcDbLine
 10
-54.0
 20
12.5
 30
0.0
 11
-46.0
 21
12.5
 31
0.0
  0
LINE
  5
153F
330
762
100
AcDbEntity
  8
241
100
AcDbLine
 10
-19.0
 20
13.75
 30
0.0
 11
-19.0
 21
0.0
 31
0.0
  0
LINE
  5
1540
330
762
100
AcDbEntity
  8
241
100
AcDbLine
 10
-21.5
 20
13.75
 30
0.0
 11
-21.5
 21
0.0
 31
0.0
  0
LINE
  5
1541
330
762
100
AcDbEntity
  8
241
100
AcDbLine
 10
-29.5
 20
13.75
 30
0.0
 11
-29.5
 21
0.0
 31
0.0
  0
LINE
  5
1542
330
762
100
AcDbEntity
  8
241
100
AcDbLine
 10
-32.0
 20
13.75
 30
0.0
 11
-32.0
 21
0.0
 31
0.0
  0
LINE
  5
1543
330
762
100
AcDbEntity
  8
245
100
AcDbLine
 10
-27.4999651
 20
-5.13030215
 30
0.0
 11
-23.5000349
 21
-5.13030215
 31
0.0
  0
ELLIPSE
  5
1544
330
762
100
AcDbEntity
  8
241
100
AcDbEllipse
 10
-25.5000349
 20
-5.08449496
 30
0.0
 11
-2.000524505802109
 21
0.0
 31
0.0
210
0.0
220
0.0
230
1.0
 40
0.93944625
 41
0.0
 42
6.283185307179584
  0
LINE
  5
1545
330
762
100
AcDbEntity
  8
245
100
AcDbLine
 10
-25.5000349
 20
-3.20510972
 30
0.0
 11
-25.5000349
 21
-6.96388021
 31
0.0
  0
LINE
  5
1546
330
762
100
AcDbEntity
  8
240
100
AcDbLine
 10
-29.5
 20
15.0
 30
0.0
 11
-21.5
 21
15.0
 31
0.0
  0
ARC
  5
1547
330
762
100
AcDbEntity
  8
240
100
AcDbCircle
 10
-30.75
 20
13.75
 30
0.0
 40
1.24999999999827
100
AcDbArc
 50
0.0
 51
180.0
  0
LINE
  5
1548
330
762
100
AcDbEntity
  8
240
100
AcDbLine
 10
-32.0
 20
13.75
 30
0.0
 11
-32.0
 21
15.0
 31
0.0
  0
LINE
  5
1549
330
762
100
AcDbEntity
  8
240
100
AcDbLine
 10
-35.5
 20
15.0
 30
0.0
 11
-32.0
 21
15.0
 31
0.0
  0
LINE
  5
154A
330
762
100
AcDbEntity
  8
240
100
AcDbLine
 10
-29.5
 20
13.75
 30
0.0
 11
-29.5
 21
15.0
 31
0.0
  0
ARC
  5
154B
330
762
100
AcDbEntity
  8
240
100
AcDbCircle
 10
-20.25
 20
13.75
 30
0.0
 40
1.249999999998089
100
AcDbArc
 50
0.0
 51
180.0
  0
LINE
  5
154C
330
762
100
AcDbEntity
  8
240
100
AcDbLine
 10
-21.5
 20
13.75
 30
0.0
 11
-21.5
 21
15.0
 31
0.0
  0
LINE
  5
154D
330
762
100
AcDbEntity
  8
240
100
AcDbLine
 10
-19.0
 20
13.75
 30
0.0
 11
-19.0
 21
15.0
 31
0.0
  0
LINE
  5
154E
330
762
100
AcDbEntity
  8
241
100
AcDbLine
 10
13.0
 20
15.15
 30
0.0
 11
13.0
 21
0.0
 31
0.0
  0
LINE
  5
154F
330
762
100
AcDbEntity
  8
240
100
AcDbLine
 10
13.25980762
 20
15.0
 30
0.0
 11
13.0
 21
15.15
 31
0.0
  0
LINE
  5
1550
330
762
100
AcDbEntity
  8
240
100
AcDbLine
 10
11.0
 20
11.7
 30
0.0
 11
11.0
 21
15.15
 31
0.0
  0
LINE
  5
1551
330
762
100
AcDbEntity
  8
240
100
AcDbLine
 10
-13.0
 20
15.5
 30
0.0
 11
-13.0
 21
14.7
 31
0.0
  0
ARC
  5
1552
330
762
100
AcDbEntity
  8
240
100
AcDbCircle
 10
1.97309836
 20
16.0
 30
0.0
 40
1.0
100
AcDbArc
 50
194.99999998
 51
270.0
  0
LINE
  5
1553
330
762
100
AcDbEntity
  8
241
100
AcDbLine
 10
1.20577137
 20
15.35874397
 30
0.0
 11
1.20577137
 21
0.0
 31
0.0
  0
LINE
  5
1554
330
762
100
AcDbEntity
  8
241
100
AcDbLine
 10
-6.12626129
 20
19.5
 30
0.0
 11
-6.12626129
 21
0.0
 31
0.0
  0
LINE
  5
1555
330
762
100
AcDbEntity
  8
241
  6
CONTINUOUS
100
AcDbLine
 10
-7.5
 20
19.00000001
 30
0.0
 11
-7.5
 21
0.0
 31
0.0
  0
LINE
  5
1556
330
762
100
AcDbEntity
  8
241
100
AcDbLine
 10
0.0
 20
19.14125603
 30
0.0
 11
0.0
 21
0.0
 31
0.0
  0
LINE
  5
1557
330
762
100
AcDbEntity
  8
241
100
AcDbLine
 10
-2.0
 20
18.25
 30
0.0
 11
-2.0
 21
0.0
 31
0.0
  0
LINE
  5
1558
330
762
100
AcDbEntity
  8
241
100
AcDbLine
 10
-4.5
 20
18.25
 30
0.0
 11
-4.5
 21
0.0
 31
0.0
  0
LINE
  5
1559
330
762
100
AcDbEntity
  8
240
100
AcDbLine
 10
10.0
 20
15.0
 30
0.0
 11
1.97309836
 21
15.0
 31
0.0
  0
LINE
  5
155A
330
762
100
AcDbEntity
  8
241
100
AcDbLine
 10
-14.5
 20
15.0
 30
0.0
 11
-14.5
 21
0.0
 31
0.0
  0
LINE
  5
155B
330
762
100
AcDbEntity
  8
240
100
AcDbLine
 10
-14.2
 20
14.7
 30
0.0
 11
-13.0
 21
14.7
 31
0.0
  0
LINE
  5
155C
330
762
100
AcDbEntity
  8
240
100
AcDbLine
 10
-14.2
 20
14.7
 30
0.0
 11
-14.5
 21
15.0
 31
0.0
  0
LINE
  5
155D
330
762
100
AcDbEntity
  8
242
  6
HIDDEN2
100
AcDbLine
 10
3.0
 20
7.84888527
 30
0.0
 11
13.0
 21
0.0
 31
0.0
  0
LINE
  5
155E
330
762
100
AcDbEntity
  8
242
  6
HIDDEN2
100
AcDbLine
 10
3.0
 20
0.0
 30
0.0
 11
13.0
 21
7.84888527
 31
0.0
  0
LINE
  5
155F
330
762
100
AcDbEntity
  8
241
  6
HIDDEN2
100
AcDbLine
 10
3.0
 20
7.84888527
 30
0.0
 11
3.0
 21
0.0
 31
0.0
  0
LINE
  5
1560
330
762
100
AcDbEntity
  8
241
100
AcDbLine
 10
10.0
 20
11.7
 30
0.0
 11
10.0
 21
0.0
 31
0.0
  0
LINE
  5
1561
330
762
100
AcDbEntity
  8
241
100
AcDbLine
 10
11.0
 20
11.7
 30
0.0
 11
11.0
 21
0.0
 31
0.0
  0
LINE
  5
1562
330
762
100
AcDbEntity
  8
241
100
AcDbLine
 10
14.2
 20
15.0
 30
0.0
 11
14.2
 21
0.0
 31
0.0
  0
LINE
  5
1563
330
762
100
AcDbEntity
  8
241
  6
HIDDEN2
100
AcDbLine
 10
18.0
 20
7.75
 30
0.0
 11
18.0
 21
0.0
 31
0.0
  0
LINE
  5
1564
330
762
100
AcDbEntity
  8
241
  6
HIDDEN2
100
AcDbLine
 10
13.0
 20
7.84888527
 30
0.0
 11
13.0
 21
0.0
 31
0.0
  0
LINE
  5
1565
330
762
100
AcDbEntity
  8
241
  6
HIDDEN2
100
AcDbLine
 10
13.0
 20
7.14177849
 30
0.0
 11
13.0
 21
0.0
 31
0.0
  0
LINE
  5
1566
330
762
100
AcDbEntity
  8
0
100
AcDbLine
 10
3.51026646
 20
-9.24546482
 30
0.0
 11
3.39023265
 21
-9.125431
 31
0.0
  0
LINE
  5
1567
330
762
100
AcDbEntity
  8
0
100
AcDbLine
 10
3.35794327
 20
-9.47031239
 30
0.0
 11
3.23062526
 21
-9.34299438
 31
0.0
  0
LINE
  5
1568
330
762
100
AcDbEntity
  8
0
100
AcDbLine
 10
3.42482281
 20
-9.34860654
 30
0.0
 11
3.30308179
 21
-9.22686553
 31
0.0
  0
LINE
  5
1569
330
762
100
AcDbEntity
  8
0
100
AcDbLine
 10
3.61329038
 20
-9.15990336
 30
0.0
 11
3.49157238
 21
-9.03818536
 31
0.0
  0
LINE
  5
156A
330
762
100
AcDbEntity
  8
0
100
AcDbLine
 10
3.73486482
 20
-9.09289243
 30
0.0
 11
3.60759958
 21
-8.96562718
 31
0.0
  0
LINE
  5
156B
330
762
100
AcDbEntity
  8
0
100
AcDbLine
 10
3.87854951
 20
-9.04799174
 30
0.0
 11
3.74001187
 21
-8.9094541
 31
0.0
  0
LINE
  5
156C
330
762
100
AcDbEntity
  8
0
100
AcDbLine
 10
4.05374448
 20
-9.03460133
 30
0.0
 11
3.89250569
 21
-8.87336254
 31
0.0
  0
LINE
  5
156D
330
762
100
AcDbEntity
  8
0
100
AcDbLine
 10
4.29626901
 20
-9.08854048
 30
0.0
 11
4.07337721
 21
-8.86564868
 31
0.0
  0
LINE
  5
156E
330
762
100
AcDbEntity
  8
0
100
AcDbLine
 10
4.86435598
 20
-9.46804207
 30
0.0
 11
4.30796719
 21
-8.91165328
 31
0.0
  0
LINE
  5
156F
330
762
100
AcDbEntity
  8
0
100
AcDbLine
 10
3.31321075
 20
-9.61416524
 30
0.0
 11
3.17457039
 21
-9.47552488
 31
0.0
  0
LINE
  5
1570
330
762
100
AcDbEntity
  8
241
  6
HIDDEN2
100
AcDbLine
 10
3.0
 20
7.84888527
 30
0.0
 11
13.0
 21
7.84888527
 31
0.0
  0
LINE
  5
1571
330
762
100
AcDbEntity
  8
240
100
AcDbLine
 10
10.0
 20
11.7
 30
0.0
 11
10.0
 21
15.0
 31
0.0
  0
LINE
  5
1572
330
762
100
AcDbEntity
  8
240
100
AcDbLine
 10
11.0
 20
11.7
 30
0.0
 11
10.0
 21
11.7
 31
0.0
  0
LINE
  5
1573
330
762
100
AcDbEntity
  8
241
  6
HIDDEN2
100
AcDbLine
 10
13.0
 20
7.75
 30
0.0
 11
18.0
 21
7.75
 31
0.0
  0
LINE
  5
1574
330
762
100
AcDbEntity
  8
240
100
AcDbLine
 10
-7.5
 20
19.00000001
 30
0.0
 11
-6.12626128
 21
19.5
 31
0.0
  0
LINE
  5
1575
330
762
100
AcDbEntity
  8
240
100
AcDbLine
 10
-7.50000001
 20
19.0
 30
0.0
 11
-13.5
 21
19.0
 31
0.0
  0
LINE
  5
1576
330
762
100
AcDbEntity
  8
241
  6
CONTINUOUS
100
AcDbLine
 10
-7.5
 20
15.2
 30
0.0
 11
-13.0
 21
15.2
 31
0.0
  0
LINE
  5
1577
330
762
100
AcDbEntity
  8
240
100
AcDbLine
 10
-13.0
 20
15.5
 30
0.0
 11
-13.5
 21
16.0
 31
0.0
  0
LINE
  5
1578
330
762
100
AcDbEntity
  8
240
100
AcDbLine
 10
-13.5
 20
19.0
 30
0.0
 11
-13.5
 21
16.0
 31
0.0
  0
ARC
  5
1579
330
762
100
AcDbEntity
  8
240
100
AcDbCircle
 10
-3.25
 20
18.25
 30
0.0
 40
1.250000000000339
100
AcDbArc
 50
0.0
 51
180.0
  0
LINE
  5
157A
330
762
100
AcDbEntity
  8
240
100
AcDbLine
 10
-4.5
 20
18.25
 30
0.0
 11
-4.5
 21
19.5
 31
0.0
  0
LINE
  5
157B
330
762
100
AcDbEntity
  8
240
100
AcDbLine
 10
-4.5
 20
19.5
 30
0.0
 11
-6.12626129
 21
19.5
 31
0.0
  0
LINE
  5
157C
330
762
100
AcDbEntity
  8
240
100
AcDbLine
 10
0.19859884
 20
18.75881905
 30
0.0
 11
1.00717253
 21
15.74118096
 31
0.0
  0
LINE
  5
157D
330
762
100
AcDbEntity
  8
240
100
AcDbLine
 10
-0.63567449
 20
19.5
 30
0.0
 11
-2.0
 21
19.5
 31
0.0
  0
LINE
  5
157E
330
762
100
AcDbEntity
  8
240
100
AcDbLine
 10
-2.0
 20
18.25
 30
0.0
 11
-2.0
 21
19.5
 31
0.0
  0
LINE
  5
157F
330
762
100
AcDbEntity
  8
240
100
AcDbLine
 10
-0.50850794
 20
19.46592583
 30
0.0
 11
-0.63567449
 21
19.5
 31
0.0
  0
ARC
  5
1580
330
762
100
AcDbEntity
  8
240
100
AcDbCircle
 10
-0.76732699
 20
18.5
 30
0.0
 40
1.0
100
AcDbArc
 50
15.0
 51
75.0
1001
GENIUS_GENOBJ-N-FIL_13
1002
{
1000
OWNER
1000
GEN
1002
}
1001
GENIUS_GENODEF_13
1002
{
1000
HIER
1070
     0
1002
}
1002
{
1000
MANEDIT
1070
     0
1002
}
1002
{
1000
NOSEL
1070
     0
1002
}
1002
{
1000
BEHIND
1070
     0
1002
}
1002
{
1000
OTHER
1070
     0
1002
}
1002
{
1000
REACTOR
1002
}
  0
LINE
  5
1581
330
762
100
AcDbEntity
  8
240
100
AcDbLine
 10
11.0
 20
15.15
 30
0.0
 11
13.0
 21
15.15
 31
0.0
  0
LINE
  5
1582
330
762
100
AcDbEntity
  8
240
100
AcDbLine
 10
35.0
 20
-14.0
 30
0.0
 11
35.0
 21
0.0
 31
0.0
  0
ARC
  5
1583
330
762
100
AcDbEntity
  8
240
100
AcDbCircle
 10
34.0
 20
-14.0
 30
0.0
 40
1.0
100
AcDbArc
 50
270.0
 51
0.0
1001
GENIUS_GENOBJ-N-FIL_13
1002
{
1000
OWNER
1000
GEN
1002
}
1001
GENIUS_GENODEF_13
1002
{
1000
HIER
1070
     0
1002
}
1002
{
1000
MANEDIT
1070
     0
1002
}
1002
{
1000
NOSEL
1070
     0
1002
}
1002
{
1000
BEHIND
1070
     0
1002
}
1002
{
1000
OTHER
1070
     0
1002
}
1002
{
1000
REACTOR
1002
}
  0
ARC
  5
1584
330
762
100
AcDbEntity
  8
240
100
AcDbCircle
 10
34.0
 20
14.0
 30
0.0
 40
1.0
100
AcDbArc
 50
0.0
 51
90.0
1001
GENIUS_GENOBJ-N-FIL_13
1002
{
1000
OWNER
1000
GEN
1002
}
1001
GENIUS_GENODEF_13
1002
{
1000
HIER
1070
     0
1002
}
1002
{
1000
MANEDIT
1070
     0
1002
}
1002
{
1000
NOSEL
1070
     0
1002
}
1002
{
1000
BEHIND
1070
     0
1002
}
1002
{
1000
OTHER
1070
     0
1002
}
1002
{
1000
REACTOR
1002
}
  0
LINE
  5
1585
330
762
100
AcDbEntity
  8
240
100
AcDbLine
 10
35.0
 20
14.0
 30
0.0
 11
35.0
 21
0.0
 31
0.0
  0
ENDBLK
  5
8A0
330
762
100
AcDbEntity
  8
0
100
AcDbBlockEnd
  0
BLOCK
  5
140F
330
1406
100
AcDbEntity
  8
0
100
AcDbBlockBegin
  2
*D10
 70
     1
 10
0.0
 20
0.0
 30
0.0
  3
*D10
  1

  0
LINE
  5
145F
330
1406
100
AcDbEntity
  8
250
  6
CONTINUOUS
100
AcDbLine
 10
35.5
 20
7.0
 30
0.0
 11
47.5
 21
7.0
 31
0.0
  0
LINE
  5
1460
330
1406
100
AcDbEntity
  8
250
  6
CONTINUOUS
100
AcDbLine
 10
46.5
 20
-4.77
 30
0.0
 11
46.5
 21
4.77
 31
0.0
  0
INSERT
  5
1461
330
1406
100
AcDbEntity
  8
250
  6
CONTINUOUS
100
AcDbBlockReference
  2
矢印なし
 10
46.5
 20
-7.0
 30
0.0
 41
2.23
 42
2.23
 43
2.23
 50
270.0
  0
INSERT
  5
1462
330
1406
100
AcDbEntity
  8
250
  6
CONTINUOUS
100
AcDbBlockReference
  2
_OPEN
 10
46.5
 20
7.0
 30
0.0
 41
2.23
 42
2.23
 43
2.23
 50
90.0
  0
MTEXT
  5
1463
330
1406
100
AcDbEntity
  8
250
  6
CONTINUOUS
 62
    40
100
AcDbMText
 10
44.1
 20
-1.46522202
 30
0.0
 40
2.8
 41
0.0
 71
     5
 72
     1
  1
\A1;{\H2.8;\U+2205}14
 11
0.0
 21
1.0
 31
0.0
1001
ACAD
1000
MTEXTBEGIN
1070
    73
1070
     1
1070
    44
1040
1.0
1070
    74
1070
     0
1000
MTEXTEND
  0
POINT
  5
1464
330
1406
100
AcDbEntity
  8
DEFPOINTS
  6
CONTINUOUS
 62
     0
100
AcDbPoint
 10
35.0
 20
-7.0
 30
0.0
  0
POINT
  5
1465
330
1406
100
AcDbEntity
  8
DEFPOINTS
  6
CONTINUOUS
 62
     0
100
AcDbPoint
 10
35.0
 20
7.0
 30
0.0
  0
POINT
  5
1466
330
1406
100
AcDbEntity
  8
DEFPOINTS
  6
CONTINUOUS
 62
     0
100
AcDbPoint
 10
46.5
 20
7.0
 30
0.0
  0
ENDBLK
  5
1410
330
1406
100
AcDbEntity
  8
0
100
AcDbBlockEnd
  0
BLOCK
  5
141B
330
1411
100
AcDbEntity
  8
0
100
AcDbBlockBegin
  2
*D11
 70
     1
 10
0.0
 20
0.0
 30
0.0
  3
*D11
  1

  0
LINE
  5
1456
330
1411
100
AcDbEntity
  8
AM_5
100
AcDbLine
 10
34.5
 20
15.0
 30
0.0
 11
54.5
 21
15.0
 31
0.0
  0
LINE
  5
1457
330
1411
100
AcDbEntity
  8
AM_5
100
AcDbLine
 10
34.5
 20
-15.0
 30
0.0
 11
54.5
 21
-15.0
 31
0.0
  0
LINE
  5
1458
330
1411
100
AcDbEntity
  8
AM_5
100
AcDbLine
 10
53.5
 20
12.77
 30
0.0
 11
53.5
 21
-12.77
 31
0.0
  0
INSERT
  5
1459
330
1411
100
AcDbEntity
  8
AM_5
100
AcDbBlockReference
  2
_OPEN
 10
53.5
 20
15.0
 30
0.0
 41
2.23
 42
2.23
 43
2.23
 50
90.0
  0
INSERT
  5
145A
330
1411
100
AcDbEntity
  8
AM_5
100
AcDbBlockReference
  2
_OPEN
 10
53.5
 20
-15.0
 30
0.0
 41
2.23
 42
2.23
 43
2.23
 50
270.0
  0
MTEXT
  5
145B
330
1411
100
AcDbEntity
  8
AM_5
 62
    40
100
AcDbMText
 10
51.1
 20
-1.48621162
 30
0.0
 40
2.8
 41
0.0
 71
     5
 72
     1
  1
\A1;%%c30
 11
0.0
 21
1.0
 31
0.0
1001
ACAD
1000
MTEXTBEGIN
1070
    73
1070
     1
1070
    44
1040
1.0
1070
    74
1070
     0
1000
MTEXTEND
  0
POINT
  5
145C
330
1411
100
AcDbEntity
  8
DEFPOINTS
 62
     0
100
AcDbPoint
 10
34.0
 20
15.0
 30
0.0
  0
POINT
  5
145D
330
1411
100
AcDbEntity
  8
DEFPOINTS
 62
     0
100
AcDbPoint
 10
34.0
 20
-15.0
 30
0.0
  0
POINT
  5
145E
330
1411
100
AcDbEntity
  8
DEFPOINTS
 62
     0
100
AcDbPoint
 10
53.5
 20
-15.0
 30
0.0
  0
ENDBLK
  5
141C
330
1411
100
AcDbEntity
  8
0
100
AcDbBlockEnd
  0
BLOCK
  5
1427
330
141D
100
AcDbEntity
  8
0
100
AcDbBlockBegin
  2
*D12
 70
     1
 10
0.0
 20
0.0
 30
0.0
  3
*D12
  1

  0
LINE
  5
144D
330
141D
100
AcDbEntity
  8
250
  6
CONTINUOUS
100
AcDbLine
 10
0.0
 20
19.64125603
 30
0.0
 11
0.0
 21
36.0
 31
0.0
  0
LINE
  5
144E
330
141D
100
AcDbEntity
  8
250
  6
CONTINUOUS
100
AcDbLine
 10
35.0
 20
14.5
 30
0.0
 11
35.0
 21
36.0
 31
0.0
  0
LINE
  5
144F
330
141D
100
AcDbEntity
  8
250
  6
CONTINUOUS
100
AcDbLine
 10
2.23
 20
35.0
 30
0.0
 11
32.77
 21
35.0
 31
0.0
  0
INSERT
  5
1450
330
141D
100
AcDbEntity
  8
250
  6
CONTINUOUS
100
AcDbBlockReference
  2
_OPEN
 10
0.0
 20
35.0
 30
0.0
 41
2.23
 42
2.23
 43
2.23
 50
180.0
  0
INSERT
  5
1451
330
141D
100
AcDbEntity
  8
250
  6
CONTINUOUS
100
AcDbBlockReference
  2
_OPEN
 10
35.0
 20
35.0
 30
0.0
 41
2.23
 42
2.23
 43
2.23
  0
MTEXT
  5
1452
330
141D
100
AcDbEntity
  8
250
  6
CONTINUOUS
 62
    40
100
AcDbMText
 10
17.5
 20
37.4
 30
0.0
 40
2.8
 41
0.0
 71
     5
 72
     1
  1
\A1;35
1001
ACAD
1000
MTEXTBEGIN
1070
    73
1070
     1
1070
    44
1040
1.0
1070
    74
1070
     0
1000
MTEXTEND
  0
POINT
  5
1453
330
141D
100
AcDbEntity
  8
DEFPOINTS
  6
CONTINUOUS
 62
     0
100
AcDbPoint
 10
0.0
 20
19.14125603
 30
0.0
  0
POINT
  5
1454
330
141D
100
AcDbEntity
  8
DEFPOINTS
  6
CONTINUOUS
 62
     0
100
AcDbPoint
 10
35.0
 20
14.0
 30
0.0
  0
POINT
  5
1455
330
141D
100
AcDbEntity
  8
DEFPOINTS
  6
CONTINUOUS
 62
     0
100
AcDbPoint
 10
35.0
 20
35.0
 30
0.0
  0
ENDBLK
  5
1428
330
141D
100
AcDbEntity
  8
0
100
AcDbBlockEnd
  0
ENDSEC
  0
SECTION
  2
ENTITIES
  0
INSERT
  5
6E6
330
1A
100
AcDbEntity
  8
245
100
AcDbBlockReference
  2
矢印なし
 10
175.62382697
 20
90.55123572
 30
0.0
  0
INSERT
  5
8F3
330
1A
100
AcDbEntity
  8
245
100
AcDbBlockReference
  2
矢印なし
 10
364.62382697
 20
230.55123572
 30
0.0
  0
INSERT
  5
8F4
330
1A
100
AcDbEntity
  8
245
100
AcDbBlockReference
  2
矢印なし
 10
539.62382697
 20
377.55123572
 30
0.0
  0
INSERT
  5
8F5
330
1A
100
AcDbEntity
  8
245
100
AcDbBlockReference
  2
矢印なし
 10
721.62382697
 20
524.55123572
 30
0.0
  0
INSERT
  5
8F6
330
1A
100
AcDbEntity
  8
245
100
AcDbBlockReference
  2
矢印なし
 10
910.62382697
 20
664.55123572
 30
0.0
  0
INSERT
  5
8F7
330
1A
100
AcDbEntity
  8
245
100
AcDbBlockReference
  2
矢印なし
 10
1092.62382697
 20
818.55123572
 30
0.0
  0
INSERT
  5
8F8
330
1A
100
AcDbEntity
  8
245
100
AcDbBlockReference
  2
矢印なし
 10
1281.62382697
 20
965.55123572
 30
0.0
  0
INSERT
  5
8F9
330
1A
100
AcDbEntity
  8
245
100
AcDbBlockReference
  2
矢印なし
 10
1456.62382697
 20
1112.55123572
 30
0.0
  0
INSERT
  5
8FA
330
1A
100
AcDbEntity
  8
245
100
AcDbBlockReference
  2
矢印なし
 10
1624.62382697
 20
1252.55123572
 30
0.0
  0
INSERT
  5
8FB
330
1A
100
AcDbEntity
  8
245
100
AcDbBlockReference
  2
矢印なし
 10
1799.62382697
 20
1392.55123572
 30
0.0
  0
INSERT
  5
8FC
330
1A
100
AcDbEntity
  8
245
100
AcDbBlockReference
  2
矢印なし
 10
1981.62382697
 20
1525.55123572
 30
0.0
  0
INSERT
  5
8FD
330
1A
100
AcDbEntity
  8
245
100
AcDbBlockReference
  2
矢印なし
 10
2156.62382697
 20
1672.55123572
 30
0.0
  0
INSERT
  5
8FE
330
1A
100
AcDbEntity
  8
245
100
AcDbBlockReference
  2
矢印なし
 10
2345.62382697
 20
1805.55123572
 30
0.0
  0
INSERT
  5
8FF
330
1A
100
AcDbEntity
  8
245
100
AcDbBlockReference
  2
矢印なし
 10
2534.62382697
 20
1945.55123572
 30
0.0
  0
INSERT
  5
900
330
1A
100
AcDbEntity
  8
245
100
AcDbBlockReference
  2
矢印なし
 10
2709.62382697
 20
2085.55123572
 30
0.0
  0
INSERT
  5
901
330
1A
100
AcDbEntity
  8
245
100
AcDbBlockReference
  2
矢印なし
 10
2884.62382697
 20
2225.55123572
 30
0.0
  0
INSERT
  5
902
330
1A
100
AcDbEntity
  8
245
100
AcDbBlockReference
  2
矢印なし
 10
3073.62382697
 20
2365.55123572
 30
0.0
  0
INSERT
  5
903
330
1A
100
AcDbEntity
  8
245
100
AcDbBlockReference
  2
矢印なし
 10
3255.62382697
 20
2505.55123572
 30
0.0
  0
INSERT
  5
904
330
1A
100
AcDbEntity
  8
245
100
AcDbBlockReference
  2
矢印なし
 10
3437.62382697
 20
2652.55123572
 30
0.0
  0
INSERT
  5
905
330
1A
100
AcDbEntity
  8
245
100
AcDbBlockReference
  2
矢印なし
 10
3619.62382697
 20
2799.55123572
 30
0.0
  0
INSERT
  5
906
330
1A
100
AcDbEntity
  8
245
100
AcDbBlockReference
  2
矢印なし
 10
3766.62382697
 20
2939.55123572
 30
0.0
  0
INSERT
  5
907
330
1A
100
AcDbEntity
  8
245
100
AcDbBlockReference
  2
矢印なし
 10
3941.62382697
 20
3093.55123572
 30
0.0
  0
INSERT
  5
908
330
1A
100
AcDbEntity
  8
245
100
AcDbBlockReference
  2
矢印なし
 10
4137.62382697
 20
3240.55123572
 30
0.0
  0
INSERT
  5
909
330
1A
100
AcDbEntity
  8
245
100
AcDbBlockReference
  2
矢印なし
 10
4326.62382697
 20
3373.55123572
 30
0.0
  0
INSERT
  5
90A
330
1A
100
AcDbEntity
  8
245
100
AcDbBlockReference
  2
矢印なし
 10
4487.62382697
 20
3527.55123572
 30
0.0
  0
INSERT
  5
90B
330
1A
100
AcDbEntity
  8
245
100
AcDbBlockReference
  2
矢印なし
 10
4662.62382697
 20
3681.55123572
 30
0.0
  0
INSERT
  5
90C
330
1A
100
AcDbEntity
  8
245
100
AcDbBlockReference
  2
矢印なし
 10
4837.62382697
 20
3814.55123572
 30
0.0
  0
INSERT
  5
90D
330
1A
100
AcDbEntity
  8
245
100
AcDbBlockReference
  2
矢印なし
 10
4991.62382697
 20
3961.55123572
 30
0.0
  0
TEXT
  5
90F
330
1A
100
AcDbEntity
  8
241
100
AcDbText
 10
-69.0
 20
49.0
 30
0.0
 40
5.0
  1
MGT20-M18,U3/4-35
  7
YOKO
 11
-69.0
 21
49.0
 31
0.0
100
AcDbText
 73
     1
  0
DIMENSION
  5
12E1
330
1A
100
AcDbEntity
  8
250
  6
CONTINUOUS
100
AcDbDimension
  2
*D10
 10
46.5
 20
7.0
 30
0.0
 11
46.5
 21
-1.46522202
 31
0.0
 70
   160
  1
{\H2.8;\U+2205}<>
  3
BIGT
100
AcDbAlignedDimension
 13
35.0
 23
-7.0
 33
0.0
 14
35.0
 24
7.0
 34
0.0
 50
90.0
100
AcDbRotatedDimension
1001
ACAD
1000
DSTYLE
1002
{
1070
   287
1070
     3
1070
   287
1070
     3
1070
   287
1070
     3
1070
   287
1070
     3
1070
    75
1070
     1
1070
    77
1070
     3
1070
   145
1040
1.0
1070
   279
1070
     0
1070
   289
1070
     3
1070
     6
1000
矢印なし
1002
}
  0
DIMENSION
  5
12E2
330
1A
100
AcDbEntity
  8
AM_5
100
AcDbDimension
  2
*D11
 10
53.5
 20
-15.0
 30
0.0
 11
53.5
 21
-1.48621162
 31
0.0
 70
   160
  1
%%c<>
  3
BIGT$0
100
AcDbAlignedDimension
 13
34.0
 23
15.0
 33
0.0
 14
34.0
 24
-15.0
 34
0.0
 50
90.0
100
AcDbRotatedDimension
  0
DIMENSION
  5
12E3
330
1A
100
AcDbEntity
  8
250
  6
CONTINUOUS
100
AcDbDimension
  2
*D12
 10
35.0
 20
35.0
 30
0.0
 11
17.5
 21
37.4
 31
0.0
 70
    32
  3
BIGT$0
100
AcDbAlignedDimension
 13
0.0
 23
19.14125603
 33
0.0
 14
35.0
 24
14.0
 34
0.0
100
AcDbRotatedDimension
  0
LEADER
  5
13F1
330
1A
100
AcDbEntity
  8
250
  6
CONTINUOUS
100
AcDbLeader
  3
BIGT
 76
     2
 10
5.1584413
 20
7.84888527
 30
0.0
 10
16.80837028
 20
28.02715416
 30
0.0
1001
ACAD
1000
DSTYLE
1002
{
1070
     6
1000
OPEN
1070
    41
1040
2.0
1070
    42
1040
2.0
1070
    44
1040
2.0
1070
   140
1040
4.0
1070
   343
1005
594
1002
}
  0
LINE
  5
1403
330
1A
100
AcDbEntity
  8
250
  6
CONTINUOUS
100
AcDbLine
 10
16.80837028
 20
28.02715416
 30
0.0
 11
29.52837028
 21
28.02715416
 31
0.0
1001
ITEMNAME
1000
LNSP2
  0
MTEXT
  5
1405
330
1A
100
AcDbEntity
  8
251
  6
CONTINUOUS
100
AcDbMText
 10
19.60837028
 20
29.02715416
 30
0.0
 40
2.8
 41
0.0
 71
     7
 72
     1
  1
□11
  7
YOKO
1001
ITEMNAME
1000
LNSP3
1001
ACAD
1000
MTEXTBEGIN
1070
    73
1070
     1
1070
    44
1040
1.0
1070
    74
1070
     0
1000
MTEXTEND
1000
MTEXTBEGIN
1070
    73
1070
     1
1070
    44
1040
1.0
1070
    74
1070
     0
1000
MTEXTEND
1000
MTEXTBEGIN
1070
    73
1070
     1
1070
    44
1040
1.0
1070
    74
1070
     0
1000
MTEXTEND
1000
MTEXTBEGIN
1070
    73
1070
     1
1070
    44
1040
1.0
1070
    74
1070
     0
1000
MTEXTEND
1000
MTEXTBEGIN
1070
    73
1070
     1
1070
    44
1040
1.0
1070
    74
1070
     0
1000
MTEXTEND
1000
MTEXTBEGIN
1070
    73
1070
     1
1070
    44
1040
1.0
1070
    74
1070
     0
1000
MTEXTEND
  0
INSERT
  5
1586
330
1A
100
AcDbEntity
  8
245
100
AcDbBlockReference
  2
1
 10
0.0
 20
0.0
 30
0.0
  0
VIEWPORT
  5
22
330
17
100
AcDbEntity
 67
     1
  8
0
100
AcDbViewport
 10
261.51769912
 20
148.5
 30
0.0
 40
523.03539823
 41
297.0
 68
     1
 69
     1
1001
ACAD
1000
MVIEW
1002
{
1070
    16
1010
0.0
1020
0.0
1030
0.0
1010
0.0
1020
0.0
1030
1.0
1040
0.0
1040
297.0
1040
261.51769912
1040
148.5
1040
50.0
1040
0.0
1040
0.0
1070
     0
1070
   100
1070
     1
1070
     1
1070
     0
1070
     0
1070
     0
1070
     0
1040
0.0
1040
0.0
1040
0.0
1040
1.0
1040
1.0
1040
10.0
1040
10.0
1070
     0
1002
{
1002
}
1002
}
  0
ENDSEC
  0
SECTION
  2
OBJECTS
  0
DICTIONARY
  5
C
330
0
100
AcDbDictionary
  3
ACAD_GROUP
350
D
  3
ACAD_LAYOUT
350
565
  3
ACAD_MLINESTYLE
350
E
  3
ACAD_PLOTSETTINGS
350
566
  3
ACAD_PLOTSTYLENAME
350
563
  3
ACDBHEADERROUNDTRIPXREC
350
1588
  3
GRADE_DWG
350
540
  0
DICTIONARY
  5
D9A
330
1A
100
AcDbDictionary
280
     1
  3
ACAD_LAYOUTSELFREF
360
15AA
  0
DICTIONARY
  5
D98
330
17
100
AcDbDictionary
280
     1
  3
ACAD_LAYOUTSELFREF
360
15A9
  0
DICTIONARY
  5
D
102
{ACAD_REACTORS
330
C
102
}
330
C
100
AcDbDictionary
  3
*A1
350
6C7
  3
*A2
350
6C8
  3
*A3
350
6D4
  3
*A4
350
6D5
  3
DREC-1
350
5FC
  3
DREC-2
350
654
  3
DREC-3
350
673
  0
DICTIONARY
  5
565
102
{ACAD_REACTORS
330
C
102
}
330
C
100
AcDbDictionary
  0
DICTIONARY
  5
E
102
{ACAD_REACTORS
330
C
102
}
330
C
100
AcDbDictionary
  3
STANDARD
350
13
  0
DICTIONARY
  5
566
102
{ACAD_REACTORS
330
C
102
}
330
C
100
AcDbDictionary
  3
A3_0_5倍_
350
758
  3
A3_1倍_
350
757
  3
A3_1倍__2000_
350
707
  3
A3_2倍_
350
759
  3
A4_0_5倍_
350
755
  3
A4_1倍_
350
754
  3
A4_1倍__2000_
350
708
  3
A4_2倍_
350
756
  0
ACDBDICTIONARYWDFLT
  5
563
102
{ACAD_REACTORS
330
C
102
}
330
C
100
AcDbDictionary
281
     1
  3
Normal
350
564
100
AcDbDictionaryWithDefault
340
564
  0
DICTIONARY
  5
1588
102
{ACAD_REACTORS
330
C
102
}
330
C
100
AcDbDictionary
  3
CEPSNTYPE
350
1592
  3
DIMSTYLEDATA
350
1596
  3
FINGERPRINTGUID
350
1593
  3
HYPERLINKBASE
350
158B
  3
INSUNITS
350
1591
  3
LAYOUTDICT
350
158D
  3
LWETCUNION
350
1590
  3
PLOTSETDICT
350
158E
  3
PLOTSTYLNAMDICT
350
158F
  3
PSVPSCALE
350
1595
  3
PUCSBASE
350
1599
  3
PUCSORGBACK
350
159F
  3
PUCSORGBOTTOM
350
159B
  3
PUCSORGFRONT
350
159E
  3
PUCSORGLEFT
350
159C
  3
PUCSORGRIGHT
350
159D
  3
PUCSORGTOP
350
159A
  3
PUCSORTHOREF
350
1597
  3
PUCSORTHOVIEW
350
1598
  3
STYLESHEET
350
158C
  3
TSTACKALIGN
350
1589
  3
TSTACKSIZE
350
158A
  3
UCSBASE
350
15A2
  3
UCSORGBACK
350
15A8
  3
UCSORGBOTTOM
350
15A4
  3
UCSORGFRONT
350
15A7
  3
UCSORGLEFT
350
15A5
  3
UCSORGRIGHT
350
15A6
  3
UCSORGTOP
350
15A3
  3
UCSORTHOREF
350
15A0
  3
UCSORTHOVIEW
350
15A1
  3
VERSIONGUID
350
1594
  0
DICTIONARY
  5
540
102
{ACAD_REACTORS
330
C
102
}
330
C
100
AcDbDictionary
  3
VERSION
350
560
  0
XRECORD
  5
15AA
102
{ACAD_REACTORS
330
D9A
102
}
330
D9A
100
AcDbXrecord
340
1A
  0
XRECORD
  5
15A9
102
{ACAD_REACTORS
330
D98
102
}
330
D98
100
AcDbXrecord
340
17
  0
GROUP
  5
6C7
102
{ACAD_REACTORS
330
D
102
}
330
D
100
AcDbGroup
300

 70
     0
 71
     1
1001
GRPNAME
1000
DMA00
  0
GROUP
  5
6C8
102
{ACAD_REACTORS
330
D
102
}
330
D
100
AcDbGroup
300

 70
     0
 71
     1
1001
GRPNAME
1000
DMA00
  0
GROUP
  5
6D4
102
{ACAD_REACTORS
330
D
102
}
330
D
100
AcDbGroup
300

 70
     0
 71
     1
1001
GRPNAME
1000
DMA00
  0
GROUP
  5
6D5
102
{ACAD_REACTORS
330
D
102
}
330
D
100
AcDbGroup
300

 70
     0
 71
     1
1001
GRPNAME
1000
DMA00
  0
GROUP
  5
5FC
102
{ACAD_REACTORS
330
D
102
}
330
D
100
AcDbGroup
300

 70
     0
 71
     1
1001
GRPNAME
1000
DREC-
1001
GPARA
1000
xsiz
1000
44.182
1000
ysiz
1000
40.677
1000
angl
1000
0
1000
ctyp
1000
0
1000
csiz
1000
5
1000
lfnt
1000
cont
1000
hcnt
1000
hoff
1000
vcnt
1000
voff
1000
opnt
1000
4
1000
dxpt
1000
0
1000
dypt
1000
0
  0
GROUP
  5
654
102
{ACAD_REACTORS
330
D
102
}
330
D
100
AcDbGroup
300

 70
     0
 71
     1
1001
GRPNAME
1000
DREC-
1001
GPARA
1000
xsiz
1000
54.592
1000
ysiz
1000
53.036
1000
angl
1000
0
1000
ctyp
1000
0
1000
csiz
1000
5
1000
lfnt
1000
cont
1000
hcnt
1000
hoff
1000
vcnt
1000
voff
1000
opnt
1000
4
1000
dxpt
1000
0
1000
dypt
1000
0
  0
GROUP
  5
673
102
{ACAD_REACTORS
330
D
102
}
330
D
100
AcDbGroup
300

 70
     0
 71
     1
1001
GRPNAME
1000
DREC-
1001
GPARA
1000
xsiz
1000
30.363
1000
ysiz
1000
36.175
1000
angl
1000
0
1000
ctyp
1000
0
1000
csiz
1000
5
1000
lfnt
1000
cont
1000
hcnt
1000
hoff
1000
vcnt
1000
voff
1000
opnt
1000
4
1000
dxpt
1000
0
1000
dypt
1000
0
  0
MLINESTYLE
  5
13
102
{ACAD_REACTORS
330
E
102
}
330
E
100
AcDbMlineStyle
  2
STANDARD
 70
     0
  3

 62
     0
 51
90.0
 52
90.0
 71
     2
 49
0.5
 62
   256
  6
BYLAYER
 49
-0.5
 62
   256
  6
BYLAYER
  0
PLOTSETTINGS
  5
758
102
{ACAD_REACTORS
330
566
102
}
330
566
100
AcDbPlotSettings
  1
A3(0.5倍)
  2
\\AWTECPC05\HP DeskJet 1120C
  4
A3
  6

 40
5.95841646
 41
13.49375153
 42
6.04309082
 43
3.67242432
 44
296.92599487
 45
419.94665527
 46
89.96
 47
127.14
 48
0.0
 49
0.0
140
0.0
141
0.0
142
1.0
143
2.0
 70
  1716
 72
     1
 73
     1
 74
     2
  7
big.ctb
 75
    17
147
0.5
148
0.0
149
0.0
  0
PLOTSETTINGS
  5
757
102
{ACAD_REACTORS
330
566
102
}
330
566
100
AcDbPlotSettings
  1
A3(1倍)
  2
\\AWTECPC05\HP DeskJet 1120C
  4
A3
  6

 40
5.95841646
 41
13.49375153
 42
6.04309082
 43
3.67242432
 44
296.92599487
 45
419.94665527
 46
37.46
 47
52.89
 48
0.0
 49
0.0
140
0.0
141
0.0
142
1.0
143
1.0
 70
  1716
 72
     1
 73
     1
 74
     2
  7
big.ctb
 75
    16
147
1.0
148
0.0
149
0.0
  0
PLOTSETTINGS
  5
707
102
{ACAD_REACTORS
330
566
102
}
330
566
100
AcDbPlotSettings
  1
A3(1倍)(2000)
  2
SII LS-1300 (D-SCAN)
  4
User258
  6

 40
3.17499995
 41
3.17499995
 42
3.17498779
 43
3.17498779
 44
419.98898315
 45
296.98950195
 46
58.32
 47
40.32
 48
0.0
 49
0.0
140
0.0
141
0.0
142
1.0
143
1.0
 70
  1716
 72
     1
 73
     0
 74
     2
  7
big.ctb
 75
    16
147
1.0
148
0.0
149
0.0
  0
PLOTSETTINGS
  5
759
102
{ACAD_REACTORS
330
566
102
}
330
566
100
AcDbPlotSettings
  1
A3(2倍)
  2
\\AWTECPC05\HP DeskJet 1120C
  4
A3
  6

 40
5.95841646
 41
13.49375153
 42
6.04309082
 43
3.67242432
 44
296.92599487
 45
419.94665527
 46
-67.54
 47
-95.61
 48
0.0
 49
0.0
140
0.0
141
0.0
142
1.0
143
0.5
 70
  1716
 72
     1
 73
     1
 74
     2
  7
big.ctb
 75
    27
147
2.0
148
0.0
149
0.0
  0
PLOTSETTINGS
  5
755
102
{ACAD_REACTORS
330
566
102
}
330
566
100
AcDbPlotSettings
  1
A4(0.5倍)
  2
\\AWTECPC05\HP DeskJet 1120C
  4
A4
  6

 40
4.18041658
 41
13.49374962
 42
4.18040466
 43
3.92642212
 44
209.97332764
 45
296.92599487
 46
48.31
 47
65.5
 48
0.0
 49
0.0
140
0.0
141
0.0
142
1.0
143
2.0
 70
  1716
 72
     1
 73
     1
 74
     2
  7
big.ctb
 75
    17
147
0.5
148
0.0
149
0.0
  0
PLOTSETTINGS
  5
754
102
{ACAD_REACTORS
330
566
102
}
330
566
100
AcDbPlotSettings
  1
A4(1倍)
  2
\\AWTECPC05\HP DeskJet 1120C
  4
A4
  6

 40
4.18041658
 41
13.49374962
 42
4.18040466
 43
3.92642212
 44
209.97332764
 45
296.92599487
 46
-4.19
 47
-8.75
 48
0.0
 49
0.0
140
0.0
141
0.0
142
1.0
143
1.0
 70
  1716
 72
     1
 73
     1
 74
     2
  7
big.ctb
 75
    16
147
1.0
148
0.0
149
0.0
  0
PLOTSETTINGS
  5
708
102
{ACAD_REACTORS
330
566
102
}
330
566
100
AcDbPlotSettings
  1
A4(1倍)(2000)
  2
SII LS-1300 (D-SCAN)
  4
User259
  6

 40
3.17499995
 41
3.17499995
 42
3.17498779
 43
3.17500305
 44
296.98950195
 45
209.99449158
 46
-3.18
 47
-3.18
 48
0.0
 49
0.0
140
0.0
141
0.0
142
1.0
143
1.0
 70
  1716
 72
     1
 73
     0
 74
     2
  7
big.ctb
 75
    16
147
1.0
148
0.0
149
0.0
  0
PLOTSETTINGS
  5
756
102
{ACAD_REACTORS
330
566
102
}
330
566
100
AcDbPlotSettings
  1
A4(2倍)
  2
\\AWTECPC05\HP DeskJet 1120C
  4
A4
  6

 40
4.18041658
 41
13.49374962
 42
4.18040466
 43
3.92642212
 44
209.97332764
 45
296.92599487
 46
-109.19
 47
-157.25
 48
0.0
 49
0.0
140
0.0
141
0.0
142
1.0
143
0.5
 70
  1716
 72
     1
 73
     1
 74
     2
  7
big.ctb
 75
    27
147
2.0
148
0.0
149
0.0
  0
ACDBPLACEHOLDER
  5
564
102
{ACAD_REACTORS
330
563
102
}
330
563
100
AcDbPlaceHolder
280
     0
  0
XRECORD
  5
1592
102
{ACAD_REACTORS
330
1588
102
}
330
1588
100
AcDbXrecord
 90
        0
  0
XRECORD
  5
1596
102
{ACAD_REACTORS
330
1588
102
}
330
1588
100
AcDbXrecord
1000
DSTYLE
1002
{
1070
    79
 70
     2
1070
   179
 70
     3
1070
   341
340
594
1070
   343
340
594
1070
   344
340
594
1070
   371
 70
    -1
1070
   372
 70
    -1
1002
}
  0
XRECORD
  5
1593
102
{ACAD_REACTORS
330
1588
102
}
330
1588
100
AcDbXrecord
  1
{51294030-9CB4-11D3-8E18-00A0C925D94D}
  0
XRECORD
  5
158B
102
{ACAD_REACTORS
330
1588
102
}
330
1588
100
AcDbXrecord
  1

  0
XRECORD
  5
1591
102
{ACAD_REACTORS
330
1588
102
}
330
1588
100
AcDbXrecord
 90
        0
  0
XRECORD
  5
158D
102
{ACAD_REACTORS
330
1588
102
}
330
1588
100
AcDbXrecord
340
565
  0
XRECORD
  5
1590
102
{ACAD_REACTORS
330
1588
102
}
330
1588
100
AcDbXrecord
 90
    10781
  0
XRECORD
  5
158E
102
{ACAD_REACTORS
330
1588
102
}
330
1588
100
AcDbXrecord
340
566
  0
XRECORD
  5
158F
102
{ACAD_REACTORS
330
1588
102
}
330
1588
100
AcDbXrecord
340
563
  0
XRECORD
  5
1595
102
{ACAD_REACTORS
330
1588
102
}
330
1588
100
AcDbXrecord
 40
0.0
  0
XRECORD
  5
1599
102
{ACAD_REACTORS
330
1588
102
}
330
1588
100
AcDbXrecord
340
0
  0
XRECORD
  5
159F
102
{ACAD_REACTORS
330
1588
102
}
330
1588
100
AcDbXrecord
 10
0.0
 20
0.0
 30
0.0
  0
XRECORD
  5
159B
102
{ACAD_REACTORS
330
1588
102
}
330
1588
100
AcDbXrecord
 10
0.0
 20
0.0
 30
0.0
  0
XRECORD
  5
159E
102
{ACAD_REACTORS
330
1588
102
}
330
1588
100
AcDbXrecord
 10
0.0
 20
0.0
 30
0.0
  0
XRECORD
  5
159C
102
{ACAD_REACTORS
330
1588
102
}
330
1588
100
AcDbXrecord
 10
0.0
 20
0.0
 30
0.0
  0
XRECORD
  5
159D
102
{ACAD_REACTORS
330
1588
102
}
330
1588
100
AcDbXrecord
 10
0.0
 20
0.0
 30
0.0
  0
XRECORD
  5
159A
102
{ACAD_REACTORS
330
1588
102
}
330
1588
100
AcDbXrecord
 10
0.0
 20
0.0
 30
0.0
  0
XRECORD
  5
1597
102
{ACAD_REACTORS
330
1588
102
}
330
1588
100
AcDbXrecord
340
0
  0
XRECORD
  5
1598
102
{ACAD_REACTORS
330
1588
102
}
330
1588
100
AcDbXrecord
 70
     0
  0
XRECORD
  5
158C
102
{ACAD_REACTORS
330
1588
102
}
330
1588
100
AcDbXrecord
  1
big.ctb
  0
XRECORD
  5
1589
102
{ACAD_REACTORS
330
1588
102
}
330
1588
100
AcDbXrecord
 90
        1
  0
XRECORD
  5
158A
102
{ACAD_REACTORS
330
1588
102
}
330
1588
100
AcDbXrecord
 90
       70
  0
XRECORD
  5
15A2
102
{ACAD_REACTORS
330
1588
102
}
330
1588
100
AcDbXrecord
340
0
  0
XRECORD
  5
15A8
102
{ACAD_REACTORS
330
1588
102
}
330
1588
100
AcDbXrecord
 10
0.0
 20
0.0
 30
0.0
  0
XRECORD
  5
15A4
102
{ACAD_REACTORS
330
1588
102
}
330
1588
100
AcDbXrecord
 10
0.0
 20
0.0
 30
0.0
  0
XRECORD
  5
15A7
102
{ACAD_REACTORS
330
1588
102
}
330
1588
100
AcDbXrecord
 10
0.0
 20
0.0
 30
0.0
  0
XRECORD
  5
15A5
102
{ACAD_REACTORS
330
1588
102
}
330
1588
100
AcDbXrecord
 10
0.0
 20
0.0
 30
0.0
  0
XRECORD
  5
15A6
102
{ACAD_REACTORS
330
1588
102
}
330
1588
100
AcDbXrecord
 10
0.0
 20
0.0
 30
0.0
  0
XRECORD
  5
15A3
102
{ACAD_REACTORS
330
1588
102
}
330
1588
100
AcDbXrecord
 10
0.0
 20
0.0
 30
0.0
  0
XRECORD
  5
15A0
102
{ACAD_REACTORS
330
1588
102
}
330
1588
100
AcDbXrecord
340
0
  0
XRECORD
  5
15A1
102
{ACAD_REACTORS
330
1588
102
}
330
1588
100
AcDbXrecord
 70
     0
  0
XRECORD
  5
1594
102
{ACAD_REACTORS
330
1588
102
}
330
1588
100
AcDbXrecord
  1
{DAC3ADE8-5F32-435A-80C0-E73C8FDE0246}
  0
XRECORD
  5
560
102
{ACAD_REACTORS
330
540
102
}
330
540
100
AcDbXrecord
  1
2.0.0
  0
ENDSEC
  0
EOF
