  0
SECTION
  2
HEADER
  9
$ACADVER
  1
AC1014
  9
$ACADMAINTVER
 70
     9
  9
$DWGCODEPAGE
  3
ANSI_932
  9
$INSBASE
 10
0.0
 20
0.0
 30
0.0
  9
$EXTMIN
 10
-70.01495247
 20
-19.5703201
 30
-0.00152582
  9
$EXTMAX
 10
134.51309285
 20
54.96170761
 30
0.00000003
  9
$LIMMIN
 10
0.0
 20
0.0
  9
$LIMMAX
 10
420.0
 20
297.0
  9
$ORTHOMODE
 70
     1
  9
$REGENMODE
 70
     1
  9
$FILLMODE
 70
     1
  9
$QTEXTMODE
 70
     0
  9
$MIRRTEXT
 70
     1
  9
$DRAGMODE
 70
     2
  9
$LTSCALE
 40
10.0
  9
$OSMODE
 70
   549
  9
$ATTMODE
 70
     1
  9
$TEXTSIZE
 40
3.0
  9
$TRACEWID
 40
1.0
  9
$TEXTSTYLE
  7
YOKO
  9
$CLAYER
  8
245
  9
$CELTYPE
  6
BYLAYER
  9
$CECOLOR
 62
   256
  9
$CELTSCALE
 40
1.0
  9
$DELOBJ
 70
     1
  9
$DISPSILH
 70
     0
  9
$DIMSCALE
 40
1.0
  9
$DIMASZ
 40
2.0
  9
$DIMEXO
 40
2.0
  9
$DIMDLI
 40
2.5
  9
$DIMRND
 40
0.0
  9
$DIMDLE
 40
0.0
  9
$DIMEXE
 40
2.0
  9
$DIMTP
 40
0.0
  9
$DIMTM
 40
0.0
  9
$DIMTXT
 40
4.0
  9
$DIMCEN
 40
0.0
  9
$DIMTSZ
 40
0.0
  9
$DIMTOL
 70
     0
  9
$DIMLIM
 70
     0
  9
$DIMTIH
 70
     0
  9
$DIMTOH
 70
     0
  9
$DIMSE1
 70
     0
  9
$DIMSE2
 70
     0
  9
$DIMTAD
 70
     3
  9
$DIMZIN
 70
     8
  9
$DIMBLK
  1

  9
$DIMASO
 70
     1
  9
$DIMSHO
 70
     1
  9
$DIMPOST
  1

  9
$DIMAPOST
  1

  9
$DIMALT
 70
     0
  9
$DIMALTD
 70
     2
  9
$DIMALTF
 40
25.4
  9
$DIMLFAC
 40
1.0
  9
$DIMTOFL
 70
     1
  9
$DIMTVP
 40
0.0
  9
$DIMTIX
 70
     1
  9
$DIMSOXD
 70
     0
  9
$DIMSAH
 70
     1
  9
$DIMBLK1
  1
OPEN
  9
$DIMBLK2
  1
OPEN
  9
$DIMSTYLE
  2
BIGT
  9
$DIMCLRD
 70
   256
  9
$DIMCLRE
 70
   256
  9
$DIMCLRT
 70
    40
  9
$DIMTFAC
 40
1.0
  9
$DIMGAP
 40
1.0
  9
$DIMJUST
 70
     0
  9
$DIMSD1
 70
     0
  9
$DIMSD2
 70
     0
  9
$DIMTOLJ
 70
     1
  9
$DIMTZIN
 70
     8
  9
$DIMALTZ
 70
     0
  9
$DIMALTTZ
 70
     0
  9
$DIMFIT
 70
     3
  9
$DIMUPT
 70
     0
  9
$DIMUNIT
 70
     2
  9
$DIMDEC
 70
     3
  9
$DIMTDEC
 70
     3
  9
$DIMALTU
 70
     2
  9
$DIMALTTD
 70
     2
  9
$DIMTXSTY
  7
STANDARD
  9
$DIMAUNIT
 70
     0
  9
$LUNITS
 70
     2
  9
$LUPREC
 70
     3
  9
$SKETCHINC
 40
1.0
  9
$FILLETRAD
 40
0.0
  9
$AUNITS
 70
     0
  9
$AUPREC
 70
     3
  9
$MENU
  1
.
  9
$ELEVATION
 40
0.0
  9
$PELEVATION
 40
0.0
  9
$THICKNESS
 40
0.0
  9
$LIMCHECK
 70
     0
  9
$BLIPMODE
 70
     0
  9
$CHAMFERA
 40
10.0
  9
$CHAMFERB
 40
10.0
  9
$CHAMFERC
 40
0.0
  9
$CHAMFERD
 40
0.0
  9
$SKPOLY
 70
     0
  9
$TDCREATE
 40
2455128.631108576
  9
$TDUPDATE
 40
2455316.554495254
  9
$TDINDWG
 40
0.0029890046
  9
$TDUSRTIMER
 40
0.0029890046
  9
$USRTIMER
 70
     1
  9
$ANGBASE
 50
0.0
  9
$ANGDIR
 70
     0
  9
$PDMODE
 70
     1
  9
$PDSIZE
 40
-5.0
  9
$PLINEWID
 40
0.0
  9
$COORDS
 70
     0
  9
$SPLFRAME
 70
     0
  9
$SPLINETYPE
 70
     6
  9
$SPLINESEGS
 70
     8
  9
$ATTDIA
 70
     0
  9
$ATTREQ
 70
     1
  9
$HANDLING
 70
-16383
  9
$HANDSEED
  5
179F
  9
$SURFTAB1
 70
     6
  9
$SURFTAB2
 70
     6
  9
$SURFTYPE
 70
     6
  9
$SURFU
 70
     6
  9
$SURFV
 70
     6
  9
$UCSNAME
  2

  9
$UCSORG
 10
0.0
 20
0.0
 30
0.0
  9
$UCSXDIR
 10
1.0
 20
0.0
 30
0.0
  9
$UCSYDIR
 10
0.0
 20
1.0
 30
0.0
  9
$PUCSNAME
  2

  9
$PUCSORG
 10
0.0
 20
0.0
 30
0.0
  9
$PUCSXDIR
 10
1.0
 20
0.0
 30
0.0
  9
$PUCSYDIR
 10
0.0
 20
1.0
 30
0.0
  9
$USERI1
 70
     1
  9
$USERI2
 70
     0
  9
$USERI3
 70
     0
  9
$USERI4
 70
     0
  9
$USERI5
 70
     0
  9
$USERR1
 40
0.0
  9
$USERR2
 40
0.0
  9
$USERR3
 40
0.0
  9
$USERR4
 40
0.0
  9
$USERR5
 40
0.0
  9
$WORLDVIEW
 70
     1
  9
$SHADEDGE
 70
     3
  9
$SHADEDIF
 70
    70
  9
$TILEMODE
 70
     1
  9
$MAXACTVP
 70
    16
  9
$PINSBASE
 10
0.0
 20
0.0
 30
0.0
  9
$PLIMCHECK
 70
     0
  9
$PEXTMIN
 10
1.00000000E+20
 20
1.00000000E+20
 30
1.00000000E+20
  9
$PEXTMAX
 10
-1.00000000E+20
 20
-1.00000000E+20
 30
-1.00000000E+20
  9
$PLIMMIN
 10
0.0
 20
0.0
  9
$PLIMMAX
 10
420.0
 20
297.0
  9
$UNITMODE
 70
     0
  9
$VISRETAIN
 70
     0
  9
$PLINEGEN
 70
     0
  9
$PSLTSCALE
 70
     1
  9
$TREEDEPTH
 70
  3020
  9
$PICKSTYLE
 70
     0
  9
$CMLSTYLE
  2
STANDARD
  9
$CMLJUST
 70
     0
  9
$CMLSCALE
 40
1.0
  9
$PROXYGRAPHICS
 70
     1
  9
$MEASUREMENT
 70
     1
  0
ENDSEC
  0
SECTION
  2
CLASSES
  0
CLASS
  1
XRECORD
  2
AcDbXrecord
  3
AutoCAD 2000
 90
        0
280
     0
281
     0
  0
CLASS
  1
ACDBDICTIONARYWDFLT
  2
AcDbDictionaryWithDefault
  3
AutoCAD 2000
 90
        0
280
     0
281
     0
  0
CLASS
  1
ACDBPLACEHOLDER
  2
AcDbPlaceHolder
  3
AutoCAD 2000
 90
        0
280
     0
281
     0
  0
CLASS
  1
LAYOUT
  2
AcDbLayout
  3
AutoCAD 2000
 90
        0
280
     0
281
     0
  0
CLASS
  1
PLOTSETTINGS
  2
AcDbPlotSettings
  3
AutoCAD 2000
 90
        0
280
     0
281
     0
  0
CLASS
  1
LONG_TRANSACTION
  2
AcDbLongTransaction
  3
AutoCAD 2000
 90
        0
280
     0
281
     0
  0
CLASS
  1
LWPOLYLINE
  2
AcDbPolyline
  3
AutoCAD 2000
 90
        0
280
     0
281
     1
  0
CLASS
  1
HATCH
  2
AcDbHatch
  3
AutoCAD 2000
 90
        0
280
     0
281
     1
  0
CLASS
  1
XRECORD
  2
AcDbXrecord
  3
AutoCAD 2000
 90
        0
280
     0
281
     0
  0
CLASS
  1
LONG_TRANSACTION
  2
AcDbLongTransaction
  3
AutoCAD 2000
 90
        0
280
     0
281
     0
  0
CLASS
  1
LWPOLYLINE
  2
AcDbPolyline
  3
AutoCAD 2000
 90
        0
280
     0
281
     1
  0
CLASS
  1
HATCH
  2
AcDbHatch
  3
AutoCAD 2000
 90
        0
280
     0
281
     1
  0
CLASS
  1
XRECORD
  2
AcDbXrecord
  3
AutoCAD 2000
 90
        0
280
     0
281
     0
  0
ENDSEC
  0
SECTION
  2
TABLES
  0
TABLE
  2
VPORT
  5
8
330
0
100
AcDbSymbolTable
 70
     3
  0
VPORT
  5
177A
330
8
100
AcDbSymbolTableRecord
100
AcDbViewportTableRecord
  2
*ACTIVE
 70
     0
 10
0.0
 20
0.0
 11
1.0
 21
1.0
 12
32.24907019
 22
17.69569376
 13
0.0
 23
0.0
 14
7.0
 24
7.0
 15
7.0
 25
7.0
 16
0.0
 26
0.0
 36
1.0
 17
0.0
 27
0.0
 37
0.0
 40
143.6036279
 41
1.43184713
 42
50.0
 43
0.0
 44
0.0
 50
0.0
 51
0.0
 71
     0
 72
  2000
 73
     1
 74
     0
 75
     0
 76
     0
 77
     0
 78
     0
  0
ENDTAB
  0
TABLE
  2
LTYPE
  5
5
330
0
100
AcDbSymbolTable
 70
     3
  0
LTYPE
  5
14
330
5
100
AcDbSymbolTableRecord
100
AcDbLinetypeTableRecord
  2
BYBLOCK
 70
     0
  3

 72
    65
 73
     0
 40
0.0
  0
LTYPE
  5
15
330
5
100
AcDbSymbolTableRecord
100
AcDbLinetypeTableRecord
  2
BYLAYER
 70
     0
  3

 72
    65
 73
     0
 40
0.0
  0
LTYPE
  5
16
330
5
100
AcDbSymbolTableRecord
100
AcDbLinetypeTableRecord
  2
CONTINUOUS
 70
     0
  3
Solid line
 72
    65
 73
     0
 40
0.0
  0
LTYPE
  5
258
330
5
100
AcDbSymbolTableRecord
100
AcDbLinetypeTableRecord
  2
CENTER2
 70
     0
  3
___ _ ___ _ ___ _ ___ _ ___ _ ___ _ ___ _ ___ _
 72
    65
 73
     4
 40
1.125
 49
0.75
 74
     0
 49
-0.125
 74
     0
 49
0.125
 74
     0
 49
-0.125
 74
     0
  0
LTYPE
  5
25C
330
5
100
AcDbSymbolTableRecord
100
AcDbLinetypeTableRecord
  2
HIDDEN2
 70
     0
  3
_ _ _ _ _ _ _ _ _ _ _ _ _ _ _ _ _ _ _ _ _ _ _ _
 72
    65
 73
     2
 40
0.1875
 49
0.125
 74
     0
 49
-0.0625
 74
     0
  0
ENDTAB
  0
TABLE
  2
LAYER
  5
2
330
0
100
AcDbSymbolTable
 70
    12
  0
LAYER
  5
F
330
2
100
AcDbSymbolTableRecord
100
AcDbLayerTableRecord
  2
0
 70
     0
 62
     7
  6
CONTINUOUS
  0
LAYER
  5
1AA
330
2
100
AcDbSymbolTableRecord
100
AcDbLayerTableRecord
  2
240
 70
     0
 62
     4
  6
CONTINUOUS
  0
LAYER
  5
1AB
330
2
100
AcDbSymbolTableRecord
100
AcDbLayerTableRecord
  2
241
 70
     0
 62
   211
  6
CONTINUOUS
  0
LAYER
  5
1AC
330
2
100
AcDbSymbolTableRecord
100
AcDbLayerTableRecord
  2
242
 70
     0
 62
     3
  6
CONTINUOUS
  0
LAYER
  5
1AD
330
2
100
AcDbSymbolTableRecord
100
AcDbLayerTableRecord
  2
243
 70
     0
 62
   211
  6
HIDDEN2
  0
LAYER
  5
1AF
330
2
100
AcDbSymbolTableRecord
100
AcDbLayerTableRecord
  2
245
 70
     0
 62
     2
  6
CENTER2
  0
LAYER
  5
21E
330
2
100
AcDbSymbolTableRecord
100
AcDbLayerTableRecord
  2
250
 70
     0
 62
     3
  6
CONTINUOUS
  0
LAYER
  5
21F
330
2
100
AcDbSymbolTableRecord
100
AcDbLayerTableRecord
  2
251
 70
     0
 62
    40
  6
CONTINUOUS
  0
LAYER
  5
5C4
330
2
100
AcDbSymbolTableRecord
100
AcDbLayerTableRecord
  2
DEFPOINTS
 70
     0
 62
     7
  6
CONTINUOUS
  0
LAYER
  5
8C4
330
2
100
AcDbSymbolTableRecord
100
AcDbLayerTableRecord
  2
AM_5
 70
     0
 62
     3
  6
CONTINUOUS
  0
ENDTAB
  0
TABLE
  2
STYLE
  5
3
330
0
100
AcDbSymbolTable
 70
     2
  0
STYLE
  5
10
330
3
100
AcDbSymbolTableRecord
100
AcDbTextStyleTableRecord
  2
STANDARD
 70
     0
 40
0.0
 41
1.0
 50
0.0
 71
     0
 42
3.0
  3
romans.shx
  4
BIGFONT.SHX
  0
STYLE
  5
339
330
3
100
AcDbSymbolTableRecord
100
AcDbTextStyleTableRecord
  2
YOKO
 70
     0
 40
0.0
 41
1.0
 50
0.0
 71
     0
 42
3.0
  3
romans.shx
  4
extfont.shx
  0
ENDTAB
  0
TABLE
  2
VIEW
  5
6
330
0
100
AcDbSymbolTable
 70
     0
  0
ENDTAB
  0
TABLE
  2
UCS
  5
7
330
0
100
AcDbSymbolTable
 70
     0
  0
ENDTAB
  0
TABLE
  2
APPID
  5
9
330
0
100
AcDbSymbolTable
 70
    15
  0
APPID
  5
11
330
9
100
AcDbSymbolTableRecord
100
AcDbRegAppTableRecord
  2
ACAD
 70
     0
  0
APPID
  5
1B1
330
9
100
AcDbSymbolTableRecord
100
AcDbRegAppTableRecord
  2
GLOBAL
 70
     0
  0
APPID
  5
2A4
330
9
100
AcDbSymbolTableRecord
100
AcDbRegAppTableRecord
  2
DETAIL
 70
     0
  0
APPID
  5
5FD
330
9
100
AcDbSymbolTableRecord
100
AcDbRegAppTableRecord
  2
GRPNAME
 70
     0
  0
APPID
  5
5FE
330
9
100
AcDbSymbolTableRecord
100
AcDbRegAppTableRecord
  2
GPARA
 70
     0
  0
APPID
  5
6C4
330
9
100
AcDbSymbolTableRecord
100
AcDbRegAppTableRecord
  2
DCO15
 70
     0
  0
APPID
  5
6C5
330
9
100
AcDbSymbolTableRecord
100
AcDbRegAppTableRecord
  2
ITEMNAME
 70
     0
  0
APPID
  5
6C6
330
9
100
AcDbSymbolTableRecord
100
AcDbRegAppTableRecord
  2
GRADE_0
 70
     0
  0
APPID
  5
8C6
330
9
100
AcDbSymbolTableRecord
100
AcDbRegAppTableRecord
  2
GENIUS_GENODEF_13
 70
     0
  0
APPID
  5
8C7
330
9
100
AcDbSymbolTableRecord
100
AcDbRegAppTableRecord
  2
GENIUS_GENOREF_13
 70
     0
  0
APPID
  5
8C8
330
9
100
AcDbSymbolTableRecord
100
AcDbRegAppTableRecord
  2
GENIUS_GENOBJ-N-FIL_13
 70
     0
  0
APPID
  5
8C9
330
9
100
AcDbSymbolTableRecord
100
AcDbRegAppTableRecord
  2
HATCH_TYPE
 70
     0
  0
APPID
  5
8CA
330
9
100
AcDbSymbolTableRecord
100
AcDbRegAppTableRecord
  2
HATCH_DISPLAY
 70
     0
  0
APPID
  5
8CB
330
9
100
AcDbSymbolTableRecord
100
AcDbRegAppTableRecord
  2
HATCH_DISTANCE
 70
     0
  0
APPID
  5
C5A
330
9
100
AcDbSymbolTableRecord
100
AcDbRegAppTableRecord
  2
CONTENTBLOCKICON
 70
     0
  0
ENDTAB
  0
TABLE
  2
DIMSTYLE
  5
A
330
0
100
AcDbSymbolTable
 70
     2
  0
DIMSTYLE
105
725
102
{ACAD_REACTORS
330
14D4
102
}
330
A
100
AcDbSymbolTableRecord
100
AcDbDimStyleTableRecord
  2
BIGT
 70
     0
  3

  4

  5

  6
OPEN
  7
OPEN
 40
1.0
 41
2.23
 42
0.5
 43
2.5
 44
1.0
 45
0.0
 46
0.0
 47
0.0
 48
0.0
140
2.8
141
0.0
142
0.0
143
25.4
144
1.0
145
0.0
146
1.0
147
1.0
 71
     0
 72
     0
 73
     0
 74
     0
 75
     0
 76
     0
 77
     3
 78
     8
170
     0
171
     2
172
     1
173
     1
174
     1
175
     0
176
   256
177
   256
178
    40
270
     2
271
     3
272
     3
273
     2
274
     2
340
10
275
     0
280
     0
281
     0
282
     0
283
     1
284
     8
285
     0
286
     0
287
     3
288
     0
  0
DIMSTYLE
105
8C5
102
{ACAD_REACTORS
330
14D5
330
14D6
102
}
330
A
100
AcDbSymbolTableRecord
100
AcDbDimStyleTableRecord
  2
BIGT$0
 70
     0
  3

  4

  5
OPEN
  6

  7

 40
1.0
 41
2.23
 42
0.5
 43
7.0
 44
1.0
 45
0.0
 46
0.0
 47
0.0
 48
0.01
140
2.8
141
0.0
142
0.0
143
25.4
144
1.0
145
0.0
146
1.0
147
1.0
 71
     0
 72
     0
 73
     0
 74
     0
 75
     0
 76
     0
 77
     3
 78
     9
170
     0
171
     2
172
     1
173
     0
174
     1
175
     0
176
   256
177
   256
178
    40
270
     2
271
     3
272
     3
273
     2
274
     2
340
10
275
     0
280
     0
281
     0
282
     0
283
     1
284
     8
285
     0
286
     0
287
     3
288
     0
  0
ENDTAB
  0
TABLE
  2
BLOCK_RECORD
  5
1
330
0
100
AcDbSymbolTable
 70
    24
  0
BLOCK_RECORD
  5
1A
102
{ACAD_XDICTIONARY
360
C58
102
}
330
1
100
AcDbSymbolTableRecord
100
AcDbBlockTableRecord
  2
*MODEL_SPACE
  0
BLOCK_RECORD
  5
17
102
{ACAD_XDICTIONARY
360
C56
102
}
330
1
100
AcDbSymbolTableRecord
100
AcDbBlockTableRecord
  2
*PAPER_SPACE
  0
BLOCK_RECORD
  5
594
330
1
100
AcDbSymbolTableRecord
100
AcDbBlockTableRecord
  2
_OPEN
  0
BLOCK_RECORD
  5
6E3
330
1
100
AcDbSymbolTableRecord
100
AcDbBlockTableRecord
  2
矢印なし
  0
BLOCK_RECORD
  5
762
330
1
100
AcDbSymbolTableRecord
100
AcDbBlockTableRecord
  2
1
1001
CONTENTBLOCKICON
1071
        0
1004
2800000020000000200000000100080000000000000400000000000000000000000000000000000000000000000080000080000000808000800000008000800080800000C0C0C000C0DCC000F0CAA6000020400000206000002080000020A0000020C0000020E00000400000004020000040400000406000004080000040A0
1004
000040C0000040E00000600000006020000060400000606000006080000060A0000060C0000060E00000800000008020000080400000806000008080000080A0000080C0000080E00000A0000000A0200000A0400000A0600000A0800000A0A00000A0C00000A0E00000C0000000C0200000C0400000C0600000C0800000C0
1004
A00000C0C00000C0E00000E0000000E0200000E0400000E0600000E0800000E0A00000E0C00000E0E00040000000400020004000400040006000400080004000A0004000C0004000E00040200000402020004020400040206000402080004020A0004020C0004020E000404000004040200040404000404060004040800040
1004
40A0004040C0004040E00040600000406020004060400040606000406080004060A0004060C0004060E00040800000408020004080400040806000408080004080A0004080C0004080E00040A0000040A0200040A0400040A0600040A0800040A0A00040A0C00040A0E00040C0000040C0200040C0400040C0600040C08000
1004
40C0A00040C0C00040C0E00040E0000040E0200040E0400040E0600040E0800040E0A00040E0C00040E0E00080000000800020008000400080006000800080008000A0008000C0008000E00080200000802020008020400080206000802080008020A0008020C0008020E00080400000804020008040400080406000804080
1004
008040A0008040C0008040E00080600000806020008060400080606000806080008060A0008060C0008060E00080800000808020008080400080806000808080008080A0008080C0008080E00080A0000080A0200080A0400080A0600080A0800080A0A00080A0C00080A0E00080C0000080C0200080C0400080C0600080C0
1004
800080C0A00080C0C00080C0E00080E0000080E0200080E0400080E0600080E0800080E0A00080E0C00080E0E000C0000000C0002000C0004000C0006000C0008000C000A000C000C000C000E000C0200000C0202000C0204000C0206000C0208000C020A000C020C000C020E000C0400000C0402000C0404000C0406000C0
1004
408000C040A000C040C000C040E000C0600000C0602000C0604000C0606000C0608000C060A000C060C000C060E000C0800000C0802000C0804000C0806000C0808000C080A000C080C000C080E000C0A00000C0A02000C0A04000C0A06000C0A08000C0A0A000C0A0C000C0A0E000C0C00000C0C02000C0C04000C0C06000
1004
C0C08000C0C0A000F0FBFF00A4A0A000808080000000FF0000FF000000FFFF00FF000000FF00FF00FFFF0000FFFFFF0000000000000000000000000000000000000000000000000000000000000000000000000000000000000000000000000000000000000000000000000000000000000000000000000000000000000000
1004
00000000000000000000000000000000000000000000000000000000000000000000000000000000000000000000000000000000000000000000000000000000000000000000000000000000000000000000000000000000000000000000000000000000000000000000000000000000000000000000000000000000000000
1004
00000000000000000000000000000000000000000000000000000000000000000000000000000000000000000000000000000000000000000000000000000000000000000000000000000000000000000000000000000000000000000000000000000000000000000000000000000000000000000000000000000000000000
1004
00000000000000000000000000000000000000000000000000000000000000000000000000000000000000000000000000000000000000000000000000000000000000000000000000000000000000000000000000FEFE00FB00FEFEFEFEFEFEFEFEFEFEFEFEFEFEFEFEFEFEFEFEFEFEFE00000000FE00FEFEFEE7FBE7E7E7
1004
E700000000000000000000000000FE0000FE00000000FE00E7FBE7E7FBE7E7E7E700000000000000000000000000E70000FE000000FBFEFBE7FBE7E7E7E7E7E7E7FFFFFFFBFBFBFBFBFBFBFBFBE7E7E7FBFEFB000000FE00FEFEFEE7E7E7E7E7E7FFFFFFFFFFFFFFFFFFFFFF00E7FEE7E7FE00000000FEFE00FB00FEFEFEFE
1004
FEFEFEFEFEFEFEFEFEFEFEFEFEFEFEFEFEFEFE000000000000000000000000000000000000000000000000000000000000000000000000000000000000000000000000000000000000000000000000000000000000000000000000000000000000000000000000000000000000000000000000000000000000000000000000
1004
00000000000000000000000000000000000000000000000000000000000000000000000000000000000000000000000000000000000000000000000000000000000000000000000000000000000000000000000000000000000000000000000000000000000000000000000000000000000000000000000000000000000000
1004
00000000000000000000000000000000000000000000000000000000000000000000000000000000000000000000000000000000000000000000000000000000000000000000000000000000000000000000000000000000000000000000000000000000000000000000000000000000000000000000000000000000000000
1004
0000000000000000000000000000000000000000000000000000000000000000000000000000000000000000000000000000000000000000
  0
BLOCK_RECORD
  5
15F9
330
1
100
AcDbSymbolTableRecord
100
AcDbBlockTableRecord
  2
*D21
  0
BLOCK_RECORD
  5
1604
330
1
100
AcDbSymbolTableRecord
100
AcDbBlockTableRecord
  2
*D22
  0
BLOCK_RECORD
  5
1610
330
1
100
AcDbSymbolTableRecord
100
AcDbBlockTableRecord
  2
*D23
  0
ENDTAB
  0
ENDSEC
  0
SECTION
  2
BLOCKS
  0
BLOCK
  5
1B
330
1A
100
AcDbEntity
  8
0
100
AcDbBlockBegin
  2
*MODEL_SPACE
 70
     0
 10
0.0
 20
0.0
 30
0.0
  3
*MODEL_SPACE
  1

  0
ENDBLK
  5
1C
330
1A
100
AcDbEntity
  8
0
100
AcDbBlockEnd
  0
BLOCK
  5
18
330
17
100
AcDbEntity
 67
     1
  8
0
100
AcDbBlockBegin
  2
*PAPER_SPACE
 70
     0
 10
0.0
 20
0.0
 30
0.0
  3
*PAPER_SPACE
  1

  0
ENDBLK
  5
19
330
17
100
AcDbEntity
 67
     1
  8
0
100
AcDbBlockEnd
  0
BLOCK
  5
598
330
594
100
AcDbEntity
  8
0
100
AcDbBlockBegin
  2
_OPEN
 70
     0
 10
0.0
 20
0.0
 30
0.0
  3
_OPEN
  1

  0
LINE
  5
595
330
594
100
AcDbEntity
  8
0
  6
BYBLOCK
 62
     0
100
AcDbLine
 10
-1.0
 20
0.16666667
 30
0.0
 11
0.0
 21
0.0
 31
0.0
  0
LINE
  5
596
330
594
100
AcDbEntity
  8
0
  6
BYBLOCK
 62
     0
100
AcDbLine
 10
-1.0
 20
-0.16666667
 30
0.0
 11
0.0
 21
0.0
 31
0.0
  0
LINE
  5
597
330
594
100
AcDbEntity
  8
0
  6
BYBLOCK
 62
     0
100
AcDbLine
 10
0.0
 20
0.0
 30
0.0
 11
-1.0
 21
0.0
 31
0.0
  0
ENDBLK
  5
599
330
594
100
AcDbEntity
  8
0
100
AcDbBlockEnd
  0
BLOCK
  5
6E4
330
6E3
100
AcDbEntity
  8
0
100
AcDbBlockBegin
  2
矢印なし
 70
     0
 10
0.0
 20
0.0
 30
0.0
  3
矢印なし
  1

  0
ENDBLK
  5
6E5
330
6E3
100
AcDbEntity
  8
0
100
AcDbBlockEnd
  0
BLOCK
  5
89F
330
762
100
AcDbEntity
  8
0
100
AcDbBlockBegin
  2
1
 70
     0
 10
0.0
 20
0.0
 30
0.0
  3
1
  1

  0
TEXT
  5
165A
330
762
100
AcDbEntity
  8
0
100
AcDbText
 10
20.79776196
 20
5.24965864
 30
0.0
 40
3.0
  1
MGT20-M18,U3/4-115
  7
YOKO
100
AcDbText
  0
LINE
  5
165B
330
762
100
AcDbEntity
  8
240
100
AcDbLine
 10
90.0
 20
15.0
 30
0.0
 11
1.97309836
 21
15.0
 31
0.0
  0
LINE
  5
165C
330
762
100
AcDbEntity
  8
240
100
AcDbLine
 10
90.0
 20
-15.0
 30
0.0
 11
1.97309836
 21
-15.0
 31
0.0
  0
LINE
  5
165D
330
762
100
AcDbEntity
  8
245
100
AcDbLine
 10
-70.0
 20
0.0
 30
0.0
 11
116.0
 21
0.0
 31
0.0
  0
LINE
  5
165E
330
762
100
AcDbEntity
  8
240
100
AcDbLine
 10
-54.0
 20
12.5
 30
0.0
 11
-56.5
 21
15.0
 31
0.0
  0
LINE
  5
165F
330
762
100
AcDbEntity
  8
240
100
AcDbLine
 10
-54.0
 20
-12.5
 30
0.0
 11
-56.5
 21
-15.0
 31
0.0
  0
LINE
  5
1660
330
762
100
AcDbEntity
  8
240
100
AcDbLine
 10
-69.0
 20
-14.0
 30
0.0
 11
-69.0
 21
0.0
 31
0.0
  0
LINE
  5
1661
330
762
100
AcDbEntity
  8
240
100
AcDbLine
 10
-68.0
 20
-15.0
 30
0.0
 11
-56.5
 21
-15.0
 31
0.0
  0
ARC
  5
1662
330
762
100
AcDbEntity
  8
240
100
AcDbCircle
 10
-68.0
 20
-14.0
 30
0.0
 40
1.0
100
AcDbArc
 50
180.0
 51
270.0
  0
ARC
  5
1663
330
762
100
AcDbEntity
  8
240
100
AcDbCircle
 10
-68.0
 20
14.0
 30
0.0
 40
1.0
100
AcDbArc
 50
90.0
 51
180.0
  0
LINE
  5
1664
330
762
100
AcDbEntity
  8
240
100
AcDbLine
 10
-69.0
 20
14.0
 30
0.0
 11
-69.0
 21
0.0
 31
0.0
  0
LINE
  5
1665
330
762
100
AcDbEntity
  8
240
100
AcDbLine
 10
-68.0
 20
15.0
 30
0.0
 11
-56.5
 21
15.0
 31
0.0
  0
LINE
  5
1666
330
762
100
AcDbEntity
  8
245
100
AcDbLine
 10
-46.0
 20
-15.0
 30
0.0
 11
-46.0
 21
15.0
 31
0.0
1001
GENIUS_GENOREF_13
1005
0
  0
LINE
  5
1667
330
762
100
AcDbEntity
  8
243
100
AcDbLine
 10
-50.0
 20
-12.5
 30
0.0
 11
-50.0
 21
12.5
 31
0.0
1001
GENIUS_GENOREF_13
1005
0
  0
LINE
  5
1668
330
762
100
AcDbEntity
  8
243
100
AcDbLine
 10
-42.0
 20
-12.5
 30
0.0
 11
-42.0
 21
12.5
 31
0.0
1001
GENIUS_GENOREF_13
1005
0
  0
LINE
  5
1669
330
762
100
AcDbEntity
  8
241
100
AcDbLine
 10
-32.0
 20
-13.75
 30
0.0
 11
-32.0
 21
0.0
 31
0.0
  0
LINE
  5
166A
330
762
100
AcDbEntity
  8
241
100
AcDbLine
 10
-29.5
 20
-13.75
 30
0.0
 11
-29.5
 21
0.0
 31
0.0
  0
LINE
  5
166B
330
762
100
AcDbEntity
  8
241
100
AcDbLine
 10
-21.5
 20
-13.75
 30
0.0
 11
-21.5
 21
0.0
 31
0.0
  0
LINE
  5
166C
330
762
100
AcDbEntity
  8
241
100
AcDbLine
 10
-19.0
 20
-13.75
 30
0.0
 11
-19.0
 21
0.0
 31
0.0
  0
LINE
  5
166D
330
762
100
AcDbEntity
  8
241
100
AcDbLine
 10
-14.5
 20
-15.0
 30
0.0
 11
-14.5
 21
0.0
 31
0.0
  0
LINE
  5
166E
330
762
100
AcDbEntity
  8
241
100
AcDbLine
 10
-4.5
 20
-18.25
 30
0.0
 11
-4.5
 21
0.0
 31
0.0
  0
LINE
  5
166F
330
762
100
AcDbEntity
  8
241
100
AcDbLine
 10
-2.0
 20
-18.25
 30
0.0
 11
-2.0
 21
0.0
 31
0.0
  0
LINE
  5
1670
330
762
100
AcDbEntity
  8
241
100
AcDbLine
 10
0.0
 20
-19.14125603
 30
0.0
 11
0.0
 21
0.0
 31
0.0
  0
LINE
  5
1671
330
762
100
AcDbEntity
  8
241
  6
CONTINUOUS
100
AcDbLine
 10
-7.5
 20
-19.00000001
 30
0.0
 11
-7.5
 21
0.0
 31
0.0
  0
LINE
  5
1672
330
762
100
AcDbEntity
  8
241
100
AcDbLine
 10
-6.12626129
 20
-19.5
 30
0.0
 11
-6.12626129
 21
0.0
 31
0.0
  0
LINE
  5
1673
330
762
100
AcDbEntity
  8
241
100
AcDbLine
 10
1.20577137
 20
-15.35874397
 30
0.0
 11
1.20577137
 21
0.0
 31
0.0
  0
LINE
  5
1674
330
762
100
AcDbEntity
  8
240
100
AcDbLine
 10
-19.0
 20
-15.0
 30
0.0
 11
-14.5
 21
-15.0
 31
0.0
  0
LINE
  5
1675
330
762
100
AcDbEntity
  8
240
100
AcDbLine
 10
-38.0
 20
-12.5
 30
0.0
 11
-35.5
 21
-15.0
 31
0.0
  0
LINE
  5
1676
330
762
100
AcDbEntity
  8
240
100
AcDbLine
 10
-46.0
 20
-12.5
 30
0.0
 11
-38.0
 21
-12.5
 31
0.0
  0
LINE
  5
1677
330
762
100
AcDbEntity
  8
240
100
AcDbLine
 10
-54.0
 20
-12.5
 30
0.0
 11
-46.0
 21
-12.5
 31
0.0
  0
LINE
  5
1678
330
762
100
AcDbEntity
  8
240
100
AcDbLine
 10
-29.5
 20
-15.0
 30
0.0
 11
-21.5
 21
-15.0
 31
0.0
  0
ARC
  5
1679
330
762
100
AcDbEntity
  8
240
100
AcDbCircle
 10
-30.75
 20
-13.75
 30
0.0
 40
1.24999999999827
100
AcDbArc
 50
180.0
 51
0.0
  0
LINE
  5
167A
330
762
100
AcDbEntity
  8
240
100
AcDbLine
 10
-32.0
 20
-13.75
 30
0.0
 11
-32.0
 21
-15.0
 31
0.0
  0
LINE
  5
167B
330
762
100
AcDbEntity
  8
240
100
AcDbLine
 10
-35.5
 20
-15.0
 30
0.0
 11
-32.0
 21
-15.0
 31
0.0
  0
LINE
  5
167C
330
762
100
AcDbEntity
  8
240
100
AcDbLine
 10
-29.5
 20
-13.75
 30
0.0
 11
-29.5
 21
-15.0
 31
0.0
  0
ARC
  5
167D
330
762
100
AcDbEntity
  8
240
100
AcDbCircle
 10
-20.25
 20
-13.75
 30
0.0
 40
1.249999999998089
100
AcDbArc
 50
180.0
 51
0.0
  0
LINE
  5
167E
330
762
100
AcDbEntity
  8
240
100
AcDbLine
 10
-21.5
 20
-13.75
 30
0.0
 11
-21.5
 21
-15.0
 31
0.0
  0
LINE
  5
167F
330
762
100
AcDbEntity
  8
240
100
AcDbLine
 10
-19.0
 20
-13.75
 30
0.0
 11
-19.0
 21
-15.0
 31
0.0
  0
LINE
  5
1680
330
762
100
AcDbEntity
  8
240
100
AcDbLine
 10
-7.5
 20
-19.00000001
 30
0.0
 11
-6.12626128
 21
-19.5
 31
0.0
  0
LINE
  5
1681
330
762
100
AcDbEntity
  8
240
100
AcDbLine
 10
-13.0
 20
-15.5
 30
0.0
 11
-13.5
 21
-16.0
 31
0.0
  0
LINE
  5
1682
330
762
100
AcDbEntity
  8
240
100
AcDbLine
 10
-7.50000001
 20
-19.0
 30
0.0
 11
-13.5
 21
-19.0
 31
0.0
  0
LINE
  5
1683
330
762
100
AcDbEntity
  8
240
100
AcDbLine
 10
-13.5
 20
-19.0
 30
0.0
 11
-13.5
 21
-16.0
 31
0.0
  0
LINE
  5
1684
330
762
100
AcDbEntity
  8
241
  6
CONTINUOUS
100
AcDbLine
 10
-7.5
 20
-15.2
 30
0.0
 11
-13.0
 21
-15.2
 31
0.0
  0
LINE
  5
1685
330
762
100
AcDbEntity
  8
240
100
AcDbLine
 10
-14.2
 20
-14.7
 30
0.0
 11
-14.5
 21
-15.0
 31
0.0
  0
LINE
  5
1686
330
762
100
AcDbEntity
  8
240
100
AcDbLine
 10
-14.2
 20
-14.7
 30
0.0
 11
-13.0
 21
-14.7
 31
0.0
  0
LINE
  5
1687
330
762
100
AcDbEntity
  8
240
100
AcDbLine
 10
-13.0
 20
-15.5
 30
0.0
 11
-13.0
 21
-14.7
 31
0.0
  0
LINE
  5
1688
330
762
100
AcDbEntity
  8
240
100
AcDbLine
 10
0.19859884
 20
-18.75881905
 30
0.0
 11
1.00717253
 21
-15.74118096
 31
0.0
  0
ARC
  5
1689
330
762
100
AcDbEntity
  8
240
100
AcDbCircle
 10
-3.25
 20
-18.25
 30
0.0
 40
1.250000000000339
100
AcDbArc
 50
180.0
 51
0.0
  0
LINE
  5
168A
330
762
100
AcDbEntity
  8
240
100
AcDbLine
 10
-4.5
 20
-18.25
 30
0.0
 11
-4.5
 21
-19.5
 31
0.0
  0
LINE
  5
168B
330
762
100
AcDbEntity
  8
240
100
AcDbLine
 10
-4.5
 20
-19.5
 30
0.0
 11
-6.12626129
 21
-19.5
 31
0.0
  0
LINE
  5
168C
330
762
100
AcDbEntity
  8
240
100
AcDbLine
 10
-0.50850794
 20
-19.46592583
 30
0.0
 11
-0.63567449
 21
-19.5
 31
0.0
  0
LINE
  5
168D
330
762
100
AcDbEntity
  8
240
100
AcDbLine
 10
-2.0
 20
-18.25
 30
0.0
 11
-2.0
 21
-19.5
 31
0.0
  0
LINE
  5
168E
330
762
100
AcDbEntity
  8
240
100
AcDbLine
 10
-0.63567449
 20
-19.5
 30
0.0
 11
-2.0
 21
-19.5
 31
0.0
  0
ARC
  5
168F
330
762
100
AcDbEntity
  8
240
100
AcDbCircle
 10
-0.76732699
 20
-18.5
 30
0.0
 40
1.0
100
AcDbArc
 50
285.0
 51
345.0
1001
GENIUS_GENOBJ-N-FIL_13
1002
{
1000
OWNER
1000
GEN
1002
}
1001
GENIUS_GENODEF_13
1002
{
1000
HIER
1070
     0
1002
}
1002
{
1000
MANEDIT
1070
     0
1002
}
1002
{
1000
NOSEL
1070
     0
1002
}
1002
{
1000
BEHIND
1070
     0
1002
}
1002
{
1000
OTHER
1070
     0
1002
}
1002
{
1000
REACTOR
1002
}
  0
ARC
  5
1690
330
762
100
AcDbEntity
  8
240
100
AcDbCircle
 10
1.97309836
 20
-16.0
 30
0.0
 40
1.0
100
AcDbArc
 50
90.0
 51
165.00000002
  0
LINE
  5
1691
330
762
100
AcDbEntity
  8
240
100
AcDbLine
 10
-19.0
 20
15.0
 30
0.0
 11
-14.5
 21
15.0
 31
0.0
  0
LINE
  5
1692
330
762
100
AcDbEntity
  8
240
100
AcDbLine
 10
-38.0
 20
12.5
 30
0.0
 11
-35.5
 21
15.0
 31
0.0
  0
LINE
  5
1693
330
762
100
AcDbEntity
  8
240
100
AcDbLine
 10
-46.0
 20
12.5
 30
0.0
 11
-38.0
 21
12.5
 31
0.0
  0
LINE
  5
1694
330
762
100
AcDbEntity
  8
240
100
AcDbLine
 10
-54.0
 20
12.5
 30
0.0
 11
-46.0
 21
12.5
 31
0.0
  0
LINE
  5
1695
330
762
100
AcDbEntity
  8
241
100
AcDbLine
 10
-19.0
 20
13.75
 30
0.0
 11
-19.0
 21
0.0
 31
0.0
  0
LINE
  5
1696
330
762
100
AcDbEntity
  8
241
100
AcDbLine
 10
-21.5
 20
13.75
 30
0.0
 11
-21.5
 21
0.0
 31
0.0
  0
LINE
  5
1697
330
762
100
AcDbEntity
  8
241
100
AcDbLine
 10
-29.5
 20
13.75
 30
0.0
 11
-29.5
 21
0.0
 31
0.0
  0
LINE
  5
1698
330
762
100
AcDbEntity
  8
241
100
AcDbLine
 10
-32.0
 20
13.75
 30
0.0
 11
-32.0
 21
0.0
 31
0.0
  0
LINE
  5
1699
330
762
100
AcDbEntity
  8
245
100
AcDbLine
 10
-27.4999651
 20
-5.13030215
 30
0.0
 11
-23.5000349
 21
-5.13030215
 31
0.0
  0
ELLIPSE
  5
169A
330
762
100
AcDbEntity
  8
241
100
AcDbEllipse
 10
-25.5000349
 20
-5.08449496
 30
0.0
 11
-2.000524505802109
 21
0.0
 31
0.0
210
0.0
220
0.0
230
1.0
 40
0.93944625
 41
0.0
 42
6.283185307179584
  0
LINE
  5
169B
330
762
100
AcDbEntity
  8
245
100
AcDbLine
 10
-25.5000349
 20
-3.20510972
 30
0.0
 11
-25.5000349
 21
-6.96388021
 31
0.0
  0
LINE
  5
169C
330
762
100
AcDbEntity
  8
240
100
AcDbLine
 10
-29.5
 20
15.0
 30
0.0
 11
-21.5
 21
15.0
 31
0.0
  0
ARC
  5
169D
330
762
100
AcDbEntity
  8
240
100
AcDbCircle
 10
-30.75
 20
13.75
 30
0.0
 40
1.24999999999827
100
AcDbArc
 50
0.0
 51
180.0
  0
LINE
  5
169E
330
762
100
AcDbEntity
  8
240
100
AcDbLine
 10
-32.0
 20
13.75
 30
0.0
 11
-32.0
 21
15.0
 31
0.0
  0
LINE
  5
169F
330
762
100
AcDbEntity
  8
240
100
AcDbLine
 10
-35.5
 20
15.0
 30
0.0
 11
-32.0
 21
15.0
 31
0.0
  0
LINE
  5
16A0
330
762
100
AcDbEntity
  8
240
100
AcDbLine
 10
-29.5
 20
13.75
 30
0.0
 11
-29.5
 21
15.0
 31
0.0
  0
ARC
  5
16A1
330
762
100
AcDbEntity
  8
240
100
AcDbCircle
 10
-20.25
 20
13.75
 30
0.0
 40
1.249999999998089
100
AcDbArc
 50
0.0
 51
180.0
  0
LINE
  5
16A2
330
762
100
AcDbEntity
  8
240
100
AcDbLine
 10
-21.5
 20
13.75
 30
0.0
 11
-21.5
 21
15.0
 31
0.0
  0
LINE
  5
16A3
330
762
100
AcDbEntity
  8
240
100
AcDbLine
 10
-19.0
 20
13.75
 30
0.0
 11
-19.0
 21
15.0
 31
0.0
  0
LINE
  5
16A4
330
762
100
AcDbEntity
  8
240
100
AcDbLine
 10
-13.0
 20
15.5
 30
0.0
 11
-13.0
 21
14.7
 31
0.0
  0
ARC
  5
16A5
330
762
100
AcDbEntity
  8
240
100
AcDbCircle
 10
1.97309836
 20
16.0
 30
0.0
 40
1.0
100
AcDbArc
 50
194.99999998
 51
270.0
  0
LINE
  5
16A6
330
762
100
AcDbEntity
  8
241
100
AcDbLine
 10
1.20577137
 20
15.35874397
 30
0.0
 11
1.20577137
 21
0.0
 31
0.0
  0
LINE
  5
16A7
330
762
100
AcDbEntity
  8
241
100
AcDbLine
 10
-6.12626129
 20
19.5
 30
0.0
 11
-6.12626129
 21
0.0
 31
0.0
  0
LINE
  5
16A8
330
762
100
AcDbEntity
  8
241
  6
CONTINUOUS
100
AcDbLine
 10
-7.5
 20
19.00000001
 30
0.0
 11
-7.5
 21
0.0
 31
0.0
  0
LINE
  5
16A9
330
762
100
AcDbEntity
  8
241
100
AcDbLine
 10
0.0
 20
19.14125603
 30
0.0
 11
0.0
 21
0.0
 31
0.0
  0
LINE
  5
16AA
330
762
100
AcDbEntity
  8
241
100
AcDbLine
 10
-2.0
 20
18.25
 30
0.0
 11
-2.0
 21
0.0
 31
0.0
  0
LINE
  5
16AB
330
762
100
AcDbEntity
  8
241
100
AcDbLine
 10
-4.5
 20
18.25
 30
0.0
 11
-4.5
 21
0.0
 31
0.0
  0
LINE
  5
16AC
330
762
100
AcDbEntity
  8
241
100
AcDbLine
 10
-14.5
 20
15.0
 30
0.0
 11
-14.5
 21
0.0
 31
0.0
  0
LINE
  5
16AD
330
762
100
AcDbEntity
  8
240
100
AcDbLine
 10
-14.2
 20
14.7
 30
0.0
 11
-13.0
 21
14.7
 31
0.0
  0
LINE
  5
16AE
330
762
100
AcDbEntity
  8
240
100
AcDbLine
 10
-14.2
 20
14.7
 30
0.0
 11
-14.5
 21
15.0
 31
0.0
  0
LINE
  5
16AF
330
762
100
AcDbEntity
  8
0
100
AcDbLine
 10
12.27418735
 20
8.00956763
 30
0.0
 11
12.72776586
 21
8.46314614
 31
0.0
  0
LINE
  5
16B0
330
762
100
AcDbEntity
  8
0
100
AcDbLine
 10
11.2445154
 20
5.36344959
 30
0.0
 11
12.57922373
 21
6.69815792
 31
0.0
  0
LINE
  5
16B1
330
762
100
AcDbEntity
  8
0
100
AcDbLine
 10
12.12091952
 20
5.43163065
 30
0.0
 11
12.61663971
 21
5.92735085
 31
0.0
  0
LINE
  5
16B2
330
762
100
AcDbEntity
  8
0
100
AcDbLine
 10
11.64862693
 20
5.36344959
 30
0.0
 11
12.67700139
 21
6.39182404
 31
0.0
  0
ARC
  5
16B3
330
762
100
AcDbEntity
  8
0
100
AcDbCircle
 10
11.77544078
 20
6.27282959
 30
0.0
 40
0.9093795776367187
100
AcDbArc
 50
270.0
 51
40.32984065
  0
LINE
  5
16B4
330
762
100
AcDbEntity
  8
0
100
AcDbLine
 10
11.7616083
 20
6.68876553
 30
0.0
 11
13.06330614
 21
7.99046338
 31
0.0
  0
LINE
  5
16B5
330
762
100
AcDbEntity
  8
0
100
AcDbLine
 10
11.90267172
 20
6.42571743
 30
0.0
 11
13.09544732
 21
7.61849303
 31
0.0
  0
ARC
  5
16B6
330
762
100
AcDbEntity
  8
0
100
AcDbCircle
 10
11.78683909
 20
7.76422364
 30
0.0
 40
0.5456207513809207
100
AcDbArc
 50
261.66260169
 51
66.3381551
  0
LINE
  5
16B7
330
762
100
AcDbEntity
  8
0
100
AcDbLine
 10
12.08298741
 20
8.22247922
 30
0.0
 11
12.45814039
 21
8.59763219
 31
0.0
  0
ARC
  5
16B8
330
762
100
AcDbEntity
  8
0
100
AcDbCircle
 10
12.19266032
 20
7.72785889
 30
0.0
 40
0.9093873023986816
100
AcDbArc
 50
287.66957755
 51
90.23615984
  0
LINE
  5
16B9
330
762
100
AcDbEntity
  8
0
100
AcDbLine
 10
10.07504557
 20
4.81781361
 30
0.0
 11
17.45927257
 21
4.81781361
 31
0.0
  0
LINE
  5
16BA
330
762
100
AcDbEntity
  8
0
100
AcDbLine
 10
10.07504557
 20
5.18157093
 30
0.0
 11
17.45927257
 21
5.18157093
 31
0.0
  0
LINE
  5
16BB
330
762
100
AcDbEntity
  8
0
100
AcDbLine
 10
10.2659193
 20
5.36344959
 30
0.0
 11
11.77544078
 21
5.36344959
 31
0.0
  0
LINE
  5
16BC
330
762
100
AcDbEntity
  8
0
100
AcDbLine
 10
10.2659193
 20
5.36344959
 30
0.0
 11
11.10035838
 21
8.27348115
 31
0.0
  0
LINE
  5
16BD
330
762
100
AcDbEntity
  8
0
100
AcDbLine
 10
10.07504557
 20
8.63723847
 30
0.0
 11
10.82624949
 21
8.63723847
 31
0.0
  0
LINE
  5
16BE
330
762
100
AcDbEntity
  8
0
100
AcDbLine
 10
10.07504557
 20
8.27348115
 30
0.0
 11
10.72194804
 21
8.27348115
 31
0.0
  0
LINE
  5
16BF
330
762
100
AcDbEntity
  8
0
100
AcDbLine
 10
10.11343171
 20
8.27348115
 30
0.0
 11
10.47718903
 21
8.63723847
 31
0.0
  0
LINE
  5
16C0
330
762
100
AcDbEntity
  8
0
100
AcDbLine
 10
9.64963722
 20
8.21379819
 30
0.0
 11
10.07307649
 21
8.63723745
 31
0.0
  0
LINE
  5
16C1
330
762
100
AcDbEntity
  8
0
100
AcDbLine
 10
9.89880637
 20
4.8259636
 30
0.0
 11
10.25441369
 21
5.18157093
 31
0.0
  0
LINE
  5
16C2
330
762
100
AcDbEntity
  8
0
100
AcDbLine
 10
9.26346503
 20
4.99884531
 30
0.0
 11
9.54126518
 21
5.27664547
 31
0.0
  0
LINE
  5
16C3
330
762
100
AcDbEntity
  8
0
100
AcDbLine
 10
8.78021155
 20
5.32381489
 30
0.0
 11
9.03768541
 21
5.58128875
 31
0.0
  0
LINE
  5
16C4
330
762
100
AcDbEntity
  8
0
100
AcDbLine
 10
9.00575307
 20
5.14524489
 30
0.0
 11
9.26890231
 21
5.40839413
 31
0.0
  0
LINE
  5
16C5
330
762
100
AcDbEntity
  8
0
100
AcDbLine
 10
9.55789938
 20
4.88916813
 30
0.0
 11
9.86468193
 21
5.1959507
 31
0.0
  0
LINE
  5
16C6
330
762
100
AcDbEntity
  8
0
100
AcDbLine
 10
11.58860364
 20
6.80897302
 30
0.0
 11
11.29050371
 21
5.76933797
 31
0.0
  0
ARC
  5
16C7
330
762
100
AcDbEntity
  8
0
100
AcDbCircle
 10
11.36961955
 20
6.30920807
 30
0.0
 40
0.5456363618373872
100
AcDbArc
 50
261.66285421
 51
66.33819216
  0
LINE
  5
16C8
330
762
100
AcDbEntity
  8
0
100
AcDbLine
 10
10.43629236
 20
5.36344959
 30
0.0
 11
11.47073124
 21
6.39788847
 31
0.0
  0
LINE
  5
16C9
330
762
100
AcDbEntity
  8
0
100
AcDbLine
 10
11.911214
 20
4.81781361
 30
0.0
 11
12.27497132
 21
5.18157093
 31
0.0
  0
LINE
  5
16CA
330
762
100
AcDbEntity
  8
0
100
AcDbLine
 10
10.2947679
 20
4.81781361
 30
0.0
 11
10.65852522
 21
5.18157093
 31
0.0
  0
LINE
  5
16CB
330
762
100
AcDbEntity
  8
0
100
AcDbLine
 10
10.69887943
 20
4.81781361
 30
0.0
 11
11.06263674
 21
5.18157093
 31
0.0
  0
LINE
  5
16CC
330
762
100
AcDbEntity
  8
0
100
AcDbLine
 10
11.10299095
 20
4.81781361
 30
0.0
 11
11.46674827
 21
5.18157093
 31
0.0
  0
LINE
  5
16CD
330
762
100
AcDbEntity
  8
0
100
AcDbLine
 10
11.50710248
 20
4.81781361
 30
0.0
 11
11.87085979
 21
5.18157093
 31
0.0
  0
LINE
  5
16CE
330
762
100
AcDbEntity
  8
0
100
AcDbLine
 10
10.84040388
 20
5.36344959
 30
0.0
 11
11.30827687
 21
5.83132257
 31
0.0
  0
LINE
  5
16CF
330
762
100
AcDbEntity
  8
0
100
AcDbLine
 10
10.52235063
 20
6.25773092
 30
0.0
 11
11.79565769
 21
7.53103797
 31
0.0
  0
LINE
  5
16D0
330
762
100
AcDbEntity
  8
0
100
AcDbLine
 10
10.35988789
 20
5.69115665
 30
0.0
 11
11.89898325
 21
7.23025202
 31
0.0
  0
LINE
  5
16D1
330
762
100
AcDbEntity
  8
0
100
AcDbLine
 10
10.68481338
 20
6.82430519
 30
0.0
 11
11.95811507
 21
8.09760688
 31
0.0
  0
LINE
  5
16D2
330
762
100
AcDbEntity
  8
0
100
AcDbLine
 10
10.84727613
 20
7.39087947
 30
0.0
 11
12.09363513
 21
8.63723847
 31
0.0
  0
LINE
  5
16D3
330
762
100
AcDbEntity
  8
0
100
AcDbLine
 10
12.00581885
 20
8.26397344
 30
0.0
 11
11.70772381
 21
7.22436923
 31
0.0
  0
LINE
  5
16D4
330
762
100
AcDbEntity
  8
0
100
AcDbLine
 10
11.01544779
 20
8.63723847
 30
0.0
 11
12.18891205
 21
8.63723847
 31
0.0
  0
LINE
  5
16D5
330
762
100
AcDbEntity
  8
0
100
AcDbLine
 10
10.92165476
 20
8.27348115
 30
0.0
 11
11.28541208
 21
8.63723847
 31
0.0
  0
LINE
  5
16D6
330
762
100
AcDbEntity
  8
0
100
AcDbLine
 10
11.00973888
 20
7.95745373
 30
0.0
 11
11.6895236
 21
8.63723847
 31
0.0
  0
LINE
  5
16D7
330
762
100
AcDbEntity
  8
0
100
AcDbLine
 10
11.01544779
 20
8.63723847
 30
0.0
 11
10.91114635
 21
8.27348115
 31
0.0
  0
LINE
  5
16D8
330
762
100
AcDbEntity
  8
0
100
AcDbLine
 10
10.91114635
 20
8.27348115
 30
0.0
 11
11.10035838
 21
8.27348115
 31
0.0
  0
LINE
  5
16D9
330
762
100
AcDbEntity
  8
0
100
AcDbLine
 10
10.51754323
 20
8.27348115
 30
0.0
 11
10.80411893
 21
8.56005683
 31
0.0
  0
LINE
  5
16DA
330
762
100
AcDbEntity
  8
0
100
AcDbLine
 10
10.82624949
 20
8.63723847
 30
0.0
 11
10.72194804
 21
8.27348115
 31
0.0
  0
LINE
  5
16DB
330
762
100
AcDbEntity
  8
0
100
AcDbLine
 10
8.29080086
 20
6.04673878
 30
0.0
 11
8.57960948
 21
6.33554739
 31
0.0
  0
LINE
  5
16DC
330
762
100
AcDbEntity
  8
0
100
AcDbLine
 10
8.42106092
 20
5.77288731
 30
0.0
 11
8.68965212
 21
6.04147851
 31
0.0
  0
LINE
  5
16DD
330
762
100
AcDbEntity
  8
0
100
AcDbLine
 10
8.20085525
 20
6.36090469
 30
0.0
 11
8.52955584
 21
6.68960528
 31
0.0
  0
LINE
  5
16DE
330
762
100
AcDbEntity
  8
0
100
AcDbLine
 10
8.16533437
 20
6.72949533
 30
0.0
 11
8.58877364
 21
7.1529346
 31
0.0
  0
LINE
  5
16DF
330
762
100
AcDbEntity
  8
0
100
AcDbLine
 10
8.58515072
 20
5.53286559
 30
0.0
 11
8.84428608
 21
5.79200095
 31
0.0
  0
ARC
  5
16E0
330
762
100
AcDbEntity
  8
0
100
AcDbCircle
 10
10.07504557
 20
6.72752625
 30
0.0
 40
1.545954895019525
100
AcDbArc
 50
90.0
 51
270.0
  0
ARC
  5
16E1
330
762
100
AcDbEntity
  8
0
100
AcDbCircle
 10
10.07504557
 20
6.72752625
 30
0.0
 40
1.909712219238279
100
AcDbArc
 50
90.0
 51
270.0
  0
LINE
  5
16E2
330
762
100
AcDbEntity
  8
0
100
AcDbLine
 10
8.22232778
 20
7.19060027
 30
0.0
 11
9.61197155
 21
8.58024404
 31
0.0
  0
ARC
  5
16E3
330
762
100
AcDbEntity
  8
0
100
AcDbCircle
 10
15.8418104
 20
7.4550409
 30
0.0
 40
1.182199287414549
100
AcDbArc
 50
53.4440122
 51
164.00018439
  0
LINE
  5
16E4
330
762
100
AcDbEntity
  8
0
100
AcDbLine
 10
17.04708704
 20
8.33724055
 30
0.0
 11
17.34357717
 21
8.63373068
 31
0.0
  0
LINE
  5
16E5
330
762
100
AcDbEntity
  8
0
100
AcDbLine
 10
16.7605523
 20
4.81781361
 30
0.0
 11
17.12430962
 21
5.18157093
 31
0.0
  0
ARC
  5
16E6
330
762
100
AcDbEntity
  8
0
100
AcDbCircle
 10
17.45927257
 20
6.72752625
 30
0.0
 40
1.545954895019525
100
AcDbArc
 50
270.0
 51
104.1274365
  0
ARC
  5
16E7
330
762
100
AcDbEntity
  8
0
100
AcDbCircle
 10
17.45927257
 20
6.72752625
 30
0.0
 40
1.909712219238279
100
AcDbArc
 50
270.0
 51
104.77079397
  0
ARC
  5
16E8
330
762
100
AcDbEntity
  8
0
100
AcDbCircle
 10
15.54199351
 20
6.14552552
 30
0.0
 40
0.3819447398185731
100
AcDbArc
 50
164.00027306
 51
344.00027306
  0
LINE
  5
16E9
330
762
100
AcDbEntity
  8
0
100
AcDbLine
 10
14.46408049
 20
6.15834553
 30
0.0
 11
15.42342043
 21
7.11768547
 31
0.0
  0
ARC
  5
16EA
330
762
100
AcDbEntity
  8
0
100
AcDbCircle
 10
15.58104991
 20
6.54564759
 30
0.0
 40
1.182211303710936
100
AcDbArc
 50
163.9997507
 51
304.96387329
  0
LINE
  5
16EB
330
762
100
AcDbEntity
  8
0
100
AcDbLine
 10
14.39979239
 20
6.49816894
 30
0.0
 11
15.58588423
 21
7.68426079
 31
0.0
  0
LINE
  5
16EC
330
762
100
AcDbEntity
  8
0
100
AcDbLine
 10
14.59121502
 20
7.49781463
 30
0.0
 11
15.7248396
 21
8.63143921
 31
0.0
  0
LINE
  5
16ED
330
762
100
AcDbEntity
  8
0
100
AcDbLine
 10
14.45705289
 20
6.95954097
 30
0.0
 11
16.10506777
 21
8.60755585
 31
0.0
  0
LINE
  5
16EE
330
762
100
AcDbEntity
  8
0
100
AcDbLine
 10
14.59832375
 20
5.88847725
 30
0.0
 11
15.26095663
 21
6.55111013
 31
0.0
  0
LINE
  5
16EF
330
762
100
AcDbEntity
  8
0
100
AcDbLine
 10
14.73999468
 20
4.81781361
 30
0.0
 11
15.103752
 21
5.18157093
 31
0.0
  0
LINE
  5
16F0
330
762
100
AcDbEntity
  8
0
100
AcDbLine
 10
14.78530139
 20
5.67134337
 30
0.0
 11
15.17054747
 21
6.05658945
 31
0.0
  0
LINE
  5
16F1
330
762
100
AcDbEntity
  8
0
100
AcDbLine
 10
15.02202743
 20
5.50395789
 30
0.0
 11
15.33965144
 21
5.82158189
 31
0.0
  0
LINE
  5
16F2
330
762
100
AcDbEntity
  8
0
100
AcDbLine
 10
13.69056377
 20
5.36344959
 30
0.0
 11
14.6293043
 21
8.63723847
 31
0.0
  0
LINE
  5
16F3
330
762
100
AcDbEntity
  8
0
100
AcDbLine
 10
13.69056377
 20
5.36344959
 30
0.0
 11
14.6293043
 21
8.63723847
 31
0.0
1001
HATCH_DISTANCE
1040
1.0
1001
HATCH_DISPLAY
1070
     0
1001
HATCH_TYPE
1070
     7
  0
LINE
  5
16F4
330
762
100
AcDbEntity
  8
0
100
AcDbLine
 10
13.69056377
 20
5.36344959
 30
0.0
 11
14.6293043
 21
8.63723847
 31
0.0
  0
LINE
  5
16F5
330
762
100
AcDbEntity
  8
0
100
AcDbLine
 10
13.67249277
 20
8.59965001
 30
0.0
 11
13.71008124
 21
8.63723847
 31
0.0
  0
LINE
  5
16F6
330
762
100
AcDbEntity
  8
0
100
AcDbLine
 10
13.69572705
 20
8.21877277
 30
0.0
 11
14.11419276
 21
8.63723847
 31
0.0
  0
LINE
  5
16F7
330
762
100
AcDbEntity
  8
0
100
AcDbLine
 10
13.53326316
 20
7.65219735
 30
0.0
 11
14.51830429
 21
8.63723847
 31
0.0
  0
LINE
  5
16F8
330
762
100
AcDbEntity
  8
0
100
AcDbLine
 10
14.6293043
 20
8.63723847
 30
0.0
 11
13.68327159
 21
8.63723847
 31
0.0
  0
LINE
  5
16F9
330
762
100
AcDbEntity
  8
0
100
AcDbLine
 10
13.56853313
 20
8.2371164
 30
0.0
 11
13.70098704
 21
8.2371164
 31
0.0
  0
LINE
  5
16FA
330
762
100
AcDbEntity
  8
0
100
AcDbLine
 10
13.68327159
 20
8.63723847
 30
0.0
 11
13.56853313
 21
8.2371164
 31
0.0
  0
LINE
  5
16FB
330
762
100
AcDbEntity
  8
0
100
AcDbLine
 10
14.6293043
 20
8.63723847
 30
0.0
 11
13.68327159
 21
8.63723847
 31
0.0
1001
HATCH_DISTANCE
1040
1.0
1001
HATCH_DISPLAY
1070
     0
1001
HATCH_TYPE
1070
     7
  0
LINE
  5
16FC
330
762
100
AcDbEntity
  8
0
100
AcDbLine
 10
13.56853313
 20
8.2371164
 30
0.0
 11
13.70098704
 21
8.2371164
 31
0.0
1001
HATCH_DISTANCE
1040
1.0
1001
HATCH_DISPLAY
1070
     0
1001
HATCH_TYPE
1070
     7
  0
LINE
  5
16FD
330
762
100
AcDbEntity
  8
0
100
AcDbLine
 10
13.68327159
 20
8.63723847
 30
0.0
 11
13.56853313
 21
8.2371164
 31
0.0
1001
HATCH_DISTANCE
1040
1.0
1001
HATCH_DISPLAY
1070
     0
1001
HATCH_TYPE
1070
     7
  0
LINE
  5
16FE
330
762
100
AcDbEntity
  8
0
100
AcDbLine
 10
13.68327159
 20
8.63723847
 30
0.0
 11
14.6293043
 21
8.63723847
 31
0.0
  0
ARC
  5
16FF
330
762
100
AcDbEntity
  8
0
100
AcDbCircle
 10
17.51390208
 20
6.48349244
 30
0.0
 40
3.093695068359374
100
AcDbArc
 50
155.20517737
 51
172.79482596
  0
LINE
  5
1700
330
762
100
AcDbEntity
  8
0
100
AcDbLine
 10
13.56853313
 20
8.2371164
 30
0.0
 11
13.68327159
 21
8.63723847
 31
0.0
  0
LINE
  5
1701
330
762
100
AcDbEntity
  8
0
100
AcDbLine
 10
13.56853313
 20
8.2371164
 30
0.0
 11
13.70098704
 21
8.2371164
 31
0.0
  0
LINE
  5
1702
330
762
100
AcDbEntity
  8
0
100
AcDbLine
 10
13.66918455
 20
5.36344959
 30
0.0
 11
13.69915867
 21
5.39342371
 31
0.0
  0
LINE
  5
1703
330
762
100
AcDbEntity
  8
0
100
AcDbLine
 10
13.52766011
 20
4.81781361
 30
0.0
 11
13.89141741
 21
5.18157093
 31
0.0
  0
LINE
  5
1704
330
762
100
AcDbEntity
  8
0
100
AcDbLine
 10
13.93177163
 20
4.81781361
 30
0.0
 11
14.29552895
 21
5.18157093
 31
0.0
  0
LINE
  5
1705
330
762
100
AcDbEntity
  8
0
100
AcDbLine
 10
14.33588316
 20
4.81781361
 30
0.0
 11
14.69964047
 21
5.18157093
 31
0.0
  0
LINE
  5
1706
330
762
100
AcDbEntity
  8
0
100
AcDbLine
 10
15.54821773
 20
4.81781361
 30
0.0
 11
15.91197505
 21
5.18157093
 31
0.0
  0
LINE
  5
1707
330
762
100
AcDbEntity
  8
0
100
AcDbLine
 10
15.31576613
 20
5.39358506
 30
0.0
 11
15.74282318
 21
5.8206421
 31
0.0
  0
LINE
  5
1708
330
762
100
AcDbEntity
  8
0
100
AcDbLine
 10
15.86687693
 20
5.94469585
 30
0.0
 11
16.94881616
 21
7.02663509
 31
0.0
  0
LINE
  5
1709
330
762
100
AcDbEntity
  8
0
100
AcDbLine
 10
15.17484416
 20
6.25080201
 30
0.0
 11
15.66508159
 21
7.96045319
 31
0.0
  0
LINE
  5
170A
330
762
100
AcDbEntity
  8
0
100
AcDbLine
 10
16.47190379
 20
5.36344959
 30
0.0
 11
17.00386179
 21
7.21860139
 31
0.0
  0
LINE
  5
170B
330
762
100
AcDbEntity
  8
0
100
AcDbLine
 10
15.90914287
 20
6.04024903
 30
0.0
 11
16.14272593
 21
6.85484405
 31
0.0
  0
LINE
  5
170C
330
762
100
AcDbEntity
  8
0
100
AcDbLine
 10
16.05018405
 20
6.53211451
 30
0.0
 11
16.73667093
 21
7.21860139
 31
0.0
  0
LINE
  5
170D
330
762
100
AcDbEntity
  8
0
100
AcDbLine
 10
17.0819334
 20
8.22673432
 30
0.0
 11
17.0819334
 21
8.22673432
 31
0.0
  0
LINE
  5
170E
330
762
100
AcDbEntity
  8
0
100
AcDbLine
 10
16.97238597
 20
8.57413575
 30
0.0
 11
17.0819334
 21
8.22673432
 31
0.0
  0
LINE
  5
170F
330
762
100
AcDbEntity
  8
0
100
AcDbLine
 10
16.97238597
 20
8.57413575
 30
0.0
 11
16.97238597
 21
8.57413575
 31
0.0
  0
LINE
  5
1710
330
762
100
AcDbEntity
  8
0
100
AcDbLine
 10
17.0819334
 20
8.22673432
 30
0.0
 11
16.97238597
 21
8.57413575
 31
0.0
  0
LINE
  5
1711
330
762
100
AcDbEntity
  8
0
100
AcDbLine
 10
17.0819334
 20
8.22673432
 30
0.0
 11
17.0819334
 21
8.22673432
 31
0.0
1001
HATCH_DISTANCE
1040
1.0
1001
HATCH_DISPLAY
1070
     0
1001
HATCH_TYPE
1070
     7
  0
LINE
  5
1712
330
762
100
AcDbEntity
  8
0
100
AcDbLine
 10
16.97238597
 20
8.57413575
 30
0.0
 11
17.0819334
 21
8.22673432
 31
0.0
1001
HATCH_DISTANCE
1040
1.0
1001
HATCH_DISPLAY
1070
     0
1001
HATCH_TYPE
1070
     7
  0
LINE
  5
1713
330
762
100
AcDbEntity
  8
0
100
AcDbLine
 10
16.97238597
 20
8.57413575
 30
0.0
 11
16.97238597
 21
8.57413575
 31
0.0
1001
HATCH_DISTANCE
1040
1.0
1001
HATCH_DISPLAY
1070
     0
1001
HATCH_TYPE
1070
     7
  0
LINE
  5
1714
330
762
100
AcDbEntity
  8
0
100
AcDbLine
 10
17.0819334
 20
8.22673432
 30
0.0
 11
16.97238597
 21
8.57413575
 31
0.0
1001
HATCH_DISTANCE
1040
1.0
1001
HATCH_DISPLAY
1070
     0
1001
HATCH_TYPE
1070
     7
  0
LINE
  5
1715
330
762
100
AcDbEntity
  8
0
100
AcDbLine
 10
17.0819334
 20
8.22673432
 30
0.0
 11
17.0819334
 21
8.22673432
 31
0.0
  0
LINE
  5
1716
330
762
100
AcDbEntity
  8
0
100
AcDbLine
 10
16.97238597
 20
8.57413575
 30
0.0
 11
17.0819334
 21
8.22673432
 31
0.0
  0
LINE
  5
1717
330
762
100
AcDbEntity
  8
0
100
AcDbLine
 10
16.97238597
 20
8.57413575
 30
0.0
 11
16.97238597
 21
8.57413575
 31
0.0
  0
LINE
  5
1718
330
762
100
AcDbEntity
  8
0
100
AcDbLine
 10
17.0819334
 20
8.22673432
 30
0.0
 11
16.97238597
 21
8.57413575
 31
0.0
  0
LINE
  5
1719
330
762
100
AcDbEntity
  8
0
100
AcDbLine
 10
17.0819334
 20
8.22673432
 30
0.0
 11
17.0819334
 21
8.22673432
 31
0.0
1001
HATCH_DISTANCE
1040
1.0
1001
HATCH_DISPLAY
1070
     0
1001
HATCH_TYPE
1070
     7
  0
LINE
  5
171A
330
762
100
AcDbEntity
  8
0
100
AcDbLine
 10
16.97238597
 20
8.57413575
 30
0.0
 11
17.0819334
 21
8.22673432
 31
0.0
1001
HATCH_DISTANCE
1040
1.0
1001
HATCH_DISPLAY
1070
     0
1001
HATCH_TYPE
1070
     7
  0
LINE
  5
171B
330
762
100
AcDbEntity
  8
0
100
AcDbLine
 10
16.97238597
 20
8.57413575
 30
0.0
 11
16.97238597
 21
8.57413575
 31
0.0
1001
HATCH_DISTANCE
1040
1.0
1001
HATCH_DISPLAY
1070
     0
1001
HATCH_TYPE
1070
     7
  0
LINE
  5
171C
330
762
100
AcDbEntity
  8
0
100
AcDbLine
 10
17.0819334
 20
8.22673432
 30
0.0
 11
16.97238597
 21
8.57413575
 31
0.0
1001
HATCH_DISTANCE
1040
1.0
1001
HATCH_DISPLAY
1070
     0
1001
HATCH_TYPE
1070
     7
  0
LINE
  5
171D
330
762
100
AcDbEntity
  8
0
100
AcDbLine
 10
16.1268308
 20
8.22520736
 30
0.0
 11
16.39920981
 21
8.49758637
 31
0.0
  0
LINE
  5
171E
330
762
100
AcDbEntity
  8
0
100
AcDbLine
 10
16.35886616
 20
8.0531312
 30
0.0
 11
16.80521793
 21
8.49948297
 31
0.0
  0
LINE
  5
171F
330
762
100
AcDbEntity
  8
0
100
AcDbLine
 10
16.86422551
 20
8.15437901
 30
0.0
 11
16.90209831
 21
8.19225182
 31
0.0
  0
LINE
  5
1720
330
762
100
AcDbEntity
  8
0
100
AcDbLine
 10
15.96880208
 20
6.85484405
 30
0.0
 11
16.3325594
 21
7.21860139
 31
0.0
  0
LINE
  5
1721
330
762
100
AcDbEntity
  8
0
100
AcDbLine
 10
16.908473
 20
8.17203614
 30
0.0
 11
16.79892558
 21
8.51943757
 31
0.0
  0
ARC
  5
1722
330
762
100
AcDbEntity
  8
0
100
AcDbCircle
 10
17.45927257
 20
6.72752625
 30
0.0
 40
1.545959186553949
100
AcDbArc
 50
110.8721834
 51
132.54194894
  0
ARC
  5
1723
330
762
100
AcDbEntity
  8
0
100
AcDbCircle
 10
16.03223094
 20
7.85516296
 30
0.0
 40
0.3819450080394744
100
AcDbArc
 50
1.71012138
 51
163.99839835
  0
ARC
  5
1724
330
762
100
AcDbEntity
  8
0
100
AcDbCircle
 10
17.45927257
 20
6.72752625
 30
0.0
 40
1.909713077545161
100
AcDbArc
 50
110.22964506
 51
118.57168892
  0
LINE
  5
1725
330
762
100
AcDbEntity
  8
0
100
AcDbLine
 10
17.0819334
 20
8.22673432
 30
0.0
 11
16.97238597
 21
8.57413575
 31
0.0
  0
LINE
  5
1726
330
762
100
AcDbEntity
  8
0
100
AcDbLine
 10
15.94429911
 20
7.21860139
 30
0.0
 11
17.00386179
 21
7.21860139
 31
0.0
  0
LINE
  5
1727
330
762
100
AcDbEntity
  8
0
100
AcDbLine
 10
15.83999766
 20
6.85484405
 30
0.0
 11
15.94429911
 21
7.21860139
 31
0.0
  0
LINE
  5
1728
330
762
100
AcDbEntity
  8
0
100
AcDbLine
 10
15.83999766
 20
6.85484405
 30
0.0
 11
16.14272593
 21
6.85484405
 31
0.0
  0
LINE
  5
1729
330
762
100
AcDbEntity
  8
0
100
AcDbLine
 10
15.69525841
 20
5.36896582
 30
0.0
 11
16.78635291
 21
6.46006033
 31
0.0
  0
LINE
  5
172A
330
762
100
AcDbEntity
  8
0
100
AcDbLine
 10
15.95232926
 20
4.81781361
 30
0.0
 11
16.31608657
 21
5.18157093
 31
0.0
  0
LINE
  5
172B
330
762
100
AcDbEntity
  8
0
100
AcDbLine
 10
16.35644078
 20
4.81781361
 30
0.0
 11
16.7201981
 21
5.18157093
 31
0.0
  0
LINE
  5
172C
330
762
100
AcDbEntity
  8
0
100
AcDbLine
 10
16.28287267
 20
5.55246855
 30
0.0
 11
16.62388967
 21
5.89348555
 31
0.0
  0
LINE
  5
172D
330
762
100
AcDbEntity
  8
0
100
AcDbLine
 10
16.25852184
 20
5.57681781
 30
0.0
 11
16.47190379
 21
5.36344959
 31
0.0
  0
LINE
  5
172E
330
762
100
AcDbEntity
  8
0
100
AcDbLine
 10
15.14410621
 20
4.81781361
 30
0.0
 11
15.50786352
 21
5.18157093
 31
0.0
  0
LINE
  5
172F
330
762
100
AcDbEntity
  8
0
100
AcDbLine
 10
12.32081071
 20
7.65207947
 30
0.0
 11
12.92952348
 21
8.26079224
 31
0.0
  0
LINE
  5
1730
330
762
100
AcDbEntity
  8
0
100
AcDbLine
 10
12.71943705
 20
4.81781361
 30
0.0
 11
13.08319437
 21
5.18157093
 31
0.0
  0
LINE
  5
1731
330
762
100
AcDbEntity
  8
0
100
AcDbLine
 10
13.12354857
 20
4.81781361
 30
0.0
 11
13.48730589
 21
5.18157093
 31
0.0
  0
LINE
  5
1732
330
762
100
AcDbEntity
  8
0
100
AcDbLine
 10
12.31532552
 20
4.81781361
 30
0.0
 11
12.67908284
 21
5.18157093
 31
0.0
  0
LINE
  5
1733
330
762
100
AcDbEntity
  8
0
100
AcDbLine
 10
13.04587148
 20
5.95247109
 30
0.0
 11
14.18654371
 21
7.09314332
 31
0.0
  0
LINE
  5
1734
330
762
100
AcDbEntity
  8
0
100
AcDbLine
 10
13.70098704
 20
8.2371164
 30
0.0
 11
12.87697123
 21
5.36344959
 31
0.0
  0
LINE
  5
1735
330
762
100
AcDbEntity
  8
0
100
AcDbLine
 10
13.70098704
 20
8.2371164
 30
0.0
 11
12.87697123
 21
5.36344959
 31
0.0
1001
HATCH_DISTANCE
1040
1.0
1001
HATCH_DISPLAY
1070
     0
1001
HATCH_TYPE
1070
     7
  0
LINE
  5
1736
330
762
100
AcDbEntity
  8
0
100
AcDbLine
 10
12.87697123
 20
5.36344959
 30
0.0
 11
13.70098704
 21
8.2371164
 31
0.0
  0
LINE
  5
1737
330
762
100
AcDbEntity
  8
0
100
AcDbLine
 10
13.20833538
 20
6.51904651
 30
0.0
 11
14.34900539
 21
7.65971651
 31
0.0
  0
LINE
  5
1738
330
762
100
AcDbEntity
  8
0
100
AcDbLine
 10
13.37079927
 20
7.08562192
 30
0.0
 11
14.51146706
 21
8.22628972
 31
0.0
  0
LINE
  5
1739
330
762
100
AcDbEntity
  8
0
100
AcDbLine
 10
12.88340759
 20
5.38589566
 30
0.0
 11
14.02408203
 21
6.52657011
 31
0.0
  0
LINE
  5
173A
330
762
100
AcDbEntity
  8
0
100
AcDbLine
 10
13.26507303
 20
5.36344959
 30
0.0
 11
13.86162035
 21
5.9599969
 31
0.0
  0
LINE
  5
173B
330
762
100
AcDbEntity
  8
0
100
AcDbLine
 10
12.87697123
 20
5.36344959
 30
0.0
 11
13.69056377
 21
5.36344959
 31
0.0
  0
LINE
  5
173C
330
762
100
AcDbEntity
  8
0
100
AcDbLine
 10
12.87697123
 20
5.36344959
 30
0.0
 11
13.69056377
 21
5.36344959
 31
0.0
1001
HATCH_DISTANCE
1040
1.0
1001
HATCH_DISPLAY
1070
     0
1001
HATCH_TYPE
1070
     7
  0
LINE
  5
173D
330
762
100
AcDbEntity
  8
0
100
AcDbLine
 10
12.87697123
 20
5.36344959
 30
0.0
 11
13.69056377
 21
5.36344959
 31
0.0
  0
LINE
  5
173E
330
762
100
AcDbEntity
  8
0
100
AcDbLine
 10
19.00360679
 20
6.65675656
 30
0.0
 11
19.34911848
 21
7.00226825
 31
0.0
  0
LINE
  5
173F
330
762
100
AcDbEntity
  8
0
100
AcDbLine
 10
18.55175645
 20
7.82135233
 30
0.0
 11
18.80897177
 21
8.07856763
 31
0.0
  0
LINE
  5
1740
330
762
100
AcDbEntity
  8
0
100
AcDbLine
 10
18.73510243
 20
7.60058678
 30
0.0
 11
18.99592671
 21
7.86141107
 31
0.0
  0
LINE
  5
1741
330
762
100
AcDbEntity
  8
0
100
AcDbLine
 10
18.87869729
 20
7.34007011
 30
0.0
 11
19.15140853
 21
7.61278136
 31
0.0
  0
LINE
  5
1742
330
762
100
AcDbEntity
  8
0
100
AcDbLine
 10
18.97491305
 20
7.03217435
 30
0.0
 11
19.27177941
 21
7.32904072
 31
0.0
  0
LINE
  5
1743
330
762
100
AcDbEntity
  8
0
100
AcDbLine
 10
18.33073847
 20
8.00444587
 30
0.0
 11
18.59161207
 21
8.26531947
 31
0.0
  0
LINE
  5
1744
330
762
100
AcDbEntity
  8
0
100
AcDbLine
 10
18.88802289
 20
6.13706114
 30
0.0
 11
19.36564817
 21
6.61468642
 31
0.0
  0
LINE
  5
1745
330
762
100
AcDbEntity
  8
0
100
AcDbLine
 10
17.76168411
 20
8.24361457
 30
0.0
 11
18.0587706
 21
8.54070105
 31
0.0
  0
LINE
  5
1746
330
762
100
AcDbEntity
  8
0
100
AcDbLine
 10
17.38568688
 20
8.27172885
 30
0.0
 11
17.73166961
 21
8.61771159
 31
0.0
  0
LINE
  5
1747
330
762
100
AcDbEntity
  8
0
100
AcDbLine
 10
17.5721124
 20
4.82115064
 30
0.0
 11
18.04973767
 21
5.29877593
 31
0.0
  0
LINE
  5
1748
330
762
100
AcDbEntity
  8
0
100
AcDbLine
 10
17.16466383
 20
4.81781361
 30
0.0
 11
17.53004225
 21
5.18319202
 31
0.0
  0
LINE
  5
1749
330
762
100
AcDbEntity
  8
0
100
AcDbLine
 10
18.06994023
 20
8.14775917
 30
0.0
 11
18.34276453
 21
8.42058346
 31
0.0
  0
LINE
  5
174A
330
762
100
AcDbEntity
  8
0
100
AcDbLine
 10
18.07480519
 20
4.91973191
 30
0.0
 11
19.26706689
 21
6.11199362
 31
0.0
  0
LINE
  5
174B
330
762
100
AcDbEntity
  8
240
100
AcDbLine
 10
-7.5
 20
19.00000001
 30
0.0
 11
-6.12626128
 21
19.5
 31
0.0
  0
LINE
  5
174C
330
762
100
AcDbEntity
  8
240
100
AcDbLine
 10
-7.50000001
 20
19.0
 30
0.0
 11
-13.5
 21
19.0
 31
0.0
  0
LINE
  5
174D
330
762
100
AcDbEntity
  8
241
  6
CONTINUOUS
100
AcDbLine
 10
-7.5
 20
15.2
 30
0.0
 11
-13.0
 21
15.2
 31
0.0
  0
LINE
  5
174E
330
762
100
AcDbEntity
  8
240
100
AcDbLine
 10
-13.0
 20
15.5
 30
0.0
 11
-13.5
 21
16.0
 31
0.0
  0
LINE
  5
174F
330
762
100
AcDbEntity
  8
240
100
AcDbLine
 10
-13.5
 20
19.0
 30
0.0
 11
-13.5
 21
16.0
 31
0.0
  0
ARC
  5
1750
330
762
100
AcDbEntity
  8
240
100
AcDbCircle
 10
-3.25
 20
18.25
 30
0.0
 40
1.250000000000339
100
AcDbArc
 50
0.0
 51
180.0
  0
LINE
  5
1751
330
762
100
AcDbEntity
  8
240
100
AcDbLine
 10
-4.5
 20
18.25
 30
0.0
 11
-4.5
 21
19.5
 31
0.0
  0
LINE
  5
1752
330
762
100
AcDbEntity
  8
240
100
AcDbLine
 10
-4.5
 20
19.5
 30
0.0
 11
-6.12626129
 21
19.5
 31
0.0
  0
LINE
  5
1753
330
762
100
AcDbEntity
  8
240
100
AcDbLine
 10
0.19859884
 20
18.75881905
 30
0.0
 11
1.00717253
 21
15.74118096
 31
0.0
  0
LINE
  5
1754
330
762
100
AcDbEntity
  8
240
100
AcDbLine
 10
-0.63567449
 20
19.5
 30
0.0
 11
-2.0
 21
19.5
 31
0.0
  0
LINE
  5
1755
330
762
100
AcDbEntity
  8
240
100
AcDbLine
 10
-2.0
 20
18.25
 30
0.0
 11
-2.0
 21
19.5
 31
0.0
  0
LINE
  5
1756
330
762
100
AcDbEntity
  8
240
100
AcDbLine
 10
-0.50850794
 20
19.46592583
 30
0.0
 11
-0.63567449
 21
19.5
 31
0.0
  0
ARC
  5
1757
330
762
100
AcDbEntity
  8
240
100
AcDbCircle
 10
-0.76732699
 20
18.5
 30
0.0
 40
1.0
100
AcDbArc
 50
15.0
 51
75.0
1001
GENIUS_GENOBJ-N-FIL_13
1002
{
1000
OWNER
1000
GEN
1002
}
1001
GENIUS_GENODEF_13
1002
{
1000
HIER
1070
     0
1002
}
1002
{
1000
MANEDIT
1070
     0
1002
}
1002
{
1000
NOSEL
1070
     0
1002
}
1002
{
1000
BEHIND
1070
     0
1002
}
1002
{
1000
OTHER
1070
     0
1002
}
1002
{
1000
REACTOR
1002
}
  0
LINE
  5
1758
330
762
100
AcDbEntity
  8
240
100
AcDbLine
 10
93.25980762
 20
15.0
 30
0.0
 11
114.0
 21
15.0
 31
0.0
  0
LINE
  5
1759
330
762
100
AcDbEntity
  8
241
  6
HIDDEN2
100
AcDbLine
 10
98.0
 20
7.0
 30
0.0
 11
115.0
 21
7.0
 31
0.0
  0
LINE
  5
175A
330
762
100
AcDbEntity
  8
240
100
AcDbLine
 10
93.25980762
 20
-15.0
 30
0.0
 11
114.0
 21
-15.0
 31
0.0
  0
LINE
  5
175B
330
762
100
AcDbEntity
  8
241
100
AcDbLine
 10
90.0
 20
-11.7
 30
0.0
 11
90.0
 21
0.0
 31
0.0
  0
LINE
  5
175C
330
762
100
AcDbEntity
  8
241
100
AcDbLine
 10
91.0
 20
-11.7
 30
0.0
 11
91.0
 21
0.0
 31
0.0
  0
LINE
  5
175D
330
762
100
AcDbEntity
  8
241
100
AcDbLine
 10
93.0
 20
-15.15
 30
0.0
 11
93.0
 21
0.0
 31
0.0
  0
LINE
  5
175E
330
762
100
AcDbEntity
  8
241
100
AcDbLine
 10
94.2
 20
-15.0
 30
0.0
 11
94.2
 21
0.0
 31
0.0
  0
LINE
  5
175F
330
762
100
AcDbEntity
  8
240
100
AcDbLine
 10
93.25980762
 20
-15.0
 30
0.0
 11
93.0
 21
-15.15
 31
0.0
  0
LINE
  5
1760
330
762
100
AcDbEntity
  8
240
100
AcDbLine
 10
91.0
 20
-11.7
 30
0.0
 11
91.0
 21
-15.15
 31
0.0
  0
LINE
  5
1761
330
762
100
AcDbEntity
  8
240
100
AcDbLine
 10
90.0
 20
-11.7
 30
0.0
 11
90.0
 21
-15.0
 31
0.0
  0
LINE
  5
1762
330
762
100
AcDbEntity
  8
240
100
AcDbLine
 10
91.0
 20
-11.7
 30
0.0
 11
90.0
 21
-11.7
 31
0.0
  0
LINE
  5
1763
330
762
100
AcDbEntity
  8
240
100
AcDbLine
 10
91.0
 20
-15.15
 30
0.0
 11
93.0
 21
-15.15
 31
0.0
  0
LINE
  5
1764
330
762
100
AcDbEntity
  8
241
100
AcDbLine
 10
93.0
 20
15.15
 30
0.0
 11
93.0
 21
0.0
 31
0.0
  0
LINE
  5
1765
330
762
100
AcDbEntity
  8
240
100
AcDbLine
 10
93.25980762
 20
15.0
 30
0.0
 11
93.0
 21
15.15
 31
0.0
  0
LINE
  5
1766
330
762
100
AcDbEntity
  8
240
100
AcDbLine
 10
91.0
 20
11.7
 30
0.0
 11
91.0
 21
15.15
 31
0.0
  0
LINE
  5
1767
330
762
100
AcDbEntity
  8
242
  6
HIDDEN2
100
AcDbLine
 10
83.0
 20
7.84888527
 30
0.0
 11
93.0
 21
0.0
 31
0.0
  0
LINE
  5
1768
330
762
100
AcDbEntity
  8
242
  6
HIDDEN2
100
AcDbLine
 10
83.0
 20
0.0
 30
0.0
 11
93.0
 21
7.84888527
 31
0.0
  0
LINE
  5
1769
330
762
100
AcDbEntity
  8
241
  6
HIDDEN2
100
AcDbLine
 10
83.0
 20
7.84888527
 30
0.0
 11
83.0
 21
0.0
 31
0.0
  0
LINE
  5
176A
330
762
100
AcDbEntity
  8
241
100
AcDbLine
 10
90.0
 20
11.7
 30
0.0
 11
90.0
 21
0.0
 31
0.0
  0
LINE
  5
176B
330
762
100
AcDbEntity
  8
241
100
AcDbLine
 10
91.0
 20
11.7
 30
0.0
 11
91.0
 21
0.0
 31
0.0
  0
LINE
  5
176C
330
762
100
AcDbEntity
  8
241
100
AcDbLine
 10
94.2
 20
15.0
 30
0.0
 11
94.2
 21
0.0
 31
0.0
  0
LINE
  5
176D
330
762
100
AcDbEntity
  8
241
  6
HIDDEN2
100
AcDbLine
 10
98.0
 20
7.75
 30
0.0
 11
98.0
 21
0.0
 31
0.0
  0
LINE
  5
176E
330
762
100
AcDbEntity
  8
241
  6
HIDDEN2
100
AcDbLine
 10
93.0
 20
7.84888527
 30
0.0
 11
93.0
 21
0.0
 31
0.0
  0
LINE
  5
176F
330
762
100
AcDbEntity
  8
241
  6
HIDDEN2
100
AcDbLine
 10
93.0
 20
7.14177849
 30
0.0
 11
93.0
 21
0.0
 31
0.0
  0
LINE
  5
1770
330
762
100
AcDbEntity
  8
241
  6
HIDDEN2
100
AcDbLine
 10
83.0
 20
7.84888527
 30
0.0
 11
93.0
 21
7.84888527
 31
0.0
  0
LINE
  5
1771
330
762
100
AcDbEntity
  8
241
  6
HIDDEN2
100
AcDbLine
 10
93.0
 20
7.75
 30
0.0
 11
98.0
 21
7.75
 31
0.0
  0
LINE
  5
1772
330
762
100
AcDbEntity
  8
240
100
AcDbLine
 10
90.0
 20
11.7
 30
0.0
 11
90.0
 21
15.0
 31
0.0
  0
LINE
  5
1773
330
762
100
AcDbEntity
  8
240
100
AcDbLine
 10
91.0
 20
11.7
 30
0.0
 11
90.0
 21
11.7
 31
0.0
  0
LINE
  5
1774
330
762
100
AcDbEntity
  8
240
100
AcDbLine
 10
91.0
 20
15.15
 30
0.0
 11
93.0
 21
15.15
 31
0.0
  0
LINE
  5
1775
330
762
100
AcDbEntity
  8
240
100
AcDbLine
 10
115.0
 20
-14.0
 30
0.0
 11
115.0
 21
0.0
 31
0.0
  0
ARC
  5
1776
330
762
100
AcDbEntity
  8
240
100
AcDbCircle
 10
114.0
 20
-14.0
 30
0.0
 40
1.0
100
AcDbArc
 50
270.0
 51
0.0
1001
GENIUS_GENOBJ-N-FIL_13
1002
{
1000
OWNER
1000
GEN
1002
}
1001
GENIUS_GENODEF_13
1002
{
1000
HIER
1070
     0
1002
}
1002
{
1000
MANEDIT
1070
     0
1002
}
1002
{
1000
NOSEL
1070
     0
1002
}
1002
{
1000
BEHIND
1070
     0
1002
}
1002
{
1000
OTHER
1070
     0
1002
}
1002
{
1000
REACTOR
1002
}
  0
ARC
  5
1777
330
762
100
AcDbEntity
  8
240
100
AcDbCircle
 10
114.0
 20
14.0
 30
0.0
 40
1.0
100
AcDbArc
 50
0.0
 51
90.0
1001
GENIUS_GENOBJ-N-FIL_13
1002
{
1000
OWNER
1000
GEN
1002
}
1001
GENIUS_GENODEF_13
1002
{
1000
HIER
1070
     0
1002
}
1002
{
1000
MANEDIT
1070
     0
1002
}
1002
{
1000
NOSEL
1070
     0
1002
}
1002
{
1000
BEHIND
1070
     0
1002
}
1002
{
1000
OTHER
1070
     0
1002
}
1002
{
1000
REACTOR
1002
}
  0
LINE
  5
1778
330
762
100
AcDbEntity
  8
240
100
AcDbLine
 10
115.0
 20
14.0
 30
0.0
 11
115.0
 21
0.0
 31
0.0
  0
ENDBLK
  5
8A0
330
762
100
AcDbEntity
  8
0
100
AcDbBlockEnd
  0
BLOCK
  5
1602
330
15F9
100
AcDbEntity
  8
0
100
AcDbBlockBegin
  2
*D21
 70
     1
 10
0.0
 20
0.0
 30
0.0
  3
*D21
  1

  0
LINE
  5
1652
330
15F9
100
AcDbEntity
  8
250
  6
CONTINUOUS
100
AcDbLine
 10
115.5
 20
7.0
 30
0.0
 11
127.5
 21
7.0
 31
0.0
  0
LINE
  5
1653
330
15F9
100
AcDbEntity
  8
250
  6
CONTINUOUS
100
AcDbLine
 10
126.5
 20
-4.77
 30
0.0
 11
126.5
 21
4.77
 31
0.0
  0
INSERT
  5
1654
330
15F9
100
AcDbEntity
  8
250
  6
CONTINUOUS
100
AcDbBlockReference
  2
矢印なし
 10
126.5
 20
-7.0
 30
0.0
 41
2.23
 42
2.23
 43
2.23
 50
270.0
  0
INSERT
  5
1655
330
15F9
100
AcDbEntity
  8
250
  6
CONTINUOUS
100
AcDbBlockReference
  2
_OPEN
 10
126.5
 20
7.0
 30
0.0
 41
2.23
 42
2.23
 43
2.23
 50
90.0
  0
MTEXT
  5
1656
330
15F9
100
AcDbEntity
  8
250
  6
CONTINUOUS
 62
    40
100
AcDbMText
 10
124.1
 20
-1.46522202
 30
0.0
 40
2.8
 41
0.0
 71
     5
 72
     1
  1
\A1;{\H2.8;\U+2205}14
 11
0.0
 21
1.0
 31
0.0
1001
ACAD
1000
MTEXTBEGIN
1070
    73
1070
     1
1070
    44
1040
1.0
1070
    74
1070
     0
1000
MTEXTEND
  0
POINT
  5
1657
330
15F9
100
AcDbEntity
  8
DEFPOINTS
  6
CONTINUOUS
 62
     0
100
AcDbPoint
 10
115.0
 20
-7.0
 30
0.0
  0
POINT
  5
1658
330
15F9
100
AcDbEntity
  8
DEFPOINTS
  6
CONTINUOUS
 62
     0
100
AcDbPoint
 10
115.0
 20
7.0
 30
0.0
  0
POINT
  5
1659
330
15F9
100
AcDbEntity
  8
DEFPOINTS
  6
CONTINUOUS
 62
     0
100
AcDbPoint
 10
126.5
 20
7.0
 30
0.0
  0
ENDBLK
  5
1603
330
15F9
100
AcDbEntity
  8
0
100
AcDbBlockEnd
  0
BLOCK
  5
160E
330
1604
100
AcDbEntity
  8
0
100
AcDbBlockBegin
  2
*D22
 70
     1
 10
0.0
 20
0.0
 30
0.0
  3
*D22
  1

  0
LINE
  5
1649
330
1604
100
AcDbEntity
  8
AM_5
100
AcDbLine
 10
114.5
 20
15.0
 30
0.0
 11
134.5
 21
15.0
 31
0.0
  0
LINE
  5
164A
330
1604
100
AcDbEntity
  8
AM_5
100
AcDbLine
 10
114.5
 20
-15.0
 30
0.0
 11
134.5
 21
-15.0
 31
0.0
  0
LINE
  5
164B
330
1604
100
AcDbEntity
  8
AM_5
100
AcDbLine
 10
133.5
 20
12.77
 30
0.0
 11
133.5
 21
-12.77
 31
0.0
  0
INSERT
  5
164C
330
1604
100
AcDbEntity
  8
AM_5
100
AcDbBlockReference
  2
_OPEN
 10
133.5
 20
15.0
 30
0.0
 41
2.23
 42
2.23
 43
2.23
 50
90.0
  0
INSERT
  5
164D
330
1604
100
AcDbEntity
  8
AM_5
100
AcDbBlockReference
  2
_OPEN
 10
133.5
 20
-15.0
 30
0.0
 41
2.23
 42
2.23
 43
2.23
 50
270.0
  0
MTEXT
  5
164E
330
1604
100
AcDbEntity
  8
AM_5
 62
    40
100
AcDbMText
 10
131.1
 20
-1.48621162
 30
0.0
 40
2.8
 41
0.0
 71
     5
 72
     1
  1
\A1;%%c30
 11
0.0
 21
1.0
 31
0.0
1001
ACAD
1000
MTEXTBEGIN
1070
    73
1070
     1
1070
    44
1040
1.0
1070
    74
1070
     0
1000
MTEXTEND
  0
POINT
  5
164F
330
1604
100
AcDbEntity
  8
DEFPOINTS
 62
     0
100
AcDbPoint
 10
114.0
 20
15.0
 30
0.0
  0
POINT
  5
1650
330
1604
100
AcDbEntity
  8
DEFPOINTS
 62
     0
100
AcDbPoint
 10
114.0
 20
-15.0
 30
0.0
  0
POINT
  5
1651
330
1604
100
AcDbEntity
  8
DEFPOINTS
 62
     0
100
AcDbPoint
 10
133.5
 20
-15.0
 30
0.0
  0
ENDBLK
  5
160F
330
1604
100
AcDbEntity
  8
0
100
AcDbBlockEnd
  0
BLOCK
  5
161A
330
1610
100
AcDbEntity
  8
0
100
AcDbBlockBegin
  2
*D23
 70
     1
 10
0.0
 20
0.0
 30
0.0
  3
*D23
  1

  0
LINE
  5
1640
330
1610
100
AcDbEntity
  8
250
  6
CONTINUOUS
100
AcDbLine
 10
0.0
 20
19.64125603
 30
0.0
 11
0.0
 21
36.0
 31
0.0
  0
LINE
  5
1641
330
1610
100
AcDbEntity
  8
250
  6
CONTINUOUS
100
AcDbLine
 10
115.0
 20
14.5
 30
0.0
 11
115.0
 21
36.0
 31
0.0
  0
LINE
  5
1642
330
1610
100
AcDbEntity
  8
250
  6
CONTINUOUS
100
AcDbLine
 10
2.23
 20
35.0
 30
0.0
 11
112.77
 21
35.0
 31
0.0
  0
INSERT
  5
1643
330
1610
100
AcDbEntity
  8
250
  6
CONTINUOUS
100
AcDbBlockReference
  2
_OPEN
 10
0.0
 20
35.0
 30
0.0
 41
2.23
 42
2.23
 43
2.23
 50
180.0
  0
INSERT
  5
1644
330
1610
100
AcDbEntity
  8
250
  6
CONTINUOUS
100
AcDbBlockReference
  2
_OPEN
 10
115.0
 20
35.0
 30
0.0
 41
2.23
 42
2.23
 43
2.23
  0
MTEXT
  5
1645
330
1610
100
AcDbEntity
  8
250
  6
CONTINUOUS
 62
    40
100
AcDbMText
 10
57.5
 20
37.4
 30
0.0
 40
2.8
 41
0.0
 71
     5
 72
     1
  1
\A1;115
1001
ACAD
1000
MTEXTBEGIN
1070
    73
1070
     1
1070
    44
1040
1.0
1070
    74
1070
     0
1000
MTEXTEND
  0
POINT
  5
1646
330
1610
100
AcDbEntity
  8
DEFPOINTS
  6
CONTINUOUS
 62
     0
100
AcDbPoint
 10
0.0
 20
19.14125603
 30
0.0
  0
POINT
  5
1647
330
1610
100
AcDbEntity
  8
DEFPOINTS
  6
CONTINUOUS
 62
     0
100
AcDbPoint
 10
115.0
 20
14.0
 30
0.0
  0
POINT
  5
1648
330
1610
100
AcDbEntity
  8
DEFPOINTS
  6
CONTINUOUS
 62
     0
100
AcDbPoint
 10
115.0
 20
35.0
 30
0.0
  0
ENDBLK
  5
161B
330
1610
100
AcDbEntity
  8
0
100
AcDbBlockEnd
  0
ENDSEC
  0
SECTION
  2
ENTITIES
  0
INSERT
  5
6E6
330
1A
100
AcDbEntity
  8
245
100
AcDbBlockReference
  2
矢印なし
 10
175.62382697
 20
90.55123572
 30
0.0
  0
INSERT
  5
8F1
330
1A
100
AcDbEntity
  8
245
100
AcDbBlockReference
  2
矢印なし
 10
357.62382697
 20
237.55123572
 30
0.0
  0
INSERT
  5
8F2
330
1A
100
AcDbEntity
  8
245
100
AcDbBlockReference
  2
矢印なし
 10
546.62382697
 20
377.55123572
 30
0.0
  0
INSERT
  5
8F3
330
1A
100
AcDbEntity
  8
245
100
AcDbBlockReference
  2
矢印なし
 10
728.62382697
 20
531.55123572
 30
0.0
  0
INSERT
  5
8F4
330
1A
100
AcDbEntity
  8
245
100
AcDbBlockReference
  2
矢印なし
 10
917.62382697
 20
678.55123572
 30
0.0
  0
INSERT
  5
8F5
330
1A
100
AcDbEntity
  8
245
100
AcDbBlockReference
  2
矢印なし
 10
1092.62382697
 20
825.55123572
 30
0.0
  0
INSERT
  5
8F6
330
1A
100
AcDbEntity
  8
245
100
AcDbBlockReference
  2
矢印なし
 10
1260.62382697
 20
965.55123572
 30
0.0
  0
INSERT
  5
8F7
330
1A
100
AcDbEntity
  8
245
100
AcDbBlockReference
  2
矢印なし
 10
1435.62382697
 20
1105.55123572
 30
0.0
  0
INSERT
  5
8F8
330
1A
100
AcDbEntity
  8
245
100
AcDbBlockReference
  2
矢印なし
 10
1617.62382697
 20
1238.55123572
 30
0.0
  0
INSERT
  5
8F9
330
1A
100
AcDbEntity
  8
245
100
AcDbBlockReference
  2
矢印なし
 10
1792.62382697
 20
1385.55123572
 30
0.0
  0
INSERT
  5
8FA
330
1A
100
AcDbEntity
  8
245
100
AcDbBlockReference
  2
矢印なし
 10
1981.62382697
 20
1518.55123572
 30
0.0
  0
INSERT
  5
8FB
330
1A
100
AcDbEntity
  8
245
100
AcDbBlockReference
  2
矢印なし
 10
2170.62382697
 20
1658.55123572
 30
0.0
  0
INSERT
  5
8FC
330
1A
100
AcDbEntity
  8
245
100
AcDbBlockReference
  2
矢印なし
 10
2345.62382697
 20
1798.55123572
 30
0.0
  0
INSERT
  5
8FD
330
1A
100
AcDbEntity
  8
245
100
AcDbBlockReference
  2
矢印なし
 10
2520.62382697
 20
1938.55123572
 30
0.0
  0
INSERT
  5
8FE
330
1A
100
AcDbEntity
  8
245
100
AcDbBlockReference
  2
矢印なし
 10
2709.62382697
 20
2078.55123572
 30
0.0
  0
INSERT
  5
8FF
330
1A
100
AcDbEntity
  8
245
100
AcDbBlockReference
  2
矢印なし
 10
2891.62382697
 20
2218.55123572
 30
0.0
  0
INSERT
  5
900
330
1A
100
AcDbEntity
  8
245
100
AcDbBlockReference
  2
矢印なし
 10
3073.62382697
 20
2365.55123572
 30
0.0
  0
INSERT
  5
901
330
1A
100
AcDbEntity
  8
245
100
AcDbBlockReference
  2
矢印なし
 10
3255.62382697
 20
2512.55123572
 30
0.0
  0
INSERT
  5
902
330
1A
100
AcDbEntity
  8
245
100
AcDbBlockReference
  2
矢印なし
 10
3402.62382697
 20
2652.55123572
 30
0.0
  0
INSERT
  5
903
330
1A
100
AcDbEntity
  8
245
100
AcDbBlockReference
  2
矢印なし
 10
3577.62382697
 20
2806.55123572
 30
0.0
  0
INSERT
  5
904
330
1A
100
AcDbEntity
  8
245
100
AcDbBlockReference
  2
矢印なし
 10
3773.62382697
 20
2953.55123572
 30
0.0
  0
INSERT
  5
905
330
1A
100
AcDbEntity
  8
245
100
AcDbBlockReference
  2
矢印なし
 10
3962.62382697
 20
3086.55123572
 30
0.0
  0
INSERT
  5
906
330
1A
100
AcDbEntity
  8
245
100
AcDbBlockReference
  2
矢印なし
 10
4123.62382697
 20
3240.55123572
 30
0.0
  0
INSERT
  5
907
330
1A
100
AcDbEntity
  8
245
100
AcDbBlockReference
  2
矢印なし
 10
4298.62382697
 20
3394.55123572
 30
0.0
  0
INSERT
  5
908
330
1A
100
AcDbEntity
  8
245
100
AcDbBlockReference
  2
矢印なし
 10
4473.62382697
 20
3527.55123572
 30
0.0
  0
INSERT
  5
909
330
1A
100
AcDbEntity
  8
245
100
AcDbBlockReference
  2
矢印なし
 10
4627.62382697
 20
3674.55123572
 30
0.0
  0
TEXT
  5
90B
330
1A
100
AcDbEntity
  8
241
100
AcDbText
 10
-69.0
 20
49.0
 30
0.0
 40
5.0
  1
MGT20-M18,U3/4-115
  7
YOKO
 11
-69.0
 21
49.0
 31
0.0
100
AcDbText
 73
     1
  0
DIMENSION
  5
14D4
330
1A
100
AcDbEntity
  8
250
  6
CONTINUOUS
100
AcDbDimension
  2
*D21
 10
126.5
 20
7.0
 30
0.0
 11
126.5
 21
-1.46522202
 31
0.0
 70
   160
  1
{\H2.8;\U+2205}<>
  3
BIGT
100
AcDbAlignedDimension
 13
115.0
 23
-7.0
 33
0.0
 14
115.0
 24
7.0
 34
0.0
 50
90.0
100
AcDbRotatedDimension
1001
ACAD
1000
DSTYLE
1002
{
1070
   287
1070
     3
1070
   287
1070
     3
1070
   287
1070
     3
1070
   287
1070
     3
1070
    75
1070
     1
1070
    77
1070
     3
1070
   145
1040
1.0
1070
   279
1070
     0
1070
   289
1070
     3
1070
     6
1000
矢印なし
1002
}
  0
DIMENSION
  5
14D5
330
1A
100
AcDbEntity
  8
AM_5
100
AcDbDimension
  2
*D22
 10
133.5
 20
-15.0
 30
0.0
 11
133.5
 21
-1.48621162
 31
0.0
 70
   160
  1
%%c<>
  3
BIGT$0
100
AcDbAlignedDimension
 13
114.0
 23
15.0
 33
0.0
 14
114.0
 24
-15.0
 34
0.0
 50
90.0
100
AcDbRotatedDimension
  0
DIMENSION
  5
14D6
330
1A
100
AcDbEntity
  8
250
  6
CONTINUOUS
100
AcDbDimension
  2
*D23
 10
115.0
 20
35.0
 30
0.0
 11
57.5
 21
37.4
 31
0.0
 70
    32
  3
BIGT$0
100
AcDbAlignedDimension
 13
0.0
 23
19.14125603
 33
0.0
 14
115.0
 24
14.0
 34
0.0
100
AcDbRotatedDimension
  0
LEADER
  5
15E4
330
1A
100
AcDbEntity
  8
250
  6
CONTINUOUS
100
AcDbLeader
  3
BIGT
 76
     2
 10
85.1584413
 20
7.84888527
 30
0.0
 10
96.80837028
 20
28.02715416
 30
0.0
1001
ACAD
1000
DSTYLE
1002
{
1070
     6
1000
OPEN
1070
    41
1040
2.0
1070
    42
1040
2.0
1070
    44
1040
2.0
1070
   140
1040
4.0
1070
   343
1005
594
1002
}
  0
LINE
  5
15F6
330
1A
100
AcDbEntity
  8
250
  6
CONTINUOUS
100
AcDbLine
 10
96.80837028
 20
28.02715416
 30
0.0
 11
109.52837028
 21
28.02715416
 31
0.0
1001
ITEMNAME
1000
LNSP2
  0
MTEXT
  5
15F8
330
1A
100
AcDbEntity
  8
251
  6
CONTINUOUS
100
AcDbMText
 10
99.60837028
 20
29.02715416
 30
0.0
 40
2.8
 41
0.0
 71
     7
 72
     1
  1
□11
  7
YOKO
1001
ITEMNAME
1000
LNSP3
1001
ACAD
1000
MTEXTBEGIN
1070
    73
1070
     1
1070
    44
1040
1.0
1070
    74
1070
     0
1000
MTEXTEND
1000
MTEXTBEGIN
1070
    73
1070
     1
1070
    44
1040
1.0
1070
    74
1070
     0
1000
MTEXTEND
1000
MTEXTBEGIN
1070
    73
1070
     1
1070
    44
1040
1.0
1070
    74
1070
     0
1000
MTEXTEND
1000
MTEXTBEGIN
1070
    73
1070
     1
1070
    44
1040
1.0
1070
    74
1070
     0
1000
MTEXTEND
1000
MTEXTBEGIN
1070
    73
1070
     1
1070
    44
1040
1.0
1070
    74
1070
     0
1000
MTEXTEND
1000
MTEXTBEGIN
1070
    73
1070
     1
1070
    44
1040
1.0
1070
    74
1070
     0
1000
MTEXTEND
  0
INSERT
  5
1779
330
1A
100
AcDbEntity
  8
245
100
AcDbBlockReference
  2
1
 10
0.0
 20
0.0
 30
0.0
  0
VIEWPORT
  5
22
330
17
100
AcDbEntity
 67
     1
  8
0
100
AcDbViewport
 10
261.51769912
 20
148.5
 30
0.0
 40
523.03539823
 41
297.0
 68
     1
 69
     1
1001
ACAD
1000
MVIEW
1002
{
1070
    16
1010
0.0
1020
0.0
1030
0.0
1010
0.0
1020
0.0
1030
1.0
1040
0.0
1040
297.0
1040
261.51769912
1040
148.5
1040
50.0
1040
0.0
1040
0.0
1070
     0
1070
   100
1070
     1
1070
     1
1070
     0
1070
     0
1070
     0
1070
     0
1040
0.0
1040
0.0
1040
0.0
1040
1.0
1040
1.0
1040
10.0
1040
10.0
1070
     0
1002
{
1002
}
1002
}
  0
ENDSEC
  0
SECTION
  2
OBJECTS
  0
DICTIONARY
  5
C
330
0
100
AcDbDictionary
  3
ACAD_GROUP
350
D
  3
ACAD_LAYOUT
350
565
  3
ACAD_MLINESTYLE
350
E
  3
ACAD_PLOTSETTINGS
350
566
  3
ACAD_PLOTSTYLENAME
350
563
  3
ACDBHEADERROUNDTRIPXREC
350
177B
  3
GRADE_DWG
350
540
  0
DICTIONARY
  5
C58
330
1A
100
AcDbDictionary
280
     1
  3
ACAD_LAYOUTSELFREF
360
179D
  0
DICTIONARY
  5
C56
330
17
100
AcDbDictionary
280
     1
  3
ACAD_LAYOUTSELFREF
360
179C
  0
DICTIONARY
  5
D
102
{ACAD_REACTORS
330
C
102
}
330
C
100
AcDbDictionary
  3
*A1
350
6C7
  3
*A2
350
6C8
  3
*A3
350
6D4
  3
*A4
350
6D5
  3
DREC-1
350
5FC
  3
DREC-2
350
654
  3
DREC-3
350
673
  0
DICTIONARY
  5
565
102
{ACAD_REACTORS
330
C
102
}
330
C
100
AcDbDictionary
  0
DICTIONARY
  5
E
102
{ACAD_REACTORS
330
C
102
}
330
C
100
AcDbDictionary
  3
STANDARD
350
13
  0
DICTIONARY
  5
566
102
{ACAD_REACTORS
330
C
102
}
330
C
100
AcDbDictionary
  3
A3_0_5倍_
350
758
  3
A3_1倍_
350
757
  3
A3_1倍__2000_
350
707
  3
A3_2倍_
350
759
  3
A4_0_5倍_
350
755
  3
A4_1倍_
350
754
  3
A4_1倍__2000_
350
708
  3
A4_2倍_
350
756
  0
ACDBDICTIONARYWDFLT
  5
563
102
{ACAD_REACTORS
330
C
102
}
330
C
100
AcDbDictionary
281
     1
  3
Normal
350
564
100
AcDbDictionaryWithDefault
340
564
  0
DICTIONARY
  5
177B
102
{ACAD_REACTORS
330
C
102
}
330
C
100
AcDbDictionary
  3
CEPSNTYPE
350
1785
  3
DIMSTYLEDATA
350
1789
  3
FINGERPRINTGUID
350
1786
  3
HYPERLINKBASE
350
177E
  3
INSUNITS
350
1784
  3
LAYOUTDICT
350
1780
  3
LWETCUNION
350
1783
  3
PLOTSETDICT
350
1781
  3
PLOTSTYLNAMDICT
350
1782
  3
PSVPSCALE
350
1788
  3
PUCSBASE
350
178C
  3
PUCSORGBACK
350
1792
  3
PUCSORGBOTTOM
350
178E
  3
PUCSORGFRONT
350
1791
  3
PUCSORGLEFT
350
178F
  3
PUCSORGRIGHT
350
1790
  3
PUCSORGTOP
350
178D
  3
PUCSORTHOREF
350
178A
  3
PUCSORTHOVIEW
350
178B
  3
STYLESHEET
350
177F
  3
TSTACKALIGN
350
177C
  3
TSTACKSIZE
350
177D
  3
UCSBASE
350
1795
  3
UCSORGBACK
350
179B
  3
UCSORGBOTTOM
350
1797
  3
UCSORGFRONT
350
179A
  3
UCSORGLEFT
350
1798
  3
UCSORGRIGHT
350
1799
  3
UCSORGTOP
350
1796
  3
UCSORTHOREF
350
1793
  3
UCSORTHOVIEW
350
1794
  3
VERSIONGUID
350
1787
  0
DICTIONARY
  5
540
102
{ACAD_REACTORS
330
C
102
}
330
C
100
AcDbDictionary
  3
VERSION
350
560
  0
XRECORD
  5
179D
102
{ACAD_REACTORS
330
C58
102
}
330
C58
100
AcDbXrecord
340
1A
  0
XRECORD
  5
179C
102
{ACAD_REACTORS
330
C56
102
}
330
C56
100
AcDbXrecord
340
17
  0
GROUP
  5
6C7
102
{ACAD_REACTORS
330
D
102
}
330
D
100
AcDbGroup
300

 70
     0
 71
     1
1001
GRPNAME
1000
DMA00
  0
GROUP
  5
6C8
102
{ACAD_REACTORS
330
D
102
}
330
D
100
AcDbGroup
300

 70
     0
 71
     1
1001
GRPNAME
1000
DMA00
  0
GROUP
  5
6D4
102
{ACAD_REACTORS
330
D
102
}
330
D
100
AcDbGroup
300

 70
     0
 71
     1
1001
GRPNAME
1000
DMA00
  0
GROUP
  5
6D5
102
{ACAD_REACTORS
330
D
102
}
330
D
100
AcDbGroup
300

 70
     0
 71
     1
1001
GRPNAME
1000
DMA00
  0
GROUP
  5
5FC
102
{ACAD_REACTORS
330
D
102
}
330
D
100
AcDbGroup
300

 70
     0
 71
     1
1001
GRPNAME
1000
DREC-
1001
GPARA
1000
xsiz
1000
44.182
1000
ysiz
1000
40.677
1000
angl
1000
0
1000
ctyp
1000
0
1000
csiz
1000
5
1000
lfnt
1000
cont
1000
hcnt
1000
hoff
1000
vcnt
1000
voff
1000
opnt
1000
4
1000
dxpt
1000
0
1000
dypt
1000
0
  0
GROUP
  5
654
102
{ACAD_REACTORS
330
D
102
}
330
D
100
AcDbGroup
300

 70
     0
 71
     1
1001
GRPNAME
1000
DREC-
1001
GPARA
1000
xsiz
1000
54.592
1000
ysiz
1000
53.036
1000
angl
1000
0
1000
ctyp
1000
0
1000
csiz
1000
5
1000
lfnt
1000
cont
1000
hcnt
1000
hoff
1000
vcnt
1000
voff
1000
opnt
1000
4
1000
dxpt
1000
0
1000
dypt
1000
0
  0
GROUP
  5
673
102
{ACAD_REACTORS
330
D
102
}
330
D
100
AcDbGroup
300

 70
     0
 71
     1
1001
GRPNAME
1000
DREC-
1001
GPARA
1000
xsiz
1000
30.363
1000
ysiz
1000
36.175
1000
angl
1000
0
1000
ctyp
1000
0
1000
csiz
1000
5
1000
lfnt
1000
cont
1000
hcnt
1000
hoff
1000
vcnt
1000
voff
1000
opnt
1000
4
1000
dxpt
1000
0
1000
dypt
1000
0
  0
MLINESTYLE
  5
13
102
{ACAD_REACTORS
330
E
102
}
330
E
100
AcDbMlineStyle
  2
STANDARD
 70
     0
  3

 62
     0
 51
90.0
 52
90.0
 71
     2
 49
0.5
 62
   256
  6
BYLAYER
 49
-0.5
 62
   256
  6
BYLAYER
  0
PLOTSETTINGS
  5
758
102
{ACAD_REACTORS
330
566
102
}
330
566
100
AcDbPlotSettings
  1
A3(0.5倍)
  2
\\AWTECPC05\HP DeskJet 1120C
  4
A3
  6

 40
5.95841646
 41
13.49375153
 42
6.04309082
 43
3.67242432
 44
296.92599487
 45
419.94665527
 46
89.96
 47
127.14
 48
0.0
 49
0.0
140
0.0
141
0.0
142
1.0
143
2.0
 70
  1716
 72
     1
 73
     1
 74
     2
  7
big.ctb
 75
    17
147
0.5
148
0.0
149
0.0
  0
PLOTSETTINGS
  5
757
102
{ACAD_REACTORS
330
566
102
}
330
566
100
AcDbPlotSettings
  1
A3(1倍)
  2
\\AWTECPC05\HP DeskJet 1120C
  4
A3
  6

 40
5.95841646
 41
13.49375153
 42
6.04309082
 43
3.67242432
 44
296.92599487
 45
419.94665527
 46
37.46
 47
52.89
 48
0.0
 49
0.0
140
0.0
141
0.0
142
1.0
143
1.0
 70
  1716
 72
     1
 73
     1
 74
     2
  7
big.ctb
 75
    16
147
1.0
148
0.0
149
0.0
  0
PLOTSETTINGS
  5
707
102
{ACAD_REACTORS
330
566
102
}
330
566
100
AcDbPlotSettings
  1
A3(1倍)(2000)
  2
SII LS-1300 (D-SCAN)
  4
User258
  6

 40
3.17499995
 41
3.17499995
 42
3.17498779
 43
3.17498779
 44
419.98898315
 45
296.98950195
 46
58.32
 47
40.32
 48
0.0
 49
0.0
140
0.0
141
0.0
142
1.0
143
1.0
 70
  1716
 72
     1
 73
     0
 74
     2
  7
big.ctb
 75
    16
147
1.0
148
0.0
149
0.0
  0
PLOTSETTINGS
  5
759
102
{ACAD_REACTORS
330
566
102
}
330
566
100
AcDbPlotSettings
  1
A3(2倍)
  2
\\AWTECPC05\HP DeskJet 1120C
  4
A3
  6

 40
5.95841646
 41
13.49375153
 42
6.04309082
 43
3.67242432
 44
296.92599487
 45
419.94665527
 46
-67.54
 47
-95.61
 48
0.0
 49
0.0
140
0.0
141
0.0
142
1.0
143
0.5
 70
  1716
 72
     1
 73
     1
 74
     2
  7
big.ctb
 75
    27
147
2.0
148
0.0
149
0.0
  0
PLOTSETTINGS
  5
755
102
{ACAD_REACTORS
330
566
102
}
330
566
100
AcDbPlotSettings
  1
A4(0.5倍)
  2
\\AWTECPC05\HP DeskJet 1120C
  4
A4
  6

 40
4.18041658
 41
13.49374962
 42
4.18040466
 43
3.92642212
 44
209.97332764
 45
296.92599487
 46
48.31
 47
65.5
 48
0.0
 49
0.0
140
0.0
141
0.0
142
1.0
143
2.0
 70
  1716
 72
     1
 73
     1
 74
     2
  7
big.ctb
 75
    17
147
0.5
148
0.0
149
0.0
  0
PLOTSETTINGS
  5
754
102
{ACAD_REACTORS
330
566
102
}
330
566
100
AcDbPlotSettings
  1
A4(1倍)
  2
\\AWTECPC05\HP DeskJet 1120C
  4
A4
  6

 40
4.18041658
 41
13.49374962
 42
4.18040466
 43
3.92642212
 44
209.97332764
 45
296.92599487
 46
-4.19
 47
-8.75
 48
0.0
 49
0.0
140
0.0
141
0.0
142
1.0
143
1.0
 70
  1716
 72
     1
 73
     1
 74
     2
  7
big.ctb
 75
    16
147
1.0
148
0.0
149
0.0
  0
PLOTSETTINGS
  5
708
102
{ACAD_REACTORS
330
566
102
}
330
566
100
AcDbPlotSettings
  1
A4(1倍)(2000)
  2
SII LS-1300 (D-SCAN)
  4
User259
  6

 40
3.17499995
 41
3.17499995
 42
3.17498779
 43
3.17500305
 44
296.98950195
 45
209.99449158
 46
-3.18
 47
-3.18
 48
0.0
 49
0.0
140
0.0
141
0.0
142
1.0
143
1.0
 70
  1716
 72
     1
 73
     0
 74
     2
  7
big.ctb
 75
    16
147
1.0
148
0.0
149
0.0
  0
PLOTSETTINGS
  5
756
102
{ACAD_REACTORS
330
566
102
}
330
566
100
AcDbPlotSettings
  1
A4(2倍)
  2
\\AWTECPC05\HP DeskJet 1120C
  4
A4
  6

 40
4.18041658
 41
13.49374962
 42
4.18040466
 43
3.92642212
 44
209.97332764
 45
296.92599487
 46
-109.19
 47
-157.25
 48
0.0
 49
0.0
140
0.0
141
0.0
142
1.0
143
0.5
 70
  1716
 72
     1
 73
     1
 74
     2
  7
big.ctb
 75
    27
147
2.0
148
0.0
149
0.0
  0
ACDBPLACEHOLDER
  5
564
102
{ACAD_REACTORS
330
563
102
}
330
563
100
AcDbPlaceHolder
280
     0
  0
XRECORD
  5
1785
102
{ACAD_REACTORS
330
177B
102
}
330
177B
100
AcDbXrecord
 90
        0
  0
XRECORD
  5
1789
102
{ACAD_REACTORS
330
177B
102
}
330
177B
100
AcDbXrecord
1000
DSTYLE
1002
{
1070
    79
 70
     2
1070
   179
 70
     3
1070
   341
340
594
1070
   343
340
594
1070
   344
340
594
1070
   371
 70
    -1
1070
   372
 70
    -1
1002
}
  0
XRECORD
  5
1786
102
{ACAD_REACTORS
330
177B
102
}
330
177B
100
AcDbXrecord
  1
{51294030-9CB4-11D3-8E18-00A0C925D94D}
  0
XRECORD
  5
177E
102
{ACAD_REACTORS
330
177B
102
}
330
177B
100
AcDbXrecord
  1

  0
XRECORD
  5
1784
102
{ACAD_REACTORS
330
177B
102
}
330
177B
100
AcDbXrecord
 90
        0
  0
XRECORD
  5
1780
102
{ACAD_REACTORS
330
177B
102
}
330
177B
100
AcDbXrecord
340
565
  0
XRECORD
  5
1783
102
{ACAD_REACTORS
330
177B
102
}
330
177B
100
AcDbXrecord
 90
    10781
  0
XRECORD
  5
1781
102
{ACAD_REACTORS
330
177B
102
}
330
177B
100
AcDbXrecord
340
566
  0
XRECORD
  5
1782
102
{ACAD_REACTORS
330
177B
102
}
330
177B
100
AcDbXrecord
340
563
  0
XRECORD
  5
1788
102
{ACAD_REACTORS
330
177B
102
}
330
177B
100
AcDbXrecord
 40
0.0
  0
XRECORD
  5
178C
102
{ACAD_REACTORS
330
177B
102
}
330
177B
100
AcDbXrecord
340
0
  0
XRECORD
  5
1792
102
{ACAD_REACTORS
330
177B
102
}
330
177B
100
AcDbXrecord
 10
0.0
 20
0.0
 30
0.0
  0
XRECORD
  5
178E
102
{ACAD_REACTORS
330
177B
102
}
330
177B
100
AcDbXrecord
 10
0.0
 20
0.0
 30
0.0
  0
XRECORD
  5
1791
102
{ACAD_REACTORS
330
177B
102
}
330
177B
100
AcDbXrecord
 10
0.0
 20
0.0
 30
0.0
  0
XRECORD
  5
178F
102
{ACAD_REACTORS
330
177B
102
}
330
177B
100
AcDbXrecord
 10
0.0
 20
0.0
 30
0.0
  0
XRECORD
  5
1790
102
{ACAD_REACTORS
330
177B
102
}
330
177B
100
AcDbXrecord
 10
0.0
 20
0.0
 30
0.0
  0
XRECORD
  5
178D
102
{ACAD_REACTORS
330
177B
102
}
330
177B
100
AcDbXrecord
 10
0.0
 20
0.0
 30
0.0
  0
XRECORD
  5
178A
102
{ACAD_REACTORS
330
177B
102
}
330
177B
100
AcDbXrecord
340
0
  0
XRECORD
  5
178B
102
{ACAD_REACTORS
330
177B
102
}
330
177B
100
AcDbXrecord
 70
     0
  0
XRECORD
  5
177F
102
{ACAD_REACTORS
330
177B
102
}
330
177B
100
AcDbXrecord
  1
big.ctb
  0
XRECORD
  5
177C
102
{ACAD_REACTORS
330
177B
102
}
330
177B
100
AcDbXrecord
 90
        1
  0
XRECORD
  5
177D
102
{ACAD_REACTORS
330
177B
102
}
330
177B
100
AcDbXrecord
 90
       70
  0
XRECORD
  5
1795
102
{ACAD_REACTORS
330
177B
102
}
330
177B
100
AcDbXrecord
340
0
  0
XRECORD
  5
179B
102
{ACAD_REACTORS
330
177B
102
}
330
177B
100
AcDbXrecord
 10
0.0
 20
0.0
 30
0.0
  0
XRECORD
  5
1797
102
{ACAD_REACTORS
330
177B
102
}
330
177B
100
AcDbXrecord
 10
0.0
 20
0.0
 30
0.0
  0
XRECORD
  5
179A
102
{ACAD_REACTORS
330
177B
102
}
330
177B
100
AcDbXrecord
 10
0.0
 20
0.0
 30
0.0
  0
XRECORD
  5
1798
102
{ACAD_REACTORS
330
177B
102
}
330
177B
100
AcDbXrecord
 10
0.0
 20
0.0
 30
0.0
  0
XRECORD
  5
1799
102
{ACAD_REACTORS
330
177B
102
}
330
177B
100
AcDbXrecord
 10
0.0
 20
0.0
 30
0.0
  0
XRECORD
  5
1796
102
{ACAD_REACTORS
330
177B
102
}
330
177B
100
AcDbXrecord
 10
0.0
 20
0.0
 30
0.0
  0
XRECORD
  5
1793
102
{ACAD_REACTORS
330
177B
102
}
330
177B
100
AcDbXrecord
340
0
  0
XRECORD
  5
1794
102
{ACAD_REACTORS
330
177B
102
}
330
177B
100
AcDbXrecord
 70
     0
  0
XRECORD
  5
1787
102
{ACAD_REACTORS
330
177B
102
}
330
177B
100
AcDbXrecord
  1
{DCFC6069-57D8-4D9A-B0CC-7156DAE02C81}
  0
XRECORD
  5
560
102
{ACAD_REACTORS
330
540
102
}
330
540
100
AcDbXrecord
  1
2.0.0
  0
ENDSEC
  0
EOF
