  0
SECTION
  2
HEADER
  9
$ACADVER
  1
AC1014
  9
$ACADMAINTVER
 70
     9
  9
$DWGCODEPAGE
  3
ANSI_932
  9
$INSBASE
 10
0.0
 20
0.0
 30
0.0
  9
$EXTMIN
 10
-70.01495247
 20
-19.5703201
 30
-0.00152582
  9
$EXTMAX
 10
169.50454797
 20
54.96170761
 30
0.00000003
  9
$LIMMIN
 10
0.0
 20
0.0
  9
$LIMMAX
 10
420.0
 20
297.0
  9
$ORTHOMODE
 70
     0
  9
$REGENMODE
 70
     1
  9
$FILLMODE
 70
     1
  9
$QTEXTMODE
 70
     0
  9
$MIRRTEXT
 70
     1
  9
$DRAGMODE
 70
     2
  9
$LTSCALE
 40
10.0
  9
$OSMODE
 70
   549
  9
$ATTMODE
 70
     1
  9
$TEXTSIZE
 40
3.0
  9
$TRACEWID
 40
1.0
  9
$TEXTSTYLE
  7
YOKO
  9
$CLAYER
  8
245
  9
$CELTYPE
  6
BYLAYER
  9
$CECOLOR
 62
   256
  9
$CELTSCALE
 40
1.0
  9
$DELOBJ
 70
     1
  9
$DISPSILH
 70
     0
  9
$DIMSCALE
 40
1.0
  9
$DIMASZ
 40
2.0
  9
$DIMEXO
 40
2.0
  9
$DIMDLI
 40
2.5
  9
$DIMRND
 40
0.0
  9
$DIMDLE
 40
0.0
  9
$DIMEXE
 40
2.0
  9
$DIMTP
 40
0.0
  9
$DIMTM
 40
0.0
  9
$DIMTXT
 40
4.0
  9
$DIMCEN
 40
0.0
  9
$DIMTSZ
 40
0.0
  9
$DIMTOL
 70
     0
  9
$DIMLIM
 70
     0
  9
$DIMTIH
 70
     0
  9
$DIMTOH
 70
     0
  9
$DIMSE1
 70
     0
  9
$DIMSE2
 70
     0
  9
$DIMTAD
 70
     3
  9
$DIMZIN
 70
     8
  9
$DIMBLK
  1

  9
$DIMASO
 70
     1
  9
$DIMSHO
 70
     1
  9
$DIMPOST
  1

  9
$DIMAPOST
  1

  9
$DIMALT
 70
     0
  9
$DIMALTD
 70
     2
  9
$DIMALTF
 40
25.4
  9
$DIMLFAC
 40
1.0
  9
$DIMTOFL
 70
     1
  9
$DIMTVP
 40
0.0
  9
$DIMTIX
 70
     1
  9
$DIMSOXD
 70
     0
  9
$DIMSAH
 70
     1
  9
$DIMBLK1
  1
OPEN
  9
$DIMBLK2
  1
OPEN
  9
$DIMSTYLE
  2
BIGT
  9
$DIMCLRD
 70
   256
  9
$DIMCLRE
 70
   256
  9
$DIMCLRT
 70
    40
  9
$DIMTFAC
 40
1.0
  9
$DIMGAP
 40
1.0
  9
$DIMJUST
 70
     0
  9
$DIMSD1
 70
     0
  9
$DIMSD2
 70
     0
  9
$DIMTOLJ
 70
     1
  9
$DIMTZIN
 70
     8
  9
$DIMALTZ
 70
     0
  9
$DIMALTTZ
 70
     0
  9
$DIMFIT
 70
     3
  9
$DIMUPT
 70
     0
  9
$DIMUNIT
 70
     2
  9
$DIMDEC
 70
     3
  9
$DIMTDEC
 70
     3
  9
$DIMALTU
 70
     2
  9
$DIMALTTD
 70
     2
  9
$DIMTXSTY
  7
STANDARD
  9
$DIMAUNIT
 70
     0
  9
$LUNITS
 70
     2
  9
$LUPREC
 70
     3
  9
$SKETCHINC
 40
1.0
  9
$FILLETRAD
 40
0.0
  9
$AUNITS
 70
     0
  9
$AUPREC
 70
     3
  9
$MENU
  1
.
  9
$ELEVATION
 40
0.0
  9
$PELEVATION
 40
0.0
  9
$THICKNESS
 40
0.0
  9
$LIMCHECK
 70
     0
  9
$BLIPMODE
 70
     0
  9
$CHAMFERA
 40
10.0
  9
$CHAMFERB
 40
10.0
  9
$CHAMFERC
 40
0.0
  9
$CHAMFERD
 40
0.0
  9
$SKPOLY
 70
     0
  9
$TDCREATE
 40
2455128.599407731
  9
$TDUPDATE
 40
2455316.538624664
  9
$TDINDWG
 40
0.0036507060
  9
$TDUSRTIMER
 40
0.0036507060
  9
$USRTIMER
 70
     1
  9
$ANGBASE
 50
0.0
  9
$ANGDIR
 70
     0
  9
$PDMODE
 70
     1
  9
$PDSIZE
 40
-5.0
  9
$PLINEWID
 40
0.0
  9
$COORDS
 70
     0
  9
$SPLFRAME
 70
     0
  9
$SPLINETYPE
 70
     6
  9
$SPLINESEGS
 70
     8
  9
$ATTDIA
 70
     0
  9
$ATTREQ
 70
     1
  9
$HANDLING
 70
-16383
  9
$HANDSEED
  5
170A
  9
$SURFTAB1
 70
     6
  9
$SURFTAB2
 70
     6
  9
$SURFTYPE
 70
     6
  9
$SURFU
 70
     6
  9
$SURFV
 70
     6
  9
$UCSNAME
  2

  9
$UCSORG
 10
0.0
 20
0.0
 30
0.0
  9
$UCSXDIR
 10
1.0
 20
0.0
 30
0.0
  9
$UCSYDIR
 10
0.0
 20
1.0
 30
0.0
  9
$PUCSNAME
  2

  9
$PUCSORG
 10
0.0
 20
0.0
 30
0.0
  9
$PUCSXDIR
 10
1.0
 20
0.0
 30
0.0
  9
$PUCSYDIR
 10
0.0
 20
1.0
 30
0.0
  9
$USERI1
 70
     1
  9
$USERI2
 70
     0
  9
$USERI3
 70
     0
  9
$USERI4
 70
     0
  9
$USERI5
 70
     0
  9
$USERR1
 40
0.0
  9
$USERR2
 40
0.0
  9
$USERR3
 40
0.0
  9
$USERR4
 40
0.0
  9
$USERR5
 40
0.0
  9
$WORLDVIEW
 70
     1
  9
$SHADEDGE
 70
     3
  9
$SHADEDIF
 70
    70
  9
$TILEMODE
 70
     1
  9
$MAXACTVP
 70
    16
  9
$PINSBASE
 10
0.0
 20
0.0
 30
0.0
  9
$PLIMCHECK
 70
     0
  9
$PEXTMIN
 10
1.00000000E+20
 20
1.00000000E+20
 30
1.00000000E+20
  9
$PEXTMAX
 10
-1.00000000E+20
 20
-1.00000000E+20
 30
-1.00000000E+20
  9
$PLIMMIN
 10
0.0
 20
0.0
  9
$PLIMMAX
 10
420.0
 20
297.0
  9
$UNITMODE
 70
     0
  9
$VISRETAIN
 70
     0
  9
$PLINEGEN
 70
     0
  9
$PSLTSCALE
 70
     1
  9
$TREEDEPTH
 70
  3020
  9
$PICKSTYLE
 70
     0
  9
$CMLSTYLE
  2
STANDARD
  9
$CMLJUST
 70
     0
  9
$CMLSCALE
 40
1.0
  9
$PROXYGRAPHICS
 70
     1
  9
$MEASUREMENT
 70
     1
  0
ENDSEC
  0
SECTION
  2
CLASSES
  0
CLASS
  1
XRECORD
  2
AcDbXrecord
  3
AutoCAD 2000
 90
        0
280
     0
281
     0
  0
CLASS
  1
ACDBDICTIONARYWDFLT
  2
AcDbDictionaryWithDefault
  3
AutoCAD 2000
 90
        0
280
     0
281
     0
  0
CLASS
  1
ACDBPLACEHOLDER
  2
AcDbPlaceHolder
  3
AutoCAD 2000
 90
        0
280
     0
281
     0
  0
CLASS
  1
LAYOUT
  2
AcDbLayout
  3
AutoCAD 2000
 90
        0
280
     0
281
     0
  0
CLASS
  1
PLOTSETTINGS
  2
AcDbPlotSettings
  3
AutoCAD 2000
 90
        0
280
     0
281
     0
  0
CLASS
  1
LONG_TRANSACTION
  2
AcDbLongTransaction
  3
AutoCAD 2000
 90
        0
280
     0
281
     0
  0
CLASS
  1
LWPOLYLINE
  2
AcDbPolyline
  3
AutoCAD 2000
 90
        0
280
     0
281
     1
  0
CLASS
  1
HATCH
  2
AcDbHatch
  3
AutoCAD 2000
 90
        0
280
     0
281
     1
  0
CLASS
  1
XRECORD
  2
AcDbXrecord
  3
AutoCAD 2000
 90
        0
280
     0
281
     0
  0
CLASS
  1
LONG_TRANSACTION
  2
AcDbLongTransaction
  3
AutoCAD 2000
 90
        0
280
     0
281
     0
  0
CLASS
  1
LWPOLYLINE
  2
AcDbPolyline
  3
AutoCAD 2000
 90
        0
280
     0
281
     1
  0
CLASS
  1
HATCH
  2
AcDbHatch
  3
AutoCAD 2000
 90
        0
280
     0
281
     1
  0
CLASS
  1
XRECORD
  2
AcDbXrecord
  3
AutoCAD 2000
 90
        0
280
     0
281
     0
  0
ENDSEC
  0
SECTION
  2
TABLES
  0
TABLE
  2
VPORT
  5
8
330
0
100
AcDbSymbolTable
 70
     4
  0
VPORT
  5
16E5
330
8
100
AcDbSymbolTableRecord
100
AcDbViewportTableRecord
  2
*ACTIVE
 70
     0
 10
0.0
 20
0.0
 11
1.0
 21
1.0
 12
49.74479775
 22
17.69569376
 13
0.0
 23
0.0
 14
7.0
 24
7.0
 15
7.0
 25
7.0
 16
0.0
 26
0.0
 36
1.0
 17
0.0
 27
0.0
 37
0.0
 40
168.17189623
 41
1.43184713
 42
50.0
 43
0.0
 44
0.0
 50
0.0
 51
0.0
 71
     0
 72
  2000
 73
     1
 74
     0
 75
     0
 76
     0
 77
     0
 78
     0
  0
ENDTAB
  0
TABLE
  2
LTYPE
  5
5
330
0
100
AcDbSymbolTable
 70
     3
  0
LTYPE
  5
14
330
5
100
AcDbSymbolTableRecord
100
AcDbLinetypeTableRecord
  2
BYBLOCK
 70
     0
  3

 72
    65
 73
     0
 40
0.0
  0
LTYPE
  5
15
330
5
100
AcDbSymbolTableRecord
100
AcDbLinetypeTableRecord
  2
BYLAYER
 70
     0
  3

 72
    65
 73
     0
 40
0.0
  0
LTYPE
  5
16
330
5
100
AcDbSymbolTableRecord
100
AcDbLinetypeTableRecord
  2
CONTINUOUS
 70
     0
  3
Solid line
 72
    65
 73
     0
 40
0.0
  0
LTYPE
  5
258
330
5
100
AcDbSymbolTableRecord
100
AcDbLinetypeTableRecord
  2
CENTER2
 70
     0
  3
___ _ ___ _ ___ _ ___ _ ___ _ ___ _ ___ _ ___ _
 72
    65
 73
     4
 40
1.125
 49
0.75
 74
     0
 49
-0.125
 74
     0
 49
0.125
 74
     0
 49
-0.125
 74
     0
  0
LTYPE
  5
25C
330
5
100
AcDbSymbolTableRecord
100
AcDbLinetypeTableRecord
  2
HIDDEN2
 70
     0
  3
_ _ _ _ _ _ _ _ _ _ _ _ _ _ _ _ _ _ _ _ _ _ _ _
 72
    65
 73
     2
 40
0.1875
 49
0.125
 74
     0
 49
-0.0625
 74
     0
  0
ENDTAB
  0
TABLE
  2
LAYER
  5
2
330
0
100
AcDbSymbolTable
 70
    11
  0
LAYER
  5
F
330
2
100
AcDbSymbolTableRecord
100
AcDbLayerTableRecord
  2
0
 70
     0
 62
     7
  6
CONTINUOUS
  0
LAYER
  5
1AA
330
2
100
AcDbSymbolTableRecord
100
AcDbLayerTableRecord
  2
240
 70
     0
 62
     4
  6
CONTINUOUS
  0
LAYER
  5
1AB
330
2
100
AcDbSymbolTableRecord
100
AcDbLayerTableRecord
  2
241
 70
     0
 62
   211
  6
CONTINUOUS
  0
LAYER
  5
1AC
330
2
100
AcDbSymbolTableRecord
100
AcDbLayerTableRecord
  2
242
 70
     0
 62
     3
  6
CONTINUOUS
  0
LAYER
  5
1AD
330
2
100
AcDbSymbolTableRecord
100
AcDbLayerTableRecord
  2
243
 70
     0
 62
   211
  6
HIDDEN2
  0
LAYER
  5
1AF
330
2
100
AcDbSymbolTableRecord
100
AcDbLayerTableRecord
  2
245
 70
     0
 62
     2
  6
CENTER2
  0
LAYER
  5
21E
330
2
100
AcDbSymbolTableRecord
100
AcDbLayerTableRecord
  2
250
 70
     0
 62
     3
  6
CONTINUOUS
  0
LAYER
  5
21F
330
2
100
AcDbSymbolTableRecord
100
AcDbLayerTableRecord
  2
251
 70
     0
 62
    40
  6
CONTINUOUS
  0
LAYER
  5
5C4
330
2
100
AcDbSymbolTableRecord
100
AcDbLayerTableRecord
  2
DEFPOINTS
 70
     0
 62
     7
  6
CONTINUOUS
  0
LAYER
  5
8C3
330
2
100
AcDbSymbolTableRecord
100
AcDbLayerTableRecord
  2
AM_5
 70
     0
 62
     3
  6
CONTINUOUS
  0
ENDTAB
  0
TABLE
  2
STYLE
  5
3
330
0
100
AcDbSymbolTable
 70
     2
  0
STYLE
  5
10
330
3
100
AcDbSymbolTableRecord
100
AcDbTextStyleTableRecord
  2
STANDARD
 70
     0
 40
0.0
 41
1.0
 50
0.0
 71
     0
 42
3.0
  3
romans.shx
  4
BIGFONT.SHX
  0
STYLE
  5
339
330
3
100
AcDbSymbolTableRecord
100
AcDbTextStyleTableRecord
  2
YOKO
 70
     0
 40
0.0
 41
1.0
 50
0.0
 71
     0
 42
3.0
  3
romans.shx
  4
extfont.shx
  0
ENDTAB
  0
TABLE
  2
VIEW
  5
6
330
0
100
AcDbSymbolTable
 70
     0
  0
ENDTAB
  0
TABLE
  2
UCS
  5
7
330
0
100
AcDbSymbolTable
 70
     0
  0
ENDTAB
  0
TABLE
  2
APPID
  5
9
330
0
100
AcDbSymbolTable
 70
    15
  0
APPID
  5
11
330
9
100
AcDbSymbolTableRecord
100
AcDbRegAppTableRecord
  2
ACAD
 70
     0
  0
APPID
  5
1B1
330
9
100
AcDbSymbolTableRecord
100
AcDbRegAppTableRecord
  2
GLOBAL
 70
     0
  0
APPID
  5
2A4
330
9
100
AcDbSymbolTableRecord
100
AcDbRegAppTableRecord
  2
DETAIL
 70
     0
  0
APPID
  5
5FD
330
9
100
AcDbSymbolTableRecord
100
AcDbRegAppTableRecord
  2
GRPNAME
 70
     0
  0
APPID
  5
5FE
330
9
100
AcDbSymbolTableRecord
100
AcDbRegAppTableRecord
  2
GPARA
 70
     0
  0
APPID
  5
6C4
330
9
100
AcDbSymbolTableRecord
100
AcDbRegAppTableRecord
  2
DCO15
 70
     0
  0
APPID
  5
6C5
330
9
100
AcDbSymbolTableRecord
100
AcDbRegAppTableRecord
  2
ITEMNAME
 70
     0
  0
APPID
  5
6C6
330
9
100
AcDbSymbolTableRecord
100
AcDbRegAppTableRecord
  2
GRADE_0
 70
     0
  0
APPID
  5
8C5
330
9
100
AcDbSymbolTableRecord
100
AcDbRegAppTableRecord
  2
GENIUS_GENODEF_13
 70
     0
  0
APPID
  5
8C6
330
9
100
AcDbSymbolTableRecord
100
AcDbRegAppTableRecord
  2
GENIUS_GENOREF_13
 70
     0
  0
APPID
  5
8C7
330
9
100
AcDbSymbolTableRecord
100
AcDbRegAppTableRecord
  2
GENIUS_GENOBJ-N-FIL_13
 70
     0
  0
APPID
  5
8C8
330
9
100
AcDbSymbolTableRecord
100
AcDbRegAppTableRecord
  2
HATCH_TYPE
 70
     0
  0
APPID
  5
8C9
330
9
100
AcDbSymbolTableRecord
100
AcDbRegAppTableRecord
  2
HATCH_DISPLAY
 70
     0
  0
APPID
  5
8CA
330
9
100
AcDbSymbolTableRecord
100
AcDbRegAppTableRecord
  2
HATCH_DISTANCE
 70
     0
  0
APPID
  5
1137
330
9
100
AcDbSymbolTableRecord
100
AcDbRegAppTableRecord
  2
CONTENTBLOCKICON
 70
     0
  0
ENDTAB
  0
TABLE
  2
DIMSTYLE
  5
A
330
0
100
AcDbSymbolTable
 70
     2
  0
DIMSTYLE
105
725
102
{ACAD_REACTORS
330
F4D
102
}
330
A
100
AcDbSymbolTableRecord
100
AcDbDimStyleTableRecord
  2
BIGT
 70
     0
  3

  4

  5

  6
OPEN
  7
OPEN
 40
1.0
 41
2.23
 42
0.5
 43
2.5
 44
1.0
 45
0.0
 46
0.0
 47
0.0
 48
0.0
140
2.8
141
0.0
142
0.0
143
25.4
144
1.0
145
0.0
146
1.0
147
1.0
 71
     0
 72
     0
 73
     0
 74
     0
 75
     0
 76
     0
 77
     3
 78
     8
170
     0
171
     2
172
     1
173
     1
174
     1
175
     0
176
   256
177
   256
178
    40
270
     2
271
     3
272
     3
273
     2
274
     2
340
10
275
     0
280
     0
281
     0
282
     0
283
     1
284
     8
285
     0
286
     0
287
     3
288
     0
  0
DIMSTYLE
105
8C4
102
{ACAD_REACTORS
330
EA4
330
F4C
102
}
330
A
100
AcDbSymbolTableRecord
100
AcDbDimStyleTableRecord
  2
BIGT$0
 70
     0
  3

  4

  5
OPEN
  6

  7

 40
1.0
 41
2.23
 42
0.5
 43
7.0
 44
1.0
 45
0.0
 46
0.0
 47
0.0
 48
0.01
140
2.8
141
0.0
142
0.0
143
25.4
144
1.0
145
0.0
146
1.0
147
1.0
 71
     0
 72
     0
 73
     0
 74
     0
 75
     0
 76
     0
 77
     3
 78
     9
170
     0
171
     2
172
     1
173
     0
174
     1
175
     0
176
   256
177
   256
178
    40
270
     2
271
     3
272
     3
273
     2
274
     2
340
10
275
     0
280
     0
281
     0
282
     0
283
     1
284
     8
285
     0
286
     0
287
     3
288
     0
  0
ENDTAB
  0
TABLE
  2
BLOCK_RECORD
  5
1
330
0
100
AcDbSymbolTable
 70
     7
  0
BLOCK_RECORD
  5
1A
102
{ACAD_XDICTIONARY
360
1135
102
}
330
1
100
AcDbSymbolTableRecord
100
AcDbBlockTableRecord
  2
*MODEL_SPACE
  0
BLOCK_RECORD
  5
17
102
{ACAD_XDICTIONARY
360
1133
102
}
330
1
100
AcDbSymbolTableRecord
100
AcDbBlockTableRecord
  2
*PAPER_SPACE
  0
BLOCK_RECORD
  5
594
330
1
100
AcDbSymbolTableRecord
100
AcDbBlockTableRecord
  2
_OPEN
  0
BLOCK_RECORD
  5
6E3
330
1
100
AcDbSymbolTableRecord
100
AcDbBlockTableRecord
  2
矢印なし
  0
BLOCK_RECORD
  5
762
330
1
100
AcDbSymbolTableRecord
100
AcDbBlockTableRecord
  2
1
1001
CONTENTBLOCKICON
1071
        0
1004
2800000020000000200000000100080000000000000400000000000000000000000000000000000000000000000080000080000000808000800000008000800080800000C0C0C000C0DCC000F0CAA6000020400000206000002080000020A0000020C0000020E00000400000004020000040400000406000004080000040A0
1004
000040C0000040E00000600000006020000060400000606000006080000060A0000060C0000060E00000800000008020000080400000806000008080000080A0000080C0000080E00000A0000000A0200000A0400000A0600000A0800000A0A00000A0C00000A0E00000C0000000C0200000C0400000C0600000C0800000C0
1004
A00000C0C00000C0E00000E0000000E0200000E0400000E0600000E0800000E0A00000E0C00000E0E00040000000400020004000400040006000400080004000A0004000C0004000E00040200000402020004020400040206000402080004020A0004020C0004020E000404000004040200040404000404060004040800040
1004
40A0004040C0004040E00040600000406020004060400040606000406080004060A0004060C0004060E00040800000408020004080400040806000408080004080A0004080C0004080E00040A0000040A0200040A0400040A0600040A0800040A0A00040A0C00040A0E00040C0000040C0200040C0400040C0600040C08000
1004
40C0A00040C0C00040C0E00040E0000040E0200040E0400040E0600040E0800040E0A00040E0C00040E0E00080000000800020008000400080006000800080008000A0008000C0008000E00080200000802020008020400080206000802080008020A0008020C0008020E00080400000804020008040400080406000804080
1004
008040A0008040C0008040E00080600000806020008060400080606000806080008060A0008060C0008060E00080800000808020008080400080806000808080008080A0008080C0008080E00080A0000080A0200080A0400080A0600080A0800080A0A00080A0C00080A0E00080C0000080C0200080C0400080C0600080C0
1004
800080C0A00080C0C00080C0E00080E0000080E0200080E0400080E0600080E0800080E0A00080E0C00080E0E000C0000000C0002000C0004000C0006000C0008000C000A000C000C000C000E000C0200000C0202000C0204000C0206000C0208000C020A000C020C000C020E000C0400000C0402000C0404000C0406000C0
1004
408000C040A000C040C000C040E000C0600000C0602000C0604000C0606000C0608000C060A000C060C000C060E000C0800000C0802000C0804000C0806000C0808000C080A000C080C000C080E000C0A00000C0A02000C0A04000C0A06000C0A08000C0A0A000C0A0C000C0A0E000C0C00000C0C02000C0C04000C0C06000
1004
C0C08000C0C0A000F0FBFF00A4A0A000808080000000FF0000FF000000FFFF00FF000000FF00FF00FFFF0000FFFFFF0000000000000000000000000000000000000000000000000000000000000000000000000000000000000000000000000000000000000000000000000000000000000000000000000000000000000000
1004
00000000000000000000000000000000000000000000000000000000000000000000000000000000000000000000000000000000000000000000000000000000000000000000000000000000000000000000000000000000000000000000000000000000000000000000000000000000000000000000000000000000000000
1004
00000000000000000000000000000000000000000000000000000000000000000000000000000000000000000000000000000000000000000000000000000000000000000000000000000000000000000000000000000000000000000000000000000000000000000000000000000000000000000000000000000000000000
1004
0000000000000000000000000000000000000000000000000000000000000000000000000000000000000000000000000000000000000000000000000000000000000000000000000000000000000000000000000000000000000000FEFE0000000000000000000000000000000000000000000000FEFEFEFEFEFEFEFEE7FE
1004
FEFEFEFEFEFEFEFEFEFEFEFEFEFEFEFEFEFE00000000FE00E7E7E7FBE7E7E7000000000000000000000000000000E7E700FE000000FBFEFBE7E7E7E7E7E7E7FBFBFBFFFFFFFFFFFFFFFFFFFFFBFBE7E7E7FEFB000000FEFEFEFEFEFEFEFEE7FEFEFEFFFFFEFEFEFEFEFFFEFEFEFEFEFEFEFE0000000000000000000000FEFE
1004
00000000000000000000000000000000000000000000000000000000000000000000000000000000000000000000000000000000000000000000000000000000000000000000000000000000000000000000000000000000000000000000000000000000000000000000000000000000000000000000000000000000000000
1004
00000000000000000000000000000000000000000000000000000000000000000000000000000000000000000000000000000000000000000000000000000000000000000000000000000000000000000000000000000000000000000000000000000000000000000000000000000000000000000000000000000000000000
1004
00000000000000000000000000000000000000000000000000000000000000000000000000000000000000000000000000000000000000000000000000000000000000000000000000000000000000000000000000000000000000000000000000000000000000000000000000000000000000000000000000000000000000
1004
0000000000000000000000000000000000000000000000000000000000000000000000000000000000000000000000000000000000000000
  0
BLOCK_RECORD
  5
F4F
330
1
100
AcDbSymbolTableRecord
100
AcDbBlockTableRecord
  2
*D3
  0
BLOCK_RECORD
  5
F5B
330
1
100
AcDbSymbolTableRecord
100
AcDbBlockTableRecord
  2
*D4
  0
BLOCK_RECORD
  5
F67
330
1
100
AcDbSymbolTableRecord
100
AcDbBlockTableRecord
  2
*D5
  0
ENDTAB
  0
ENDSEC
  0
SECTION
  2
BLOCKS
  0
BLOCK
  5
1B
330
1A
100
AcDbEntity
  8
0
100
AcDbBlockBegin
  2
*MODEL_SPACE
 70
     0
 10
0.0
 20
0.0
 30
0.0
  3
*MODEL_SPACE
  1

  0
ENDBLK
  5
1C
330
1A
100
AcDbEntity
  8
0
100
AcDbBlockEnd
  0
BLOCK
  5
18
330
17
100
AcDbEntity
 67
     1
  8
0
100
AcDbBlockBegin
  2
*PAPER_SPACE
 70
     0
 10
0.0
 20
0.0
 30
0.0
  3
*PAPER_SPACE
  1

  0
ENDBLK
  5
19
330
17
100
AcDbEntity
 67
     1
  8
0
100
AcDbBlockEnd
  0
BLOCK
  5
598
330
594
100
AcDbEntity
  8
0
100
AcDbBlockBegin
  2
_OPEN
 70
     0
 10
0.0
 20
0.0
 30
0.0
  3
_OPEN
  1

  0
LINE
  5
595
330
594
100
AcDbEntity
  8
0
  6
BYBLOCK
 62
     0
100
AcDbLine
 10
-1.0
 20
0.16666667
 30
0.0
 11
0.0
 21
0.0
 31
0.0
  0
LINE
  5
596
330
594
100
AcDbEntity
  8
0
  6
BYBLOCK
 62
     0
100
AcDbLine
 10
-1.0
 20
-0.16666667
 30
0.0
 11
0.0
 21
0.0
 31
0.0
  0
LINE
  5
597
330
594
100
AcDbEntity
  8
0
  6
BYBLOCK
 62
     0
100
AcDbLine
 10
0.0
 20
0.0
 30
0.0
 11
-1.0
 21
0.0
 31
0.0
  0
ENDBLK
  5
599
330
594
100
AcDbEntity
  8
0
100
AcDbBlockEnd
  0
BLOCK
  5
6E4
330
6E3
100
AcDbEntity
  8
0
100
AcDbBlockBegin
  2
矢印なし
 70
     0
 10
0.0
 20
0.0
 30
0.0
  3
矢印なし
  1

  0
ENDBLK
  5
6E5
330
6E3
100
AcDbEntity
  8
0
100
AcDbBlockEnd
  0
BLOCK
  5
89E
330
762
100
AcDbEntity
  8
0
100
AcDbBlockBegin
  2
1
 70
     0
 10
0.0
 20
0.0
 30
0.0
  3
1
  1

  0
LINE
  5
15C6
330
762
100
AcDbEntity
  8
245
100
AcDbLine
 10
-70.0
 20
0.0
 30
0.0
 11
151.0
 21
0.0
 31
0.0
  0
LINE
  5
15C7
330
762
100
AcDbEntity
  8
240
100
AcDbLine
 10
125.0
 20
-15.0
 30
0.0
 11
1.97309836
 21
-15.0
 31
0.0
  0
LINE
  5
15C8
330
762
100
AcDbEntity
  8
240
100
AcDbLine
 10
125.0
 20
15.0
 30
0.0
 11
1.97309836
 21
15.0
 31
0.0
  0
LINE
  5
15C9
330
762
100
AcDbEntity
  8
240
100
AcDbLine
 10
-54.0
 20
-12.5
 30
0.0
 11
-56.5
 21
-15.0
 31
0.0
  0
LINE
  5
15CA
330
762
100
AcDbEntity
  8
240
100
AcDbLine
 10
-54.0
 20
12.5
 30
0.0
 11
-56.5
 21
15.0
 31
0.0
  0
LINE
  5
15CB
330
762
100
AcDbEntity
  8
240
100
AcDbLine
 10
-69.0
 20
-14.0
 30
0.0
 11
-69.0
 21
0.0
 31
0.0
  0
LINE
  5
15CC
330
762
100
AcDbEntity
  8
240
100
AcDbLine
 10
-68.0
 20
-15.0
 30
0.0
 11
-56.5
 21
-15.0
 31
0.0
  0
ARC
  5
15CD
330
762
100
AcDbEntity
  8
240
100
AcDbCircle
 10
-68.0
 20
-14.0
 30
0.0
 40
1.0
100
AcDbArc
 50
180.0
 51
270.0
  0
ARC
  5
15CE
330
762
100
AcDbEntity
  8
240
100
AcDbCircle
 10
-68.0
 20
14.0
 30
0.0
 40
1.0
100
AcDbArc
 50
90.0
 51
180.0
  0
LINE
  5
15CF
330
762
100
AcDbEntity
  8
240
100
AcDbLine
 10
-69.0
 20
14.0
 30
0.0
 11
-69.0
 21
0.0
 31
0.0
  0
LINE
  5
15D0
330
762
100
AcDbEntity
  8
240
100
AcDbLine
 10
-68.0
 20
15.0
 30
0.0
 11
-56.5
 21
15.0
 31
0.0
  0
LINE
  5
15D1
330
762
100
AcDbEntity
  8
245
100
AcDbLine
 10
-46.0
 20
-15.0
 30
0.0
 11
-46.0
 21
15.0
 31
0.0
1001
GENIUS_GENOREF_13
1005
0
  0
LINE
  5
15D2
330
762
100
AcDbEntity
  8
243
100
AcDbLine
 10
-50.0
 20
-12.5
 30
0.0
 11
-50.0
 21
12.5
 31
0.0
1001
GENIUS_GENOREF_13
1005
0
  0
LINE
  5
15D3
330
762
100
AcDbEntity
  8
243
100
AcDbLine
 10
-42.0
 20
-12.5
 30
0.0
 11
-42.0
 21
12.5
 31
0.0
1001
GENIUS_GENOREF_13
1005
0
  0
LINE
  5
15D4
330
762
100
AcDbEntity
  8
241
100
AcDbLine
 10
-32.0
 20
-13.75
 30
0.0
 11
-32.0
 21
0.0
 31
0.0
  0
LINE
  5
15D5
330
762
100
AcDbEntity
  8
241
100
AcDbLine
 10
-29.5
 20
-13.75
 30
0.0
 11
-29.5
 21
0.0
 31
0.0
  0
LINE
  5
15D6
330
762
100
AcDbEntity
  8
241
100
AcDbLine
 10
-21.5
 20
-13.75
 30
0.0
 11
-21.5
 21
0.0
 31
0.0
  0
LINE
  5
15D7
330
762
100
AcDbEntity
  8
241
100
AcDbLine
 10
-19.0
 20
-13.75
 30
0.0
 11
-19.0
 21
0.0
 31
0.0
  0
LINE
  5
15D8
330
762
100
AcDbEntity
  8
241
100
AcDbLine
 10
-14.5
 20
-15.0
 30
0.0
 11
-14.5
 21
0.0
 31
0.0
  0
LINE
  5
15D9
330
762
100
AcDbEntity
  8
241
100
AcDbLine
 10
-4.5
 20
-18.25
 30
0.0
 11
-4.5
 21
0.0
 31
0.0
  0
LINE
  5
15DA
330
762
100
AcDbEntity
  8
241
100
AcDbLine
 10
-2.0
 20
-18.25
 30
0.0
 11
-2.0
 21
0.0
 31
0.0
  0
LINE
  5
15DB
330
762
100
AcDbEntity
  8
241
100
AcDbLine
 10
0.0
 20
-19.14125603
 30
0.0
 11
0.0
 21
0.0
 31
0.0
  0
LINE
  5
15DC
330
762
100
AcDbEntity
  8
241
  6
CONTINUOUS
100
AcDbLine
 10
-7.5
 20
-19.00000001
 30
0.0
 11
-7.5
 21
0.0
 31
0.0
  0
LINE
  5
15DD
330
762
100
AcDbEntity
  8
241
100
AcDbLine
 10
-6.12626129
 20
-19.5
 30
0.0
 11
-6.12626129
 21
0.0
 31
0.0
  0
LINE
  5
15DE
330
762
100
AcDbEntity
  8
241
100
AcDbLine
 10
1.20577137
 20
-15.35874397
 30
0.0
 11
1.20577137
 21
0.0
 31
0.0
  0
LINE
  5
15DF
330
762
100
AcDbEntity
  8
240
100
AcDbLine
 10
-19.0
 20
-15.0
 30
0.0
 11
-14.5
 21
-15.0
 31
0.0
  0
LINE
  5
15E0
330
762
100
AcDbEntity
  8
240
100
AcDbLine
 10
-38.0
 20
-12.5
 30
0.0
 11
-35.5
 21
-15.0
 31
0.0
  0
LINE
  5
15E1
330
762
100
AcDbEntity
  8
240
100
AcDbLine
 10
-46.0
 20
-12.5
 30
0.0
 11
-38.0
 21
-12.5
 31
0.0
  0
LINE
  5
15E2
330
762
100
AcDbEntity
  8
240
100
AcDbLine
 10
-54.0
 20
-12.5
 30
0.0
 11
-46.0
 21
-12.5
 31
0.0
  0
LINE
  5
15E3
330
762
100
AcDbEntity
  8
240
100
AcDbLine
 10
-29.5
 20
-15.0
 30
0.0
 11
-21.5
 21
-15.0
 31
0.0
  0
ARC
  5
15E4
330
762
100
AcDbEntity
  8
240
100
AcDbCircle
 10
-30.75
 20
-13.75
 30
0.0
 40
1.24999999999827
100
AcDbArc
 50
180.0
 51
0.0
  0
LINE
  5
15E5
330
762
100
AcDbEntity
  8
240
100
AcDbLine
 10
-32.0
 20
-13.75
 30
0.0
 11
-32.0
 21
-15.0
 31
0.0
  0
LINE
  5
15E6
330
762
100
AcDbEntity
  8
240
100
AcDbLine
 10
-35.5
 20
-15.0
 30
0.0
 11
-32.0
 21
-15.0
 31
0.0
  0
LINE
  5
15E7
330
762
100
AcDbEntity
  8
240
100
AcDbLine
 10
-29.5
 20
-13.75
 30
0.0
 11
-29.5
 21
-15.0
 31
0.0
  0
ARC
  5
15E8
330
762
100
AcDbEntity
  8
240
100
AcDbCircle
 10
-20.25
 20
-13.75
 30
0.0
 40
1.249999999998089
100
AcDbArc
 50
180.0
 51
0.0
  0
LINE
  5
15E9
330
762
100
AcDbEntity
  8
240
100
AcDbLine
 10
-21.5
 20
-13.75
 30
0.0
 11
-21.5
 21
-15.0
 31
0.0
  0
LINE
  5
15EA
330
762
100
AcDbEntity
  8
240
100
AcDbLine
 10
-19.0
 20
-13.75
 30
0.0
 11
-19.0
 21
-15.0
 31
0.0
  0
LINE
  5
15EB
330
762
100
AcDbEntity
  8
240
100
AcDbLine
 10
-7.5
 20
-19.00000001
 30
0.0
 11
-6.12626128
 21
-19.5
 31
0.0
  0
LINE
  5
15EC
330
762
100
AcDbEntity
  8
240
100
AcDbLine
 10
-13.0
 20
-15.5
 30
0.0
 11
-13.5
 21
-16.0
 31
0.0
  0
LINE
  5
15ED
330
762
100
AcDbEntity
  8
240
100
AcDbLine
 10
-7.50000001
 20
-19.0
 30
0.0
 11
-13.5
 21
-19.0
 31
0.0
  0
LINE
  5
15EE
330
762
100
AcDbEntity
  8
240
100
AcDbLine
 10
-13.5
 20
-19.0
 30
0.0
 11
-13.5
 21
-16.0
 31
0.0
  0
LINE
  5
15EF
330
762
100
AcDbEntity
  8
241
  6
CONTINUOUS
100
AcDbLine
 10
-7.5
 20
-15.2
 30
0.0
 11
-13.0
 21
-15.2
 31
0.0
  0
LINE
  5
15F0
330
762
100
AcDbEntity
  8
240
100
AcDbLine
 10
-14.2
 20
-14.7
 30
0.0
 11
-14.5
 21
-15.0
 31
0.0
  0
LINE
  5
15F1
330
762
100
AcDbEntity
  8
240
100
AcDbLine
 10
-14.2
 20
-14.7
 30
0.0
 11
-13.0
 21
-14.7
 31
0.0
  0
LINE
  5
15F2
330
762
100
AcDbEntity
  8
240
100
AcDbLine
 10
-13.0
 20
-15.5
 30
0.0
 11
-13.0
 21
-14.7
 31
0.0
  0
LINE
  5
15F3
330
762
100
AcDbEntity
  8
240
100
AcDbLine
 10
0.19859884
 20
-18.75881905
 30
0.0
 11
1.00717253
 21
-15.74118096
 31
0.0
  0
ARC
  5
15F4
330
762
100
AcDbEntity
  8
240
100
AcDbCircle
 10
-3.25
 20
-18.25
 30
0.0
 40
1.250000000000339
100
AcDbArc
 50
180.0
 51
0.0
  0
LINE
  5
15F5
330
762
100
AcDbEntity
  8
240
100
AcDbLine
 10
-4.5
 20
-18.25
 30
0.0
 11
-4.5
 21
-19.5
 31
0.0
  0
LINE
  5
15F6
330
762
100
AcDbEntity
  8
240
100
AcDbLine
 10
-4.5
 20
-19.5
 30
0.0
 11
-6.12626129
 21
-19.5
 31
0.0
  0
ARC
  5
15F7
330
762
100
AcDbEntity
  8
240
100
AcDbCircle
 10
-0.76732699
 20
-18.5
 30
0.0
 40
1.0
100
AcDbArc
 50
285.0
 51
345.0
1001
GENIUS_GENOBJ-N-FIL_13
1002
{
1000
OWNER
1000
GEN
1002
}
1001
GENIUS_GENODEF_13
1002
{
1000
HIER
1070
     0
1002
}
1002
{
1000
MANEDIT
1070
     0
1002
}
1002
{
1000
NOSEL
1070
     0
1002
}
1002
{
1000
BEHIND
1070
     0
1002
}
1002
{
1000
OTHER
1070
     0
1002
}
1002
{
1000
REACTOR
1002
}
  0
LINE
  5
15F8
330
762
100
AcDbEntity
  8
240
100
AcDbLine
 10
-2.0
 20
-18.25
 30
0.0
 11
-2.0
 21
-19.5
 31
0.0
  0
LINE
  5
15F9
330
762
100
AcDbEntity
  8
240
100
AcDbLine
 10
-0.63567449
 20
-19.5
 30
0.0
 11
-2.0
 21
-19.5
 31
0.0
  0
LINE
  5
15FA
330
762
100
AcDbEntity
  8
240
100
AcDbLine
 10
-0.50850794
 20
-19.46592583
 30
0.0
 11
-0.63567449
 21
-19.5
 31
0.0
  0
ARC
  5
15FB
330
762
100
AcDbEntity
  8
240
100
AcDbCircle
 10
1.97309836
 20
-16.0
 30
0.0
 40
1.0
100
AcDbArc
 50
90.0
 51
165.00000002
  0
LINE
  5
15FC
330
762
100
AcDbEntity
  8
240
100
AcDbLine
 10
-19.0
 20
15.0
 30
0.0
 11
-14.5
 21
15.0
 31
0.0
  0
LINE
  5
15FD
330
762
100
AcDbEntity
  8
240
100
AcDbLine
 10
-38.0
 20
12.5
 30
0.0
 11
-35.5
 21
15.0
 31
0.0
  0
LINE
  5
15FE
330
762
100
AcDbEntity
  8
240
100
AcDbLine
 10
-46.0
 20
12.5
 30
0.0
 11
-38.0
 21
12.5
 31
0.0
  0
LINE
  5
15FF
330
762
100
AcDbEntity
  8
240
100
AcDbLine
 10
-54.0
 20
12.5
 30
0.0
 11
-46.0
 21
12.5
 31
0.0
  0
LINE
  5
1600
330
762
100
AcDbEntity
  8
241
100
AcDbLine
 10
-19.0
 20
13.75
 30
0.0
 11
-19.0
 21
0.0
 31
0.0
  0
LINE
  5
1601
330
762
100
AcDbEntity
  8
241
100
AcDbLine
 10
-21.5
 20
13.75
 30
0.0
 11
-21.5
 21
0.0
 31
0.0
  0
LINE
  5
1602
330
762
100
AcDbEntity
  8
241
100
AcDbLine
 10
-29.5
 20
13.75
 30
0.0
 11
-29.5
 21
0.0
 31
0.0
  0
LINE
  5
1603
330
762
100
AcDbEntity
  8
241
100
AcDbLine
 10
-32.0
 20
13.75
 30
0.0
 11
-32.0
 21
0.0
 31
0.0
  0
LINE
  5
1604
330
762
100
AcDbEntity
  8
245
100
AcDbLine
 10
-27.4999651
 20
-5.13030215
 30
0.0
 11
-23.5000349
 21
-5.13030215
 31
0.0
  0
ELLIPSE
  5
1605
330
762
100
AcDbEntity
  8
241
100
AcDbEllipse
 10
-25.5000349
 20
-5.08449496
 30
0.0
 11
-2.000524505802109
 21
0.0
 31
0.0
210
0.0
220
0.0
230
1.0
 40
0.93944625
 41
0.0
 42
6.283185307179584
  0
LINE
  5
1606
330
762
100
AcDbEntity
  8
245
100
AcDbLine
 10
-25.5000349
 20
-3.20510972
 30
0.0
 11
-25.5000349
 21
-6.96388021
 31
0.0
  0
LINE
  5
1607
330
762
100
AcDbEntity
  8
240
100
AcDbLine
 10
-29.5
 20
15.0
 30
0.0
 11
-21.5
 21
15.0
 31
0.0
  0
ARC
  5
1608
330
762
100
AcDbEntity
  8
240
100
AcDbCircle
 10
-30.75
 20
13.75
 30
0.0
 40
1.24999999999827
100
AcDbArc
 50
0.0
 51
180.0
  0
LINE
  5
1609
330
762
100
AcDbEntity
  8
240
100
AcDbLine
 10
-32.0
 20
13.75
 30
0.0
 11
-32.0
 21
15.0
 31
0.0
  0
LINE
  5
160A
330
762
100
AcDbEntity
  8
240
100
AcDbLine
 10
-35.5
 20
15.0
 30
0.0
 11
-32.0
 21
15.0
 31
0.0
  0
LINE
  5
160B
330
762
100
AcDbEntity
  8
240
100
AcDbLine
 10
-29.5
 20
13.75
 30
0.0
 11
-29.5
 21
15.0
 31
0.0
  0
ARC
  5
160C
330
762
100
AcDbEntity
  8
240
100
AcDbCircle
 10
-20.25
 20
13.75
 30
0.0
 40
1.249999999998089
100
AcDbArc
 50
0.0
 51
180.0
  0
LINE
  5
160D
330
762
100
AcDbEntity
  8
240
100
AcDbLine
 10
-21.5
 20
13.75
 30
0.0
 11
-21.5
 21
15.0
 31
0.0
  0
LINE
  5
160E
330
762
100
AcDbEntity
  8
240
100
AcDbLine
 10
-19.0
 20
13.75
 30
0.0
 11
-19.0
 21
15.0
 31
0.0
  0
LINE
  5
160F
330
762
100
AcDbEntity
  8
240
100
AcDbLine
 10
-13.0
 20
15.5
 30
0.0
 11
-13.0
 21
14.7
 31
0.0
  0
ARC
  5
1610
330
762
100
AcDbEntity
  8
240
100
AcDbCircle
 10
1.97309836
 20
16.0
 30
0.0
 40
1.0
100
AcDbArc
 50
194.99999998
 51
270.0
  0
LINE
  5
1611
330
762
100
AcDbEntity
  8
241
100
AcDbLine
 10
1.20577137
 20
15.35874397
 30
0.0
 11
1.20577137
 21
0.0
 31
0.0
  0
LINE
  5
1612
330
762
100
AcDbEntity
  8
241
100
AcDbLine
 10
-6.12626129
 20
19.5
 30
0.0
 11
-6.12626129
 21
0.0
 31
0.0
  0
LINE
  5
1613
330
762
100
AcDbEntity
  8
241
  6
CONTINUOUS
100
AcDbLine
 10
-7.5
 20
19.00000001
 30
0.0
 11
-7.5
 21
0.0
 31
0.0
  0
LINE
  5
1614
330
762
100
AcDbEntity
  8
241
100
AcDbLine
 10
0.0
 20
19.14125603
 30
0.0
 11
0.0
 21
0.0
 31
0.0
  0
LINE
  5
1615
330
762
100
AcDbEntity
  8
241
100
AcDbLine
 10
-2.0
 20
18.25
 30
0.0
 11
-2.0
 21
0.0
 31
0.0
  0
LINE
  5
1616
330
762
100
AcDbEntity
  8
241
100
AcDbLine
 10
-4.5
 20
18.25
 30
0.0
 11
-4.5
 21
0.0
 31
0.0
  0
LINE
  5
1617
330
762
100
AcDbEntity
  8
241
100
AcDbLine
 10
-14.5
 20
15.0
 30
0.0
 11
-14.5
 21
0.0
 31
0.0
  0
LINE
  5
1618
330
762
100
AcDbEntity
  8
240
100
AcDbLine
 10
-14.2
 20
14.7
 30
0.0
 11
-13.0
 21
14.7
 31
0.0
  0
LINE
  5
1619
330
762
100
AcDbEntity
  8
240
100
AcDbLine
 10
-14.2
 20
14.7
 30
0.0
 11
-14.5
 21
15.0
 31
0.0
  0
LINE
  5
161A
330
762
100
AcDbEntity
  8
240
100
AcDbLine
 10
-7.5
 20
19.00000001
 30
0.0
 11
-6.12626128
 21
19.5
 31
0.0
  0
LINE
  5
161B
330
762
100
AcDbEntity
  8
240
100
AcDbLine
 10
-7.50000001
 20
19.0
 30
0.0
 11
-13.5
 21
19.0
 31
0.0
  0
LINE
  5
161C
330
762
100
AcDbEntity
  8
241
  6
CONTINUOUS
100
AcDbLine
 10
-7.5
 20
15.2
 30
0.0
 11
-13.0
 21
15.2
 31
0.0
  0
LINE
  5
161D
330
762
100
AcDbEntity
  8
240
100
AcDbLine
 10
-13.0
 20
15.5
 30
0.0
 11
-13.5
 21
16.0
 31
0.0
  0
LINE
  5
161E
330
762
100
AcDbEntity
  8
240
100
AcDbLine
 10
-13.5
 20
19.0
 30
0.0
 11
-13.5
 21
16.0
 31
0.0
  0
ARC
  5
161F
330
762
100
AcDbEntity
  8
240
100
AcDbCircle
 10
-3.25
 20
18.25
 30
0.0
 40
1.250000000000339
100
AcDbArc
 50
0.0
 51
180.0
  0
LINE
  5
1620
330
762
100
AcDbEntity
  8
240
100
AcDbLine
 10
-4.5
 20
19.5
 30
0.0
 11
-6.12626129
 21
19.5
 31
0.0
  0
LINE
  5
1621
330
762
100
AcDbEntity
  8
240
100
AcDbLine
 10
-4.5
 20
18.25
 30
0.0
 11
-4.5
 21
19.5
 31
0.0
  0
LINE
  5
1622
330
762
100
AcDbEntity
  8
240
100
AcDbLine
 10
0.19859884
 20
18.75881905
 30
0.0
 11
1.00717253
 21
15.74118096
 31
0.0
  0
LINE
  5
1623
330
762
100
AcDbEntity
  8
240
100
AcDbLine
 10
-0.63567449
 20
19.5
 30
0.0
 11
-2.0
 21
19.5
 31
0.0
  0
LINE
  5
1624
330
762
100
AcDbEntity
  8
240
100
AcDbLine
 10
-2.0
 20
18.25
 30
0.0
 11
-2.0
 21
19.5
 31
0.0
  0
ARC
  5
1625
330
762
100
AcDbEntity
  8
240
100
AcDbCircle
 10
-0.76732699
 20
18.5
 30
0.0
 40
1.0
100
AcDbArc
 50
15.0
 51
75.0
1001
GENIUS_GENOBJ-N-FIL_13
1002
{
1000
OWNER
1000
GEN
1002
}
1001
GENIUS_GENODEF_13
1002
{
1000
HIER
1070
     0
1002
}
1002
{
1000
MANEDIT
1070
     0
1002
}
1002
{
1000
NOSEL
1070
     0
1002
}
1002
{
1000
BEHIND
1070
     0
1002
}
1002
{
1000
OTHER
1070
     0
1002
}
1002
{
1000
REACTOR
1002
}
  0
LINE
  5
1626
330
762
100
AcDbEntity
  8
240
100
AcDbLine
 10
-0.50850794
 20
19.46592583
 30
0.0
 11
-0.63567449
 21
19.5
 31
0.0
  0
TEXT
  5
1627
330
762
100
AcDbEntity
  8
0
100
AcDbText
 10
42.69787847
 20
4.83193022
 30
0.0
 40
3.0
  1
MGT20-M14,U9/16-150
  7
YOKO
100
AcDbText
  0
LINE
  5
1628
330
762
100
AcDbEntity
  8
0
100
AcDbLine
 10
40.87502956
 20
6.61444593
 30
0.0
 11
41.17189592
 21
6.9113123
 31
0.0
  0
LINE
  5
1629
330
762
100
AcDbEntity
  8
0
100
AcDbLine
 10
40.7788138
 20
6.92234169
 30
0.0
 11
41.05152504
 21
7.19505294
 31
0.0
  0
LINE
  5
162A
330
762
100
AcDbEntity
  8
0
100
AcDbLine
 10
40.9037233
 20
6.23902814
 30
0.0
 11
41.24923499
 21
6.58453983
 31
0.0
  0
ARC
  5
162B
330
762
100
AcDbEntity
  8
0
100
AcDbCircle
 10
39.35938908
 20
6.30979783
 30
0.0
 40
1.909712219238279
100
AcDbArc
 50
270.0
 51
104.77079397
  0
LINE
  5
162C
330
762
100
AcDbEntity
  8
0
100
AcDbLine
 10
40.7881394
 20
5.71933272
 30
0.0
 11
41.26576468
 21
6.196958
 31
0.0
  0
LINE
  5
162D
330
762
100
AcDbEntity
  8
0
100
AcDbLine
 10
39.9749217
 20
4.50200349
 30
0.0
 11
41.1671834
 21
5.6942652
 31
0.0
  0
LINE
  5
162E
330
762
100
AcDbEntity
  8
0
100
AcDbLine
 10
30.12244429
 20
6.77287185
 30
0.0
 11
31.51208806
 21
8.16251562
 31
0.0
  0
ARC
  5
162F
330
762
100
AcDbEntity
  8
0
100
AcDbCircle
 10
31.97516208
 20
6.30979783
 30
0.0
 40
1.909712219238279
100
AcDbArc
 50
90.0
 51
270.0
  0
ARC
  5
1630
330
762
100
AcDbEntity
  8
0
100
AcDbCircle
 10
31.97516208
 20
6.30979783
 30
0.0
 40
1.545954895019525
100
AcDbArc
 50
90.0
 51
270.0
  0
LINE
  5
1631
330
762
100
AcDbEntity
  8
0
100
AcDbLine
 10
30.06545088
 20
6.31176691
 30
0.0
 11
30.48889015
 21
6.73520618
 31
0.0
  0
LINE
  5
1632
330
762
100
AcDbEntity
  8
0
100
AcDbLine
 10
31.16358154
 20
4.58111689
 30
0.0
 11
31.44138169
 21
4.85891705
 31
0.0
  0
LINE
  5
1633
330
762
100
AcDbEntity
  8
0
100
AcDbLine
 10
30.90586958
 20
4.72751647
 30
0.0
 11
31.16901882
 21
4.99066571
 31
0.0
  0
LINE
  5
1634
330
762
100
AcDbEntity
  8
0
100
AcDbLine
 10
30.68032806
 20
4.90608647
 30
0.0
 11
30.93780192
 21
5.16356033
 31
0.0
  0
LINE
  5
1635
330
762
100
AcDbEntity
  8
0
100
AcDbLine
 10
30.19091737
 20
5.62901036
 30
0.0
 11
30.47972599
 21
5.91781897
 31
0.0
  0
LINE
  5
1636
330
762
100
AcDbEntity
  8
0
100
AcDbLine
 10
30.48526723
 20
5.11513717
 30
0.0
 11
30.74440259
 21
5.37427253
 31
0.0
  0
LINE
  5
1637
330
762
100
AcDbEntity
  8
0
100
AcDbLine
 10
30.32117743
 20
5.35515889
 30
0.0
 11
30.58976863
 21
5.62375009
 31
0.0
  0
LINE
  5
1638
330
762
100
AcDbEntity
  8
0
100
AcDbLine
 10
30.10097176
 20
5.94317627
 30
0.0
 11
30.42967235
 21
6.27187686
 31
0.0
  0
LINE
  5
1639
330
762
100
AcDbEntity
  8
0
100
AcDbLine
 10
35.27091578
 20
6.6678935
 30
0.0
 11
36.41158357
 21
7.8085613
 31
0.0
  0
LINE
  5
163A
330
762
100
AcDbEntity
  8
0
100
AcDbLine
 10
35.5833881
 20
8.21951005
 30
0.0
 11
36.52942081
 21
8.21951005
 31
0.0
  0
LINE
  5
163B
330
762
100
AcDbEntity
  8
0
100
AcDbLine
 10
36.52942081
 20
8.21951005
 30
0.0
 11
35.5833881
 21
8.21951005
 31
0.0
1001
HATCH_DISTANCE
1040
1.0
1001
HATCH_DISPLAY
1070
     0
1001
HATCH_TYPE
1070
     7
  0
LINE
  5
163C
330
762
100
AcDbEntity
  8
0
100
AcDbLine
 10
36.52942081
 20
8.21951005
 30
0.0
 11
35.5833881
 21
8.21951005
 31
0.0
  0
LINE
  5
163D
330
762
100
AcDbEntity
  8
0
100
AcDbLine
 10
35.43337967
 20
7.23446893
 30
0.0
 11
36.4184208
 21
8.21951005
 31
0.0
  0
LINE
  5
163E
330
762
100
AcDbEntity
  8
0
100
AcDbLine
 10
35.10845189
 20
6.10131809
 30
0.0
 11
36.2491219
 21
7.24198809
 31
0.0
  0
LINE
  5
163F
330
762
100
AcDbEntity
  8
0
100
AcDbLine
 10
35.59068028
 20
4.94572117
 30
0.0
 11
36.52942081
 21
8.21951005
 31
0.0
  0
LINE
  5
1640
330
762
100
AcDbEntity
  8
0
100
AcDbLine
 10
35.59068028
 20
4.94572117
 30
0.0
 11
36.52942081
 21
8.21951005
 31
0.0
1001
HATCH_DISTANCE
1040
1.0
1001
HATCH_DISPLAY
1070
     0
1001
HATCH_TYPE
1070
     7
  0
LINE
  5
1641
330
762
100
AcDbEntity
  8
0
100
AcDbLine
 10
35.59068028
 20
4.94572117
 30
0.0
 11
36.52942081
 21
8.21951005
 31
0.0
  0
LINE
  5
1642
330
762
100
AcDbEntity
  8
0
100
AcDbLine
 10
31.97516208
 20
4.76384251
 30
0.0
 11
39.35938908
 21
4.76384251
 31
0.0
  0
LINE
  5
1643
330
762
100
AcDbEntity
  8
0
100
AcDbLine
 10
31.97516208
 20
4.40008519
 30
0.0
 11
39.35938908
 21
4.40008519
 31
0.0
  0
ARC
  5
1644
330
762
100
AcDbEntity
  8
0
100
AcDbCircle
 10
37.48116642
 20
6.12791917
 30
0.0
 40
1.182211303710936
100
AcDbArc
 50
163.9997507
 51
304.96387329
  0
LINE
  5
1645
330
762
100
AcDbEntity
  8
0
100
AcDbLine
 10
31.97516208
 20
7.85575273
 30
0.0
 11
32.62206455
 21
7.85575273
 31
0.0
  0
LINE
  5
1646
330
762
100
AcDbEntity
  8
0
100
AcDbLine
 10
31.97516208
 20
8.21951005
 30
0.0
 11
32.726366
 21
8.21951005
 31
0.0
  0
LINE
  5
1647
330
762
100
AcDbEntity
  8
0
100
AcDbLine
 10
32.01354822
 20
7.85575273
 30
0.0
 11
32.37730554
 21
8.21951005
 31
0.0
  0
LINE
  5
1648
330
762
100
AcDbEntity
  8
0
100
AcDbLine
 10
31.54975373
 20
7.79606977
 30
0.0
 11
31.973193
 21
8.21950903
 31
0.0
  0
LINE
  5
1649
330
762
100
AcDbEntity
  8
0
100
AcDbLine
 10
33.98310392
 20
7.8047508
 30
0.0
 11
34.3582569
 21
8.17990377
 31
0.0
  0
LINE
  5
164A
330
762
100
AcDbEntity
  8
0
100
AcDbLine
 10
34.17430386
 20
7.59183921
 30
0.0
 11
34.62788237
 21
8.04541772
 31
0.0
  0
LINE
  5
164B
330
762
100
AcDbEntity
  8
0
100
AcDbLine
 10
33.90593536
 20
7.84624502
 30
0.0
 11
33.60784032
 21
6.80664081
 31
0.0
  0
ARC
  5
164C
330
762
100
AcDbEntity
  8
0
100
AcDbCircle
 10
33.6869556
 20
7.34649522
 30
0.0
 40
0.5456207513809207
100
AcDbArc
 50
261.66260169
 51
66.3381551
  0
LINE
  5
164D
330
762
100
AcDbEntity
  8
0
100
AcDbLine
 10
34.22092722
 20
7.23435105
 30
0.0
 11
34.82963999
 21
7.84306382
 31
0.0
  0
LINE
  5
164E
330
762
100
AcDbEntity
  8
0
100
AcDbLine
 10
32.726366
 20
8.21951005
 30
0.0
 11
32.62206455
 21
7.85575273
 31
0.0
  0
LINE
  5
164F
330
762
100
AcDbEntity
  8
0
100
AcDbLine
 10
32.81126286
 20
7.85575273
 30
0.0
 11
33.00047489
 21
7.85575273
 31
0.0
  0
LINE
  5
1650
330
762
100
AcDbEntity
  8
0
100
AcDbLine
 10
32.9155643
 20
8.21951005
 30
0.0
 11
32.81126286
 21
7.85575273
 31
0.0
  0
LINE
  5
1651
330
762
100
AcDbEntity
  8
0
100
AcDbLine
 10
32.82177127
 20
7.85575273
 30
0.0
 11
33.18552859
 21
8.21951005
 31
0.0
  0
LINE
  5
1652
330
762
100
AcDbEntity
  8
0
100
AcDbLine
 10
32.90985539
 20
7.53972531
 30
0.0
 11
33.58964011
 21
8.21951005
 31
0.0
  0
LINE
  5
1653
330
762
100
AcDbEntity
  8
0
100
AcDbLine
 10
32.9155643
 20
8.21951005
 30
0.0
 11
34.08902856
 21
8.21951005
 31
0.0
  0
LINE
  5
1654
330
762
100
AcDbEntity
  8
0
100
AcDbLine
 10
32.74739264
 20
6.97315105
 30
0.0
 11
33.99375164
 21
8.21951005
 31
0.0
  0
LINE
  5
1655
330
762
100
AcDbEntity
  8
0
100
AcDbLine
 10
35.46864964
 20
7.81938798
 30
0.0
 11
35.60110355
 21
7.81938798
 31
0.0
  0
LINE
  5
1656
330
762
100
AcDbEntity
  8
0
100
AcDbLine
 10
35.46864964
 20
7.81938798
 30
0.0
 11
35.5833881
 21
8.21951005
 31
0.0
  0
LINE
  5
1657
330
762
100
AcDbEntity
  8
0
100
AcDbLine
 10
35.5833881
 20
8.21951005
 30
0.0
 11
35.46864964
 21
7.81938798
 31
0.0
1001
HATCH_DISTANCE
1040
1.0
1001
HATCH_DISPLAY
1070
     0
1001
HATCH_TYPE
1070
     7
  0
LINE
  5
1658
330
762
100
AcDbEntity
  8
0
100
AcDbLine
 10
35.46864964
 20
7.81938798
 30
0.0
 11
35.60110355
 21
7.81938798
 31
0.0
1001
HATCH_DISTANCE
1040
1.0
1001
HATCH_DISPLAY
1070
     0
1001
HATCH_TYPE
1070
     7
  0
LINE
  5
1659
330
762
100
AcDbEntity
  8
0
100
AcDbLine
 10
35.5833881
 20
8.21951005
 30
0.0
 11
35.46864964
 21
7.81938798
 31
0.0
  0
LINE
  5
165A
330
762
100
AcDbEntity
  8
0
100
AcDbLine
 10
35.46864964
 20
7.81938798
 30
0.0
 11
35.60110355
 21
7.81938798
 31
0.0
  0
LINE
  5
165B
330
762
100
AcDbEntity
  8
0
100
AcDbLine
 10
35.59584356
 20
7.80104435
 30
0.0
 11
36.01430927
 21
8.21951005
 31
0.0
  0
LINE
  5
165C
330
762
100
AcDbEntity
  8
0
100
AcDbLine
 10
35.57260928
 20
8.18192159
 30
0.0
 11
35.61019775
 21
8.21951005
 31
0.0
  0
LINE
  5
165D
330
762
100
AcDbEntity
  8
0
100
AcDbLine
 10
33.66172481
 20
6.27103711
 30
0.0
 11
34.96342265
 21
7.57273496
 31
0.0
  0
ARC
  5
165E
330
762
100
AcDbEntity
  8
0
100
AcDbCircle
 10
34.09277683
 20
7.31013047
 30
0.0
 40
0.9093873023986816
100
AcDbArc
 50
287.66957755
 51
90.23615984
  0
LINE
  5
165F
330
762
100
AcDbEntity
  8
0
100
AcDbLine
 10
32.58492989
 20
6.40657677
 30
0.0
 11
33.85823158
 21
7.67987846
 31
0.0
  0
LINE
  5
1660
330
762
100
AcDbEntity
  8
0
100
AcDbLine
 10
32.16603581
 20
4.94572117
 30
0.0
 11
33.00047489
 21
7.85575273
 31
0.0
  0
LINE
  5
1661
330
762
100
AcDbEntity
  8
0
100
AcDbLine
 10
35.60110355
 20
7.81938798
 30
0.0
 11
34.77708774
 21
4.94572117
 31
0.0
1001
HATCH_DISTANCE
1040
1.0
1001
HATCH_DISPLAY
1070
     0
1001
HATCH_TYPE
1070
     7
  0
LINE
  5
1662
330
762
100
AcDbEntity
  8
0
100
AcDbLine
 10
35.60110355
 20
7.81938798
 30
0.0
 11
34.77708774
 21
4.94572117
 31
0.0
  0
LINE
  5
1663
330
762
100
AcDbEntity
  8
0
100
AcDbLine
 10
34.94598799
 20
5.53474267
 30
0.0
 11
36.08666022
 21
6.6754149
 31
0.0
  0
LINE
  5
1664
330
762
100
AcDbEntity
  8
0
100
AcDbLine
 10
34.77708774
 20
4.94572117
 30
0.0
 11
35.60110355
 21
7.81938798
 31
0.0
  0
LINE
  5
1665
330
762
100
AcDbEntity
  8
0
100
AcDbLine
 10
32.42246714
 20
5.8400025
 30
0.0
 11
33.6957742
 21
7.11330955
 31
0.0
  0
LINE
  5
1666
330
762
100
AcDbEntity
  8
0
100
AcDbLine
 10
32.2600044
 20
5.27342823
 30
0.0
 11
33.79909976
 21
6.8125236
 31
0.0
  0
LINE
  5
1667
330
762
100
AcDbEntity
  8
0
100
AcDbLine
 10
33.80278823
 20
6.00798901
 30
0.0
 11
34.99556383
 21
7.20076461
 31
0.0
  0
LINE
  5
1668
330
762
100
AcDbEntity
  8
0
100
AcDbLine
 10
32.33640887
 20
4.94572117
 30
0.0
 11
33.37084775
 21
5.98016005
 31
0.0
  0
LINE
  5
1669
330
762
100
AcDbEntity
  8
0
100
AcDbLine
 10
32.19488441
 20
4.40008519
 30
0.0
 11
32.55864173
 21
4.76384251
 31
0.0
  0
LINE
  5
166A
330
762
100
AcDbEntity
  8
0
100
AcDbLine
 10
32.16603581
 20
4.94572117
 30
0.0
 11
33.67555729
 21
4.94572117
 31
0.0
  0
LINE
  5
166B
330
762
100
AcDbEntity
  8
0
100
AcDbLine
 10
31.45801589
 20
4.47143971
 30
0.0
 11
31.76479844
 21
4.77822228
 31
0.0
  0
LINE
  5
166C
330
762
100
AcDbEntity
  8
0
100
AcDbLine
 10
31.79892288
 20
4.40823518
 30
0.0
 11
32.1545302
 21
4.76384251
 31
0.0
  0
LINE
  5
166D
330
762
100
AcDbEntity
  8
0
100
AcDbLine
 10
34.77708774
 20
4.94572117
 30
0.0
 11
35.59068028
 21
4.94572117
 31
0.0
1001
HATCH_DISTANCE
1040
1.0
1001
HATCH_DISPLAY
1070
     0
1001
HATCH_TYPE
1070
     7
  0
LINE
  5
166E
330
762
100
AcDbEntity
  8
0
100
AcDbLine
 10
34.77708774
 20
4.94572117
 30
0.0
 11
35.59068028
 21
4.94572117
 31
0.0
  0
LINE
  5
166F
330
762
100
AcDbEntity
  8
0
100
AcDbLine
 10
35.16518954
 20
4.94572117
 30
0.0
 11
35.76173686
 21
5.54226848
 31
0.0
  0
LINE
  5
1670
330
762
100
AcDbEntity
  8
0
100
AcDbLine
 10
34.77708774
 20
4.94572117
 30
0.0
 11
35.59068028
 21
4.94572117
 31
0.0
  0
LINE
  5
1671
330
762
100
AcDbEntity
  8
0
100
AcDbLine
 10
35.02366508
 20
4.40008519
 30
0.0
 11
35.3874224
 21
4.76384251
 31
0.0
  0
LINE
  5
1672
330
762
100
AcDbEntity
  8
0
100
AcDbLine
 10
34.7835241
 20
4.96816724
 30
0.0
 11
35.92419854
 21
6.10884169
 31
0.0
  0
LINE
  5
1673
330
762
100
AcDbEntity
  8
0
100
AcDbLine
 10
34.02103603
 20
5.01390223
 30
0.0
 11
34.51675622
 21
5.50962243
 31
0.0
  0
LINE
  5
1674
330
762
100
AcDbEntity
  8
0
100
AcDbLine
 10
33.54874344
 20
4.94572117
 30
0.0
 11
34.5771179
 21
5.97409562
 31
0.0
  0
LINE
  5
1675
330
762
100
AcDbEntity
  8
0
100
AcDbLine
 10
34.61955356
 20
4.40008519
 30
0.0
 11
34.98331088
 21
4.76384251
 31
0.0
  0
LINE
  5
1676
330
762
100
AcDbEntity
  8
0
100
AcDbLine
 10
34.21544203
 20
4.40008519
 30
0.0
 11
34.57919935
 21
4.76384251
 31
0.0
  0
LINE
  5
1677
330
762
100
AcDbEntity
  8
0
100
AcDbLine
 10
33.81133051
 20
4.40008519
 30
0.0
 11
34.17508783
 21
4.76384251
 31
0.0
  0
LINE
  5
1678
330
762
100
AcDbEntity
  8
0
100
AcDbLine
 10
33.40721899
 20
4.40008519
 30
0.0
 11
33.7709763
 21
4.76384251
 31
0.0
  0
LINE
  5
1679
330
762
100
AcDbEntity
  8
0
100
AcDbLine
 10
32.74052039
 20
4.94572117
 30
0.0
 11
33.20839338
 21
5.41359415
 31
0.0
  0
LINE
  5
167A
330
762
100
AcDbEntity
  8
0
100
AcDbLine
 10
33.00310746
 20
4.40008519
 30
0.0
 11
33.36686478
 21
4.76384251
 31
0.0
  0
LINE
  5
167B
330
762
100
AcDbEntity
  8
0
100
AcDbLine
 10
32.59899594
 20
4.40008519
 30
0.0
 11
32.96275325
 21
4.76384251
 31
0.0
  0
ARC
  5
167C
330
762
100
AcDbEntity
  8
0
100
AcDbCircle
 10
33.67555729
 20
5.85510117
 30
0.0
 40
0.9093795776367187
100
AcDbArc
 50
270.0
 51
40.32984065
  0
LINE
  5
167D
330
762
100
AcDbEntity
  8
0
100
AcDbLine
 10
33.48872015
 20
6.3912446
 30
0.0
 11
33.19062022
 21
5.35160955
 31
0.0
  0
ARC
  5
167E
330
762
100
AcDbEntity
  8
0
100
AcDbCircle
 10
33.26973606
 20
5.89147965
 30
0.0
 40
0.5456363618373872
100
AcDbArc
 50
261.66285421
 51
66.33819216
  0
LINE
  5
167F
330
762
100
AcDbEntity
  8
0
100
AcDbLine
 10
33.14463191
 20
4.94572117
 30
0.0
 11
34.47934024
 21
6.2804295
 31
0.0
  0
LINE
  5
1680
330
762
100
AcDbEntity
  8
0
100
AcDbLine
 10
35.56930106
 20
4.94572117
 30
0.0
 11
35.59927518
 21
4.97569529
 31
0.0
  0
LINE
  5
1681
330
762
100
AcDbEntity
  8
0
100
AcDbLine
 10
35.83188814
 20
4.40008519
 30
0.0
 11
36.19564546
 21
4.76384251
 31
0.0
  0
LINE
  5
1682
330
762
100
AcDbEntity
  8
0
100
AcDbLine
 10
35.42777662
 20
4.40008519
 30
0.0
 11
35.79153392
 21
4.76384251
 31
0.0
  0
LINE
  5
1683
330
762
100
AcDbEntity
  8
0
100
AcDbLine
 10
32.41765974
 20
7.85575273
 30
0.0
 11
32.70423544
 21
8.14232841
 31
0.0
  0
ARC
  5
1684
330
762
100
AcDbEntity
  8
0
100
AcDbCircle
 10
37.74192691
 20
7.03731248
 30
0.0
 40
1.182199287414549
100
AcDbArc
 50
53.4440122
 51
164.00018439
  0
LINE
  5
1685
330
762
100
AcDbEntity
  8
0
100
AcDbLine
 10
37.84441562
 20
6.80087297
 30
0.0
 11
38.9039783
 21
6.80087297
 31
0.0
  0
ARC
  5
1686
330
762
100
AcDbEntity
  8
0
100
AcDbCircle
 10
37.93234745
 20
7.43743454
 30
0.0
 40
0.3819450080394744
100
AcDbArc
 50
1.71012138
 51
163.99839835
  0
LINE
  5
1687
330
762
100
AcDbEntity
  8
0
100
AcDbLine
 10
38.25898267
 20
7.63540278
 30
0.0
 11
38.70533444
 21
8.08175455
 31
0.0
  0
LINE
  5
1688
330
762
100
AcDbEntity
  8
0
100
AcDbLine
 10
38.02694731
 20
7.80747894
 30
0.0
 11
38.29932632
 21
8.07985795
 31
0.0
  0
LINE
  5
1689
330
762
100
AcDbEntity
  8
0
100
AcDbLine
 10
36.49133153
 20
7.08008621
 30
0.0
 11
37.62495611
 21
8.21371079
 31
0.0
  0
LINE
  5
168A
330
762
100
AcDbEntity
  8
0
100
AcDbLine
 10
40.63521894
 20
7.18285836
 30
0.0
 11
40.89604322
 21
7.44368265
 31
0.0
  0
LINE
  5
168B
330
762
100
AcDbEntity
  8
0
100
AcDbLine
 10
40.45187296
 20
7.40362391
 30
0.0
 11
40.70908828
 21
7.66083921
 31
0.0
  0
LINE
  5
168C
330
762
100
AcDbEntity
  8
0
100
AcDbLine
 10
40.23085498
 20
7.58671745
 30
0.0
 11
40.49172858
 21
7.84759105
 31
0.0
  0
LINE
  5
168D
330
762
100
AcDbEntity
  8
0
100
AcDbLine
 10
39.97005674
 20
7.73003075
 30
0.0
 11
40.24288104
 21
8.00285504
 31
0.0
  0
LINE
  5
168E
330
762
100
AcDbEntity
  8
0
100
AcDbLine
 10
39.66180062
 20
7.82588615
 30
0.0
 11
39.95888711
 21
8.12297263
 31
0.0
  0
LINE
  5
168F
330
762
100
AcDbEntity
  8
0
100
AcDbLine
 10
39.28580339
 20
7.85400043
 30
0.0
 11
39.63178612
 21
8.19998317
 31
0.0
  0
LINE
  5
1690
330
762
100
AcDbEntity
  8
0
100
AcDbLine
 10
38.98204991
 20
7.8090059
 30
0.0
 11
38.87250248
 21
8.15640733
 31
0.0
  0
ARC
  5
1691
330
762
100
AcDbEntity
  8
0
100
AcDbCircle
 10
39.35938908
 20
6.30979783
 30
0.0
 40
1.909713077545161
100
AcDbArc
 50
110.22964506
 51
118.57168892
  0
ARC
  5
1692
330
762
100
AcDbEntity
  8
0
100
AcDbCircle
 10
39.35938908
 20
6.30979783
 30
0.0
 40
1.545959186553949
100
AcDbArc
 50
110.8721834
 51
132.54194894
  0
LINE
  5
1693
330
762
100
AcDbEntity
  8
0
100
AcDbLine
 10
38.80858951
 20
7.75430772
 30
0.0
 11
38.69904209
 21
8.10170915
 31
0.0
  0
LINE
  5
1694
330
762
100
AcDbEntity
  8
0
100
AcDbLine
 10
38.76434202
 20
7.73665059
 30
0.0
 11
38.80221482
 21
7.7745234
 31
0.0
  0
LINE
  5
1695
330
762
100
AcDbEntity
  8
0
100
AcDbLine
 10
38.98204991
 20
7.8090059
 30
0.0
 11
38.87250248
 21
8.15640733
 31
0.0
1001
HATCH_DISTANCE
1040
1.0
1001
HATCH_DISPLAY
1070
     0
1001
HATCH_TYPE
1070
     7
  0
LINE
  5
1696
330
762
100
AcDbEntity
  8
0
100
AcDbLine
 10
38.87250248
 20
8.15640733
 30
0.0
 11
38.87250248
 21
8.15640733
 31
0.0
1001
HATCH_DISTANCE
1040
1.0
1001
HATCH_DISPLAY
1070
     0
1001
HATCH_TYPE
1070
     7
  0
LINE
  5
1697
330
762
100
AcDbEntity
  8
0
100
AcDbLine
 10
38.87250248
 20
8.15640733
 30
0.0
 11
38.98204991
 21
7.8090059
 31
0.0
1001
HATCH_DISTANCE
1040
1.0
1001
HATCH_DISPLAY
1070
     0
1001
HATCH_TYPE
1070
     7
  0
LINE
  5
1698
330
762
100
AcDbEntity
  8
0
100
AcDbLine
 10
38.98204991
 20
7.8090059
 30
0.0
 11
38.98204991
 21
7.8090059
 31
0.0
1001
HATCH_DISTANCE
1040
1.0
1001
HATCH_DISPLAY
1070
     0
1001
HATCH_TYPE
1070
     7
  0
LINE
  5
1699
330
762
100
AcDbEntity
  8
0
100
AcDbLine
 10
38.98204991
 20
7.8090059
 30
0.0
 11
38.87250248
 21
8.15640733
 31
0.0
  0
LINE
  5
169A
330
762
100
AcDbEntity
  8
0
100
AcDbLine
 10
38.87250248
 20
8.15640733
 30
0.0
 11
38.87250248
 21
8.15640733
 31
0.0
  0
LINE
  5
169B
330
762
100
AcDbEntity
  8
0
100
AcDbLine
 10
38.87250248
 20
8.15640733
 30
0.0
 11
38.98204991
 21
7.8090059
 31
0.0
  0
LINE
  5
169C
330
762
100
AcDbEntity
  8
0
100
AcDbLine
 10
38.98204991
 20
7.8090059
 30
0.0
 11
38.98204991
 21
7.8090059
 31
0.0
  0
LINE
  5
169D
330
762
100
AcDbEntity
  8
0
100
AcDbLine
 10
38.98204991
 20
7.8090059
 30
0.0
 11
38.87250248
 21
8.15640733
 31
0.0
1001
HATCH_DISTANCE
1040
1.0
1001
HATCH_DISPLAY
1070
     0
1001
HATCH_TYPE
1070
     7
  0
LINE
  5
169E
330
762
100
AcDbEntity
  8
0
100
AcDbLine
 10
38.87250248
 20
8.15640733
 30
0.0
 11
38.87250248
 21
8.15640733
 31
0.0
1001
HATCH_DISTANCE
1040
1.0
1001
HATCH_DISPLAY
1070
     0
1001
HATCH_TYPE
1070
     7
  0
LINE
  5
169F
330
762
100
AcDbEntity
  8
0
100
AcDbLine
 10
38.87250248
 20
8.15640733
 30
0.0
 11
38.98204991
 21
7.8090059
 31
0.0
1001
HATCH_DISTANCE
1040
1.0
1001
HATCH_DISPLAY
1070
     0
1001
HATCH_TYPE
1070
     7
  0
LINE
  5
16A0
330
762
100
AcDbEntity
  8
0
100
AcDbLine
 10
38.98204991
 20
7.8090059
 30
0.0
 11
38.98204991
 21
7.8090059
 31
0.0
1001
HATCH_DISTANCE
1040
1.0
1001
HATCH_DISPLAY
1070
     0
1001
HATCH_TYPE
1070
     7
  0
LINE
  5
16A1
330
762
100
AcDbEntity
  8
0
100
AcDbLine
 10
38.98204991
 20
7.8090059
 30
0.0
 11
38.87250248
 21
8.15640733
 31
0.0
  0
LINE
  5
16A2
330
762
100
AcDbEntity
  8
0
100
AcDbLine
 10
38.87250248
 20
8.15640733
 30
0.0
 11
38.87250248
 21
8.15640733
 31
0.0
  0
LINE
  5
16A3
330
762
100
AcDbEntity
  8
0
100
AcDbLine
 10
38.87250248
 20
8.15640733
 30
0.0
 11
38.98204991
 21
7.8090059
 31
0.0
  0
LINE
  5
16A4
330
762
100
AcDbEntity
  8
0
100
AcDbLine
 10
38.98204991
 20
7.8090059
 30
0.0
 11
38.98204991
 21
7.8090059
 31
0.0
  0
LINE
  5
16A5
330
762
100
AcDbEntity
  8
0
100
AcDbLine
 10
38.94720355
 20
7.91951213
 30
0.0
 11
39.24369368
 21
8.21600226
 31
0.0
  0
LINE
  5
16A6
330
762
100
AcDbEntity
  8
0
100
AcDbLine
 10
37.74011417
 20
6.43711563
 30
0.0
 11
37.84441562
 21
6.80087297
 31
0.0
  0
ARC
  5
16A7
330
762
100
AcDbEntity
  8
0
100
AcDbCircle
 10
39.41401859
 20
6.06576402
 30
0.0
 40
3.093695068359374
100
AcDbArc
 50
155.20517737
 51
172.79482596
  0
LINE
  5
16A8
330
762
100
AcDbEntity
  8
0
100
AcDbLine
 10
37.95030056
 20
6.11438609
 30
0.0
 11
38.63678744
 21
6.80087297
 31
0.0
  0
LINE
  5
16A9
330
762
100
AcDbEntity
  8
0
100
AcDbLine
 10
37.86891859
 20
6.43711563
 30
0.0
 11
38.23267591
 21
6.80087297
 31
0.0
  0
LINE
  5
16AA
330
762
100
AcDbEntity
  8
0
100
AcDbLine
 10
36.3571694
 20
6.54181255
 30
0.0
 11
38.00518428
 21
8.18982743
 31
0.0
  0
ARC
  5
16AB
330
762
100
AcDbEntity
  8
0
100
AcDbCircle
 10
39.35938908
 20
6.30979783
 30
0.0
 40
1.545954895019525
100
AcDbArc
 50
270.0
 51
104.1274365
  0
LINE
  5
16AC
330
762
100
AcDbEntity
  8
0
100
AcDbLine
 10
38.3720203
 20
4.94572117
 30
0.0
 11
38.9039783
 21
6.80087297
 31
0.0
  0
LINE
  5
16AD
330
762
100
AcDbEntity
  8
0
100
AcDbLine
 10
37.07496067
 20
5.83307359
 30
0.0
 11
37.5651981
 21
7.54272477
 31
0.0
  0
LINE
  5
16AE
330
762
100
AcDbEntity
  8
0
100
AcDbLine
 10
37.76699344
 20
5.52696743
 30
0.0
 11
38.84893267
 21
6.60890667
 31
0.0
  0
LINE
  5
16AF
330
762
100
AcDbEntity
  8
0
100
AcDbLine
 10
36.364197
 20
5.74061711
 30
0.0
 11
37.32353694
 21
6.69995705
 31
0.0
  0
LINE
  5
16B0
330
762
100
AcDbEntity
  8
0
100
AcDbLine
 10
36.2999089
 20
6.08044052
 30
0.0
 11
37.48600074
 21
7.26653237
 31
0.0
  0
LINE
  5
16B1
330
762
100
AcDbEntity
  8
0
100
AcDbLine
 10
38.15863835
 20
5.15908939
 30
0.0
 11
38.3720203
 21
4.94572117
 31
0.0
  0
LINE
  5
16B2
330
762
100
AcDbEntity
  8
0
100
AcDbLine
 10
38.18298918
 20
5.13474013
 30
0.0
 11
38.52400618
 21
5.47575713
 31
0.0
  0
LINE
  5
16B3
330
762
100
AcDbEntity
  8
0
100
AcDbLine
 10
38.25655729
 20
4.40008519
 30
0.0
 11
38.62031461
 21
4.76384251
 31
0.0
  0
LINE
  5
16B4
330
762
100
AcDbEntity
  8
0
100
AcDbLine
 10
37.59537492
 20
4.9512374
 30
0.0
 11
38.68646942
 21
6.04233191
 31
0.0
  0
LINE
  5
16B5
330
762
100
AcDbEntity
  8
0
100
AcDbLine
 10
37.74011417
 20
6.43711563
 30
0.0
 11
38.04284244
 21
6.43711563
 31
0.0
  0
ARC
  5
16B6
330
762
100
AcDbEntity
  8
0
100
AcDbCircle
 10
37.44211002
 20
5.7277971
 30
0.0
 40
0.3819447398185731
100
AcDbArc
 50
164.00027306
 51
344.00027306
  0
LINE
  5
16B7
330
762
100
AcDbEntity
  8
0
100
AcDbLine
 10
37.21588264
 20
4.97585664
 30
0.0
 11
37.64293969
 21
5.40291368
 31
0.0
  0
LINE
  5
16B8
330
762
100
AcDbEntity
  8
0
100
AcDbLine
 10
36.92214394
 20
5.08622947
 30
0.0
 11
37.23976795
 21
5.40385347
 31
0.0
  0
LINE
  5
16B9
330
762
100
AcDbEntity
  8
0
100
AcDbLine
 10
36.6854179
 20
5.25361495
 30
0.0
 11
37.07066398
 21
5.63886103
 31
0.0
  0
LINE
  5
16BA
330
762
100
AcDbEntity
  8
0
100
AcDbLine
 10
37.85244577
 20
4.40008519
 30
0.0
 11
38.21620308
 21
4.76384251
 31
0.0
  0
LINE
  5
16BB
330
762
100
AcDbEntity
  8
0
100
AcDbLine
 10
37.44833424
 20
4.40008519
 30
0.0
 11
37.81209156
 21
4.76384251
 31
0.0
  0
LINE
  5
16BC
330
762
100
AcDbEntity
  8
0
100
AcDbLine
 10
37.04422272
 20
4.40008519
 30
0.0
 11
37.40798003
 21
4.76384251
 31
0.0
  0
LINE
  5
16BD
330
762
100
AcDbEntity
  8
0
100
AcDbLine
 10
36.64011119
 20
4.40008519
 30
0.0
 11
37.00386851
 21
4.76384251
 31
0.0
  0
LINE
  5
16BE
330
762
100
AcDbEntity
  8
0
100
AcDbLine
 10
37.80925938
 20
5.62252061
 30
0.0
 11
38.04284244
 21
6.43711563
 31
0.0
  0
LINE
  5
16BF
330
762
100
AcDbEntity
  8
0
100
AcDbLine
 10
36.49844026
 20
5.47074883
 30
0.0
 11
37.16107314
 21
6.13338171
 31
0.0
  0
LINE
  5
16C0
330
762
100
AcDbEntity
  8
0
100
AcDbLine
 10
36.23599967
 20
4.40008519
 30
0.0
 11
36.59975698
 21
4.76384251
 31
0.0
  0
LINE
  5
16C1
330
762
100
AcDbEntity
  8
0
100
AcDbLine
 10
39.47222891
 20
4.40342222
 30
0.0
 11
39.94985418
 21
4.88104751
 31
0.0
  0
LINE
  5
16C2
330
762
100
AcDbEntity
  8
0
100
AcDbLine
 10
38.66066881
 20
4.40008519
 30
0.0
 11
39.02442613
 21
4.76384251
 31
0.0
  0
LINE
  5
16C3
330
762
100
AcDbEntity
  8
0
100
AcDbLine
 10
39.06478034
 20
4.40008519
 30
0.0
 11
39.43015876
 21
4.7654636
 31
0.0
  0
LINE
  5
16C4
330
762
100
AcDbEntity
  8
241
100
AcDbLine
 10
125.0
 20
-11.7
 30
0.0
 11
125.0
 21
0.0
 31
0.0
  0
LINE
  5
16C5
330
762
100
AcDbEntity
  8
241
100
AcDbLine
 10
126.0
 20
-11.7
 30
0.0
 11
126.0
 21
0.0
 31
0.0
  0
LINE
  5
16C6
330
762
100
AcDbEntity
  8
241
100
AcDbLine
 10
128.0
 20
-15.15
 30
0.0
 11
128.0
 21
0.0
 31
0.0
  0
LINE
  5
16C7
330
762
100
AcDbEntity
  8
241
100
AcDbLine
 10
129.2
 20
-15.0
 30
0.0
 11
129.2
 21
0.0
 31
0.0
  0
LINE
  5
16C8
330
762
100
AcDbEntity
  8
240
100
AcDbLine
 10
150.0
 20
-14.0
 30
0.0
 11
150.0
 21
0.0
 31
0.0
  0
LINE
  5
16C9
330
762
100
AcDbEntity
  8
240
100
AcDbLine
 10
128.25980762
 20
-15.0
 30
0.0
 11
149.0
 21
-15.0
 31
0.0
  0
LINE
  5
16CA
330
762
100
AcDbEntity
  8
240
100
AcDbLine
 10
126.0
 20
-15.15
 30
0.0
 11
128.0
 21
-15.15
 31
0.0
  0
LINE
  5
16CB
330
762
100
AcDbEntity
  8
240
100
AcDbLine
 10
126.0
 20
-11.7
 30
0.0
 11
125.0
 21
-11.7
 31
0.0
  0
LINE
  5
16CC
330
762
100
AcDbEntity
  8
240
100
AcDbLine
 10
125.0
 20
-11.7
 30
0.0
 11
125.0
 21
-15.0
 31
0.0
  0
LINE
  5
16CD
330
762
100
AcDbEntity
  8
240
100
AcDbLine
 10
126.0
 20
-11.7
 30
0.0
 11
126.0
 21
-15.15
 31
0.0
  0
LINE
  5
16CE
330
762
100
AcDbEntity
  8
240
100
AcDbLine
 10
128.25980762
 20
-15.0
 30
0.0
 11
128.0
 21
-15.15
 31
0.0
  0
ARC
  5
16CF
330
762
100
AcDbEntity
  8
240
100
AcDbCircle
 10
149.0
 20
-14.0
 30
0.0
 40
1.0
100
AcDbArc
 50
270.0
 51
0.0
1001
GENIUS_GENOBJ-N-FIL_13
1002
{
1000
OWNER
1000
GEN
1002
}
1001
GENIUS_GENODEF_13
1002
{
1000
HIER
1070
     0
1002
}
1002
{
1000
MANEDIT
1070
     0
1002
}
1002
{
1000
NOSEL
1070
     0
1002
}
1002
{
1000
BEHIND
1070
     0
1002
}
1002
{
1000
OTHER
1070
     0
1002
}
1002
{
1000
REACTOR
1002
}
  0
LINE
  5
16D0
330
762
100
AcDbEntity
  8
241
  6
HIDDEN2
100
AcDbLine
 10
133.0
 20
5.25
 30
0.0
 11
150.0
 21
5.25
 31
0.0
  0
LINE
  5
16D1
330
762
100
AcDbEntity
  8
240
100
AcDbLine
 10
128.25980762
 20
15.0
 30
0.0
 11
149.0
 21
15.0
 31
0.0
  0
LINE
  5
16D2
330
762
100
AcDbEntity
  8
241
100
AcDbLine
 10
128.0
 20
15.15
 30
0.0
 11
128.0
 21
0.0
 31
0.0
  0
LINE
  5
16D3
330
762
100
AcDbEntity
  8
240
100
AcDbLine
 10
126.0
 20
11.7
 30
0.0
 11
126.0
 21
15.15
 31
0.0
  0
LINE
  5
16D4
330
762
100
AcDbEntity
  8
240
100
AcDbLine
 10
128.25980762
 20
15.0
 30
0.0
 11
128.0
 21
15.15
 31
0.0
  0
LINE
  5
16D5
330
762
100
AcDbEntity
  8
242
  6
HIDDEN2
100
AcDbLine
 10
128.0
 20
5.72756493
 30
0.0
 11
121.0
 21
0.0
 31
0.0
  0
LINE
  5
16D6
330
762
100
AcDbEntity
  8
242
  6
HIDDEN2
100
AcDbLine
 10
121.0
 20
5.72756493
 30
0.0
 11
128.0
 21
0.0
 31
0.0
  0
LINE
  5
16D7
330
762
100
AcDbEntity
  8
241
  6
HIDDEN2
100
AcDbLine
 10
121.0
 20
5.72756493
 30
0.0
 11
121.0
 21
0.0
 31
0.0
  0
LINE
  5
16D8
330
762
100
AcDbEntity
  8
241
  6
HIDDEN2
100
AcDbLine
 10
128.0
 20
6.0
 30
0.0
 11
128.0
 21
0.0
 31
0.0
  0
LINE
  5
16D9
330
762
100
AcDbEntity
  8
241
  6
HIDDEN2
100
AcDbLine
 10
133.0
 20
6.0
 30
0.0
 11
133.0
 21
0.0
 31
0.0
  0
LINE
  5
16DA
330
762
100
AcDbEntity
  8
241
100
AcDbLine
 10
129.2
 20
15.0
 30
0.0
 11
129.2
 21
0.0
 31
0.0
  0
LINE
  5
16DB
330
762
100
AcDbEntity
  8
241
100
AcDbLine
 10
126.0
 20
11.7
 30
0.0
 11
126.0
 21
0.0
 31
0.0
  0
LINE
  5
16DC
330
762
100
AcDbEntity
  8
241
100
AcDbLine
 10
125.0
 20
11.7
 30
0.0
 11
125.0
 21
0.0
 31
0.0
  0
LINE
  5
16DD
330
762
100
AcDbEntity
  8
241
  6
HIDDEN2
100
AcDbLine
 10
121.0
 20
5.72756493
 30
0.0
 11
128.0
 21
5.72756493
 31
0.0
  0
LINE
  5
16DE
330
762
100
AcDbEntity
  8
240
100
AcDbLine
 10
126.0
 20
11.7
 30
0.0
 11
125.0
 21
11.7
 31
0.0
  0
LINE
  5
16DF
330
762
100
AcDbEntity
  8
240
100
AcDbLine
 10
125.0
 20
11.7
 30
0.0
 11
125.0
 21
15.0
 31
0.0
  0
LINE
  5
16E0
330
762
100
AcDbEntity
  8
241
  6
HIDDEN2
100
AcDbLine
 10
128.0
 20
6.0
 30
0.0
 11
133.0
 21
6.0
 31
0.0
  0
LINE
  5
16E1
330
762
100
AcDbEntity
  8
240
100
AcDbLine
 10
126.0
 20
15.15
 30
0.0
 11
128.0
 21
15.15
 31
0.0
  0
ARC
  5
16E2
330
762
100
AcDbEntity
  8
240
100
AcDbCircle
 10
149.0
 20
14.0
 30
0.0
 40
1.0
100
AcDbArc
 50
0.0
 51
90.0
1001
GENIUS_GENOBJ-N-FIL_13
1002
{
1000
OWNER
1000
GEN
1002
}
1001
GENIUS_GENODEF_13
1002
{
1000
HIER
1070
     0
1002
}
1002
{
1000
MANEDIT
1070
     0
1002
}
1002
{
1000
NOSEL
1070
     0
1002
}
1002
{
1000
BEHIND
1070
     0
1002
}
1002
{
1000
OTHER
1070
     0
1002
}
1002
{
1000
REACTOR
1002
}
  0
LINE
  5
16E3
330
762
100
AcDbEntity
  8
240
100
AcDbLine
 10
150.0
 20
14.0
 30
0.0
 11
150.0
 21
0.0
 31
0.0
  0
ENDBLK
  5
89F
330
762
100
AcDbEntity
  8
0
100
AcDbBlockEnd
  0
BLOCK
  5
F59
330
F4F
100
AcDbEntity
  8
0
100
AcDbBlockBegin
  2
*D3
 70
     1
 10
0.0
 20
0.0
 30
0.0
  3
*D3
  1

  0
LINE
  5
F8C
330
F4F
100
AcDbEntity
  8
250
  6
CONTINUOUS
100
AcDbLine
 10
0.0
 20
19.64125603
 30
0.0
 11
0.0
 21
36.0
 31
0.0
  0
LINE
  5
F8D
330
F4F
100
AcDbEntity
  8
250
  6
CONTINUOUS
100
AcDbLine
 10
150.0
 20
14.5
 30
0.0
 11
150.0
 21
36.0
 31
0.0
  0
LINE
  5
F8E
330
F4F
100
AcDbEntity
  8
250
  6
CONTINUOUS
100
AcDbLine
 10
2.23
 20
35.0
 30
0.0
 11
147.77
 21
35.0
 31
0.0
  0
INSERT
  5
F8F
330
F4F
100
AcDbEntity
  8
250
  6
CONTINUOUS
100
AcDbBlockReference
  2
_OPEN
 10
0.0
 20
35.0
 30
0.0
 41
2.23
 42
2.23
 43
2.23
 50
180.0
  0
INSERT
  5
F90
330
F4F
100
AcDbEntity
  8
250
  6
CONTINUOUS
100
AcDbBlockReference
  2
_OPEN
 10
150.0
 20
35.0
 30
0.0
 41
2.23
 42
2.23
 43
2.23
  0
MTEXT
  5
F91
330
F4F
100
AcDbEntity
  8
250
  6
CONTINUOUS
 62
    40
100
AcDbMText
 10
75.0
 20
37.4
 30
0.0
 40
2.8
 41
0.0
 71
     5
 72
     1
  1
\A1;150
1001
ACAD
1000
MTEXTBEGIN
1070
    73
1070
     1
1070
    44
1040
1.0
1070
    74
1070
     0
1000
MTEXTEND
1000
MTEXTBEGIN
1070
    73
1070
     1
1070
    44
1040
1.0
1070
    74
1070
     0
1000
MTEXTEND
  0
POINT
  5
F92
330
F4F
100
AcDbEntity
  8
DEFPOINTS
  6
CONTINUOUS
 62
     0
100
AcDbPoint
 10
0.0
 20
19.14125603
 30
0.0
  0
POINT
  5
F93
330
F4F
100
AcDbEntity
  8
DEFPOINTS
  6
CONTINUOUS
 62
     0
100
AcDbPoint
 10
150.0
 20
14.0
 30
0.0
  0
POINT
  5
F94
330
F4F
100
AcDbEntity
  8
DEFPOINTS
  6
CONTINUOUS
 62
     0
100
AcDbPoint
 10
150.0
 20
35.0
 30
0.0
  0
ENDBLK
  5
F5A
330
F4F
100
AcDbEntity
  8
0
100
AcDbBlockEnd
  0
BLOCK
  5
F65
330
F5B
100
AcDbEntity
  8
0
100
AcDbBlockBegin
  2
*D4
 70
     1
 10
0.0
 20
0.0
 30
0.0
  3
*D4
  1

  0
LINE
  5
F9D
330
F5B
100
AcDbEntity
  8
AM_5
100
AcDbLine
 10
149.5
 20
15.0
 30
0.0
 11
169.5
 21
15.0
 31
0.0
  0
LINE
  5
F9E
330
F5B
100
AcDbEntity
  8
AM_5
100
AcDbLine
 10
149.5
 20
-15.0
 30
0.0
 11
169.5
 21
-15.0
 31
0.0
  0
LINE
  5
F9F
330
F5B
100
AcDbEntity
  8
AM_5
100
AcDbLine
 10
168.5
 20
12.77
 30
0.0
 11
168.5
 21
-12.77
 31
0.0
  0
INSERT
  5
FA0
330
F5B
100
AcDbEntity
  8
AM_5
100
AcDbBlockReference
  2
_OPEN
 10
168.5
 20
15.0
 30
0.0
 41
2.23
 42
2.23
 43
2.23
 50
90.0
  0
INSERT
  5
FA1
330
F5B
100
AcDbEntity
  8
AM_5
100
AcDbBlockReference
  2
_OPEN
 10
168.5
 20
-15.0
 30
0.0
 41
2.23
 42
2.23
 43
2.23
 50
270.0
  0
MTEXT
  5
FA2
330
F5B
100
AcDbEntity
  8
AM_5
 62
    40
100
AcDbMText
 10
166.1
 20
-1.48621162
 30
0.0
 40
2.8
 41
0.0
 71
     5
 72
     1
  1
\A1;%%c30
 11
0.0
 21
1.0
 31
0.0
1001
ACAD
1000
MTEXTBEGIN
1070
    73
1070
     1
1070
    44
1040
1.0
1070
    74
1070
     0
1000
MTEXTEND
1000
MTEXTBEGIN
1070
    73
1070
     1
1070
    44
1040
1.0
1070
    74
1070
     0
1000
MTEXTEND
  0
POINT
  5
FA3
330
F5B
100
AcDbEntity
  8
DEFPOINTS
 62
     0
100
AcDbPoint
 10
149.0
 20
15.0
 30
0.0
  0
POINT
  5
FA4
330
F5B
100
AcDbEntity
  8
DEFPOINTS
 62
     0
100
AcDbPoint
 10
149.0
 20
-15.0
 30
0.0
  0
POINT
  5
FA5
330
F5B
100
AcDbEntity
  8
DEFPOINTS
 62
     0
100
AcDbPoint
 10
168.5
 20
-15.0
 30
0.0
  0
ENDBLK
  5
F66
330
F5B
100
AcDbEntity
  8
0
100
AcDbBlockEnd
  0
BLOCK
  5
F70
330
F67
100
AcDbEntity
  8
0
100
AcDbBlockBegin
  2
*D5
 70
     1
 10
0.0
 20
0.0
 30
0.0
  3
*D5
  1

  0
LINE
  5
1138
330
F67
100
AcDbEntity
  8
250
  6
CONTINUOUS
100
AcDbLine
 10
150.5
 20
5.25
 30
0.0
 11
162.5
 21
5.25
 31
0.0
  0
LINE
  5
1139
330
F67
100
AcDbEntity
  8
250
  6
CONTINUOUS
100
AcDbLine
 10
161.5
 20
-3.02
 30
0.0
 11
161.5
 21
3.02
 31
0.0
  0
INSERT
  5
113A
330
F67
100
AcDbEntity
  8
250
  6
CONTINUOUS
100
AcDbBlockReference
  2
矢印なし
 10
161.5
 20
-5.25
 30
0.0
 41
2.23
 42
2.23
 43
2.23
 50
270.0
  0
INSERT
  5
113B
330
F67
100
AcDbEntity
  8
250
  6
CONTINUOUS
100
AcDbBlockReference
  2
_OPEN
 10
161.5
 20
5.25
 30
0.0
 41
2.23
 42
2.23
 43
2.23
 50
90.0
  0
MTEXT
  5
113C
330
F67
100
AcDbEntity
  8
250
  6
CONTINUOUS
 62
    40
100
AcDbMText
 10
159.1
 20
-1.89292864
 30
0.0
 40
2.8
 41
0.0
 71
     5
 72
     1
  1
\A1;{\H2.8;\U+2205}10.5
 11
0.0
 21
1.0
 31
0.0
1001
ACAD
1000
MTEXTBEGIN
1070
    73
1070
     1
1070
    44
1040
1.0
1070
    74
1070
     0
1000
MTEXTEND
  0
POINT
  5
113D
330
F67
100
AcDbEntity
  8
DEFPOINTS
  6
CONTINUOUS
 62
     0
100
AcDbPoint
 10
150.0
 20
-5.25
 30
0.0
  0
POINT
  5
113E
330
F67
100
AcDbEntity
  8
DEFPOINTS
  6
CONTINUOUS
 62
     0
100
AcDbPoint
 10
150.0
 20
5.25
 30
0.0
  0
POINT
  5
113F
330
F67
100
AcDbEntity
  8
DEFPOINTS
  6
CONTINUOUS
 62
     0
100
AcDbPoint
 10
161.5
 20
5.25
 30
0.0
  0
ENDBLK
  5
F71
330
F67
100
AcDbEntity
  8
0
100
AcDbBlockEnd
  0
ENDSEC
  0
SECTION
  2
ENTITIES
  0
INSERT
  5
6E6
330
1A
100
AcDbEntity
  8
245
100
AcDbBlockReference
  2
矢印なし
 10
175.62382697
 20
90.55123572
 30
0.0
  0
INSERT
  5
8DF
330
1A
100
AcDbEntity
  8
245
100
AcDbBlockReference
  2
矢印なし
 10
322.62382697
 20
230.55123572
 30
0.0
  0
INSERT
  5
8E0
330
1A
100
AcDbEntity
  8
245
100
AcDbBlockReference
  2
矢印なし
 10
497.62382697
 20
384.55123572
 30
0.0
  0
INSERT
  5
8E1
330
1A
100
AcDbEntity
  8
245
100
AcDbBlockReference
  2
矢印なし
 10
693.62382697
 20
531.55123572
 30
0.0
  0
INSERT
  5
8E2
330
1A
100
AcDbEntity
  8
245
100
AcDbBlockReference
  2
矢印なし
 10
882.62382697
 20
664.55123572
 30
0.0
  0
INSERT
  5
8E3
330
1A
100
AcDbEntity
  8
245
100
AcDbBlockReference
  2
矢印なし
 10
1043.62382697
 20
818.55123572
 30
0.0
  0
INSERT
  5
8E4
330
1A
100
AcDbEntity
  8
245
100
AcDbBlockReference
  2
矢印なし
 10
1218.62382697
 20
972.55123572
 30
0.0
  0
INSERT
  5
8E5
330
1A
100
AcDbEntity
  8
245
100
AcDbBlockReference
  2
矢印なし
 10
1393.62382697
 20
1105.55123572
 30
0.0
  0
INSERT
  5
8E6
330
1A
100
AcDbEntity
  8
245
100
AcDbBlockReference
  2
矢印なし
 10
1547.62382697
 20
1252.55123572
 30
0.0
  0
TEXT
  5
EA3
330
1A
100
AcDbEntity
  8
241
100
AcDbText
 10
-69.0
 20
49.0
 30
0.0
 40
5.0
  1
MGT20-M14,U9/16-150
  7
YOKO
 11
-69.0
 21
49.0
 31
0.0
100
AcDbText
 73
     1
  0
DIMENSION
  5
EA4
330
1A
100
AcDbEntity
  8
250
  6
CONTINUOUS
100
AcDbDimension
  2
*D3
 10
150.0
 20
35.0
 30
0.0
 11
75.0
 21
37.4
 31
0.0
 70
    32
  3
BIGT$0
100
AcDbAlignedDimension
 13
0.0
 23
19.14125603
 33
0.0
 14
150.0
 24
14.0
 34
0.0
100
AcDbRotatedDimension
  0
LEADER
  5
F42
330
1A
100
AcDbEntity
  8
250
  6
CONTINUOUS
100
AcDbLeader
  3
BIGT
 76
     2
 10
126.35487462
 20
5.67357439
 30
0.0
 10
137.0
 20
28.0
 30
0.0
1001
ACAD
1000
DSTYLE
1002
{
1070
     6
1000
OPEN
1070
   343
1005
594
1002
}
  0
MTEXT
  5
F43
330
1A
100
AcDbEntity
  8
251
  6
CONTINUOUS
100
AcDbMText
 10
141.32603644
 20
29.0
 30
0.0
 40
2.8
 41
0.0
 71
     7
 72
     1
  1
\U+25A18
  7
YOKO
1001
ITEMNAME
1000
LNSP3
1001
ACAD
1000
MTEXTBEGIN
1070
    73
1070
     1
1070
    44
1040
1.0
1070
    74
1070
     0
1000
MTEXTEND
1000
MTEXTBEGIN
1070
    73
1070
     1
1070
    44
1040
1.0
1070
    74
1070
     0
1000
MTEXTEND
1000
MTEXTBEGIN
1070
    73
1070
     1
1070
    44
1040
1.0
1070
    74
1070
     0
1000
MTEXTEND
1000
MTEXTBEGIN
1070
    73
1070
     1
1070
    44
1040
1.0
1070
    74
1070
     0
1000
MTEXTEND
1000
MTEXTBEGIN
1070
    73
1070
     1
1070
    44
1040
1.0
1070
    74
1070
     0
1000
MTEXTEND
1000
MTEXTBEGIN
1070
    73
1070
     1
1070
    44
1040
1.0
1070
    74
1070
     0
1000
MTEXTEND
  0
LINE
  5
F44
330
1A
100
AcDbEntity
  8
250
  6
CONTINUOUS
100
AcDbLine
 10
137.0
 20
28.0
 30
0.0
 11
149.37936977
 21
28.0
 31
0.0
1001
ITEMNAME
1000
LNSP2
  0
DIMENSION
  5
F4C
330
1A
100
AcDbEntity
  8
AM_5
100
AcDbDimension
  2
*D4
 10
168.5
 20
-15.0
 30
0.0
 11
168.5
 21
-1.48621162
 31
0.0
 70
   160
  1
%%c<>
  3
BIGT$0
100
AcDbAlignedDimension
 13
149.0
 23
15.0
 33
0.0
 14
149.0
 24
-15.0
 34
0.0
 50
90.0
100
AcDbRotatedDimension
  0
DIMENSION
  5
F4D
330
1A
100
AcDbEntity
  8
250
  6
CONTINUOUS
100
AcDbDimension
  2
*D5
 10
161.5
 20
5.25
 30
0.0
 11
161.5
 21
-1.89292864
 31
0.0
 70
   160
  1
{\H2.8;\U+2205}<>
  3
BIGT
100
AcDbAlignedDimension
 13
150.0
 23
-5.25
 33
0.0
 14
150.0
 24
5.25
 34
0.0
 50
90.0
100
AcDbRotatedDimension
1001
ACAD
1000
DSTYLE
1002
{
1070
   287
1070
     3
1070
   287
1070
     3
1070
   287
1070
     3
1070
   287
1070
     3
1070
    75
1070
     1
1070
    77
1070
     3
1070
   145
1040
1.0
1070
   279
1070
     0
1070
   289
1070
     3
1070
     6
1000
矢印なし
1002
}
  0
INSERT
  5
16E4
330
1A
100
AcDbEntity
  8
245
100
AcDbBlockReference
  2
1
 10
0.0
 20
0.0
 30
0.0
  0
VIEWPORT
  5
22
330
17
100
AcDbEntity
 67
     1
  8
0
100
AcDbViewport
 10
261.51769912
 20
148.5
 30
0.0
 40
523.03539823
 41
297.0
 68
     1
 69
     1
1001
ACAD
1000
MVIEW
1002
{
1070
    16
1010
0.0
1020
0.0
1030
0.0
1010
0.0
1020
0.0
1030
1.0
1040
0.0
1040
297.0
1040
261.51769912
1040
148.5
1040
50.0
1040
0.0
1040
0.0
1070
     0
1070
   100
1070
     1
1070
     1
1070
     0
1070
     0
1070
     0
1070
     0
1040
0.0
1040
0.0
1040
0.0
1040
1.0
1040
1.0
1040
10.0
1040
10.0
1070
     0
1002
{
1002
}
1002
}
  0
ENDSEC
  0
SECTION
  2
OBJECTS
  0
DICTIONARY
  5
C
330
0
100
AcDbDictionary
  3
ACAD_GROUP
350
D
  3
ACAD_LAYOUT
350
565
  3
ACAD_MLINESTYLE
350
E
  3
ACAD_PLOTSETTINGS
350
566
  3
ACAD_PLOTSTYLENAME
350
563
  3
ACDBHEADERROUNDTRIPXREC
350
16E6
  3
GRADE_DWG
350
540
  0
DICTIONARY
  5
1135
330
1A
100
AcDbDictionary
280
     1
  3
ACAD_LAYOUTSELFREF
360
1708
  0
DICTIONARY
  5
1133
330
17
100
AcDbDictionary
280
     1
  3
ACAD_LAYOUTSELFREF
360
1707
  0
DICTIONARY
  5
D
102
{ACAD_REACTORS
330
C
102
}
330
C
100
AcDbDictionary
  3
*A1
350
6C7
  3
*A2
350
6C8
  3
*A3
350
6D4
  3
*A4
350
6D5
  3
DREC-1
350
5FC
  3
DREC-2
350
654
  3
DREC-3
350
673
  0
DICTIONARY
  5
565
102
{ACAD_REACTORS
330
C
102
}
330
C
100
AcDbDictionary
  0
DICTIONARY
  5
E
102
{ACAD_REACTORS
330
C
102
}
330
C
100
AcDbDictionary
  3
STANDARD
350
13
  0
DICTIONARY
  5
566
102
{ACAD_REACTORS
330
C
102
}
330
C
100
AcDbDictionary
  3
A3_0_5倍_
350
758
  3
A3_1倍_
350
757
  3
A3_1倍__2000_
350
707
  3
A3_2倍_
350
759
  3
A4_0_5倍_
350
755
  3
A4_1倍_
350
754
  3
A4_1倍__2000_
350
708
  3
A4_2倍_
350
756
  0
ACDBDICTIONARYWDFLT
  5
563
102
{ACAD_REACTORS
330
C
102
}
330
C
100
AcDbDictionary
281
     1
  3
Normal
350
564
100
AcDbDictionaryWithDefault
340
564
  0
DICTIONARY
  5
16E6
102
{ACAD_REACTORS
330
C
102
}
330
C
100
AcDbDictionary
  3
CEPSNTYPE
350
16F0
  3
DIMSTYLEDATA
350
16F4
  3
FINGERPRINTGUID
350
16F1
  3
HYPERLINKBASE
350
16E9
  3
INSUNITS
350
16EF
  3
LAYOUTDICT
350
16EB
  3
LWETCUNION
350
16EE
  3
PLOTSETDICT
350
16EC
  3
PLOTSTYLNAMDICT
350
16ED
  3
PSVPSCALE
350
16F3
  3
PUCSBASE
350
16F7
  3
PUCSORGBACK
350
16FD
  3
PUCSORGBOTTOM
350
16F9
  3
PUCSORGFRONT
350
16FC
  3
PUCSORGLEFT
350
16FA
  3
PUCSORGRIGHT
350
16FB
  3
PUCSORGTOP
350
16F8
  3
PUCSORTHOREF
350
16F5
  3
PUCSORTHOVIEW
350
16F6
  3
STYLESHEET
350
16EA
  3
TSTACKALIGN
350
16E7
  3
TSTACKSIZE
350
16E8
  3
UCSBASE
350
1700
  3
UCSORGBACK
350
1706
  3
UCSORGBOTTOM
350
1702
  3
UCSORGFRONT
350
1705
  3
UCSORGLEFT
350
1703
  3
UCSORGRIGHT
350
1704
  3
UCSORGTOP
350
1701
  3
UCSORTHOREF
350
16FE
  3
UCSORTHOVIEW
350
16FF
  3
VERSIONGUID
350
16F2
  0
DICTIONARY
  5
540
102
{ACAD_REACTORS
330
C
102
}
330
C
100
AcDbDictionary
  3
VERSION
350
560
  0
XRECORD
  5
1708
102
{ACAD_REACTORS
330
1135
102
}
330
1135
100
AcDbXrecord
340
1A
  0
XRECORD
  5
1707
102
{ACAD_REACTORS
330
1133
102
}
330
1133
100
AcDbXrecord
340
17
  0
GROUP
  5
6C7
102
{ACAD_REACTORS
330
D
102
}
330
D
100
AcDbGroup
300

 70
     0
 71
     1
1001
GRPNAME
1000
DMA00
  0
GROUP
  5
6C8
102
{ACAD_REACTORS
330
D
102
}
330
D
100
AcDbGroup
300

 70
     0
 71
     1
1001
GRPNAME
1000
DMA00
  0
GROUP
  5
6D4
102
{ACAD_REACTORS
330
D
102
}
330
D
100
AcDbGroup
300

 70
     0
 71
     1
1001
GRPNAME
1000
DMA00
  0
GROUP
  5
6D5
102
{ACAD_REACTORS
330
D
102
}
330
D
100
AcDbGroup
300

 70
     0
 71
     1
1001
GRPNAME
1000
DMA00
  0
GROUP
  5
5FC
102
{ACAD_REACTORS
330
D
102
}
330
D
100
AcDbGroup
300

 70
     0
 71
     1
1001
GRPNAME
1000
DREC-
1001
GPARA
1000
xsiz
1000
44.182
1000
ysiz
1000
40.677
1000
angl
1000
0
1000
ctyp
1000
0
1000
csiz
1000
5
1000
lfnt
1000
cont
1000
hcnt
1000
hoff
1000
vcnt
1000
voff
1000
opnt
1000
4
1000
dxpt
1000
0
1000
dypt
1000
0
  0
GROUP
  5
654
102
{ACAD_REACTORS
330
D
102
}
330
D
100
AcDbGroup
300

 70
     0
 71
     1
1001
GRPNAME
1000
DREC-
1001
GPARA
1000
xsiz
1000
54.592
1000
ysiz
1000
53.036
1000
angl
1000
0
1000
ctyp
1000
0
1000
csiz
1000
5
1000
lfnt
1000
cont
1000
hcnt
1000
hoff
1000
vcnt
1000
voff
1000
opnt
1000
4
1000
dxpt
1000
0
1000
dypt
1000
0
  0
GROUP
  5
673
102
{ACAD_REACTORS
330
D
102
}
330
D
100
AcDbGroup
300

 70
     0
 71
     1
1001
GRPNAME
1000
DREC-
1001
GPARA
1000
xsiz
1000
30.363
1000
ysiz
1000
36.175
1000
angl
1000
0
1000
ctyp
1000
0
1000
csiz
1000
5
1000
lfnt
1000
cont
1000
hcnt
1000
hoff
1000
vcnt
1000
voff
1000
opnt
1000
4
1000
dxpt
1000
0
1000
dypt
1000
0
  0
MLINESTYLE
  5
13
102
{ACAD_REACTORS
330
E
102
}
330
E
100
AcDbMlineStyle
  2
STANDARD
 70
     0
  3

 62
     0
 51
90.0
 52
90.0
 71
     2
 49
0.5
 62
   256
  6
BYLAYER
 49
-0.5
 62
   256
  6
BYLAYER
  0
PLOTSETTINGS
  5
758
102
{ACAD_REACTORS
330
566
102
}
330
566
100
AcDbPlotSettings
  1
A3(0.5倍)
  2
\\AWTECPC05\HP DeskJet 1120C
  4
A3
  6

 40
5.95841646
 41
13.49375153
 42
6.04309082
 43
3.67242432
 44
296.92599487
 45
419.94665527
 46
89.96
 47
127.14
 48
0.0
 49
0.0
140
0.0
141
0.0
142
1.0
143
2.0
 70
  1716
 72
     1
 73
     1
 74
     2
  7
big.ctb
 75
    17
147
0.5
148
0.0
149
0.0
  0
PLOTSETTINGS
  5
757
102
{ACAD_REACTORS
330
566
102
}
330
566
100
AcDbPlotSettings
  1
A3(1倍)
  2
\\AWTECPC05\HP DeskJet 1120C
  4
A3
  6

 40
5.95841646
 41
13.49375153
 42
6.04309082
 43
3.67242432
 44
296.92599487
 45
419.94665527
 46
37.46
 47
52.89
 48
0.0
 49
0.0
140
0.0
141
0.0
142
1.0
143
1.0
 70
  1716
 72
     1
 73
     1
 74
     2
  7
big.ctb
 75
    16
147
1.0
148
0.0
149
0.0
  0
PLOTSETTINGS
  5
707
102
{ACAD_REACTORS
330
566
102
}
330
566
100
AcDbPlotSettings
  1
A3(1倍)(2000)
  2
SII LS-1300 (D-SCAN)
  4
User258
  6

 40
3.17499995
 41
3.17499995
 42
3.17498779
 43
3.17498779
 44
419.98898315
 45
296.98950195
 46
58.32
 47
40.32
 48
0.0
 49
0.0
140
0.0
141
0.0
142
1.0
143
1.0
 70
  1716
 72
     1
 73
     0
 74
     2
  7
big.ctb
 75
    16
147
1.0
148
0.0
149
0.0
  0
PLOTSETTINGS
  5
759
102
{ACAD_REACTORS
330
566
102
}
330
566
100
AcDbPlotSettings
  1
A3(2倍)
  2
\\AWTECPC05\HP DeskJet 1120C
  4
A3
  6

 40
5.95841646
 41
13.49375153
 42
6.04309082
 43
3.67242432
 44
296.92599487
 45
419.94665527
 46
-67.54
 47
-95.61
 48
0.0
 49
0.0
140
0.0
141
0.0
142
1.0
143
0.5
 70
  1716
 72
     1
 73
     1
 74
     2
  7
big.ctb
 75
    27
147
2.0
148
0.0
149
0.0
  0
PLOTSETTINGS
  5
755
102
{ACAD_REACTORS
330
566
102
}
330
566
100
AcDbPlotSettings
  1
A4(0.5倍)
  2
\\AWTECPC05\HP DeskJet 1120C
  4
A4
  6

 40
4.18041658
 41
13.49374962
 42
4.18040466
 43
3.92642212
 44
209.97332764
 45
296.92599487
 46
48.31
 47
65.5
 48
0.0
 49
0.0
140
0.0
141
0.0
142
1.0
143
2.0
 70
  1716
 72
     1
 73
     1
 74
     2
  7
big.ctb
 75
    17
147
0.5
148
0.0
149
0.0
  0
PLOTSETTINGS
  5
754
102
{ACAD_REACTORS
330
566
102
}
330
566
100
AcDbPlotSettings
  1
A4(1倍)
  2
\\AWTECPC05\HP DeskJet 1120C
  4
A4
  6

 40
4.18041658
 41
13.49374962
 42
4.18040466
 43
3.92642212
 44
209.97332764
 45
296.92599487
 46
-4.19
 47
-8.75
 48
0.0
 49
0.0
140
0.0
141
0.0
142
1.0
143
1.0
 70
  1716
 72
     1
 73
     1
 74
     2
  7
big.ctb
 75
    16
147
1.0
148
0.0
149
0.0
  0
PLOTSETTINGS
  5
708
102
{ACAD_REACTORS
330
566
102
}
330
566
100
AcDbPlotSettings
  1
A4(1倍)(2000)
  2
SII LS-1300 (D-SCAN)
  4
User259
  6

 40
3.17499995
 41
3.17499995
 42
3.17498779
 43
3.17500305
 44
296.98950195
 45
209.99449158
 46
-3.18
 47
-3.18
 48
0.0
 49
0.0
140
0.0
141
0.0
142
1.0
143
1.0
 70
  1716
 72
     1
 73
     0
 74
     2
  7
big.ctb
 75
    16
147
1.0
148
0.0
149
0.0
  0
PLOTSETTINGS
  5
756
102
{ACAD_REACTORS
330
566
102
}
330
566
100
AcDbPlotSettings
  1
A4(2倍)
  2
\\AWTECPC05\HP DeskJet 1120C
  4
A4
  6

 40
4.18041658
 41
13.49374962
 42
4.18040466
 43
3.92642212
 44
209.97332764
 45
296.92599487
 46
-109.19
 47
-157.25
 48
0.0
 49
0.0
140
0.0
141
0.0
142
1.0
143
0.5
 70
  1716
 72
     1
 73
     1
 74
     2
  7
big.ctb
 75
    27
147
2.0
148
0.0
149
0.0
  0
ACDBPLACEHOLDER
  5
564
102
{ACAD_REACTORS
330
563
102
}
330
563
100
AcDbPlaceHolder
280
     0
  0
XRECORD
  5
16F0
102
{ACAD_REACTORS
330
16E6
102
}
330
16E6
100
AcDbXrecord
 90
        0
  0
XRECORD
  5
16F4
102
{ACAD_REACTORS
330
16E6
102
}
330
16E6
100
AcDbXrecord
1000
DSTYLE
1002
{
1070
    79
 70
     2
1070
   179
 70
     3
1070
   341
340
594
1070
   343
340
594
1070
   344
340
594
1070
   371
 70
    -1
1070
   372
 70
    -1
1002
}
  0
XRECORD
  5
16F1
102
{ACAD_REACTORS
330
16E6
102
}
330
16E6
100
AcDbXrecord
  1
{51294030-9CB4-11D3-8E18-00A0C925D94D}
  0
XRECORD
  5
16E9
102
{ACAD_REACTORS
330
16E6
102
}
330
16E6
100
AcDbXrecord
  1

  0
XRECORD
  5
16EF
102
{ACAD_REACTORS
330
16E6
102
}
330
16E6
100
AcDbXrecord
 90
        0
  0
XRECORD
  5
16EB
102
{ACAD_REACTORS
330
16E6
102
}
330
16E6
100
AcDbXrecord
340
565
  0
XRECORD
  5
16EE
102
{ACAD_REACTORS
330
16E6
102
}
330
16E6
100
AcDbXrecord
 90
    10781
  0
XRECORD
  5
16EC
102
{ACAD_REACTORS
330
16E6
102
}
330
16E6
100
AcDbXrecord
340
566
  0
XRECORD
  5
16ED
102
{ACAD_REACTORS
330
16E6
102
}
330
16E6
100
AcDbXrecord
340
563
  0
XRECORD
  5
16F3
102
{ACAD_REACTORS
330
16E6
102
}
330
16E6
100
AcDbXrecord
 40
0.0
  0
XRECORD
  5
16F7
102
{ACAD_REACTORS
330
16E6
102
}
330
16E6
100
AcDbXrecord
340
0
  0
XRECORD
  5
16FD
102
{ACAD_REACTORS
330
16E6
102
}
330
16E6
100
AcDbXrecord
 10
0.0
 20
0.0
 30
0.0
  0
XRECORD
  5
16F9
102
{ACAD_REACTORS
330
16E6
102
}
330
16E6
100
AcDbXrecord
 10
0.0
 20
0.0
 30
0.0
  0
XRECORD
  5
16FC
102
{ACAD_REACTORS
330
16E6
102
}
330
16E6
100
AcDbXrecord
 10
0.0
 20
0.0
 30
0.0
  0
XRECORD
  5
16FA
102
{ACAD_REACTORS
330
16E6
102
}
330
16E6
100
AcDbXrecord
 10
0.0
 20
0.0
 30
0.0
  0
XRECORD
  5
16FB
102
{ACAD_REACTORS
330
16E6
102
}
330
16E6
100
AcDbXrecord
 10
0.0
 20
0.0
 30
0.0
  0
XRECORD
  5
16F8
102
{ACAD_REACTORS
330
16E6
102
}
330
16E6
100
AcDbXrecord
 10
0.0
 20
0.0
 30
0.0
  0
XRECORD
  5
16F5
102
{ACAD_REACTORS
330
16E6
102
}
330
16E6
100
AcDbXrecord
340
0
  0
XRECORD
  5
16F6
102
{ACAD_REACTORS
330
16E6
102
}
330
16E6
100
AcDbXrecord
 70
     0
  0
XRECORD
  5
16EA
102
{ACAD_REACTORS
330
16E6
102
}
330
16E6
100
AcDbXrecord
  1
big.ctb
  0
XRECORD
  5
16E7
102
{ACAD_REACTORS
330
16E6
102
}
330
16E6
100
AcDbXrecord
 90
        1
  0
XRECORD
  5
16E8
102
{ACAD_REACTORS
330
16E6
102
}
330
16E6
100
AcDbXrecord
 90
       70
  0
XRECORD
  5
1700
102
{ACAD_REACTORS
330
16E6
102
}
330
16E6
100
AcDbXrecord
340
0
  0
XRECORD
  5
1706
102
{ACAD_REACTORS
330
16E6
102
}
330
16E6
100
AcDbXrecord
 10
0.0
 20
0.0
 30
0.0
  0
XRECORD
  5
1702
102
{ACAD_REACTORS
330
16E6
102
}
330
16E6
100
AcDbXrecord
 10
0.0
 20
0.0
 30
0.0
  0
XRECORD
  5
1705
102
{ACAD_REACTORS
330
16E6
102
}
330
16E6
100
AcDbXrecord
 10
0.0
 20
0.0
 30
0.0
  0
XRECORD
  5
1703
102
{ACAD_REACTORS
330
16E6
102
}
330
16E6
100
AcDbXrecord
 10
0.0
 20
0.0
 30
0.0
  0
XRECORD
  5
1704
102
{ACAD_REACTORS
330
16E6
102
}
330
16E6
100
AcDbXrecord
 10
0.0
 20
0.0
 30
0.0
  0
XRECORD
  5
1701
102
{ACAD_REACTORS
330
16E6
102
}
330
16E6
100
AcDbXrecord
 10
0.0
 20
0.0
 30
0.0
  0
XRECORD
  5
16FE
102
{ACAD_REACTORS
330
16E6
102
}
330
16E6
100
AcDbXrecord
340
0
  0
XRECORD
  5
16FF
102
{ACAD_REACTORS
330
16E6
102
}
330
16E6
100
AcDbXrecord
 70
     0
  0
XRECORD
  5
16F2
102
{ACAD_REACTORS
330
16E6
102
}
330
16E6
100
AcDbXrecord
  1
{4268E9F1-C1DB-4DC7-890C-E330A3D9CB0B}
  0
XRECORD
  5
560
102
{ACAD_REACTORS
330
540
102
}
330
540
100
AcDbXrecord
  1
2.0.0
  0
ENDSEC
  0
EOF
