  0
SECTION
  2
HEADER
  9
$ACADVER
  1
AC1014
  9
$ACADMAINTVER
 70
     9
  9
$DWGCODEPAGE
  3
ANSI_932
  9
$INSBASE
 10
0.0
 20
0.0
 30
0.0
  9
$EXTMIN
 10
-70.01495247
 20
-19.5703201
 30
-0.00152582
  9
$EXTMAX
 10
51.03454661
 20
54.0197928
 30
0.00000003
  9
$LIMMIN
 10
0.0
 20
0.0
  9
$LIMMAX
 10
420.0
 20
297.0
  9
$ORTHOMODE
 70
     0
  9
$REGENMODE
 70
     1
  9
$FILLMODE
 70
     1
  9
$QTEXTMODE
 70
     0
  9
$MIRRTEXT
 70
     1
  9
$DRAGMODE
 70
     2
  9
$LTSCALE
 40
10.0
  9
$OSMODE
 70
   549
  9
$ATTMODE
 70
     1
  9
$TEXTSIZE
 40
3.0
  9
$TRACEWID
 40
1.0
  9
$TEXTSTYLE
  7
YOKO
  9
$CLAYER
  8
245
  9
$CELTYPE
  6
BYLAYER
  9
$CECOLOR
 62
   256
  9
$CELTSCALE
 40
1.0
  9
$DELOBJ
 70
     1
  9
$DISPSILH
 70
     0
  9
$DIMSCALE
 40
1.0
  9
$DIMASZ
 40
2.0
  9
$DIMEXO
 40
2.0
  9
$DIMDLI
 40
2.5
  9
$DIMRND
 40
0.0
  9
$DIMDLE
 40
0.0
  9
$DIMEXE
 40
2.0
  9
$DIMTP
 40
0.0
  9
$DIMTM
 40
0.0
  9
$DIMTXT
 40
4.0
  9
$DIMCEN
 40
0.0
  9
$DIMTSZ
 40
0.0
  9
$DIMTOL
 70
     0
  9
$DIMLIM
 70
     0
  9
$DIMTIH
 70
     0
  9
$DIMTOH
 70
     0
  9
$DIMSE1
 70
     0
  9
$DIMSE2
 70
     0
  9
$DIMTAD
 70
     3
  9
$DIMZIN
 70
     8
  9
$DIMBLK
  1

  9
$DIMASO
 70
     1
  9
$DIMSHO
 70
     1
  9
$DIMPOST
  1

  9
$DIMAPOST
  1

  9
$DIMALT
 70
     0
  9
$DIMALTD
 70
     2
  9
$DIMALTF
 40
25.4
  9
$DIMLFAC
 40
1.0
  9
$DIMTOFL
 70
     1
  9
$DIMTVP
 40
0.0
  9
$DIMTIX
 70
     1
  9
$DIMSOXD
 70
     0
  9
$DIMSAH
 70
     1
  9
$DIMBLK1
  1
OPEN
  9
$DIMBLK2
  1
OPEN
  9
$DIMSTYLE
  2
BIGT
  9
$DIMCLRD
 70
   256
  9
$DIMCLRE
 70
   256
  9
$DIMCLRT
 70
    40
  9
$DIMTFAC
 40
1.0
  9
$DIMGAP
 40
1.0
  9
$DIMJUST
 70
     0
  9
$DIMSD1
 70
     0
  9
$DIMSD2
 70
     0
  9
$DIMTOLJ
 70
     1
  9
$DIMTZIN
 70
     8
  9
$DIMALTZ
 70
     0
  9
$DIMALTTZ
 70
     0
  9
$DIMFIT
 70
     3
  9
$DIMUPT
 70
     0
  9
$DIMUNIT
 70
     2
  9
$DIMDEC
 70
     3
  9
$DIMTDEC
 70
     3
  9
$DIMALTU
 70
     2
  9
$DIMALTTD
 70
     2
  9
$DIMTXSTY
  7
STANDARD
  9
$DIMAUNIT
 70
     0
  9
$LUNITS
 70
     2
  9
$LUPREC
 70
     3
  9
$SKETCHINC
 40
1.0
  9
$FILLETRAD
 40
0.0
  9
$AUNITS
 70
     0
  9
$AUPREC
 70
     3
  9
$MENU
  1
.
  9
$ELEVATION
 40
0.0
  9
$PELEVATION
 40
0.0
  9
$THICKNESS
 40
0.0
  9
$LIMCHECK
 70
     0
  9
$BLIPMODE
 70
     0
  9
$CHAMFERA
 40
10.0
  9
$CHAMFERB
 40
10.0
  9
$CHAMFERC
 40
0.0
  9
$CHAMFERD
 40
0.0
  9
$SKPOLY
 70
     0
  9
$TDCREATE
 40
2455128.589352210
  9
$TDUPDATE
 40
2455316.498416331
  9
$TDINDWG
 40
0.0063711574
  9
$TDUSRTIMER
 40
0.0063711574
  9
$USRTIMER
 70
     1
  9
$ANGBASE
 50
0.0
  9
$ANGDIR
 70
     0
  9
$PDMODE
 70
     1
  9
$PDSIZE
 40
-5.0
  9
$PLINEWID
 40
0.0
  9
$COORDS
 70
     0
  9
$SPLFRAME
 70
     0
  9
$SPLINETYPE
 70
     6
  9
$SPLINESEGS
 70
     8
  9
$ATTDIA
 70
     0
  9
$ATTREQ
 70
     1
  9
$HANDLING
 70
-16383
  9
$HANDSEED
  5
141F
  9
$SURFTAB1
 70
     6
  9
$SURFTAB2
 70
     6
  9
$SURFTYPE
 70
     6
  9
$SURFU
 70
     6
  9
$SURFV
 70
     6
  9
$UCSNAME
  2

  9
$UCSORG
 10
0.0
 20
0.0
 30
0.0
  9
$UCSXDIR
 10
1.0
 20
0.0
 30
0.0
  9
$UCSYDIR
 10
0.0
 20
1.0
 30
0.0
  9
$PUCSNAME
  2

  9
$PUCSORG
 10
0.0
 20
0.0
 30
0.0
  9
$PUCSXDIR
 10
1.0
 20
0.0
 30
0.0
  9
$PUCSYDIR
 10
0.0
 20
1.0
 30
0.0
  9
$USERI1
 70
     1
  9
$USERI2
 70
     0
  9
$USERI3
 70
     0
  9
$USERI4
 70
     0
  9
$USERI5
 70
     0
  9
$USERR1
 40
0.0
  9
$USERR2
 40
0.0
  9
$USERR3
 40
0.0
  9
$USERR4
 40
0.0
  9
$USERR5
 40
0.0
  9
$WORLDVIEW
 70
     1
  9
$SHADEDGE
 70
     3
  9
$SHADEDIF
 70
    70
  9
$TILEMODE
 70
     1
  9
$MAXACTVP
 70
    16
  9
$PINSBASE
 10
0.0
 20
0.0
 30
0.0
  9
$PLIMCHECK
 70
     0
  9
$PEXTMIN
 10
1.00000000E+20
 20
1.00000000E+20
 30
1.00000000E+20
  9
$PEXTMAX
 10
-1.00000000E+20
 20
-1.00000000E+20
 30
-1.00000000E+20
  9
$PLIMMIN
 10
0.0
 20
0.0
  9
$PLIMMAX
 10
420.0
 20
297.0
  9
$UNITMODE
 70
     0
  9
$VISRETAIN
 70
     0
  9
$PLINEGEN
 70
     0
  9
$PSLTSCALE
 70
     1
  9
$TREEDEPTH
 70
  3020
  9
$PICKSTYLE
 70
     0
  9
$CMLSTYLE
  2
STANDARD
  9
$CMLJUST
 70
     0
  9
$CMLSCALE
 40
1.0
  9
$PROXYGRAPHICS
 70
     1
  9
$MEASUREMENT
 70
     1
  0
ENDSEC
  0
SECTION
  2
CLASSES
  0
CLASS
  1
XRECORD
  2
AcDbXrecord
  3
AutoCAD 2000
 90
        0
280
     0
281
     0
  0
CLASS
  1
ACDBDICTIONARYWDFLT
  2
AcDbDictionaryWithDefault
  3
AutoCAD 2000
 90
        0
280
     0
281
     0
  0
CLASS
  1
ACDBPLACEHOLDER
  2
AcDbPlaceHolder
  3
AutoCAD 2000
 90
        0
280
     0
281
     0
  0
CLASS
  1
LAYOUT
  2
AcDbLayout
  3
AutoCAD 2000
 90
        0
280
     0
281
     0
  0
CLASS
  1
PLOTSETTINGS
  2
AcDbPlotSettings
  3
AutoCAD 2000
 90
        0
280
     0
281
     0
  0
CLASS
  1
LONG_TRANSACTION
  2
AcDbLongTransaction
  3
AutoCAD 2000
 90
        0
280
     0
281
     0
  0
CLASS
  1
LWPOLYLINE
  2
AcDbPolyline
  3
AutoCAD 2000
 90
        0
280
     0
281
     1
  0
CLASS
  1
HATCH
  2
AcDbHatch
  3
AutoCAD 2000
 90
        0
280
     0
281
     1
  0
CLASS
  1
XRECORD
  2
AcDbXrecord
  3
AutoCAD 2000
 90
        0
280
     0
281
     0
  0
CLASS
  1
LONG_TRANSACTION
  2
AcDbLongTransaction
  3
AutoCAD 2000
 90
        0
280
     0
281
     0
  0
CLASS
  1
LWPOLYLINE
  2
AcDbPolyline
  3
AutoCAD 2000
 90
        0
280
     0
281
     1
  0
CLASS
  1
HATCH
  2
AcDbHatch
  3
AutoCAD 2000
 90
        0
280
     0
281
     1
  0
CLASS
  1
XRECORD
  2
AcDbXrecord
  3
AutoCAD 2000
 90
        0
280
     0
281
     0
  0
ENDSEC
  0
SECTION
  2
TABLES
  0
TABLE
  2
VPORT
  5
8
330
0
100
AcDbSymbolTable
 70
     2
  0
VPORT
  5
13FA
330
8
100
AcDbSymbolTableRecord
100
AcDbViewportTableRecord
  2
*ACTIVE
 70
     0
 10
0.0
 20
0.0
 11
1.0
 21
1.0
 12
-9.49020293
 22
17.22473635
 13
0.0
 23
0.0
 14
7.0
 24
7.0
 15
7.0
 25
7.0
 16
0.0
 26
0.0
 36
1.0
 17
0.0
 27
0.0
 37
0.0
 40
84.99150909
 41
1.43184713
 42
50.0
 43
0.0
 44
0.0
 50
0.0
 51
0.0
 71
     0
 72
  2000
 73
     1
 74
     0
 75
     0
 76
     0
 77
     0
 78
     0
  0
ENDTAB
  0
TABLE
  2
LTYPE
  5
5
330
0
100
AcDbSymbolTable
 70
     3
  0
LTYPE
  5
14
330
5
100
AcDbSymbolTableRecord
100
AcDbLinetypeTableRecord
  2
BYBLOCK
 70
     0
  3

 72
    65
 73
     0
 40
0.0
  0
LTYPE
  5
15
330
5
100
AcDbSymbolTableRecord
100
AcDbLinetypeTableRecord
  2
BYLAYER
 70
     0
  3

 72
    65
 73
     0
 40
0.0
  0
LTYPE
  5
16
330
5
100
AcDbSymbolTableRecord
100
AcDbLinetypeTableRecord
  2
CONTINUOUS
 70
     0
  3
Solid line
 72
    65
 73
     0
 40
0.0
  0
LTYPE
  5
258
330
5
100
AcDbSymbolTableRecord
100
AcDbLinetypeTableRecord
  2
CENTER2
 70
     0
  3
___ _ ___ _ ___ _ ___ _ ___ _ ___ _ ___ _ ___ _
 72
    65
 73
     4
 40
1.125
 49
0.75
 74
     0
 49
-0.125
 74
     0
 49
0.125
 74
     0
 49
-0.125
 74
     0
  0
LTYPE
  5
25C
330
5
100
AcDbSymbolTableRecord
100
AcDbLinetypeTableRecord
  2
HIDDEN2
 70
     0
  3
_ _ _ _ _ _ _ _ _ _ _ _ _ _ _ _ _ _ _ _ _ _ _ _
 72
    65
 73
     2
 40
0.1875
 49
0.125
 74
     0
 49
-0.0625
 74
     0
  0
ENDTAB
  0
TABLE
  2
LAYER
  5
2
330
0
100
AcDbSymbolTable
 70
    11
  0
LAYER
  5
F
330
2
100
AcDbSymbolTableRecord
100
AcDbLayerTableRecord
  2
0
 70
     0
 62
     7
  6
CONTINUOUS
  0
LAYER
  5
1AA
330
2
100
AcDbSymbolTableRecord
100
AcDbLayerTableRecord
  2
240
 70
     0
 62
     4
  6
CONTINUOUS
  0
LAYER
  5
1AB
330
2
100
AcDbSymbolTableRecord
100
AcDbLayerTableRecord
  2
241
 70
     0
 62
   211
  6
CONTINUOUS
  0
LAYER
  5
1AC
330
2
100
AcDbSymbolTableRecord
100
AcDbLayerTableRecord
  2
242
 70
     0
 62
     3
  6
CONTINUOUS
  0
LAYER
  5
1AD
330
2
100
AcDbSymbolTableRecord
100
AcDbLayerTableRecord
  2
243
 70
     0
 62
   211
  6
HIDDEN2
  0
LAYER
  5
1AF
330
2
100
AcDbSymbolTableRecord
100
AcDbLayerTableRecord
  2
245
 70
     0
 62
     2
  6
CENTER2
  0
LAYER
  5
21E
330
2
100
AcDbSymbolTableRecord
100
AcDbLayerTableRecord
  2
250
 70
     0
 62
     3
  6
CONTINUOUS
  0
LAYER
  5
21F
330
2
100
AcDbSymbolTableRecord
100
AcDbLayerTableRecord
  2
251
 70
     0
 62
    40
  6
CONTINUOUS
  0
LAYER
  5
5C4
330
2
100
AcDbSymbolTableRecord
100
AcDbLayerTableRecord
  2
DEFPOINTS
 70
     0
 62
     7
  6
CONTINUOUS
  0
ENDTAB
  0
TABLE
  2
STYLE
  5
3
330
0
100
AcDbSymbolTable
 70
     2
  0
STYLE
  5
10
330
3
100
AcDbSymbolTableRecord
100
AcDbTextStyleTableRecord
  2
STANDARD
 70
     0
 40
0.0
 41
1.0
 50
0.0
 71
     0
 42
3.0
  3
romans.shx
  4
BIGFONT.SHX
  0
STYLE
  5
339
330
3
100
AcDbSymbolTableRecord
100
AcDbTextStyleTableRecord
  2
YOKO
 70
     0
 40
0.0
 41
1.0
 50
0.0
 71
     0
 42
3.0
  3
romans.shx
  4
extfont.shx
  0
ENDTAB
  0
TABLE
  2
VIEW
  5
6
330
0
100
AcDbSymbolTable
 70
     0
  0
ENDTAB
  0
TABLE
  2
UCS
  5
7
330
0
100
AcDbSymbolTable
 70
     0
  0
ENDTAB
  0
TABLE
  2
APPID
  5
9
330
0
100
AcDbSymbolTable
 70
    15
  0
APPID
  5
11
330
9
100
AcDbSymbolTableRecord
100
AcDbRegAppTableRecord
  2
ACAD
 70
     0
  0
APPID
  5
1B1
330
9
100
AcDbSymbolTableRecord
100
AcDbRegAppTableRecord
  2
GLOBAL
 70
     0
  0
APPID
  5
2A4
330
9
100
AcDbSymbolTableRecord
100
AcDbRegAppTableRecord
  2
DETAIL
 70
     0
  0
APPID
  5
5FD
330
9
100
AcDbSymbolTableRecord
100
AcDbRegAppTableRecord
  2
GRPNAME
 70
     0
  0
APPID
  5
5FE
330
9
100
AcDbSymbolTableRecord
100
AcDbRegAppTableRecord
  2
GPARA
 70
     0
  0
APPID
  5
6C4
330
9
100
AcDbSymbolTableRecord
100
AcDbRegAppTableRecord
  2
DCO15
 70
     0
  0
APPID
  5
6C5
330
9
100
AcDbSymbolTableRecord
100
AcDbRegAppTableRecord
  2
ITEMNAME
 70
     0
  0
APPID
  5
6C6
330
9
100
AcDbSymbolTableRecord
100
AcDbRegAppTableRecord
  2
GRADE_0
 70
     0
  0
APPID
  5
8C4
330
9
100
AcDbSymbolTableRecord
100
AcDbRegAppTableRecord
  2
GENIUS_GENODEF_13
 70
     0
  0
APPID
  5
8C5
330
9
100
AcDbSymbolTableRecord
100
AcDbRegAppTableRecord
  2
GENIUS_GENOREF_13
 70
     0
  0
APPID
  5
8C6
330
9
100
AcDbSymbolTableRecord
100
AcDbRegAppTableRecord
  2
GENIUS_GENOBJ-N-FIL_13
 70
     0
  0
APPID
  5
8C7
330
9
100
AcDbSymbolTableRecord
100
AcDbRegAppTableRecord
  2
HATCH_TYPE
 70
     0
  0
APPID
  5
8C8
330
9
100
AcDbSymbolTableRecord
100
AcDbRegAppTableRecord
  2
HATCH_DISPLAY
 70
     0
  0
APPID
  5
8C9
330
9
100
AcDbSymbolTableRecord
100
AcDbRegAppTableRecord
  2
HATCH_DISTANCE
 70
     0
  0
APPID
  5
EC0
330
9
100
AcDbSymbolTableRecord
100
AcDbRegAppTableRecord
  2
CONTENTBLOCKICON
 70
     0
  0
ENDTAB
  0
TABLE
  2
DIMSTYLE
  5
A
330
0
100
AcDbSymbolTable
 70
     1
  0
DIMSTYLE
105
725
102
{ACAD_REACTORS
330
1157
330
1258
330
1275
102
}
330
A
100
AcDbSymbolTableRecord
100
AcDbDimStyleTableRecord
  2
BIGT
 70
     0
  3

  4

  5

  6
OPEN
  7
OPEN
 40
1.0
 41
2.23
 42
0.5
 43
2.5
 44
1.0
 45
0.0
 46
0.0
 47
0.0
 48
0.0
140
2.8
141
0.0
142
0.0
143
25.4
144
1.0
145
0.0
146
1.0
147
1.0
 71
     0
 72
     0
 73
     0
 74
     0
 75
     0
 76
     0
 77
     3
 78
     8
170
     0
171
     2
172
     1
173
     1
174
     1
175
     0
176
   256
177
   256
178
    40
270
     2
271
     3
272
     3
273
     2
274
     2
340
10
275
     0
280
     0
281
     0
282
     0
283
     1
284
     8
285
     0
286
     0
287
     3
288
     0
  0
ENDTAB
  0
TABLE
  2
BLOCK_RECORD
  5
1
330
0
100
AcDbSymbolTable
 70
    13
  0
BLOCK_RECORD
  5
1A
102
{ACAD_XDICTIONARY
360
EBE
102
}
330
1
100
AcDbSymbolTableRecord
100
AcDbBlockTableRecord
  2
*MODEL_SPACE
  0
BLOCK_RECORD
  5
17
102
{ACAD_XDICTIONARY
360
EBC
102
}
330
1
100
AcDbSymbolTableRecord
100
AcDbBlockTableRecord
  2
*PAPER_SPACE
  0
BLOCK_RECORD
  5
594
330
1
100
AcDbSymbolTableRecord
100
AcDbBlockTableRecord
  2
_OPEN
  0
BLOCK_RECORD
  5
6E3
330
1
100
AcDbSymbolTableRecord
100
AcDbBlockTableRecord
  2
矢印なし
  0
BLOCK_RECORD
  5
762
330
1
100
AcDbSymbolTableRecord
100
AcDbBlockTableRecord
  2
1
1001
CONTENTBLOCKICON
1071
        0
1004
2800000020000000200000000100080000000000000400000000000000000000000000000000000000000000000080000080000000808000800000008000800080800000C0C0C000C0DCC000F0CAA6000020400000206000002080000020A0000020C0000020E00000400000004020000040400000406000004080000040A0
1004
000040C0000040E00000600000006020000060400000606000006080000060A0000060C0000060E00000800000008020000080400000806000008080000080A0000080C0000080E00000A0000000A0200000A0400000A0600000A0800000A0A00000A0C00000A0E00000C0000000C0200000C0400000C0600000C0800000C0
1004
A00000C0C00000C0E00000E0000000E0200000E0400000E0600000E0800000E0A00000E0C00000E0E00040000000400020004000400040006000400080004000A0004000C0004000E00040200000402020004020400040206000402080004020A0004020C0004020E000404000004040200040404000404060004040800040
1004
40A0004040C0004040E00040600000406020004060400040606000406080004060A0004060C0004060E00040800000408020004080400040806000408080004080A0004080C0004080E00040A0000040A0200040A0400040A0600040A0800040A0A00040A0C00040A0E00040C0000040C0200040C0400040C0600040C08000
1004
40C0A00040C0C00040C0E00040E0000040E0200040E0400040E0600040E0800040E0A00040E0C00040E0E00080000000800020008000400080006000800080008000A0008000C0008000E00080200000802020008020400080206000802080008020A0008020C0008020E00080400000804020008040400080406000804080
1004
008040A0008040C0008040E00080600000806020008060400080606000806080008060A0008060C0008060E00080800000808020008080400080806000808080008080A0008080C0008080E00080A0000080A0200080A0400080A0600080A0800080A0A00080A0C00080A0E00080C0000080C0200080C0400080C0600080C0
1004
800080C0A00080C0C00080C0E00080E0000080E0200080E0400080E0600080E0800080E0A00080E0C00080E0E000C0000000C0002000C0004000C0006000C0008000C000A000C000C000C000E000C0200000C0202000C0204000C0206000C0208000C020A000C020C000C020E000C0400000C0402000C0404000C0406000C0
1004
408000C040A000C040C000C040E000C0600000C0602000C0604000C0606000C0608000C060A000C060C000C060E000C0800000C0802000C0804000C0806000C0808000C080A000C080C000C080E000C0A00000C0A02000C0A04000C0A06000C0A08000C0A0A000C0A0C000C0A0E000C0C00000C0C02000C0C04000C0C06000
1004
C0C08000C0C0A000F0FBFF00A4A0A000808080000000FF0000FF000000FFFF00FF000000FF00FF00FFFF0000FFFFFF0000000000000000000000000000000000000000000000000000000000000000000000000000000000000000000000000000000000000000000000000000000000000000000000000000000000000000
1004
00000000000000000000000000000000000000000000000000000000000000000000000000000000000000000000000000000000000000000000000000000000000000000000000000000000000000000000000000000000000000000000000000000000000000000000000000000000000000000000000000000000000000
1004
00000000000000000000000000000000000000000000000000000000000000000000000000000000000000000000000000000000000000000000000000000000000000000000000000000000000000000000000000000000000000000000000000000000000000000000000000000000000000000000000000000000000000
1004
000000FEFEFEFEFE000000000000000000000000000000000000000000000000000000FEFEE7FEFE0000FE00000000000000000000FEFEFEFEFEFEFEFEFEFEFEFEFEFEFEFEE7E7E7FFFFFEFEFEFEFEFEFE00000000FE00000000E7FBE70000E700E7E7E700E7E7E7FFFFE7E700000000FE00000000FE00000000E7FBE70000
1004
E7FBE7E7E700E7E7E7FFFFE7E700000000FE00000000FE00000000E7FBE70000E7FBE7E7E700E7E7E7FFFFE7E700000000FE000000FBFEFBFBFBFBE7FBE7FBFBE7FBE7E7E7FBE7E7E7FFFAE7FAE7FBFBFBFEFB000000FE00000000E7FBE70000E700E7E7E700E7E7E7FFE7E7E7E7E7E7E7E700000000FE00000000E7FBE700
1004
00E700E7E7E700E7E7E7FFFFE7E700000000FE00000000FEFEFEFEFEFEFEFEFEFEFEFEFEFEFEFEE7E7E7FFFFFEE7FEFEFEFEFE000000000000000000000000000000000000FEFEE7FEFE0000FE000000000000000000000000000000000000000000000000FEFEFEFEFE000000000000000000000000000000000000000000
1004
00000000000000000000000000000000000000000000000000000000000000000000000000000000000000000000000000000000000000000000000000000000000000000000000000000000000000000000000000000000000000000000000000000000000000000000000000000000000000000000000000000000000000
1004
00000000000000000000000000000000000000000000000000000000000000000000000000000000000000000000000000000000000000000000000000000000000000000000000000000000000000000000000000000000000000000000000000000000000000000000000000000000000000000000000000000000000000
1004
0000000000000000000000000000000000000000000000000000000000000000000000000000000000000000000000000000000000000000
  0
BLOCK_RECORD
  5
1279
330
1
100
AcDbSymbolTableRecord
100
AcDbBlockTableRecord
  2
*D10
  0
BLOCK_RECORD
  5
1285
330
1
100
AcDbSymbolTableRecord
100
AcDbBlockTableRecord
  2
*D11
  0
BLOCK_RECORD
  5
1291
330
1
100
AcDbSymbolTableRecord
100
AcDbBlockTableRecord
  2
*D12
  0
ENDTAB
  0
ENDSEC
  0
SECTION
  2
BLOCKS
  0
BLOCK
  5
1B
330
1A
100
AcDbEntity
  8
0
100
AcDbBlockBegin
  2
*MODEL_SPACE
 70
     0
 10
0.0
 20
0.0
 30
0.0
  3
*MODEL_SPACE
  1

  0
ENDBLK
  5
1C
330
1A
100
AcDbEntity
  8
0
100
AcDbBlockEnd
  0
BLOCK
  5
18
330
17
100
AcDbEntity
 67
     1
  8
0
100
AcDbBlockBegin
  2
*PAPER_SPACE
 70
     0
 10
0.0
 20
0.0
 30
0.0
  3
*PAPER_SPACE
  1

  0
ENDBLK
  5
19
330
17
100
AcDbEntity
 67
     1
  8
0
100
AcDbBlockEnd
  0
BLOCK
  5
598
330
594
100
AcDbEntity
  8
0
100
AcDbBlockBegin
  2
_OPEN
 70
     0
 10
0.0
 20
0.0
 30
0.0
  3
_OPEN
  1

  0
LINE
  5
595
330
594
100
AcDbEntity
  8
0
  6
BYBLOCK
 62
     0
100
AcDbLine
 10
-1.0
 20
0.16666667
 30
0.0
 11
0.0
 21
0.0
 31
0.0
  0
LINE
  5
596
330
594
100
AcDbEntity
  8
0
  6
BYBLOCK
 62
     0
100
AcDbLine
 10
-1.0
 20
-0.16666667
 30
0.0
 11
0.0
 21
0.0
 31
0.0
  0
LINE
  5
597
330
594
100
AcDbEntity
  8
0
  6
BYBLOCK
 62
     0
100
AcDbLine
 10
0.0
 20
0.0
 30
0.0
 11
-1.0
 21
0.0
 31
0.0
  0
ENDBLK
  5
599
330
594
100
AcDbEntity
  8
0
100
AcDbBlockEnd
  0
BLOCK
  5
6E4
330
6E3
100
AcDbEntity
  8
0
100
AcDbBlockBegin
  2
矢印なし
 70
     0
 10
0.0
 20
0.0
 30
0.0
  3
矢印なし
  1

  0
ENDBLK
  5
6E5
330
6E3
100
AcDbEntity
  8
0
100
AcDbBlockEnd
  0
BLOCK
  5
89F
330
762
100
AcDbEntity
  8
0
100
AcDbBlockBegin
  2
1
 70
     0
 10
0.0
 20
0.0
 30
0.0
  3
1
  1

  0
LINE
  5
12DA
330
762
100
AcDbEntity
  8
240
100
AcDbLine
 10
13.25980762
 20
15.0
 30
0.0
 11
34.0
 21
15.0
 31
0.0
  0
LINE
  5
12DB
330
762
100
AcDbEntity
  8
241
  6
HIDDEN2
100
AcDbLine
 10
20.0
 20
4.25
 30
0.0
 11
34.5
 21
4.25
 31
0.0
  0
LINE
  5
12DC
330
762
100
AcDbEntity
  8
240
100
AcDbLine
 10
13.25980762
 20
-15.0
 30
0.0
 11
34.0
 21
-15.0
 31
0.0
  0
LINE
  5
12DD
330
762
100
AcDbEntity
  8
245
100
AcDbLine
 10
-70.0
 20
0.0
 30
0.0
 11
36.0
 21
0.0
 31
0.0
  0
LINE
  5
12DE
330
762
100
AcDbEntity
  8
240
100
AcDbLine
 10
-54.0
 20
-12.5
 30
0.0
 11
-56.5
 21
-15.0
 31
0.0
  0
LINE
  5
12DF
330
762
100
AcDbEntity
  8
240
100
AcDbLine
 10
-54.0
 20
12.5
 30
0.0
 11
-56.5
 21
15.0
 31
0.0
  0
LINE
  5
12E0
330
762
100
AcDbEntity
  8
240
100
AcDbLine
 10
-69.0
 20
-14.0
 30
0.0
 11
-69.0
 21
0.0
 31
0.0
  0
LINE
  5
12E1
330
762
100
AcDbEntity
  8
240
100
AcDbLine
 10
-68.0
 20
-15.0
 30
0.0
 11
-56.5
 21
-15.0
 31
0.0
  0
ARC
  5
12E2
330
762
100
AcDbEntity
  8
240
100
AcDbCircle
 10
-68.0
 20
-14.0
 30
0.0
 40
1.0
100
AcDbArc
 50
180.0
 51
270.0
  0
ARC
  5
12E3
330
762
100
AcDbEntity
  8
240
100
AcDbCircle
 10
-68.0
 20
14.0
 30
0.0
 40
1.0
100
AcDbArc
 50
90.0
 51
180.0
  0
LINE
  5
12E4
330
762
100
AcDbEntity
  8
240
100
AcDbLine
 10
-69.0
 20
14.0
 30
0.0
 11
-69.0
 21
0.0
 31
0.0
  0
LINE
  5
12E5
330
762
100
AcDbEntity
  8
240
100
AcDbLine
 10
-68.0
 20
15.0
 30
0.0
 11
-56.5
 21
15.0
 31
0.0
  0
ARC
  5
12E6
330
762
100
AcDbEntity
  8
0
100
AcDbCircle
 10
5.52198989
 20
-9.87761677
 30
0.0
 40
0.7214456176757898
100
AcDbArc
 50
0.0
 51
194.1274365
  0
ARC
  5
12E7
330
762
100
AcDbEntity
  8
0
100
AcDbCircle
 10
5.52198989
 20
-9.87761677
 30
0.0
 40
0.8911990356445432
100
AcDbArc
 50
0.0
 51
194.77079397
  0
LINE
  5
12E8
330
762
100
AcDbEntity
  8
0
100
AcDbLine
 10
4.81448201
 20
-9.73649138
 30
0.0
 11
4.67584165
 21
-9.59785102
 31
0.0
  0
LINE
  5
12E9
330
762
100
AcDbEntity
  8
0
100
AcDbLine
 10
6.41163184
 20
-9.82495818
 30
0.0
 11
6.18874004
 21
-9.60206639
 31
0.0
  0
LINE
  5
12EA
330
762
100
AcDbEntity
  8
241
100
AcDbLine
 10
10.0
 20
-11.7
 30
0.0
 11
10.0
 21
0.0
 31
0.0
  0
LINE
  5
12EB
330
762
100
AcDbEntity
  8
241
100
AcDbLine
 10
14.2
 20
-15.0
 30
0.0
 11
14.2
 21
0.0
 31
0.0
  0
LINE
  5
12EC
330
762
100
AcDbEntity
  8
241
100
AcDbLine
 10
13.0
 20
-15.15
 30
0.0
 11
13.0
 21
0.0
 31
0.0
  0
LINE
  5
12ED
330
762
100
AcDbEntity
  8
241
100
AcDbLine
 10
11.0
 20
-11.7
 30
0.0
 11
11.0
 21
0.0
 31
0.0
  0
LINE
  5
12EE
330
762
100
AcDbEntity
  8
245
100
AcDbLine
 10
-46.0
 20
-15.0
 30
0.0
 11
-46.0
 21
15.0
 31
0.0
1001
GENIUS_GENOREF_13
1005
0
  0
LINE
  5
12EF
330
762
100
AcDbEntity
  8
243
100
AcDbLine
 10
-50.0
 20
-12.5
 30
0.0
 11
-50.0
 21
12.5
 31
0.0
1001
GENIUS_GENOREF_13
1005
0
  0
LINE
  5
12F0
330
762
100
AcDbEntity
  8
243
100
AcDbLine
 10
-42.0
 20
-12.5
 30
0.0
 11
-42.0
 21
12.5
 31
0.0
1001
GENIUS_GENOREF_13
1005
0
  0
LINE
  5
12F1
330
762
100
AcDbEntity
  8
241
100
AcDbLine
 10
-32.0
 20
-13.75
 30
0.0
 11
-32.0
 21
0.0
 31
0.0
  0
LINE
  5
12F2
330
762
100
AcDbEntity
  8
241
100
AcDbLine
 10
-29.5
 20
-13.75
 30
0.0
 11
-29.5
 21
0.0
 31
0.0
  0
LINE
  5
12F3
330
762
100
AcDbEntity
  8
241
100
AcDbLine
 10
-21.5
 20
-13.75
 30
0.0
 11
-21.5
 21
0.0
 31
0.0
  0
LINE
  5
12F4
330
762
100
AcDbEntity
  8
241
100
AcDbLine
 10
-19.0
 20
-13.75
 30
0.0
 11
-19.0
 21
0.0
 31
0.0
  0
LINE
  5
12F5
330
762
100
AcDbEntity
  8
241
100
AcDbLine
 10
-14.5
 20
-15.0
 30
0.0
 11
-14.5
 21
0.0
 31
0.0
  0
LINE
  5
12F6
330
762
100
AcDbEntity
  8
241
100
AcDbLine
 10
-4.5
 20
-18.25
 30
0.0
 11
-4.5
 21
0.0
 31
0.0
  0
LINE
  5
12F7
330
762
100
AcDbEntity
  8
241
100
AcDbLine
 10
-2.0
 20
-18.25
 30
0.0
 11
-2.0
 21
0.0
 31
0.0
  0
LINE
  5
12F8
330
762
100
AcDbEntity
  8
241
100
AcDbLine
 10
0.0
 20
-19.14125603
 30
0.0
 11
0.0
 21
0.0
 31
0.0
  0
LINE
  5
12F9
330
762
100
AcDbEntity
  8
241
  6
CONTINUOUS
100
AcDbLine
 10
-7.5
 20
-19.00000001
 30
0.0
 11
-7.5
 21
0.0
 31
0.0
  0
LINE
  5
12FA
330
762
100
AcDbEntity
  8
241
100
AcDbLine
 10
-6.12626129
 20
-19.5
 30
0.0
 11
-6.12626129
 21
0.0
 31
0.0
  0
LINE
  5
12FB
330
762
100
AcDbEntity
  8
241
100
AcDbLine
 10
1.20577137
 20
-15.35874397
 30
0.0
 11
1.20577137
 21
0.0
 31
0.0
  0
LINE
  5
12FC
330
762
100
AcDbEntity
  8
240
100
AcDbLine
 10
-19.0
 20
-15.0
 30
0.0
 11
-14.5
 21
-15.0
 31
0.0
  0
LINE
  5
12FD
330
762
100
AcDbEntity
  8
240
100
AcDbLine
 10
-38.0
 20
-12.5
 30
0.0
 11
-35.5
 21
-15.0
 31
0.0
  0
LINE
  5
12FE
330
762
100
AcDbEntity
  8
240
100
AcDbLine
 10
-46.0
 20
-12.5
 30
0.0
 11
-38.0
 21
-12.5
 31
0.0
  0
LINE
  5
12FF
330
762
100
AcDbEntity
  8
240
100
AcDbLine
 10
-54.0
 20
-12.5
 30
0.0
 11
-46.0
 21
-12.5
 31
0.0
  0
LINE
  5
1300
330
762
100
AcDbEntity
  8
240
100
AcDbLine
 10
-29.5
 20
-15.0
 30
0.0
 11
-21.5
 21
-15.0
 31
0.0
  0
ARC
  5
1301
330
762
100
AcDbEntity
  8
240
100
AcDbCircle
 10
-30.75
 20
-13.75
 30
0.0
 40
1.24999999999827
100
AcDbArc
 50
180.0
 51
0.0
  0
LINE
  5
1302
330
762
100
AcDbEntity
  8
240
100
AcDbLine
 10
-32.0
 20
-13.75
 30
0.0
 11
-32.0
 21
-15.0
 31
0.0
  0
LINE
  5
1303
330
762
100
AcDbEntity
  8
240
100
AcDbLine
 10
-35.5
 20
-15.0
 30
0.0
 11
-32.0
 21
-15.0
 31
0.0
  0
LINE
  5
1304
330
762
100
AcDbEntity
  8
240
100
AcDbLine
 10
-29.5
 20
-13.75
 30
0.0
 11
-29.5
 21
-15.0
 31
0.0
  0
ARC
  5
1305
330
762
100
AcDbEntity
  8
240
100
AcDbCircle
 10
-20.25
 20
-13.75
 30
0.0
 40
1.249999999998089
100
AcDbArc
 50
180.0
 51
0.0
  0
LINE
  5
1306
330
762
100
AcDbEntity
  8
240
100
AcDbLine
 10
-21.5
 20
-13.75
 30
0.0
 11
-21.5
 21
-15.0
 31
0.0
  0
LINE
  5
1307
330
762
100
AcDbEntity
  8
240
100
AcDbLine
 10
-19.0
 20
-13.75
 30
0.0
 11
-19.0
 21
-15.0
 31
0.0
  0
LINE
  5
1308
330
762
100
AcDbEntity
  8
240
100
AcDbLine
 10
10.0
 20
-15.0
 30
0.0
 11
1.97309836
 21
-15.0
 31
0.0
  0
LINE
  5
1309
330
762
100
AcDbEntity
  8
240
100
AcDbLine
 10
-7.5
 20
-19.00000001
 30
0.0
 11
-6.12626128
 21
-19.5
 31
0.0
  0
LINE
  5
130A
330
762
100
AcDbEntity
  8
240
100
AcDbLine
 10
-13.0
 20
-15.5
 30
0.0
 11
-13.5
 21
-16.0
 31
0.0
  0
LINE
  5
130B
330
762
100
AcDbEntity
  8
240
100
AcDbLine
 10
-7.50000001
 20
-19.0
 30
0.0
 11
-13.5
 21
-19.0
 31
0.0
  0
LINE
  5
130C
330
762
100
AcDbEntity
  8
240
100
AcDbLine
 10
-13.5
 20
-19.0
 30
0.0
 11
-13.5
 21
-16.0
 31
0.0
  0
LINE
  5
130D
330
762
100
AcDbEntity
  8
241
  6
CONTINUOUS
100
AcDbLine
 10
-7.5
 20
-15.2
 30
0.0
 11
-13.0
 21
-15.2
 31
0.0
  0
LINE
  5
130E
330
762
100
AcDbEntity
  8
240
100
AcDbLine
 10
-14.2
 20
-14.7
 30
0.0
 11
-14.5
 21
-15.0
 31
0.0
  0
LINE
  5
130F
330
762
100
AcDbEntity
  8
240
100
AcDbLine
 10
-14.2
 20
-14.7
 30
0.0
 11
-13.0
 21
-14.7
 31
0.0
  0
LINE
  5
1310
330
762
100
AcDbEntity
  8
240
100
AcDbLine
 10
-13.0
 20
-15.5
 30
0.0
 11
-13.0
 21
-14.7
 31
0.0
  0
LINE
  5
1311
330
762
100
AcDbEntity
  8
240
100
AcDbLine
 10
0.19859884
 20
-18.75881905
 30
0.0
 11
1.00717253
 21
-15.74118096
 31
0.0
  0
ARC
  5
1312
330
762
100
AcDbEntity
  8
240
100
AcDbCircle
 10
-3.25
 20
-18.25
 30
0.0
 40
1.250000000000339
100
AcDbArc
 50
180.0
 51
0.0
  0
LINE
  5
1313
330
762
100
AcDbEntity
  8
240
100
AcDbLine
 10
-4.5
 20
-18.25
 30
0.0
 11
-4.5
 21
-19.5
 31
0.0
  0
LINE
  5
1314
330
762
100
AcDbEntity
  8
240
100
AcDbLine
 10
-4.5
 20
-19.5
 30
0.0
 11
-6.12626129
 21
-19.5
 31
0.0
  0
LINE
  5
1315
330
762
100
AcDbEntity
  8
240
100
AcDbLine
 10
-0.50850794
 20
-19.46592583
 30
0.0
 11
-0.63567449
 21
-19.5
 31
0.0
  0
ARC
  5
1316
330
762
100
AcDbEntity
  8
240
100
AcDbCircle
 10
-0.76732699
 20
-18.5
 30
0.0
 40
1.0
100
AcDbArc
 50
285.0
 51
345.0
1001
GENIUS_GENOBJ-N-FIL_13
1002
{
1000
OWNER
1000
GEN
1002
}
1001
GENIUS_GENODEF_13
1002
{
1000
HIER
1070
     0
1002
}
1002
{
1000
MANEDIT
1070
     0
1002
}
1002
{
1000
NOSEL
1070
     0
1002
}
1002
{
1000
BEHIND
1070
     0
1002
}
1002
{
1000
OTHER
1070
     0
1002
}
1002
{
1000
REACTOR
1002
}
  0
LINE
  5
1317
330
762
100
AcDbEntity
  8
240
100
AcDbLine
 10
-2.0
 20
-18.25
 30
0.0
 11
-2.0
 21
-19.5
 31
0.0
  0
LINE
  5
1318
330
762
100
AcDbEntity
  8
240
100
AcDbLine
 10
-0.63567449
 20
-19.5
 30
0.0
 11
-2.0
 21
-19.5
 31
0.0
  0
ARC
  5
1319
330
762
100
AcDbEntity
  8
240
100
AcDbCircle
 10
1.97309836
 20
-16.0
 30
0.0
 40
1.0
100
AcDbArc
 50
90.0
 51
165.00000002
  0
LINE
  5
131A
330
762
100
AcDbEntity
  8
240
100
AcDbLine
 10
11.0
 20
-15.15
 30
0.0
 11
13.0
 21
-15.15
 31
0.0
  0
LINE
  5
131B
330
762
100
AcDbEntity
  8
0
100
AcDbLine
 10
6.41318912
 20
-12.08954001
 30
0.0
 11
6.2434357
 21
-11.91978659
 31
0.0
  0
LINE
  5
131C
330
762
100
AcDbEntity
  8
0
100
AcDbLine
 10
6.41318912
 20
-13.32358937
 30
0.0
 11
6.41318912
 21
-9.87761677
 31
0.0
  0
LINE
  5
131D
330
762
100
AcDbEntity
  8
0
100
AcDbLine
 10
6.2434357
 20
-13.32358937
 30
0.0
 11
6.2434357
 21
-9.87761677
 31
0.0
  0
LINE
  5
131E
330
762
100
AcDbEntity
  8
0
100
AcDbLine
 10
6.26038786
 20
-13.82259253
 30
0.0
 11
6.13758488
 21
-13.69978956
 31
0.0
  0
LINE
  5
131F
330
762
100
AcDbEntity
  8
0
100
AcDbLine
 10
6.32870766
 20
-13.70232696
 30
0.0
 11
6.19906759
 21
-13.57268688
 31
0.0
  0
LINE
  5
1320
330
762
100
AcDbEntity
  8
0
100
AcDbLine
 10
6.37989034
 20
-13.56492426
 30
0.0
 11
6.23672515
 21
-13.42175907
 31
0.0
  0
LINE
  5
1321
330
762
100
AcDbEntity
  8
0
100
AcDbLine
 10
6.40938579
 20
-13.40583433
 30
0.0
 11
6.2434357
 21
-13.23988425
 31
0.0
  0
LINE
  5
1322
330
762
100
AcDbEntity
  8
0
100
AcDbLine
 10
6.41318912
 20
-13.22105228
 30
0.0
 11
6.2434357
 21
-13.05129887
 31
0.0
  0
LINE
  5
1323
330
762
100
AcDbEntity
  8
0
100
AcDbLine
 10
6.41318912
 20
-13.0324669
 30
0.0
 11
6.2434357
 21
-12.86271349
 31
0.0
  0
LINE
  5
1324
330
762
100
AcDbEntity
  8
0
100
AcDbLine
 10
6.41318912
 20
-12.84388153
 30
0.0
 11
6.2434357
 21
-12.67412811
 31
0.0
  0
LINE
  5
1325
330
762
100
AcDbEntity
  8
0
100
AcDbLine
 10
6.41318912
 20
-12.65529614
 30
0.0
 11
6.2434357
 21
-12.48554273
 31
0.0
  0
LINE
  5
1326
330
762
100
AcDbEntity
  8
0
100
AcDbLine
 10
6.41318912
 20
-12.46671077
 30
0.0
 11
6.2434357
 21
-12.29695735
 31
0.0
  0
LINE
  5
1327
330
762
100
AcDbEntity
  8
0
100
AcDbLine
 10
6.41318912
 20
-12.27812539
 30
0.0
 11
6.2434357
 21
-12.10837198
 31
0.0
  0
LINE
  5
1328
330
762
100
AcDbEntity
  8
0
100
AcDbLine
 10
6.158559
 20
-13.23451496
 30
0.0
 11
6.158559
 21
-12.5300716
 31
0.0
  0
LINE
  5
1329
330
762
100
AcDbEntity
  8
0
100
AcDbLine
 10
6.41318912
 20
-11.90095463
 30
0.0
 11
6.2434357
 21
-11.73120122
 31
0.0
  0
LINE
  5
132A
330
762
100
AcDbEntity
  8
0
100
AcDbLine
 10
6.41318912
 20
-11.71236925
 30
0.0
 11
6.2434357
 21
-11.54261584
 31
0.0
  0
LINE
  5
132B
330
762
100
AcDbEntity
  8
0
100
AcDbLine
 10
6.41318912
 20
-11.52378388
 30
0.0
 11
6.2434357
 21
-11.35403046
 31
0.0
  0
LINE
  5
132C
330
762
100
AcDbEntity
  8
0
100
AcDbLine
 10
6.41318912
 20
-11.3351985
 30
0.0
 11
6.2434357
 21
-11.16544508
 31
0.0
  0
LINE
  5
132D
330
762
100
AcDbEntity
  8
0
100
AcDbLine
 10
6.41318912
 20
-11.14661312
 30
0.0
 11
6.2434357
 21
-10.9768597
 31
0.0
  0
LINE
  5
132E
330
762
100
AcDbEntity
  8
0
100
AcDbLine
 10
6.41318912
 20
-10.95802774
 30
0.0
 11
6.2434357
 21
-10.78827433
 31
0.0
  0
LINE
  5
132F
330
762
100
AcDbEntity
  8
0
100
AcDbLine
 10
6.41318912
 20
-10.76944236
 30
0.0
 11
6.2434357
 21
-10.59968895
 31
0.0
  0
LINE
  5
1330
330
762
100
AcDbEntity
  8
0
100
AcDbLine
 10
6.41318912
 20
-10.58085698
 30
0.0
 11
6.2434357
 21
-10.41110357
 31
0.0
  0
LINE
  5
1331
330
762
100
AcDbEntity
  8
0
100
AcDbLine
 10
6.41318912
 20
-10.3922716
 30
0.0
 11
6.2434357
 21
-10.22251819
 31
0.0
  0
LINE
  5
1332
330
762
100
AcDbEntity
  8
0
100
AcDbLine
 10
6.41318912
 20
-10.20368623
 30
0.0
 11
6.2434357
 21
-10.03393281
 31
0.0
  0
LINE
  5
1333
330
762
100
AcDbEntity
  8
0
100
AcDbLine
 10
6.41318912
 20
-10.01510085
 30
0.0
 11
6.24267919
 21
-9.84459092
 31
0.0
  0
LINE
  5
1334
330
762
100
AcDbEntity
  8
0
100
AcDbLine
 10
6.158559
 20
-11.64632451
 30
0.0
 11
6.14457108
 21
-11.63233659
 31
0.0
  0
LINE
  5
1335
330
762
100
AcDbEntity
  8
0
100
AcDbLine
 10
6.158559
 20
-12.01602406
 30
0.0
 11
6.158559
 21
-11.63634754
 31
0.0
  0
LINE
  5
1336
330
762
100
AcDbEntity
  8
0
100
AcDbLine
 10
6.158559
 20
-12.01602406
 30
0.0
 11
6.158559
 21
-11.63634754
 31
0.0
1001
HATCH_DISTANCE
1040
1.0
1001
HATCH_DISPLAY
1070
     0
1001
HATCH_TYPE
1070
     7
  0
LINE
  5
1337
330
762
100
AcDbEntity
  8
0
100
AcDbLine
 10
6.158559
 20
-12.01602406
 30
0.0
 11
6.158559
 21
-11.63634754
 31
0.0
  0
LINE
  5
1338
330
762
100
AcDbEntity
  8
0
100
AcDbLine
 10
5.30588868
 20
-14.188191
 30
0.0
 11
4.65738825
 21
-13.53969058
 31
0.0
  0
LINE
  5
1339
330
762
100
AcDbEntity
  8
0
100
AcDbLine
 10
6.0794982
 20
-14.01887363
 30
0.0
 11
5.95856836
 21
-13.8979438
 31
0.0
  0
LINE
  5
133A
330
762
100
AcDbEntity
  8
0
100
AcDbLine
 10
5.52107098
 20
-14.21478793
 30
0.0
 11
5.32346599
 21
-14.01718294
 31
0.0
  0
LINE
  5
133B
330
762
100
AcDbEntity
  8
0
100
AcDbLine
 10
5.69307995
 20
-14.19821152
 30
0.0
 11
5.53968634
 21
-14.04481791
 31
0.0
  0
LINE
  5
133C
330
762
100
AcDbEntity
  8
0
100
AcDbLine
 10
5.83969071
 20
-14.1562369
 30
0.0
 11
5.70491336
 21
-14.02145954
 31
0.0
  0
LINE
  5
133D
330
762
100
AcDbEntity
  8
0
100
AcDbLine
 10
5.96748806
 20
-14.09544887
 30
0.0
 11
5.8421455
 21
-13.97010631
 31
0.0
  0
LINE
  5
133E
330
762
100
AcDbEntity
  8
0
100
AcDbLine
 10
5.54007822
 20
-12.53652676
 30
0.0
 11
4.93261923
 21
-11.92906777
 31
0.0
  0
LINE
  5
133F
330
762
100
AcDbEntity
  8
0
100
AcDbLine
 10
5.09053172
 20
-12.27556564
 30
0.0
 11
4.80646576
 21
-11.99149968
 31
0.0
  0
ARC
  5
1340
330
762
100
AcDbEntity
  8
0
100
AcDbCircle
 10
5.05516799
 20
-12.33536915
 30
0.0
 40
0.4243807411193908
100
AcDbArc
 50
17.66957755
 51
180.23615984
  0
ARC
  5
1341
330
762
100
AcDbEntity
  8
0
100
AcDbCircle
 10
5.03819777
 20
-12.52475239
 30
0.0
 40
0.2546230173110999
100
AcDbArc
 50
351.66260169
 51
156.3381551
  0
LINE
  5
1342
330
762
100
AcDbEntity
  8
0
100
AcDbLine
 10
5.47682638
 20
-13.03903106
 30
0.0
 11
4.88261893
 21
-12.4448236
 31
0.0
  0
LINE
  5
1343
330
762
100
AcDbEntity
  8
0
100
AcDbLine
 10
5.21242505
 20
-12.96321511
 30
0.0
 11
4.63079085
 21
-12.38158091
 31
0.0
  0
LINE
  5
1344
330
762
100
AcDbEntity
  8
0
100
AcDbLine
 10
4.8049812
 20
-12.42256184
 30
0.0
 11
5.29012983
 21
-12.56167286
 31
0.0
  0
LINE
  5
1345
330
762
100
AcDbEntity
  8
0
100
AcDbLine
 10
5.09047671
 20
-11.7097545
 30
0.0
 11
4.63079085
 21
-11.25006863
 31
0.0
  0
LINE
  5
1346
330
762
100
AcDbEntity
  8
0
100
AcDbLine
 10
5.35487857
 20
-11.78557097
 30
0.0
 11
4.82256693
 21
-11.25325934
 31
0.0
  0
LINE
  5
1347
330
762
100
AcDbEntity
  8
0
100
AcDbLine
 10
5.16252198
 20
-11.21604363
 30
0.0
 11
4.63349718
 21
-10.68701882
 31
0.0
  0
LINE
  5
1348
330
762
100
AcDbEntity
  8
0
100
AcDbLine
 10
5.41371635
 20
-11.27865262
 30
0.0
 11
4.64464274
 21
-10.50957901
 31
0.0
  0
LINE
  5
1349
330
762
100
AcDbEntity
  8
0
100
AcDbLine
 10
5.7444612
 20
-10.94368336
 30
0.0
 11
4.94662398
 21
-10.71490589
 31
0.0
  0
ARC
  5
134A
330
762
100
AcDbEntity
  8
0
100
AcDbCircle
 10
5.52198989
 20
-9.87761677
 30
0.0
 40
0.7214476203918543
100
AcDbArc
 50
200.8721834
 51
222.54194894
  0
ARC
  5
134B
330
762
100
AcDbEntity
  8
0
100
AcDbCircle
 10
4.99575942
 20
-10.54356953
 30
0.0
 40
0.1782410037517573
100
AcDbArc
 50
91.71012138
 51
253.99839835
  0
ARC
  5
134C
330
762
100
AcDbEntity
  8
0
100
AcDbCircle
 10
5.18248305
 20
-10.63243245
 30
0.0
 40
0.5516930007934647
100
AcDbArc
 50
143.4440122
 51
254.00018439
  0
LINE
  5
134D
330
762
100
AcDbEntity
  8
0
100
AcDbLine
 10
4.92370391
 20
-12.29732321
 30
0.0
 11
4.71203394
 21
-12.08565324
 31
0.0
  0
LINE
  5
134E
330
762
100
AcDbEntity
  8
0
100
AcDbLine
 10
4.82839632
 20
-13.52211327
 30
0.0
 11
4.63079133
 21
-13.32450827
 31
0.0
  0
LINE
  5
134F
330
762
100
AcDbEntity
  8
0
100
AcDbLine
 10
4.80054427
 20
-13.30567584
 30
0.0
 11
4.63079085
 21
-13.13592242
 31
0.0
  0
LINE
  5
1350
330
762
100
AcDbEntity
  8
0
100
AcDbLine
 10
4.80054427
 20
-13.11709046
 30
0.0
 11
4.66680895
 21
-12.98335514
 31
0.0
  0
LINE
  5
1351
330
762
100
AcDbEntity
  8
0
100
AcDbLine
 10
4.63079085
 20
-12.884735
 30
0.0
 11
4.63079085
 21
-12.33711835
 31
0.0
  0
LINE
  5
1352
330
762
100
AcDbEntity
  8
0
100
AcDbLine
 10
4.80054427
 20
-12.92850508
 30
0.0
 11
4.63079085
 21
-12.75875166
 31
0.0
  0
LINE
  5
1353
330
762
100
AcDbEntity
  8
0
100
AcDbLine
 10
4.94802373
 20
-12.88739916
 30
0.0
 11
4.63079085
 21
-12.57016629
 31
0.0
  0
LINE
  5
1354
330
762
100
AcDbEntity
  8
0
100
AcDbLine
 10
4.63079085
 20
-12.884735
 30
0.0
 11
4.80054427
 21
-12.93340901
 31
0.0
  0
LINE
  5
1355
330
762
100
AcDbEntity
  8
0
100
AcDbLine
 10
4.80054427
 20
-12.93340901
 30
0.0
 11
4.80054427
 21
-12.84511006
 31
0.0
  0
LINE
  5
1356
330
762
100
AcDbEntity
  8
0
100
AcDbLine
 10
4.63079085
 20
-13.32358937
 30
0.0
 11
4.63079085
 21
-12.97302754
 31
0.0
  0
LINE
  5
1357
330
762
100
AcDbEntity
  8
0
100
AcDbLine
 10
4.80054427
 20
-13.32358937
 30
0.0
 11
4.80054427
 21
-13.02170155
 31
0.0
  0
LINE
  5
1358
330
762
100
AcDbEntity
  8
0
100
AcDbLine
 10
4.63079085
 20
-12.97302754
 30
0.0
 11
4.80054427
 21
-13.02170155
 31
0.0
  0
LINE
  5
1359
330
762
100
AcDbEntity
  8
0
100
AcDbLine
 10
4.82434517
 20
-12.38654984
 30
0.0
 11
4.64927378
 21
-12.21147845
 31
0.0
  0
LINE
  5
135A
330
762
100
AcDbEntity
  8
0
100
AcDbLine
 10
4.77078988
 20
-10.06997002
 30
0.0
 11
4.63242782
 21
-9.93160795
 31
0.0
  0
LINE
  5
135B
330
762
100
AcDbEntity
  8
0
100
AcDbLine
 10
4.80136201
 20
-9.91195676
 30
0.0
 11
4.6399034
 21
-9.75049815
 31
0.0
  0
LINE
  5
135C
330
762
100
AcDbEntity
  8
0
100
AcDbLine
 10
4.64833214
 20
-11.64478067
 30
0.0
 11
4.63079085
 21
-11.62723939
 31
0.0
  0
LINE
  5
135D
330
762
100
AcDbEntity
  8
0
100
AcDbLine
 10
4.82607485
 20
-11.63393801
 30
0.0
 11
4.63079085
 21
-11.43865402
 31
0.0
  0
LINE
  5
135E
330
762
100
AcDbEntity
  8
0
100
AcDbLine
 10
4.63079085
 20
-11.19826863
 30
0.0
 11
4.63079085
 21
-11.63975056
 31
0.0
  0
LINE
  5
135F
330
762
100
AcDbEntity
  8
0
100
AcDbLine
 10
4.81751449
 20
-11.69329518
 30
0.0
 11
4.81751449
 21
-11.63148335
 31
0.0
  0
LINE
  5
1360
330
762
100
AcDbEntity
  8
0
100
AcDbLine
 10
4.63079085
 20
-11.63975056
 30
0.0
 11
4.81751449
 21
-11.69329518
 31
0.0
  0
LINE
  5
1361
330
762
100
AcDbEntity
  8
0
100
AcDbLine
 10
4.63079085
 20
-11.19826863
 30
0.0
 11
4.63079085
 21
-11.63975056
 31
0.0
1001
HATCH_DISTANCE
1040
1.0
1001
HATCH_DISPLAY
1070
     0
1001
HATCH_TYPE
1070
     7
  0
LINE
  5
1362
330
762
100
AcDbEntity
  8
0
100
AcDbLine
 10
4.81751449
 20
-11.69329518
 30
0.0
 11
4.81751449
 21
-11.63148335
 31
0.0
1001
HATCH_DISTANCE
1040
1.0
1001
HATCH_DISPLAY
1070
     0
1001
HATCH_TYPE
1070
     7
  0
LINE
  5
1363
330
762
100
AcDbEntity
  8
0
100
AcDbLine
 10
4.63079085
 20
-11.63975056
 30
0.0
 11
4.81751449
 21
-11.69329518
 31
0.0
1001
HATCH_DISTANCE
1040
1.0
1001
HATCH_DISPLAY
1070
     0
1001
HATCH_TYPE
1070
     7
  0
LINE
  5
1364
330
762
100
AcDbEntity
  8
0
100
AcDbLine
 10
4.82235945
 20
-10.05370838
 30
0.0
 11
4.82235945
 21
-10.05370838
 31
0.0
  0
LINE
  5
1365
330
762
100
AcDbEntity
  8
0
100
AcDbLine
 10
4.66023879
 20
-10.10483051
 30
0.0
 11
4.82235945
 21
-10.05370838
 31
0.0
  0
LINE
  5
1366
330
762
100
AcDbEntity
  8
0
100
AcDbLine
 10
4.66023879
 20
-10.10483051
 30
0.0
 11
4.66023879
 21
-10.10483051
 31
0.0
  0
LINE
  5
1367
330
762
100
AcDbEntity
  8
0
100
AcDbLine
 10
4.82235945
 20
-10.05370838
 30
0.0
 11
4.66023879
 21
-10.10483051
 31
0.0
  0
LINE
  5
1368
330
762
100
AcDbEntity
  8
0
100
AcDbLine
 10
4.82235945
 20
-10.05370838
 30
0.0
 11
4.82235945
 21
-10.05370838
 31
0.0
1001
HATCH_DISTANCE
1040
1.0
1001
HATCH_DISPLAY
1070
     0
1001
HATCH_TYPE
1070
     7
  0
LINE
  5
1369
330
762
100
AcDbEntity
  8
0
100
AcDbLine
 10
4.66023879
 20
-10.10483051
 30
0.0
 11
4.82235945
 21
-10.05370838
 31
0.0
1001
HATCH_DISTANCE
1040
1.0
1001
HATCH_DISPLAY
1070
     0
1001
HATCH_TYPE
1070
     7
  0
LINE
  5
136A
330
762
100
AcDbEntity
  8
0
100
AcDbLine
 10
4.66023879
 20
-10.10483051
 30
0.0
 11
4.66023879
 21
-10.10483051
 31
0.0
1001
HATCH_DISTANCE
1040
1.0
1001
HATCH_DISPLAY
1070
     0
1001
HATCH_TYPE
1070
     7
  0
LINE
  5
136B
330
762
100
AcDbEntity
  8
0
100
AcDbLine
 10
4.82235945
 20
-10.05370838
 30
0.0
 11
4.66023879
 21
-10.10483051
 31
0.0
1001
HATCH_DISTANCE
1040
1.0
1001
HATCH_DISPLAY
1070
     0
1001
HATCH_TYPE
1070
     7
  0
LINE
  5
136C
330
762
100
AcDbEntity
  8
0
100
AcDbLine
 10
4.82235945
 20
-10.05370838
 30
0.0
 11
4.82235945
 21
-10.05370838
 31
0.0
  0
LINE
  5
136D
330
762
100
AcDbEntity
  8
0
100
AcDbLine
 10
4.66023879
 20
-10.10483051
 30
0.0
 11
4.82235945
 21
-10.05370838
 31
0.0
  0
LINE
  5
136E
330
762
100
AcDbEntity
  8
0
100
AcDbLine
 10
4.66023879
 20
-10.10483051
 30
0.0
 11
4.66023879
 21
-10.10483051
 31
0.0
  0
LINE
  5
136F
330
762
100
AcDbEntity
  8
0
100
AcDbLine
 10
4.82235945
 20
-10.05370838
 30
0.0
 11
4.66023879
 21
-10.10483051
 31
0.0
  0
LINE
  5
1370
330
762
100
AcDbEntity
  8
0
100
AcDbLine
 10
4.82235945
 20
-10.05370838
 30
0.0
 11
4.82235945
 21
-10.05370838
 31
0.0
1001
HATCH_DISTANCE
1040
1.0
1001
HATCH_DISPLAY
1070
     0
1001
HATCH_TYPE
1070
     7
  0
LINE
  5
1371
330
762
100
AcDbEntity
  8
0
100
AcDbLine
 10
4.66023879
 20
-10.10483051
 30
0.0
 11
4.82235945
 21
-10.05370838
 31
0.0
1001
HATCH_DISTANCE
1040
1.0
1001
HATCH_DISPLAY
1070
     0
1001
HATCH_TYPE
1070
     7
  0
LINE
  5
1372
330
762
100
AcDbEntity
  8
0
100
AcDbLine
 10
4.66023879
 20
-10.10483051
 30
0.0
 11
4.66023879
 21
-10.10483051
 31
0.0
1001
HATCH_DISTANCE
1040
1.0
1001
HATCH_DISPLAY
1070
     0
1001
HATCH_TYPE
1070
     7
  0
LINE
  5
1373
330
762
100
AcDbEntity
  8
0
100
AcDbLine
 10
4.82235945
 20
-10.05370838
 30
0.0
 11
4.66023879
 21
-10.10483051
 31
0.0
1001
HATCH_DISTANCE
1040
1.0
1001
HATCH_DISPLAY
1070
     0
1001
HATCH_TYPE
1070
     7
  0
LINE
  5
1374
330
762
100
AcDbEntity
  8
0
100
AcDbLine
 10
4.82307204
 20
-10.49942293
 30
0.0
 11
4.69596183
 21
-10.37231272
 31
0.0
  0
LINE
  5
1375
330
762
100
AcDbEntity
  8
0
100
AcDbLine
 10
4.90337425
 20
-10.39113976
 30
0.0
 11
4.69507675
 21
-10.18284227
 31
0.0
  0
LINE
  5
1376
330
762
100
AcDbEntity
  8
0
100
AcDbLine
 10
4.85612526
 20
-10.1553054
 30
0.0
 11
4.83845129
 21
-10.13763142
 31
0.0
  0
LINE
  5
1377
330
762
100
AcDbEntity
  8
0
100
AcDbLine
 10
4.63079085
 20
-11.63975056
 30
0.0
 11
4.63079085
 21
-11.19826863
 31
0.0
  0
LINE
  5
1378
330
762
100
AcDbEntity
  8
0
100
AcDbLine
 10
4.81751449
 20
-11.69329518
 30
0.0
 11
4.63079085
 21
-11.63975056
 31
0.0
  0
LINE
  5
1379
330
762
100
AcDbEntity
  8
0
100
AcDbLine
 10
4.81751449
 20
-11.69329518
 30
0.0
 11
4.81751449
 21
-11.63148335
 31
0.0
  0
LINE
  5
137A
330
762
100
AcDbEntity
  8
0
100
AcDbLine
 10
4.84788527
 20
-10.13465657
 30
0.0
 11
4.68576461
 21
-10.1857787
 31
0.0
  0
ARC
  5
137B
330
762
100
AcDbEntity
  8
0
100
AcDbCircle
 10
5.52198989
 20
-9.87761677
 30
0.0
 40
0.8911994361877553
100
AcDbArc
 50
200.22964506
 51
208.57168892
  0
LINE
  5
137C
330
762
100
AcDbEntity
  8
0
100
AcDbLine
 10
4.82235945
 20
-10.05370838
 30
0.0
 11
4.66023879
 21
-10.10483051
 31
0.0
  0
LINE
  5
137D
330
762
100
AcDbEntity
  8
0
100
AcDbLine
 10
5.662834
 20
-12.47069717
 30
0.0
 11
5.10620539
 21
-11.91406855
 31
0.0
  0
ARC
  5
137E
330
762
100
AcDbEntity
  8
0
100
AcDbCircle
 10
5.71720504
 20
-12.71945485
 30
0.0
 40
0.2546303021907843
100
AcDbArc
 50
351.66285421
 51
156.33819216
  0
LINE
  5
137F
330
762
100
AcDbEntity
  8
0
100
AcDbLine
 10
6.00562903
 20
-13.19066295
 30
0.0
 11
5.28738453
 21
-12.47241845
 31
0.0
  0
LINE
  5
1380
330
762
100
AcDbEntity
  8
0
100
AcDbLine
 10
5.74122771
 20
-13.11484701
 30
0.0
 11
5.14701775
 21
-12.52063705
 31
0.0
  0
LINE
  5
1381
330
762
100
AcDbEntity
  8
0
100
AcDbLine
 10
5.48398139
 20
-12.61726227
 30
0.0
 11
5.96914442
 21
-12.75637557
 31
0.0
  0
LINE
  5
1382
330
762
100
AcDbEntity
  8
0
100
AcDbLine
 10
5.61928044
 20
-11.86138746
 30
0.0
 11
5.08696776
 21
-11.32907479
 31
0.0
  0
LINE
  5
1383
330
762
100
AcDbEntity
  8
0
100
AcDbLine
 10
5.8836823
 20
-11.93720394
 30
0.0
 11
5.35136859
 21
-11.40489024
 31
0.0
  0
LINE
  5
1384
330
762
100
AcDbEntity
  8
0
100
AcDbLine
 10
5.6290233
 20
-11.30537419
 30
0.0
 11
5.07551377
 21
-10.75186466
 31
0.0
  0
LINE
  5
1385
330
762
100
AcDbEntity
  8
0
100
AcDbLine
 10
5.78760756
 20
-11.27537307
 30
0.0
 11
5.33991559
 21
-10.8276811
 31
0.0
  0
LINE
  5
1386
330
762
100
AcDbEntity
  8
0
100
AcDbLine
 10
5.91354609
 20
-11.21272622
 30
0.0
 11
5.60431741
 21
-10.90349754
 31
0.0
  0
LINE
  5
1387
330
762
100
AcDbEntity
  8
0
100
AcDbLine
 10
6.01487523
 20
-11.12546999
 30
0.0
 11
5.83509373
 21
-10.94568848
 31
0.0
  0
LINE
  5
1388
330
762
100
AcDbEntity
  8
0
100
AcDbLine
 10
5.46257491
 20
-10.57316966
 30
0.0
 11
5.29282149
 21
-10.40341625
 31
0.0
  0
LINE
  5
1389
330
762
100
AcDbEntity
  8
0
100
AcDbLine
 10
6.09298846
 20
-11.01499784
 30
0.0
 11
5.94476392
 21
-10.8667733
 31
0.0
  0
LINE
  5
138A
330
762
100
AcDbEntity
  8
0
100
AcDbLine
 10
5.61318204
 20
-10.53519141
 30
0.0
 11
5.29282149
 21
-10.21483087
 31
0.0
  0
LINE
  5
138B
330
762
100
AcDbEntity
  8
0
100
AcDbLine
 10
5.88731074
 20
-10.62073474
 30
0.0
 11
5.38240576
 21
-10.11582976
 31
0.0
  0
LINE
  5
138C
330
762
100
AcDbEntity
  8
0
100
AcDbLine
 10
6.07035015
 20
-10.42660339
 30
0.0
 11
5.91120888
 21
-10.26746212
 31
0.0
  0
ARC
  5
138D
330
762
100
AcDbEntity
  8
0
100
AcDbCircle
 10
5.63587233
 20
-9.852123
 30
0.0
 40
1.443724365234395
100
AcDbArc
 50
245.20517737
 51
262.79482596
  0
LINE
  5
138E
330
762
100
AcDbEntity
  8
0
100
AcDbLine
 10
5.29282149
 20
-10.58460438
 30
0.0
 11
5.29282149
 21
-10.0901418
 31
0.0
  0
LINE
  5
138F
330
762
100
AcDbEntity
  8
0
100
AcDbLine
 10
5.46257491
 20
-10.6332784
 30
0.0
 11
5.29282149
 21
-10.58460438
 31
0.0
  0
LINE
  5
1390
330
762
100
AcDbEntity
  8
0
100
AcDbLine
 10
5.46257491
 20
-10.6332784
 30
0.0
 11
5.46257491
 21
-10.4920052
 31
0.0
  0
LINE
  5
1391
330
762
100
AcDbEntity
  8
0
100
AcDbLine
 10
5.84271926
 20
-10.60101063
 30
0.0
 11
5.46257491
 21
-10.4920052
 31
0.0
  0
ARC
  5
1392
330
762
100
AcDbEntity
  8
0
100
AcDbCircle
 10
5.79359023
 20
-10.772347
 30
0.0
 40
0.1782408785820033
100
AcDbArc
 50
254.00027306
 51
74.00027306
  0
ARC
  5
1393
330
762
100
AcDbEntity
  8
0
100
AcDbCircle
 10
5.52198989
 20
-13.32358937
 30
0.0
 40
0.7214456176757898
100
AcDbArc
 50
180.0
 51
0.0
  0
ARC
  5
1394
330
762
100
AcDbEntity
  8
0
100
AcDbCircle
 10
5.52198989
 20
-13.32358937
 30
0.0
 40
0.8911990356445432
100
AcDbArc
 50
180.0
 51
0.0
  0
LINE
  5
1395
330
762
100
AcDbEntity
  8
0
100
AcDbLine
 10
6.158559
 20
-13.23451496
 30
0.0
 11
4.80054427
 21
-12.84511006
 31
0.0
  0
LINE
  5
1396
330
762
100
AcDbEntity
  8
0
100
AcDbLine
 10
6.158559
 20
-11.63634754
 30
0.0
 11
4.63079085
 21
-11.19826863
 31
0.0
  0
LINE
  5
1397
330
762
100
AcDbEntity
  8
0
100
AcDbLine
 10
4.81751449
 20
-11.63148335
 30
0.0
 11
6.158559
 21
-12.01602406
 31
0.0
  0
LINE
  5
1398
330
762
100
AcDbEntity
  8
0
100
AcDbLine
 10
6.158559
 20
-11.63634754
 30
0.0
 11
4.63079085
 21
-11.19826863
 31
0.0
1001
HATCH_DISTANCE
1040
1.0
1001
HATCH_DISPLAY
1070
     0
1001
HATCH_TYPE
1070
     7
  0
LINE
  5
1399
330
762
100
AcDbEntity
  8
0
100
AcDbLine
 10
4.81751449
 20
-11.63148335
 30
0.0
 11
6.158559
 21
-12.01602406
 31
0.0
1001
HATCH_DISTANCE
1040
1.0
1001
HATCH_DISPLAY
1070
     0
1001
HATCH_TYPE
1070
     7
  0
LINE
  5
139A
330
762
100
AcDbEntity
  8
0
100
AcDbLine
 10
6.158559
 20
-11.63634754
 30
0.0
 11
4.63079085
 21
-11.19826863
 31
0.0
  0
LINE
  5
139B
330
762
100
AcDbEntity
  8
0
100
AcDbLine
 10
6.158559
 20
-12.01602406
 30
0.0
 11
4.81751449
 21
-11.63148335
 31
0.0
  0
ARC
  5
139C
330
762
100
AcDbEntity
  8
0
100
AcDbCircle
 10
5.73418166
 20
-12.5300716
 30
0.0
 40
0.4243771362304749
100
AcDbArc
 50
0.0
 51
130.32984065
  0
LINE
  5
139D
330
762
100
AcDbEntity
  8
0
100
AcDbLine
 10
6.17705519
 20
-13.92784525
 30
0.0
 11
6.05690072
 21
-13.80769078
 31
0.0
  0
LINE
  5
139E
330
762
100
AcDbEntity
  8
0
100
AcDbLine
 10
6.158559
 20
-12.5892514
 30
0.0
 11
5.67865092
 21
-12.10934332
 31
0.0
  0
LINE
  5
139F
330
762
100
AcDbEntity
  8
0
100
AcDbLine
 10
6.158559
 20
-12.77783678
 30
0.0
 11
5.53569511
 21
-12.1549729
 31
0.0
  0
LINE
  5
13A0
330
762
100
AcDbEntity
  8
0
100
AcDbLine
 10
6.158559
 20
-13.15500754
 30
0.0
 11
5.67582085
 21
-12.67226939
 31
0.0
  0
LINE
  5
13A1
330
762
100
AcDbEntity
  8
0
100
AcDbLine
 10
6.158559
 20
-12.96642216
 30
0.0
 11
5.94021827
 21
-12.74808143
 31
0.0
  0
LINE
  5
13A2
330
762
100
AcDbEntity
  8
0
100
AcDbLine
 10
6.12674117
 20
-12.36884819
 30
0.0
 11
5.89540507
 21
-12.1375121
 31
0.0
  0
LINE
  5
13A3
330
762
100
AcDbEntity
  8
0
100
AcDbLine
 10
6.14808416
 20
-12.01302043
 30
0.0
 11
5.61576942
 21
-11.48070569
 31
0.0
  0
LINE
  5
13A4
330
762
100
AcDbEntity
  8
0
100
AcDbLine
 10
6.158559
 20
-11.83490989
 30
0.0
 11
5.88017025
 21
-11.55652114
 31
0.0
  0
LINE
  5
13A5
330
762
100
AcDbEntity
  8
0
100
AcDbLine
 10
6.14449578
 20
-10.87791978
 30
0.0
 11
5.94520249
 21
-10.67862648
 31
0.0
  0
LINE
  5
13A6
330
762
100
AcDbEntity
  8
0
100
AcDbLine
 10
6.15598475
 20
-10.70082338
 30
0.0
 11
5.64680732
 21
-10.19164594
 31
0.0
  0
LINE
  5
13A7
330
762
100
AcDbEntity
  8
0
100
AcDbLine
 10
6.158559
 20
-10.33838887
 30
0.0
 11
5.29282149
 21
-10.0901418
 31
0.0
  0
LINE
  5
13A8
330
762
100
AcDbEntity
  8
0
100
AcDbLine
 10
6.05898716
 20
-10.43796711
 30
0.0
 11
6.158559
 21
-10.33838887
 31
0.0
  0
ARC
  5
13A9
330
762
100
AcDbEntity
  8
0
100
AcDbCircle
 10
5.6068666
 20
-10.75412068
 30
0.0
 40
0.5516986083984455
100
AcDbArc
 50
253.9997507
 51
34.96387329
  0
LINE
  5
13AA
330
762
100
AcDbEntity
  8
240
100
AcDbLine
 10
11.0
 20
-11.7
 30
0.0
 11
11.0
 21
-15.15
 31
0.0
  0
LINE
  5
13AB
330
762
100
AcDbEntity
  8
240
100
AcDbLine
 10
10.0
 20
-11.7
 30
0.0
 11
10.0
 21
-15.0
 31
0.0
  0
LINE
  5
13AC
330
762
100
AcDbEntity
  8
240
100
AcDbLine
 10
11.0
 20
-11.7
 30
0.0
 11
10.0
 21
-11.7
 31
0.0
  0
LINE
  5
13AD
330
762
100
AcDbEntity
  8
240
100
AcDbLine
 10
13.25980762
 20
-15.0
 30
0.0
 11
13.0
 21
-15.15
 31
0.0
  0
LINE
  5
13AE
330
762
100
AcDbEntity
  8
240
100
AcDbLine
 10
-19.0
 20
15.0
 30
0.0
 11
-14.5
 21
15.0
 31
0.0
  0
LINE
  5
13AF
330
762
100
AcDbEntity
  8
240
100
AcDbLine
 10
-38.0
 20
12.5
 30
0.0
 11
-35.5
 21
15.0
 31
0.0
  0
LINE
  5
13B0
330
762
100
AcDbEntity
  8
240
100
AcDbLine
 10
-46.0
 20
12.5
 30
0.0
 11
-38.0
 21
12.5
 31
0.0
  0
LINE
  5
13B1
330
762
100
AcDbEntity
  8
240
100
AcDbLine
 10
-54.0
 20
12.5
 30
0.0
 11
-46.0
 21
12.5
 31
0.0
  0
LINE
  5
13B2
330
762
100
AcDbEntity
  8
241
100
AcDbLine
 10
-19.0
 20
13.75
 30
0.0
 11
-19.0
 21
0.0
 31
0.0
  0
LINE
  5
13B3
330
762
100
AcDbEntity
  8
241
100
AcDbLine
 10
-21.5
 20
13.75
 30
0.0
 11
-21.5
 21
0.0
 31
0.0
  0
LINE
  5
13B4
330
762
100
AcDbEntity
  8
241
100
AcDbLine
 10
-29.5
 20
13.75
 30
0.0
 11
-29.5
 21
0.0
 31
0.0
  0
LINE
  5
13B5
330
762
100
AcDbEntity
  8
241
100
AcDbLine
 10
-32.0
 20
13.75
 30
0.0
 11
-32.0
 21
0.0
 31
0.0
  0
LINE
  5
13B6
330
762
100
AcDbEntity
  8
245
100
AcDbLine
 10
-27.4999651
 20
-5.13030215
 30
0.0
 11
-23.5000349
 21
-5.13030215
 31
0.0
  0
ELLIPSE
  5
13B7
330
762
100
AcDbEntity
  8
241
100
AcDbEllipse
 10
-25.5000349
 20
-5.08449496
 30
0.0
 11
-2.000524505802109
 21
0.0
 31
0.0
210
0.0
220
0.0
230
1.0
 40
0.93944625
 41
0.0
 42
6.283185307179584
  0
LINE
  5
13B8
330
762
100
AcDbEntity
  8
245
100
AcDbLine
 10
-25.5000349
 20
-3.20510972
 30
0.0
 11
-25.5000349
 21
-6.96388021
 31
0.0
  0
LINE
  5
13B9
330
762
100
AcDbEntity
  8
240
100
AcDbLine
 10
-29.5
 20
15.0
 30
0.0
 11
-21.5
 21
15.0
 31
0.0
  0
ARC
  5
13BA
330
762
100
AcDbEntity
  8
240
100
AcDbCircle
 10
-30.75
 20
13.75
 30
0.0
 40
1.24999999999827
100
AcDbArc
 50
0.0
 51
180.0
  0
LINE
  5
13BB
330
762
100
AcDbEntity
  8
240
100
AcDbLine
 10
-32.0
 20
13.75
 30
0.0
 11
-32.0
 21
15.0
 31
0.0
  0
LINE
  5
13BC
330
762
100
AcDbEntity
  8
240
100
AcDbLine
 10
-35.5
 20
15.0
 30
0.0
 11
-32.0
 21
15.0
 31
0.0
  0
LINE
  5
13BD
330
762
100
AcDbEntity
  8
240
100
AcDbLine
 10
-29.5
 20
13.75
 30
0.0
 11
-29.5
 21
15.0
 31
0.0
  0
ARC
  5
13BE
330
762
100
AcDbEntity
  8
240
100
AcDbCircle
 10
-20.25
 20
13.75
 30
0.0
 40
1.249999999998089
100
AcDbArc
 50
0.0
 51
180.0
  0
LINE
  5
13BF
330
762
100
AcDbEntity
  8
240
100
AcDbLine
 10
-21.5
 20
13.75
 30
0.0
 11
-21.5
 21
15.0
 31
0.0
  0
LINE
  5
13C0
330
762
100
AcDbEntity
  8
240
100
AcDbLine
 10
-19.0
 20
13.75
 30
0.0
 11
-19.0
 21
15.0
 31
0.0
  0
LINE
  5
13C1
330
762
100
AcDbEntity
  8
240
100
AcDbLine
 10
13.25980762
 20
15.0
 30
0.0
 11
13.0
 21
15.15
 31
0.0
  0
LINE
  5
13C2
330
762
100
AcDbEntity
  8
241
100
AcDbLine
 10
13.0
 20
15.15
 30
0.0
 11
13.0
 21
0.0
 31
0.0
  0
LINE
  5
13C3
330
762
100
AcDbEntity
  8
240
100
AcDbLine
 10
11.0
 20
11.7
 30
0.0
 11
11.0
 21
15.15
 31
0.0
  0
LINE
  5
13C4
330
762
100
AcDbEntity
  8
240
100
AcDbLine
 10
-13.0
 20
15.5
 30
0.0
 11
-13.0
 21
14.7
 31
0.0
  0
ARC
  5
13C5
330
762
100
AcDbEntity
  8
240
100
AcDbCircle
 10
1.97309836
 20
16.0
 30
0.0
 40
1.0
100
AcDbArc
 50
194.99999998
 51
270.0
  0
LINE
  5
13C6
330
762
100
AcDbEntity
  8
241
100
AcDbLine
 10
1.20577137
 20
15.35874397
 30
0.0
 11
1.20577137
 21
0.0
 31
0.0
  0
LINE
  5
13C7
330
762
100
AcDbEntity
  8
241
100
AcDbLine
 10
-6.12626129
 20
19.5
 30
0.0
 11
-6.12626129
 21
0.0
 31
0.0
  0
LINE
  5
13C8
330
762
100
AcDbEntity
  8
241
  6
CONTINUOUS
100
AcDbLine
 10
-7.5
 20
19.00000001
 30
0.0
 11
-7.5
 21
0.0
 31
0.0
  0
LINE
  5
13C9
330
762
100
AcDbEntity
  8
241
100
AcDbLine
 10
0.0
 20
19.14125603
 30
0.0
 11
0.0
 21
0.0
 31
0.0
  0
LINE
  5
13CA
330
762
100
AcDbEntity
  8
241
100
AcDbLine
 10
-2.0
 20
18.25
 30
0.0
 11
-2.0
 21
0.0
 31
0.0
  0
LINE
  5
13CB
330
762
100
AcDbEntity
  8
241
100
AcDbLine
 10
-4.5
 20
18.25
 30
0.0
 11
-4.5
 21
0.0
 31
0.0
  0
LINE
  5
13CC
330
762
100
AcDbEntity
  8
240
100
AcDbLine
 10
10.0
 20
15.0
 30
0.0
 11
1.97309836
 21
15.0
 31
0.0
  0
LINE
  5
13CD
330
762
100
AcDbEntity
  8
241
100
AcDbLine
 10
-14.5
 20
15.0
 30
0.0
 11
-14.5
 21
0.0
 31
0.0
  0
LINE
  5
13CE
330
762
100
AcDbEntity
  8
240
100
AcDbLine
 10
-14.2
 20
14.7
 30
0.0
 11
-13.0
 21
14.7
 31
0.0
  0
LINE
  5
13CF
330
762
100
AcDbEntity
  8
240
100
AcDbLine
 10
-14.2
 20
14.7
 30
0.0
 11
-14.5
 21
15.0
 31
0.0
  0
TEXT
  5
13D0
330
762
100
AcDbEntity
  8
0
100
AcDbText
 10
6.27198482
 20
-7.69145613
 30
0.0
 40
1.8
  1
MGT20-M12-35
 50
90.0
  7
YOKO
100
AcDbText
  0
LINE
  5
13D1
330
762
100
AcDbEntity
  8
241
100
AcDbLine
 10
11.0
 20
11.7
 30
0.0
 11
11.0
 21
0.0
 31
0.0
  0
LINE
  5
13D2
330
762
100
AcDbEntity
  8
241
100
AcDbLine
 10
14.2
 20
15.0
 30
0.0
 11
14.2
 21
0.0
 31
0.0
  0
LINE
  5
13D3
330
762
100
AcDbEntity
  8
241
100
AcDbLine
 10
10.0
 20
11.7
 30
0.0
 11
10.0
 21
0.0
 31
0.0
  0
LINE
  5
13D4
330
762
100
AcDbEntity
  8
241
  6
HIDDEN2
100
AcDbLine
 10
20.0
 20
5.0
 30
0.0
 11
20.0
 21
0.0
 31
0.0
  0
LINE
  5
13D5
330
762
100
AcDbEntity
  8
241
  6
HIDDEN2
100
AcDbLine
 10
15.0
 20
5.0
 30
0.0
 11
15.0
 21
0.0
 31
0.0
  0
LINE
  5
13D6
330
762
100
AcDbEntity
  8
241
  6
HIDDEN2
100
AcDbLine
 10
9.0
 20
4.66690476
 30
0.0
 11
9.0
 21
0.0
 31
0.0
  0
LINE
  5
13D7
330
762
100
AcDbEntity
  8
242
  6
HIDDEN2
100
AcDbLine
 10
15.0
 20
4.66690476
 30
0.0
 11
9.0
 21
0.0
 31
0.0
  0
LINE
  5
13D8
330
762
100
AcDbEntity
  8
242
  6
HIDDEN2
100
AcDbLine
 10
9.0
 20
4.66690476
 30
0.0
 11
15.0
 21
0.0
 31
0.0
  0
LINE
  5
13D9
330
762
100
AcDbEntity
  8
0
100
AcDbLine
 10
5.01153772
 20
-9.36779096
 30
0.0
 11
4.89150391
 21
-9.24775714
 31
0.0
  0
LINE
  5
13DA
330
762
100
AcDbEntity
  8
0
100
AcDbLine
 10
4.85921453
 20
-9.59263853
 30
0.0
 11
4.73189652
 21
-9.46532052
 31
0.0
  0
LINE
  5
13DB
330
762
100
AcDbEntity
  8
0
100
AcDbLine
 10
4.92609407
 20
-9.47093268
 30
0.0
 11
4.80435305
 21
-9.34919167
 31
0.0
  0
LINE
  5
13DC
330
762
100
AcDbEntity
  8
0
100
AcDbLine
 10
5.11456164
 20
-9.2822295
 30
0.0
 11
4.99284364
 21
-9.1605115
 31
0.0
  0
LINE
  5
13DD
330
762
100
AcDbEntity
  8
0
100
AcDbLine
 10
5.23613608
 20
-9.21521857
 30
0.0
 11
5.10887084
 21
-9.08795332
 31
0.0
  0
LINE
  5
13DE
330
762
100
AcDbEntity
  8
0
100
AcDbLine
 10
5.37982077
 20
-9.17031788
 30
0.0
 11
5.24128313
 21
-9.03178024
 31
0.0
  0
LINE
  5
13DF
330
762
100
AcDbEntity
  8
0
100
AcDbLine
 10
5.55501574
 20
-9.15692747
 30
0.0
 11
5.39377695
 21
-8.99568868
 31
0.0
  0
LINE
  5
13E0
330
762
100
AcDbEntity
  8
0
100
AcDbLine
 10
5.79754027
 20
-9.21086662
 30
0.0
 11
5.57464847
 21
-8.98797482
 31
0.0
  0
LINE
  5
13E1
330
762
100
AcDbEntity
  8
0
100
AcDbLine
 10
6.36562724
 20
-9.59036821
 30
0.0
 11
5.80923845
 21
-9.03397942
 31
0.0
  0
LINE
  5
13E2
330
762
100
AcDbEntity
  8
241
  6
HIDDEN2
100
AcDbLine
 10
9.0
 20
4.66690476
 30
0.0
 11
15.0
 21
4.66690476
 31
0.0
  0
LINE
  5
13E3
330
762
100
AcDbEntity
  8
240
100
AcDbLine
 10
10.0
 20
11.7
 30
0.0
 11
10.0
 21
15.0
 31
0.0
  0
LINE
  5
13E4
330
762
100
AcDbEntity
  8
240
100
AcDbLine
 10
11.0
 20
11.7
 30
0.0
 11
10.0
 21
11.7
 31
0.0
  0
LINE
  5
13E5
330
762
100
AcDbEntity
  8
241
  6
HIDDEN2
100
AcDbLine
 10
15.0
 20
5.0
 30
0.0
 11
20.0
 21
5.0
 31
0.0
  0
LINE
  5
13E6
330
762
100
AcDbEntity
  8
240
100
AcDbLine
 10
-7.5
 20
19.00000001
 30
0.0
 11
-6.12626128
 21
19.5
 31
0.0
  0
LINE
  5
13E7
330
762
100
AcDbEntity
  8
240
100
AcDbLine
 10
-7.50000001
 20
19.0
 30
0.0
 11
-13.5
 21
19.0
 31
0.0
  0
LINE
  5
13E8
330
762
100
AcDbEntity
  8
241
  6
CONTINUOUS
100
AcDbLine
 10
-7.5
 20
15.2
 30
0.0
 11
-13.0
 21
15.2
 31
0.0
  0
LINE
  5
13E9
330
762
100
AcDbEntity
  8
240
100
AcDbLine
 10
-13.0
 20
15.5
 30
0.0
 11
-13.5
 21
16.0
 31
0.0
  0
LINE
  5
13EA
330
762
100
AcDbEntity
  8
240
100
AcDbLine
 10
-13.5
 20
19.0
 30
0.0
 11
-13.5
 21
16.0
 31
0.0
  0
ARC
  5
13EB
330
762
100
AcDbEntity
  8
240
100
AcDbCircle
 10
-3.25
 20
18.25
 30
0.0
 40
1.250000000000339
100
AcDbArc
 50
0.0
 51
180.0
  0
LINE
  5
13EC
330
762
100
AcDbEntity
  8
240
100
AcDbLine
 10
-4.5
 20
19.5
 30
0.0
 11
-6.12626129
 21
19.5
 31
0.0
  0
LINE
  5
13ED
330
762
100
AcDbEntity
  8
240
100
AcDbLine
 10
-4.5
 20
18.25
 30
0.0
 11
-4.5
 21
19.5
 31
0.0
  0
LINE
  5
13EE
330
762
100
AcDbEntity
  8
240
100
AcDbLine
 10
0.19859884
 20
18.75881905
 30
0.0
 11
1.00717253
 21
15.74118096
 31
0.0
  0
LINE
  5
13EF
330
762
100
AcDbEntity
  8
240
100
AcDbLine
 10
-0.63567449
 20
19.5
 30
0.0
 11
-2.0
 21
19.5
 31
0.0
  0
LINE
  5
13F0
330
762
100
AcDbEntity
  8
240
100
AcDbLine
 10
-2.0
 20
18.25
 30
0.0
 11
-2.0
 21
19.5
 31
0.0
  0
ARC
  5
13F1
330
762
100
AcDbEntity
  8
240
100
AcDbCircle
 10
-0.76732699
 20
18.5
 30
0.0
 40
1.0
100
AcDbArc
 50
15.0
 51
75.0
1001
GENIUS_GENOBJ-N-FIL_13
1002
{
1000
OWNER
1000
GEN
1002
}
1001
GENIUS_GENODEF_13
1002
{
1000
HIER
1070
     0
1002
}
1002
{
1000
MANEDIT
1070
     0
1002
}
1002
{
1000
NOSEL
1070
     0
1002
}
1002
{
1000
BEHIND
1070
     0
1002
}
1002
{
1000
OTHER
1070
     0
1002
}
1002
{
1000
REACTOR
1002
}
  0
LINE
  5
13F2
330
762
100
AcDbEntity
  8
240
100
AcDbLine
 10
-0.50850794
 20
19.46592583
 30
0.0
 11
-0.63567449
 21
19.5
 31
0.0
  0
LINE
  5
13F3
330
762
100
AcDbEntity
  8
240
100
AcDbLine
 10
11.0
 20
15.15
 30
0.0
 11
13.0
 21
15.15
 31
0.0
  0
LINE
  5
13F4
330
762
100
AcDbEntity
  8
240
100
AcDbLine
 10
35.0
 20
-14.0
 30
0.0
 11
35.0
 21
0.0
 31
0.0
  0
ARC
  5
13F5
330
762
100
AcDbEntity
  8
240
100
AcDbCircle
 10
34.0
 20
-14.0
 30
0.0
 40
1.0
100
AcDbArc
 50
270.0
 51
0.0
1001
GENIUS_GENOBJ-N-FIL_13
1002
{
1000
OWNER
1000
GEN
1002
}
1001
GENIUS_GENODEF_13
1002
{
1000
HIER
1070
     0
1002
}
1002
{
1000
MANEDIT
1070
     0
1002
}
1002
{
1000
NOSEL
1070
     0
1002
}
1002
{
1000
BEHIND
1070
     0
1002
}
1002
{
1000
OTHER
1070
     0
1002
}
1002
{
1000
REACTOR
1002
}
  0
ARC
  5
13F6
330
762
100
AcDbEntity
  8
240
100
AcDbCircle
 10
34.0
 20
14.0
 30
0.0
 40
1.0
100
AcDbArc
 50
0.0
 51
90.0
1001
GENIUS_GENOBJ-N-FIL_13
1002
{
1000
OWNER
1000
GEN
1002
}
1001
GENIUS_GENODEF_13
1002
{
1000
HIER
1070
     0
1002
}
1002
{
1000
MANEDIT
1070
     0
1002
}
1002
{
1000
NOSEL
1070
     0
1002
}
1002
{
1000
BEHIND
1070
     0
1002
}
1002
{
1000
OTHER
1070
     0
1002
}
1002
{
1000
REACTOR
1002
}
  0
LINE
  5
13F7
330
762
100
AcDbEntity
  8
240
100
AcDbLine
 10
35.0
 20
14.0
 30
0.0
 11
35.0
 21
0.0
 31
0.0
  0
ARC
  5
13F8
330
762
100
AcDbEntity
  8
241
100
AcDbCircle
 10
34.5
 20
4.75
 30
0.0
 40
0.5
100
AcDbArc
 50
270.0
 51
0.0
1001
GENIUS_GENODEF_13
1002
{
1000
HIER
1070
     0
1002
}
1002
{
1000
MANEDIT
1070
     0
1002
}
1002
{
1000
NOSEL
1070
     0
1002
}
1002
{
1000
BEHIND
1070
     0
1002
}
1002
{
1000
OTHER
1070
     0
1002
}
1002
{
1000
REACTOR
1002
}
1001
GENIUS_GENOBJ-N-FIL_13
1002
{
1000
OWNER
1000
GEN
1002
}
  0
ENDBLK
  5
8A0
330
762
100
AcDbEntity
  8
0
100
AcDbBlockEnd
  0
BLOCK
  5
1283
330
1279
100
AcDbEntity
  8
0
100
AcDbBlockBegin
  2
*D10
 70
     1
 10
0.0
 20
0.0
 30
0.0
  3
*D10
  1

  0
LINE
  5
12C0
330
1279
100
AcDbEntity
  8
250
  6
CONTINUOUS
100
AcDbLine
 10
0.0
 20
19.64125603
 30
0.0
 11
0.0
 21
36.0
 31
0.0
  0
LINE
  5
12C1
330
1279
100
AcDbEntity
  8
250
  6
CONTINUOUS
100
AcDbLine
 10
35.0
 20
14.6316525
 30
0.0
 11
35.0
 21
36.0
 31
0.0
  0
LINE
  5
12C2
330
1279
100
AcDbEntity
  8
250
  6
CONTINUOUS
100
AcDbLine
 10
2.23
 20
35.0
 30
0.0
 11
32.77
 21
35.0
 31
0.0
  0
INSERT
  5
12C3
330
1279
100
AcDbEntity
  8
250
  6
CONTINUOUS
100
AcDbBlockReference
  2
_OPEN
 10
0.0
 20
35.0
 30
0.0
 41
2.23
 42
2.23
 43
2.23
 50
180.0
  0
INSERT
  5
12C4
330
1279
100
AcDbEntity
  8
250
  6
CONTINUOUS
100
AcDbBlockReference
  2
_OPEN
 10
35.0
 20
35.0
 30
0.0
 41
2.23
 42
2.23
 43
2.23
  0
MTEXT
  5
12C5
330
1279
100
AcDbEntity
  8
250
  6
CONTINUOUS
 62
    40
100
AcDbMText
 10
17.5
 20
37.4
 30
0.0
 40
2.8
 41
0.0
 71
     5
 72
     1
  1
\A1;35
1001
ACAD
1000
MTEXTBEGIN
1070
    73
1070
     1
1070
    44
1040
1.0
1070
    74
1070
     0
1000
MTEXTEND
  0
POINT
  5
12C6
330
1279
100
AcDbEntity
  8
DEFPOINTS
  6
CONTINUOUS
 62
     0
100
AcDbPoint
 10
0.0
 20
19.14125603
 30
0.0
  0
POINT
  5
12C7
330
1279
100
AcDbEntity
  8
DEFPOINTS
  6
CONTINUOUS
 62
     0
100
AcDbPoint
 10
35.0
 20
14.1316525
 30
0.0
  0
POINT
  5
12C8
330
1279
100
AcDbEntity
  8
DEFPOINTS
  6
CONTINUOUS
 62
     0
100
AcDbPoint
 10
35.0
 20
35.0
 30
0.0
  0
ENDBLK
  5
1284
330
1279
100
AcDbEntity
  8
0
100
AcDbBlockEnd
  0
BLOCK
  5
128F
330
1285
100
AcDbEntity
  8
0
100
AcDbBlockBegin
  2
*D11
 70
     1
 10
0.0
 20
0.0
 30
0.0
  3
*D11
  1

  0
LINE
  5
12C9
330
1285
100
AcDbEntity
  8
250
  6
CONTINUOUS
100
AcDbLine
 10
34.6316525
 20
-15.0
 30
0.0
 11
51.0
 21
-15.0
 31
0.0
  0
LINE
  5
12CA
330
1285
100
AcDbEntity
  8
250
  6
CONTINUOUS
100
AcDbLine
 10
34.6316525
 20
15.0
 30
0.0
 11
51.0
 21
15.0
 31
0.0
  0
LINE
  5
12CB
330
1285
100
AcDbEntity
  8
250
  6
CONTINUOUS
100
AcDbLine
 10
50.0
 20
-13.0
 30
0.0
 11
50.0
 21
13.0
 31
0.0
  0
INSERT
  5
12CC
330
1285
100
AcDbEntity
  8
250
  6
CONTINUOUS
100
AcDbBlockReference
  2
_OPEN
 10
50.0
 20
-15.0
 30
0.0
 41
2.0
 42
2.0
 43
2.0
 50
270.0
  0
INSERT
  5
12CD
330
1285
100
AcDbEntity
  8
250
  6
CONTINUOUS
100
AcDbBlockReference
  2
_OPEN
 10
50.0
 20
15.0
 30
0.0
 41
2.0
 42
2.0
 43
2.0
 50
90.0
  0
MTEXT
  5
12CE
330
1285
100
AcDbEntity
  8
250
  6
CONTINUOUS
 62
    40
100
AcDbMText
 10
47.6
 20
0.0
 30
0.0
 40
2.8
 41
0.0
 71
     5
 72
     1
  1
\A1;{\H2.8;%%C}30
 11
0.0
 21
1.0
 31
0.0
1001
ACAD
1000
MTEXTBEGIN
1070
    73
1070
     1
1070
    44
1040
1.0
1070
    74
1070
     0
1000
MTEXTEND
  0
POINT
  5
12CF
330
1285
100
AcDbEntity
  8
DEFPOINTS
  6
CONTINUOUS
 62
     0
100
AcDbPoint
 10
34.1316525
 20
-15.0
 30
0.0
  0
POINT
  5
12D0
330
1285
100
AcDbEntity
  8
DEFPOINTS
  6
CONTINUOUS
 62
     0
100
AcDbPoint
 10
34.1316525
 20
15.0
 30
0.0
  0
POINT
  5
12D1
330
1285
100
AcDbEntity
  8
DEFPOINTS
  6
CONTINUOUS
 62
     0
100
AcDbPoint
 10
50.0
 20
15.0
 30
0.0
  0
ENDBLK
  5
1290
330
1285
100
AcDbEntity
  8
0
100
AcDbBlockEnd
  0
BLOCK
  5
129A
330
1291
100
AcDbEntity
  8
0
100
AcDbBlockBegin
  2
*D12
 70
     1
 10
0.0
 20
0.0
 30
0.0
  3
*D12
  1

  0
LINE
  5
12D2
330
1291
100
AcDbEntity
  8
250
  6
CONTINUOUS
100
AcDbLine
 10
35.0
 20
4.25
 30
0.0
 11
44.0
 21
4.25
 31
0.0
  0
LINE
  5
12D3
330
1291
100
AcDbEntity
  8
250
  6
CONTINUOUS
100
AcDbLine
 10
43.0
 20
-2.02
 30
0.0
 11
43.0
 21
2.02
 31
0.0
  0
INSERT
  5
12D4
330
1291
100
AcDbEntity
  8
250
  6
CONTINUOUS
100
AcDbBlockReference
  2
矢印なし
 10
43.0
 20
-4.25
 30
0.0
 41
2.23
 42
2.23
 43
2.23
 50
270.0
  0
INSERT
  5
12D5
330
1291
100
AcDbEntity
  8
250
  6
CONTINUOUS
100
AcDbBlockReference
  2
_OPEN
 10
43.0
 20
4.25
 30
0.0
 41
2.23
 42
2.23
 43
2.23
 50
90.0
  0
MTEXT
  5
12D6
330
1291
100
AcDbEntity
  8
250
  6
CONTINUOUS
 62
    40
100
AcDbMText
 10
40.6
 20
-1.57812559
 30
0.0
 40
2.8
 41
0.0
 71
     5
 72
     1
  1
\A1;{\H2.8;\U+2205}8.5
 11
0.0
 21
1.0
 31
0.0
1001
ACAD
1000
MTEXTBEGIN
1070
    73
1070
     1
1070
    44
1040
1.0
1070
    74
1070
     0
1000
MTEXTEND
  0
POINT
  5
12D7
330
1291
100
AcDbEntity
  8
DEFPOINTS
  6
CONTINUOUS
 62
     0
100
AcDbPoint
 10
34.5
 20
-4.25
 30
0.0
  0
POINT
  5
12D8
330
1291
100
AcDbEntity
  8
DEFPOINTS
  6
CONTINUOUS
 62
     0
100
AcDbPoint
 10
34.5
 20
4.25
 30
0.0
  0
POINT
  5
12D9
330
1291
100
AcDbEntity
  8
DEFPOINTS
  6
CONTINUOUS
 62
     0
100
AcDbPoint
 10
43.0
 20
4.25
 30
0.0
  0
ENDBLK
  5
129B
330
1291
100
AcDbEntity
  8
0
100
AcDbBlockEnd
  0
ENDSEC
  0
SECTION
  2
ENTITIES
  0
INSERT
  5
6E6
330
1A
100
AcDbEntity
  8
245
100
AcDbBlockReference
  2
矢印なし
 10
175.62382697
 20
90.55123572
 30
0.0
  0
INSERT
  5
8D9
330
1A
100
AcDbEntity
  8
245
100
AcDbBlockReference
  2
矢印なし
 10
350.62382697
 20
244.55123572
 30
0.0
  0
INSERT
  5
8DA
330
1A
100
AcDbEntity
  8
245
100
AcDbBlockReference
  2
矢印なし
 10
525.62382697
 20
377.55123572
 30
0.0
  0
INSERT
  5
8DB
330
1A
100
AcDbEntity
  8
245
100
AcDbBlockReference
  2
矢印なし
 10
679.62382697
 20
524.55123572
 30
0.0
  0
TEXT
  5
8DC
330
1A
100
AcDbEntity
  8
241
100
AcDbText
 10
-69.0
 20
49.0
 30
0.0
 40
5.0
  1
MGT20-M12-35
  7
YOKO
 11
-69.0
 21
49.0
 31
0.0
100
AcDbText
 73
     1
  0
DIMENSION
  5
1157
330
1A
100
AcDbEntity
  8
250
  6
CONTINUOUS
100
AcDbDimension
  2
*D10
 10
35.0
 20
35.0
 30
0.0
 11
17.5
 21
37.4
 31
0.0
 70
    32
  3
BIGT
100
AcDbAlignedDimension
 13
0.0
 23
19.14125603
 33
0.0
 14
35.0
 24
14.1316525
 34
0.0
100
AcDbRotatedDimension
  0
DIMENSION
  5
1258
330
1A
100
AcDbEntity
  8
250
  6
CONTINUOUS
100
AcDbDimension
  2
*D11
 10
50.0
 20
15.0
 30
0.0
 11
50.0
 21
0.0
 31
0.0
 70
   160
  1
{\H2.8;%%C}<>
  3
BIGT
100
AcDbAlignedDimension
 13
34.1316525
 23
-15.0
 33
0.0
 14
34.1316525
 24
15.0
 34
0.0
 50
90.0
100
AcDbRotatedDimension
1001
ACAD
1000
DSTYLE
1002
{
1070
    41
1040
2.0
1002
}
  0
LINE
  5
1262
330
1A
100
AcDbEntity
  8
250
  6
CONTINUOUS
100
AcDbLine
 10
33.80879885
 20
28.04605852
 30
0.0
 11
18.95546552
 21
28.04605852
 31
0.0
1001
ITEMNAME
1000
LNSP2
  0
LEADER
  5
1266
330
1A
100
AcDbEntity
  8
250
  6
CONTINUOUS
100
AcDbLeader
  3
BIGT
 76
     2
 10
11.65456399
 20
4.66690476
 30
0.0
 10
18.95546552
 20
28.04605852
 30
0.0
1001
ACAD
1000
DSTYLE
1002
{
1070
     6
1000
OPEN
1070
   343
1005
594
1002
}
  0
DIMENSION
  5
1275
330
1A
100
AcDbEntity
  8
250
  6
CONTINUOUS
100
AcDbDimension
  2
*D12
 10
43.0
 20
4.25
 30
0.0
 11
43.0
 21
-1.57812559
 31
0.0
 70
   160
  1
{\H2.8;\U+2205}<>
  3
BIGT
100
AcDbAlignedDimension
 13
34.5
 23
-4.25
 33
0.0
 14
34.5
 24
4.25
 34
0.0
 50
90.0
100
AcDbRotatedDimension
1001
ACAD
1000
DSTYLE
1002
{
1070
    75
1070
     1
1070
     6
1000
矢印なし
1002
}
  0
MTEXT
  5
1278
330
1A
100
AcDbEntity
  8
251
  6
CONTINUOUS
100
AcDbMText
 10
21.75546552
 20
29.04605852
 30
0.0
 40
2.8
 41
0.0
 71
     7
 72
     1
  1
□6.5
  7
YOKO
1001
ITEMNAME
1000
LNSP3
1001
ACAD
1000
MTEXTBEGIN
1070
    73
1070
     1
1070
    44
1040
1.0
1070
    74
1070
     0
1000
MTEXTEND
1000
MTEXTBEGIN
1070
    73
1070
     1
1070
    44
1040
1.0
1070
    74
1070
     0
1000
MTEXTEND
1000
MTEXTBEGIN
1070
    73
1070
     1
1070
    44
1040
1.0
1070
    74
1070
     0
1000
MTEXTEND
1000
MTEXTBEGIN
1070
    73
1070
     1
1070
    44
1040
1.0
1070
    74
1070
     0
1000
MTEXTEND
1000
MTEXTBEGIN
1070
    73
1070
     1
1070
    44
1040
1.0
1070
    74
1070
     0
1000
MTEXTEND
1000
MTEXTBEGIN
1070
    73
1070
     1
1070
    44
1040
1.0
1070
    74
1070
     0
1000
MTEXTEND
1000
MTEXTBEGIN
1070
    73
1070
     1
1070
    44
1040
1.0
1070
    74
1070
     0
1000
MTEXTEND
1000
MTEXTBEGIN
1070
    73
1070
     1
1070
    44
1040
1.0
1070
    74
1070
     0
1000
MTEXTEND
  0
INSERT
  5
13F9
330
1A
100
AcDbEntity
  8
245
100
AcDbBlockReference
  2
1
 10
0.0
 20
0.0
 30
0.0
  0
VIEWPORT
  5
22
330
17
100
AcDbEntity
 67
     1
  8
0
100
AcDbViewport
 10
261.51769912
 20
148.5
 30
0.0
 40
523.03539823
 41
297.0
 68
     1
 69
     1
1001
ACAD
1000
MVIEW
1002
{
1070
    16
1010
0.0
1020
0.0
1030
0.0
1010
0.0
1020
0.0
1030
1.0
1040
0.0
1040
297.0
1040
261.51769912
1040
148.5
1040
50.0
1040
0.0
1040
0.0
1070
     0
1070
   100
1070
     1
1070
     1
1070
     0
1070
     0
1070
     0
1070
     0
1040
0.0
1040
0.0
1040
0.0
1040
1.0
1040
1.0
1040
10.0
1040
10.0
1070
     0
1002
{
1002
}
1002
}
  0
ENDSEC
  0
SECTION
  2
OBJECTS
  0
DICTIONARY
  5
C
330
0
100
AcDbDictionary
  3
ACAD_GROUP
350
D
  3
ACAD_LAYOUT
350
565
  3
ACAD_MLINESTYLE
350
E
  3
ACAD_PLOTSETTINGS
350
566
  3
ACAD_PLOTSTYLENAME
350
563
  3
ACDBHEADERROUNDTRIPXREC
350
13FB
  3
GRADE_DWG
350
540
  0
DICTIONARY
  5
EBE
330
1A
100
AcDbDictionary
280
     1
  3
ACAD_LAYOUTSELFREF
360
141D
  0
DICTIONARY
  5
EBC
330
17
100
AcDbDictionary
280
     1
  3
ACAD_LAYOUTSELFREF
360
141C
  0
DICTIONARY
  5
D
102
{ACAD_REACTORS
330
C
102
}
330
C
100
AcDbDictionary
  3
*A1
350
6C7
  3
*A2
350
6C8
  3
*A3
350
6D4
  3
*A4
350
6D5
  3
DREC-1
350
5FC
  3
DREC-2
350
654
  3
DREC-3
350
673
  0
DICTIONARY
  5
565
102
{ACAD_REACTORS
330
C
102
}
330
C
100
AcDbDictionary
  0
DICTIONARY
  5
E
102
{ACAD_REACTORS
330
C
102
}
330
C
100
AcDbDictionary
  3
STANDARD
350
13
  0
DICTIONARY
  5
566
102
{ACAD_REACTORS
330
C
102
}
330
C
100
AcDbDictionary
  3
A3_0_5倍_
350
758
  3
A3_1倍_
350
757
  3
A3_1倍__2000_
350
707
  3
A3_2倍_
350
759
  3
A4_0_5倍_
350
755
  3
A4_1倍_
350
754
  3
A4_1倍__2000_
350
708
  3
A4_2倍_
350
756
  0
ACDBDICTIONARYWDFLT
  5
563
102
{ACAD_REACTORS
330
C
102
}
330
C
100
AcDbDictionary
281
     1
  3
Normal
350
564
100
AcDbDictionaryWithDefault
340
564
  0
DICTIONARY
  5
13FB
102
{ACAD_REACTORS
330
C
102
}
330
C
100
AcDbDictionary
  3
CEPSNTYPE
350
1405
  3
DIMSTYLEDATA
350
1409
  3
FINGERPRINTGUID
350
1406
  3
HYPERLINKBASE
350
13FE
  3
INSUNITS
350
1404
  3
LAYOUTDICT
350
1400
  3
LWETCUNION
350
1403
  3
PLOTSETDICT
350
1401
  3
PLOTSTYLNAMDICT
350
1402
  3
PSVPSCALE
350
1408
  3
PUCSBASE
350
140C
  3
PUCSORGBACK
350
1412
  3
PUCSORGBOTTOM
350
140E
  3
PUCSORGFRONT
350
1411
  3
PUCSORGLEFT
350
140F
  3
PUCSORGRIGHT
350
1410
  3
PUCSORGTOP
350
140D
  3
PUCSORTHOREF
350
140A
  3
PUCSORTHOVIEW
350
140B
  3
STYLESHEET
350
13FF
  3
TSTACKALIGN
350
13FC
  3
TSTACKSIZE
350
13FD
  3
UCSBASE
350
1415
  3
UCSORGBACK
350
141B
  3
UCSORGBOTTOM
350
1417
  3
UCSORGFRONT
350
141A
  3
UCSORGLEFT
350
1418
  3
UCSORGRIGHT
350
1419
  3
UCSORGTOP
350
1416
  3
UCSORTHOREF
350
1413
  3
UCSORTHOVIEW
350
1414
  3
VERSIONGUID
350
1407
  0
DICTIONARY
  5
540
102
{ACAD_REACTORS
330
C
102
}
330
C
100
AcDbDictionary
  3
VERSION
350
560
  0
XRECORD
  5
141D
102
{ACAD_REACTORS
330
EBE
102
}
330
EBE
100
AcDbXrecord
340
1A
  0
XRECORD
  5
141C
102
{ACAD_REACTORS
330
EBC
102
}
330
EBC
100
AcDbXrecord
340
17
  0
GROUP
  5
6C7
102
{ACAD_REACTORS
330
D
102
}
330
D
100
AcDbGroup
300

 70
     0
 71
     1
1001
GRPNAME
1000
DMA00
  0
GROUP
  5
6C8
102
{ACAD_REACTORS
330
D
102
}
330
D
100
AcDbGroup
300

 70
     0
 71
     1
1001
GRPNAME
1000
DMA00
  0
GROUP
  5
6D4
102
{ACAD_REACTORS
330
D
102
}
330
D
100
AcDbGroup
300

 70
     0
 71
     1
1001
GRPNAME
1000
DMA00
  0
GROUP
  5
6D5
102
{ACAD_REACTORS
330
D
102
}
330
D
100
AcDbGroup
300

 70
     0
 71
     1
1001
GRPNAME
1000
DMA00
  0
GROUP
  5
5FC
102
{ACAD_REACTORS
330
D
102
}
330
D
100
AcDbGroup
300

 70
     0
 71
     1
1001
GRPNAME
1000
DREC-
1001
GPARA
1000
xsiz
1000
44.182
1000
ysiz
1000
40.677
1000
angl
1000
0
1000
ctyp
1000
0
1000
csiz
1000
5
1000
lfnt
1000
cont
1000
hcnt
1000
hoff
1000
vcnt
1000
voff
1000
opnt
1000
4
1000
dxpt
1000
0
1000
dypt
1000
0
  0
GROUP
  5
654
102
{ACAD_REACTORS
330
D
102
}
330
D
100
AcDbGroup
300

 70
     0
 71
     1
1001
GRPNAME
1000
DREC-
1001
GPARA
1000
xsiz
1000
54.592
1000
ysiz
1000
53.036
1000
angl
1000
0
1000
ctyp
1000
0
1000
csiz
1000
5
1000
lfnt
1000
cont
1000
hcnt
1000
hoff
1000
vcnt
1000
voff
1000
opnt
1000
4
1000
dxpt
1000
0
1000
dypt
1000
0
  0
GROUP
  5
673
102
{ACAD_REACTORS
330
D
102
}
330
D
100
AcDbGroup
300

 70
     0
 71
     1
1001
GRPNAME
1000
DREC-
1001
GPARA
1000
xsiz
1000
30.363
1000
ysiz
1000
36.175
1000
angl
1000
0
1000
ctyp
1000
0
1000
csiz
1000
5
1000
lfnt
1000
cont
1000
hcnt
1000
hoff
1000
vcnt
1000
voff
1000
opnt
1000
4
1000
dxpt
1000
0
1000
dypt
1000
0
  0
MLINESTYLE
  5
13
102
{ACAD_REACTORS
330
E
102
}
330
E
100
AcDbMlineStyle
  2
STANDARD
 70
     0
  3

 62
     0
 51
90.0
 52
90.0
 71
     2
 49
0.5
 62
   256
  6
BYLAYER
 49
-0.5
 62
   256
  6
BYLAYER
  0
PLOTSETTINGS
  5
758
102
{ACAD_REACTORS
330
566
102
}
330
566
100
AcDbPlotSettings
  1
A3(0.5倍)
  2
\\AWTECPC05\HP DeskJet 1120C
  4
A3
  6

 40
5.95841646
 41
13.49375153
 42
6.04309082
 43
3.67242432
 44
296.92599487
 45
419.94665527
 46
89.96
 47
127.14
 48
0.0
 49
0.0
140
0.0
141
0.0
142
1.0
143
2.0
 70
  1716
 72
     1
 73
     1
 74
     2
  7
big.ctb
 75
    17
147
0.5
148
0.0
149
0.0
  0
PLOTSETTINGS
  5
757
102
{ACAD_REACTORS
330
566
102
}
330
566
100
AcDbPlotSettings
  1
A3(1倍)
  2
\\AWTECPC05\HP DeskJet 1120C
  4
A3
  6

 40
5.95841646
 41
13.49375153
 42
6.04309082
 43
3.67242432
 44
296.92599487
 45
419.94665527
 46
37.46
 47
52.89
 48
0.0
 49
0.0
140
0.0
141
0.0
142
1.0
143
1.0
 70
  1716
 72
     1
 73
     1
 74
     2
  7
big.ctb
 75
    16
147
1.0
148
0.0
149
0.0
  0
PLOTSETTINGS
  5
707
102
{ACAD_REACTORS
330
566
102
}
330
566
100
AcDbPlotSettings
  1
A3(1倍)(2000)
  2
SII LS-1300 (D-SCAN)
  4
User258
  6

 40
3.17499995
 41
3.17499995
 42
3.17498779
 43
3.17498779
 44
419.98898315
 45
296.98950195
 46
58.32
 47
40.32
 48
0.0
 49
0.0
140
0.0
141
0.0
142
1.0
143
1.0
 70
  1716
 72
     1
 73
     0
 74
     2
  7
big.ctb
 75
    16
147
1.0
148
0.0
149
0.0
  0
PLOTSETTINGS
  5
759
102
{ACAD_REACTORS
330
566
102
}
330
566
100
AcDbPlotSettings
  1
A3(2倍)
  2
\\AWTECPC05\HP DeskJet 1120C
  4
A3
  6

 40
5.95841646
 41
13.49375153
 42
6.04309082
 43
3.67242432
 44
296.92599487
 45
419.94665527
 46
-67.54
 47
-95.61
 48
0.0
 49
0.0
140
0.0
141
0.0
142
1.0
143
0.5
 70
  1716
 72
     1
 73
     1
 74
     2
  7
big.ctb
 75
    27
147
2.0
148
0.0
149
0.0
  0
PLOTSETTINGS
  5
755
102
{ACAD_REACTORS
330
566
102
}
330
566
100
AcDbPlotSettings
  1
A4(0.5倍)
  2
\\AWTECPC05\HP DeskJet 1120C
  4
A4
  6

 40
4.18041658
 41
13.49374962
 42
4.18040466
 43
3.92642212
 44
209.97332764
 45
296.92599487
 46
48.31
 47
65.5
 48
0.0
 49
0.0
140
0.0
141
0.0
142
1.0
143
2.0
 70
  1716
 72
     1
 73
     1
 74
     2
  7
big.ctb
 75
    17
147
0.5
148
0.0
149
0.0
  0
PLOTSETTINGS
  5
754
102
{ACAD_REACTORS
330
566
102
}
330
566
100
AcDbPlotSettings
  1
A4(1倍)
  2
\\AWTECPC05\HP DeskJet 1120C
  4
A4
  6

 40
4.18041658
 41
13.49374962
 42
4.18040466
 43
3.92642212
 44
209.97332764
 45
296.92599487
 46
-4.19
 47
-8.75
 48
0.0
 49
0.0
140
0.0
141
0.0
142
1.0
143
1.0
 70
  1716
 72
     1
 73
     1
 74
     2
  7
big.ctb
 75
    16
147
1.0
148
0.0
149
0.0
  0
PLOTSETTINGS
  5
708
102
{ACAD_REACTORS
330
566
102
}
330
566
100
AcDbPlotSettings
  1
A4(1倍)(2000)
  2
SII LS-1300 (D-SCAN)
  4
User259
  6

 40
3.17499995
 41
3.17499995
 42
3.17498779
 43
3.17500305
 44
296.98950195
 45
209.99449158
 46
-3.18
 47
-3.18
 48
0.0
 49
0.0
140
0.0
141
0.0
142
1.0
143
1.0
 70
  1716
 72
     1
 73
     0
 74
     2
  7
big.ctb
 75
    16
147
1.0
148
0.0
149
0.0
  0
PLOTSETTINGS
  5
756
102
{ACAD_REACTORS
330
566
102
}
330
566
100
AcDbPlotSettings
  1
A4(2倍)
  2
\\AWTECPC05\HP DeskJet 1120C
  4
A4
  6

 40
4.18041658
 41
13.49374962
 42
4.18040466
 43
3.92642212
 44
209.97332764
 45
296.92599487
 46
-109.19
 47
-157.25
 48
0.0
 49
0.0
140
0.0
141
0.0
142
1.0
143
0.5
 70
  1716
 72
     1
 73
     1
 74
     2
  7
big.ctb
 75
    27
147
2.0
148
0.0
149
0.0
  0
ACDBPLACEHOLDER
  5
564
102
{ACAD_REACTORS
330
563
102
}
330
563
100
AcDbPlaceHolder
280
     0
  0
XRECORD
  5
1405
102
{ACAD_REACTORS
330
13FB
102
}
330
13FB
100
AcDbXrecord
 90
        0
  0
XRECORD
  5
1409
102
{ACAD_REACTORS
330
13FB
102
}
330
13FB
100
AcDbXrecord
1000
DSTYLE
1002
{
1070
    79
 70
     2
1070
   179
 70
     3
1070
   341
340
594
1070
   343
340
594
1070
   344
340
594
1070
   371
 70
    -1
1070
   372
 70
    -1
1002
}
  0
XRECORD
  5
1406
102
{ACAD_REACTORS
330
13FB
102
}
330
13FB
100
AcDbXrecord
  1
{51294030-9CB4-11D3-8E18-00A0C925D94D}
  0
XRECORD
  5
13FE
102
{ACAD_REACTORS
330
13FB
102
}
330
13FB
100
AcDbXrecord
  1

  0
XRECORD
  5
1404
102
{ACAD_REACTORS
330
13FB
102
}
330
13FB
100
AcDbXrecord
 90
        0
  0
XRECORD
  5
1400
102
{ACAD_REACTORS
330
13FB
102
}
330
13FB
100
AcDbXrecord
340
565
  0
XRECORD
  5
1403
102
{ACAD_REACTORS
330
13FB
102
}
330
13FB
100
AcDbXrecord
 90
    10781
  0
XRECORD
  5
1401
102
{ACAD_REACTORS
330
13FB
102
}
330
13FB
100
AcDbXrecord
340
566
  0
XRECORD
  5
1402
102
{ACAD_REACTORS
330
13FB
102
}
330
13FB
100
AcDbXrecord
340
563
  0
XRECORD
  5
1408
102
{ACAD_REACTORS
330
13FB
102
}
330
13FB
100
AcDbXrecord
 40
0.0
  0
XRECORD
  5
140C
102
{ACAD_REACTORS
330
13FB
102
}
330
13FB
100
AcDbXrecord
340
0
  0
XRECORD
  5
1412
102
{ACAD_REACTORS
330
13FB
102
}
330
13FB
100
AcDbXrecord
 10
0.0
 20
0.0
 30
0.0
  0
XRECORD
  5
140E
102
{ACAD_REACTORS
330
13FB
102
}
330
13FB
100
AcDbXrecord
 10
0.0
 20
0.0
 30
0.0
  0
XRECORD
  5
1411
102
{ACAD_REACTORS
330
13FB
102
}
330
13FB
100
AcDbXrecord
 10
0.0
 20
0.0
 30
0.0
  0
XRECORD
  5
140F
102
{ACAD_REACTORS
330
13FB
102
}
330
13FB
100
AcDbXrecord
 10
0.0
 20
0.0
 30
0.0
  0
XRECORD
  5
1410
102
{ACAD_REACTORS
330
13FB
102
}
330
13FB
100
AcDbXrecord
 10
0.0
 20
0.0
 30
0.0
  0
XRECORD
  5
140D
102
{ACAD_REACTORS
330
13FB
102
}
330
13FB
100
AcDbXrecord
 10
0.0
 20
0.0
 30
0.0
  0
XRECORD
  5
140A
102
{ACAD_REACTORS
330
13FB
102
}
330
13FB
100
AcDbXrecord
340
0
  0
XRECORD
  5
140B
102
{ACAD_REACTORS
330
13FB
102
}
330
13FB
100
AcDbXrecord
 70
     0
  0
XRECORD
  5
13FF
102
{ACAD_REACTORS
330
13FB
102
}
330
13FB
100
AcDbXrecord
  1
big.ctb
  0
XRECORD
  5
13FC
102
{ACAD_REACTORS
330
13FB
102
}
330
13FB
100
AcDbXrecord
 90
        1
  0
XRECORD
  5
13FD
102
{ACAD_REACTORS
330
13FB
102
}
330
13FB
100
AcDbXrecord
 90
       70
  0
XRECORD
  5
1415
102
{ACAD_REACTORS
330
13FB
102
}
330
13FB
100
AcDbXrecord
340
0
  0
XRECORD
  5
141B
102
{ACAD_REACTORS
330
13FB
102
}
330
13FB
100
AcDbXrecord
 10
0.0
 20
0.0
 30
0.0
  0
XRECORD
  5
1417
102
{ACAD_REACTORS
330
13FB
102
}
330
13FB
100
AcDbXrecord
 10
0.0
 20
0.0
 30
0.0
  0
XRECORD
  5
141A
102
{ACAD_REACTORS
330
13FB
102
}
330
13FB
100
AcDbXrecord
 10
0.0
 20
0.0
 30
0.0
  0
XRECORD
  5
1418
102
{ACAD_REACTORS
330
13FB
102
}
330
13FB
100
AcDbXrecord
 10
0.0
 20
0.0
 30
0.0
  0
XRECORD
  5
1419
102
{ACAD_REACTORS
330
13FB
102
}
330
13FB
100
AcDbXrecord
 10
0.0
 20
0.0
 30
0.0
  0
XRECORD
  5
1416
102
{ACAD_REACTORS
330
13FB
102
}
330
13FB
100
AcDbXrecord
 10
0.0
 20
0.0
 30
0.0
  0
XRECORD
  5
1413
102
{ACAD_REACTORS
330
13FB
102
}
330
13FB
100
AcDbXrecord
340
0
  0
XRECORD
  5
1414
102
{ACAD_REACTORS
330
13FB
102
}
330
13FB
100
AcDbXrecord
 70
     0
  0
XRECORD
  5
1407
102
{ACAD_REACTORS
330
13FB
102
}
330
13FB
100
AcDbXrecord
  1
{0EA37915-B8AF-4763-B965-9848AF85C934}
  0
XRECORD
  5
560
102
{ACAD_REACTORS
330
540
102
}
330
540
100
AcDbXrecord
  1
2.0.0
  0
ENDSEC
  0
EOF
