  0
SECTION
  2
HEADER
  9
$ACADVER
  1
AC1014
  9
$ACADMAINTVER
 70
     9
  9
$DWGCODEPAGE
  3
ANSI_932
  9
$INSBASE
 10
0.0
 20
0.0
 30
0.0
  9
$EXTMIN
 10
-70.01495247
 20
-19.5703201
 30
-0.00152582
  9
$EXTMAX
 10
166.02783288
 20
54.0197928
 30
0.00000003
  9
$LIMMIN
 10
0.0
 20
0.0
  9
$LIMMAX
 10
420.0
 20
297.0
  9
$ORTHOMODE
 70
     1
  9
$REGENMODE
 70
     1
  9
$FILLMODE
 70
     1
  9
$QTEXTMODE
 70
     0
  9
$MIRRTEXT
 70
     1
  9
$DRAGMODE
 70
     2
  9
$LTSCALE
 40
10.0
  9
$OSMODE
 70
   549
  9
$ATTMODE
 70
     1
  9
$TEXTSIZE
 40
3.0
  9
$TRACEWID
 40
1.0
  9
$TEXTSTYLE
  7
YOKO
  9
$CLAYER
  8
245
  9
$CELTYPE
  6
BYLAYER
  9
$CECOLOR
 62
   256
  9
$CELTSCALE
 40
1.0
  9
$DELOBJ
 70
     1
  9
$DISPSILH
 70
     0
  9
$DIMSCALE
 40
1.0
  9
$DIMASZ
 40
2.0
  9
$DIMEXO
 40
2.0
  9
$DIMDLI
 40
2.5
  9
$DIMRND
 40
0.0
  9
$DIMDLE
 40
0.0
  9
$DIMEXE
 40
2.0
  9
$DIMTP
 40
0.0
  9
$DIMTM
 40
0.0
  9
$DIMTXT
 40
4.0
  9
$DIMCEN
 40
0.0
  9
$DIMTSZ
 40
0.0
  9
$DIMTOL
 70
     0
  9
$DIMLIM
 70
     0
  9
$DIMTIH
 70
     0
  9
$DIMTOH
 70
     0
  9
$DIMSE1
 70
     0
  9
$DIMSE2
 70
     0
  9
$DIMTAD
 70
     3
  9
$DIMZIN
 70
     8
  9
$DIMBLK
  1

  9
$DIMASO
 70
     1
  9
$DIMSHO
 70
     1
  9
$DIMPOST
  1

  9
$DIMAPOST
  1

  9
$DIMALT
 70
     0
  9
$DIMALTD
 70
     2
  9
$DIMALTF
 40
25.4
  9
$DIMLFAC
 40
1.0
  9
$DIMTOFL
 70
     1
  9
$DIMTVP
 40
0.0
  9
$DIMTIX
 70
     1
  9
$DIMSOXD
 70
     0
  9
$DIMSAH
 70
     1
  9
$DIMBLK1
  1
OPEN
  9
$DIMBLK2
  1
OPEN
  9
$DIMSTYLE
  2
BIGT
  9
$DIMCLRD
 70
   256
  9
$DIMCLRE
 70
   256
  9
$DIMCLRT
 70
    40
  9
$DIMTFAC
 40
1.0
  9
$DIMGAP
 40
1.0
  9
$DIMJUST
 70
     0
  9
$DIMSD1
 70
     0
  9
$DIMSD2
 70
     0
  9
$DIMTOLJ
 70
     1
  9
$DIMTZIN
 70
     8
  9
$DIMALTZ
 70
     0
  9
$DIMALTTZ
 70
     0
  9
$DIMFIT
 70
     3
  9
$DIMUPT
 70
     0
  9
$DIMUNIT
 70
     2
  9
$DIMDEC
 70
     3
  9
$DIMTDEC
 70
     3
  9
$DIMALTU
 70
     2
  9
$DIMALTTD
 70
     2
  9
$DIMTXSTY
  7
STANDARD
  9
$DIMAUNIT
 70
     0
  9
$LUNITS
 70
     2
  9
$LUPREC
 70
     3
  9
$SKETCHINC
 40
1.0
  9
$FILLETRAD
 40
1.0
  9
$AUNITS
 70
     0
  9
$AUPREC
 70
     3
  9
$MENU
  1
.
  9
$ELEVATION
 40
0.0
  9
$PELEVATION
 40
0.0
  9
$THICKNESS
 40
0.0
  9
$LIMCHECK
 70
     0
  9
$BLIPMODE
 70
     0
  9
$CHAMFERA
 40
10.0
  9
$CHAMFERB
 40
10.0
  9
$CHAMFERC
 40
0.0
  9
$CHAMFERD
 40
0.0
  9
$SKPOLY
 70
     0
  9
$TDCREATE
 40
2455128.583846388
  9
$TDUPDATE
 40
2455316.497086041
  9
$TDINDWG
 40
0.0058032986
  9
$TDUSRTIMER
 40
0.0058032986
  9
$USRTIMER
 70
     1
  9
$ANGBASE
 50
0.0
  9
$ANGDIR
 70
     0
  9
$PDMODE
 70
     1
  9
$PDSIZE
 40
-5.0
  9
$PLINEWID
 40
0.0
  9
$COORDS
 70
     0
  9
$SPLFRAME
 70
     0
  9
$SPLINETYPE
 70
     6
  9
$SPLINESEGS
 70
     8
  9
$ATTDIA
 70
     0
  9
$ATTREQ
 70
     1
  9
$HANDLING
 70
-16383
  9
$HANDSEED
  5
14CA
  9
$SURFTAB1
 70
     6
  9
$SURFTAB2
 70
     6
  9
$SURFTYPE
 70
     6
  9
$SURFU
 70
     6
  9
$SURFV
 70
     6
  9
$UCSNAME
  2

  9
$UCSORG
 10
0.0
 20
0.0
 30
0.0
  9
$UCSXDIR
 10
1.0
 20
0.0
 30
0.0
  9
$UCSYDIR
 10
0.0
 20
1.0
 30
0.0
  9
$PUCSNAME
  2

  9
$PUCSORG
 10
0.0
 20
0.0
 30
0.0
  9
$PUCSXDIR
 10
1.0
 20
0.0
 30
0.0
  9
$PUCSYDIR
 10
0.0
 20
1.0
 30
0.0
  9
$USERI1
 70
     1
  9
$USERI2
 70
     0
  9
$USERI3
 70
     0
  9
$USERI4
 70
     0
  9
$USERI5
 70
     0
  9
$USERR1
 40
0.0
  9
$USERR2
 40
0.0
  9
$USERR3
 40
0.0
  9
$USERR4
 40
0.0
  9
$USERR5
 40
0.0
  9
$WORLDVIEW
 70
     1
  9
$SHADEDGE
 70
     3
  9
$SHADEDIF
 70
    70
  9
$TILEMODE
 70
     1
  9
$MAXACTVP
 70
    16
  9
$PINSBASE
 10
0.0
 20
0.0
 30
0.0
  9
$PLIMCHECK
 70
     0
  9
$PEXTMIN
 10
1.00000000E+20
 20
1.00000000E+20
 30
1.00000000E+20
  9
$PEXTMAX
 10
-1.00000000E+20
 20
-1.00000000E+20
 30
-1.00000000E+20
  9
$PLIMMIN
 10
0.0
 20
0.0
  9
$PLIMMAX
 10
420.0
 20
297.0
  9
$UNITMODE
 70
     0
  9
$VISRETAIN
 70
     0
  9
$PLINEGEN
 70
     0
  9
$PSLTSCALE
 70
     1
  9
$TREEDEPTH
 70
  3020
  9
$PICKSTYLE
 70
     0
  9
$CMLSTYLE
  2
STANDARD
  9
$CMLJUST
 70
     0
  9
$CMLSCALE
 40
1.0
  9
$PROXYGRAPHICS
 70
     1
  9
$MEASUREMENT
 70
     1
  0
ENDSEC
  0
SECTION
  2
CLASSES
  0
CLASS
  1
XRECORD
  2
AcDbXrecord
  3
AutoCAD 2000
 90
        0
280
     0
281
     0
  0
CLASS
  1
ACDBDICTIONARYWDFLT
  2
AcDbDictionaryWithDefault
  3
AutoCAD 2000
 90
        0
280
     0
281
     0
  0
CLASS
  1
ACDBPLACEHOLDER
  2
AcDbPlaceHolder
  3
AutoCAD 2000
 90
        0
280
     0
281
     0
  0
CLASS
  1
LAYOUT
  2
AcDbLayout
  3
AutoCAD 2000
 90
        0
280
     0
281
     0
  0
CLASS
  1
PLOTSETTINGS
  2
AcDbPlotSettings
  3
AutoCAD 2000
 90
        0
280
     0
281
     0
  0
CLASS
  1
LONG_TRANSACTION
  2
AcDbLongTransaction
  3
AutoCAD 2000
 90
        0
280
     0
281
     0
  0
CLASS
  1
LWPOLYLINE
  2
AcDbPolyline
  3
AutoCAD 2000
 90
        0
280
     0
281
     1
  0
CLASS
  1
HATCH
  2
AcDbHatch
  3
AutoCAD 2000
 90
        0
280
     0
281
     1
  0
CLASS
  1
XRECORD
  2
AcDbXrecord
  3
AutoCAD 2000
 90
        0
280
     0
281
     0
  0
CLASS
  1
LONG_TRANSACTION
  2
AcDbLongTransaction
  3
AutoCAD 2000
 90
        0
280
     0
281
     0
  0
CLASS
  1
LWPOLYLINE
  2
AcDbPolyline
  3
AutoCAD 2000
 90
        0
280
     0
281
     1
  0
CLASS
  1
HATCH
  2
AcDbHatch
  3
AutoCAD 2000
 90
        0
280
     0
281
     1
  0
CLASS
  1
XRECORD
  2
AcDbXrecord
  3
AutoCAD 2000
 90
        0
280
     0
281
     0
  0
ENDSEC
  0
SECTION
  2
TABLES
  0
TABLE
  2
VPORT
  5
8
330
0
100
AcDbSymbolTable
 70
     3
  0
VPORT
  5
14A5
330
8
100
AcDbSymbolTableRecord
100
AcDbViewportTableRecord
  2
*ACTIVE
 70
     0
 10
0.0
 20
0.0
 11
1.0
 21
1.0
 12
48.0064402
 22
17.22473635
 13
0.0
 23
0.0
 14
7.0
 24
7.0
 15
7.0
 25
7.0
 16
0.0
 26
0.0
 36
1.0
 17
0.0
 27
0.0
 37
0.0
 40
165.73081829
 41
1.43184713
 42
50.0
 43
0.0
 44
0.0
 50
0.0
 51
0.0
 71
     0
 72
  2000
 73
     1
 74
     0
 75
     0
 76
     0
 77
     0
 78
     0
  0
ENDTAB
  0
TABLE
  2
LTYPE
  5
5
330
0
100
AcDbSymbolTable
 70
     3
  0
LTYPE
  5
14
330
5
100
AcDbSymbolTableRecord
100
AcDbLinetypeTableRecord
  2
BYBLOCK
 70
     0
  3

 72
    65
 73
     0
 40
0.0
  0
LTYPE
  5
15
330
5
100
AcDbSymbolTableRecord
100
AcDbLinetypeTableRecord
  2
BYLAYER
 70
     0
  3

 72
    65
 73
     0
 40
0.0
  0
LTYPE
  5
16
330
5
100
AcDbSymbolTableRecord
100
AcDbLinetypeTableRecord
  2
CONTINUOUS
 70
     0
  3
Solid line
 72
    65
 73
     0
 40
0.0
  0
LTYPE
  5
258
330
5
100
AcDbSymbolTableRecord
100
AcDbLinetypeTableRecord
  2
CENTER2
 70
     0
  3
___ _ ___ _ ___ _ ___ _ ___ _ ___ _ ___ _ ___ _
 72
    65
 73
     4
 40
1.125
 49
0.75
 74
     0
 49
-0.125
 74
     0
 49
0.125
 74
     0
 49
-0.125
 74
     0
  0
LTYPE
  5
25C
330
5
100
AcDbSymbolTableRecord
100
AcDbLinetypeTableRecord
  2
HIDDEN2
 70
     0
  3
_ _ _ _ _ _ _ _ _ _ _ _ _ _ _ _ _ _ _ _ _ _ _ _
 72
    65
 73
     2
 40
0.1875
 49
0.125
 74
     0
 49
-0.0625
 74
     0
  0
ENDTAB
  0
TABLE
  2
LAYER
  5
2
330
0
100
AcDbSymbolTable
 70
    10
  0
LAYER
  5
F
330
2
100
AcDbSymbolTableRecord
100
AcDbLayerTableRecord
  2
0
 70
     0
 62
     7
  6
CONTINUOUS
  0
LAYER
  5
1AA
330
2
100
AcDbSymbolTableRecord
100
AcDbLayerTableRecord
  2
240
 70
     0
 62
     4
  6
CONTINUOUS
  0
LAYER
  5
1AB
330
2
100
AcDbSymbolTableRecord
100
AcDbLayerTableRecord
  2
241
 70
     0
 62
   211
  6
CONTINUOUS
  0
LAYER
  5
1AC
330
2
100
AcDbSymbolTableRecord
100
AcDbLayerTableRecord
  2
242
 70
     0
 62
     3
  6
CONTINUOUS
  0
LAYER
  5
1AD
330
2
100
AcDbSymbolTableRecord
100
AcDbLayerTableRecord
  2
243
 70
     0
 62
   211
  6
HIDDEN2
  0
LAYER
  5
1AF
330
2
100
AcDbSymbolTableRecord
100
AcDbLayerTableRecord
  2
245
 70
     0
 62
     2
  6
CENTER2
  0
LAYER
  5
21E
330
2
100
AcDbSymbolTableRecord
100
AcDbLayerTableRecord
  2
250
 70
     0
 62
     3
  6
CONTINUOUS
  0
LAYER
  5
21F
330
2
100
AcDbSymbolTableRecord
100
AcDbLayerTableRecord
  2
251
 70
     0
 62
    40
  6
CONTINUOUS
  0
LAYER
  5
5C4
330
2
100
AcDbSymbolTableRecord
100
AcDbLayerTableRecord
  2
DEFPOINTS
 70
     0
 62
     7
  6
CONTINUOUS
  0
ENDTAB
  0
TABLE
  2
STYLE
  5
3
330
0
100
AcDbSymbolTable
 70
     2
  0
STYLE
  5
10
330
3
100
AcDbSymbolTableRecord
100
AcDbTextStyleTableRecord
  2
STANDARD
 70
     0
 40
0.0
 41
1.0
 50
0.0
 71
     0
 42
3.0
  3
romans.shx
  4
BIGFONT.SHX
  0
STYLE
  5
339
330
3
100
AcDbSymbolTableRecord
100
AcDbTextStyleTableRecord
  2
YOKO
 70
     0
 40
0.0
 41
1.0
 50
0.0
 71
     0
 42
3.0
  3
romans.shx
  4
extfont.shx
  0
ENDTAB
  0
TABLE
  2
VIEW
  5
6
330
0
100
AcDbSymbolTable
 70
     0
  0
ENDTAB
  0
TABLE
  2
UCS
  5
7
330
0
100
AcDbSymbolTable
 70
     0
  0
ENDTAB
  0
TABLE
  2
APPID
  5
9
330
0
100
AcDbSymbolTable
 70
    15
  0
APPID
  5
11
330
9
100
AcDbSymbolTableRecord
100
AcDbRegAppTableRecord
  2
ACAD
 70
     0
  0
APPID
  5
1B1
330
9
100
AcDbSymbolTableRecord
100
AcDbRegAppTableRecord
  2
GLOBAL
 70
     0
  0
APPID
  5
2A4
330
9
100
AcDbSymbolTableRecord
100
AcDbRegAppTableRecord
  2
DETAIL
 70
     0
  0
APPID
  5
5FD
330
9
100
AcDbSymbolTableRecord
100
AcDbRegAppTableRecord
  2
GRPNAME
 70
     0
  0
APPID
  5
5FE
330
9
100
AcDbSymbolTableRecord
100
AcDbRegAppTableRecord
  2
GPARA
 70
     0
  0
APPID
  5
6C4
330
9
100
AcDbSymbolTableRecord
100
AcDbRegAppTableRecord
  2
DCO15
 70
     0
  0
APPID
  5
6C5
330
9
100
AcDbSymbolTableRecord
100
AcDbRegAppTableRecord
  2
ITEMNAME
 70
     0
  0
APPID
  5
6C6
330
9
100
AcDbSymbolTableRecord
100
AcDbRegAppTableRecord
  2
GRADE_0
 70
     0
  0
APPID
  5
82A
330
9
100
AcDbSymbolTableRecord
100
AcDbRegAppTableRecord
  2
GENIUS_GENODEF_13
 70
     0
  0
APPID
  5
82B
330
9
100
AcDbSymbolTableRecord
100
AcDbRegAppTableRecord
  2
GENIUS_GENOREF_13
 70
     0
  0
APPID
  5
82C
330
9
100
AcDbSymbolTableRecord
100
AcDbRegAppTableRecord
  2
GENIUS_GENOBJ-N-FIL_13
 70
     0
  0
APPID
  5
82D
330
9
100
AcDbSymbolTableRecord
100
AcDbRegAppTableRecord
  2
HATCH_TYPE
 70
     0
  0
APPID
  5
82E
330
9
100
AcDbSymbolTableRecord
100
AcDbRegAppTableRecord
  2
HATCH_DISPLAY
 70
     0
  0
APPID
  5
82F
330
9
100
AcDbSymbolTableRecord
100
AcDbRegAppTableRecord
  2
HATCH_DISTANCE
 70
     0
  0
APPID
  5
11D3
330
9
100
AcDbSymbolTableRecord
100
AcDbRegAppTableRecord
  2
CONTENTBLOCKICON
 70
     0
  0
ENDTAB
  0
TABLE
  2
DIMSTYLE
  5
A
330
0
100
AcDbSymbolTable
 70
     1
  0
DIMSTYLE
105
725
102
{ACAD_REACTORS
330
F43
330
FED
330
FEE
102
}
330
A
100
AcDbSymbolTableRecord
100
AcDbDimStyleTableRecord
  2
BIGT
 70
     0
  3

  4

  5

  6
OPEN
  7
OPEN
 40
1.0
 41
2.23
 42
0.5
 43
2.5
 44
1.0
 45
0.0
 46
0.0
 47
0.0
 48
0.0
140
2.8
141
0.0
142
0.0
143
25.4
144
1.0
145
0.0
146
1.0
147
1.0
 71
     0
 72
     0
 73
     0
 74
     0
 75
     0
 76
     0
 77
     3
 78
     8
170
     0
171
     2
172
     1
173
     1
174
     1
175
     0
176
   256
177
   256
178
    40
270
     2
271
     3
272
     3
273
     2
274
     2
340
10
275
     0
280
     0
281
     0
282
     0
283
     1
284
     8
285
     0
286
     0
287
     3
288
     0
  0
ENDTAB
  0
TABLE
  2
BLOCK_RECORD
  5
1
330
0
100
AcDbSymbolTable
 70
     6
  0
BLOCK_RECORD
  5
1A
102
{ACAD_XDICTIONARY
360
11D1
102
}
330
1
100
AcDbSymbolTableRecord
100
AcDbBlockTableRecord
  2
*MODEL_SPACE
  0
BLOCK_RECORD
  5
17
102
{ACAD_XDICTIONARY
360
11CF
102
}
330
1
100
AcDbSymbolTableRecord
100
AcDbBlockTableRecord
  2
*PAPER_SPACE
  0
BLOCK_RECORD
  5
594
330
1
100
AcDbSymbolTableRecord
100
AcDbBlockTableRecord
  2
_OPEN
  0
BLOCK_RECORD
  5
6E3
330
1
100
AcDbSymbolTableRecord
100
AcDbBlockTableRecord
  2
矢印なし
  0
BLOCK_RECORD
  5
FEF
330
1
100
AcDbSymbolTableRecord
100
AcDbBlockTableRecord
  2
*D2
  0
BLOCK_RECORD
  5
FFB
330
1
100
AcDbSymbolTableRecord
100
AcDbBlockTableRecord
  2
*D3
  0
BLOCK_RECORD
  5
1007
330
1
100
AcDbSymbolTableRecord
100
AcDbBlockTableRecord
  2
*D4
  0
BLOCK_RECORD
  5
1046
330
1
100
AcDbSymbolTableRecord
100
AcDbBlockTableRecord
  2
1
1001
CONTENTBLOCKICON
1071
        0
1004
2800000020000000200000000100080000000000000400000000000000000000000000000000000000000000000080000080000000808000800000008000800080800000C0C0C000C0DCC000F0CAA6000020400000206000002080000020A0000020C0000020E00000400000004020000040400000406000004080000040A0
1004
000040C0000040E00000600000006020000060400000606000006080000060A0000060C0000060E00000800000008020000080400000806000008080000080A0000080C0000080E00000A0000000A0200000A0400000A0600000A0800000A0A00000A0C00000A0E00000C0000000C0200000C0400000C0600000C0800000C0
1004
A00000C0C00000C0E00000E0000000E0200000E0400000E0600000E0800000E0A00000E0C00000E0E00040000000400020004000400040006000400080004000A0004000C0004000E00040200000402020004020400040206000402080004020A0004020C0004020E000404000004040200040404000404060004040800040
1004
40A0004040C0004040E00040600000406020004060400040606000406080004060A0004060C0004060E00040800000408020004080400040806000408080004080A0004080C0004080E00040A0000040A0200040A0400040A0600040A0800040A0A00040A0C00040A0E00040C0000040C0200040C0400040C0600040C08000
1004
40C0A00040C0C00040C0E00040E0000040E0200040E0400040E0600040E0800040E0A00040E0C00040E0E00080000000800020008000400080006000800080008000A0008000C0008000E00080200000802020008020400080206000802080008020A0008020C0008020E00080400000804020008040400080406000804080
1004
008040A0008040C0008040E00080600000806020008060400080606000806080008060A0008060C0008060E00080800000808020008080400080806000808080008080A0008080C0008080E00080A0000080A0200080A0400080A0600080A0800080A0A00080A0C00080A0E00080C0000080C0200080C0400080C0600080C0
1004
800080C0A00080C0C00080C0E00080E0000080E0200080E0400080E0600080E0800080E0A00080E0C00080E0E000C0000000C0002000C0004000C0006000C0008000C000A000C000C000C000E000C0200000C0202000C0204000C0206000C0208000C020A000C020C000C020E000C0400000C0402000C0404000C0406000C0
1004
408000C040A000C040C000C040E000C0600000C0602000C0604000C0606000C0608000C060A000C060C000C060E000C0800000C0802000C0804000C0806000C0808000C080A000C080C000C080E000C0A00000C0A02000C0A04000C0A06000C0A08000C0A0A000C0A0C000C0A0E000C0C00000C0C02000C0C04000C0C06000
1004
C0C08000C0C0A000F0FBFF00A4A0A000808080000000FF0000FF000000FFFF00FF000000FF00FF00FFFF0000FFFFFF0000000000000000000000000000000000000000000000000000000000000000000000000000000000000000000000000000000000000000000000000000000000000000000000000000000000000000
1004
00000000000000000000000000000000000000000000000000000000000000000000000000000000000000000000000000000000000000000000000000000000000000000000000000000000000000000000000000000000000000000000000000000000000000000000000000000000000000000000000000000000000000
1004
00000000000000000000000000000000000000000000000000000000000000000000000000000000000000000000000000000000000000000000000000000000000000000000000000000000000000000000000000000000000000000000000000000000000000000000000000000000000000000000000000000000000000
1004
0000000000000000000000000000000000000000000000000000000000000000000000000000000000000000000000000000000000000000000000000000000000000000000000000000000000000000000000000000000000000000FEFE0000000000000000000000000000000000000000000000FEFEFEFEFEFEFEFEE7FE
1004
FEFEFEFEFEFEFEFEFEFEFEFEFEFEFEFEFEFE00000000FE00FBE7E7FBE7E7E7000000000000000000000000000000E7E700FE000000FBFEFBFBE7E7E7E7E7E7FBFBFBFBFFFFFFFFFFFFFFFBFBFBFBE7E7E7E7FB000000FEFEFEFEFEFEFEFEE7FEFEFEFEFFFFFEFEFEFEFEFEFEFEFEFEFEFEFE0000000000000000000000FEFE
1004
00000000000000000000000000000000000000000000000000000000000000000000000000000000000000000000000000000000000000000000000000000000000000000000000000000000000000000000000000000000000000000000000000000000000000000000000000000000000000000000000000000000000000
1004
00000000000000000000000000000000000000000000000000000000000000000000000000000000000000000000000000000000000000000000000000000000000000000000000000000000000000000000000000000000000000000000000000000000000000000000000000000000000000000000000000000000000000
1004
00000000000000000000000000000000000000000000000000000000000000000000000000000000000000000000000000000000000000000000000000000000000000000000000000000000000000000000000000000000000000000000000000000000000000000000000000000000000000000000000000000000000000
1004
0000000000000000000000000000000000000000000000000000000000000000000000000000000000000000000000000000000000000000
  0
ENDTAB
  0
ENDSEC
  0
SECTION
  2
BLOCKS
  0
BLOCK
  5
1B
330
1A
100
AcDbEntity
  8
0
100
AcDbBlockBegin
  2
*MODEL_SPACE
 70
     0
 10
0.0
 20
0.0
 30
0.0
  3
*MODEL_SPACE
  1

  0
ENDBLK
  5
1C
330
1A
100
AcDbEntity
  8
0
100
AcDbBlockEnd
  0
BLOCK
  5
18
330
17
100
AcDbEntity
 67
     1
  8
0
100
AcDbBlockBegin
  2
*PAPER_SPACE
 70
     0
 10
0.0
 20
0.0
 30
0.0
  3
*PAPER_SPACE
  1

  0
ENDBLK
  5
19
330
17
100
AcDbEntity
 67
     1
  8
0
100
AcDbBlockEnd
  0
BLOCK
  5
598
330
594
100
AcDbEntity
  8
0
100
AcDbBlockBegin
  2
_OPEN
 70
     0
 10
0.0
 20
0.0
 30
0.0
  3
_OPEN
  1

  0
LINE
  5
595
330
594
100
AcDbEntity
  8
0
  6
BYBLOCK
 62
     0
100
AcDbLine
 10
-1.0
 20
0.16666667
 30
0.0
 11
0.0
 21
0.0
 31
0.0
  0
LINE
  5
596
330
594
100
AcDbEntity
  8
0
  6
BYBLOCK
 62
     0
100
AcDbLine
 10
-1.0
 20
-0.16666667
 30
0.0
 11
0.0
 21
0.0
 31
0.0
  0
LINE
  5
597
330
594
100
AcDbEntity
  8
0
  6
BYBLOCK
 62
     0
100
AcDbLine
 10
0.0
 20
0.0
 30
0.0
 11
-1.0
 21
0.0
 31
0.0
  0
ENDBLK
  5
599
330
594
100
AcDbEntity
  8
0
100
AcDbBlockEnd
  0
BLOCK
  5
6E4
330
6E3
100
AcDbEntity
  8
0
100
AcDbBlockBegin
  2
矢印なし
 70
     0
 10
0.0
 20
0.0
 30
0.0
  3
矢印なし
  1

  0
ENDBLK
  5
6E5
330
6E3
100
AcDbEntity
  8
0
100
AcDbBlockEnd
  0
BLOCK
  5
FF9
330
FEF
100
AcDbEntity
  8
0
100
AcDbBlockBegin
  2
*D2
 70
     1
 10
0.0
 20
0.0
 30
0.0
  3
*D2
  1

  0
LINE
  5
102C
330
FEF
100
AcDbEntity
  8
250
  6
CONTINUOUS
100
AcDbLine
 10
0.0
 20
19.64125603
 30
0.0
 11
0.0
 21
36.0
 31
0.0
  0
LINE
  5
102D
330
FEF
100
AcDbEntity
  8
250
  6
CONTINUOUS
100
AcDbLine
 10
150.0
 20
14.6316525
 30
0.0
 11
150.0
 21
36.0
 31
0.0
  0
LINE
  5
102E
330
FEF
100
AcDbEntity
  8
250
  6
CONTINUOUS
100
AcDbLine
 10
2.23
 20
35.0
 30
0.0
 11
147.77
 21
35.0
 31
0.0
  0
INSERT
  5
102F
330
FEF
100
AcDbEntity
  8
250
  6
CONTINUOUS
100
AcDbBlockReference
  2
_OPEN
 10
0.0
 20
35.0
 30
0.0
 41
2.23
 42
2.23
 43
2.23
 50
180.0
  0
INSERT
  5
1030
330
FEF
100
AcDbEntity
  8
250
  6
CONTINUOUS
100
AcDbBlockReference
  2
_OPEN
 10
150.0
 20
35.0
 30
0.0
 41
2.23
 42
2.23
 43
2.23
  0
MTEXT
  5
1031
330
FEF
100
AcDbEntity
  8
250
  6
CONTINUOUS
 62
    40
100
AcDbMText
 10
75.0
 20
37.4
 30
0.0
 40
2.8
 41
0.0
 71
     5
 72
     1
  1
\A1;150
1001
ACAD
1000
MTEXTBEGIN
1070
    73
1070
     1
1070
    44
1040
1.0
1070
    74
1070
     0
1000
MTEXTEND
1000
MTEXTBEGIN
1070
    73
1070
     1
1070
    44
1040
1.0
1070
    74
1070
     0
1000
MTEXTEND
  0
POINT
  5
1032
330
FEF
100
AcDbEntity
  8
DEFPOINTS
  6
CONTINUOUS
 62
     0
100
AcDbPoint
 10
0.0
 20
19.14125603
 30
0.0
  0
POINT
  5
1033
330
FEF
100
AcDbEntity
  8
DEFPOINTS
  6
CONTINUOUS
 62
     0
100
AcDbPoint
 10
150.0
 20
14.1316525
 30
0.0
  0
POINT
  5
1034
330
FEF
100
AcDbEntity
  8
DEFPOINTS
  6
CONTINUOUS
 62
     0
100
AcDbPoint
 10
150.0
 20
35.0
 30
0.0
  0
ENDBLK
  5
FFA
330
FEF
100
AcDbEntity
  8
0
100
AcDbBlockEnd
  0
BLOCK
  5
1005
330
FFB
100
AcDbEntity
  8
0
100
AcDbBlockBegin
  2
*D3
 70
     1
 10
0.0
 20
0.0
 30
0.0
  3
*D3
  1

  0
LINE
  5
103D
330
FFB
100
AcDbEntity
  8
250
  6
CONTINUOUS
100
AcDbLine
 10
149.6316525
 20
-15.0
 30
0.0
 11
166.0
 21
-15.0
 31
0.0
  0
LINE
  5
103E
330
FFB
100
AcDbEntity
  8
250
  6
CONTINUOUS
100
AcDbLine
 10
149.6316525
 20
15.0
 30
0.0
 11
166.0
 21
15.0
 31
0.0
  0
LINE
  5
103F
330
FFB
100
AcDbEntity
  8
250
  6
CONTINUOUS
100
AcDbLine
 10
165.0
 20
-13.0
 30
0.0
 11
165.0
 21
13.0
 31
0.0
  0
INSERT
  5
1040
330
FFB
100
AcDbEntity
  8
250
  6
CONTINUOUS
100
AcDbBlockReference
  2
_OPEN
 10
165.0
 20
-15.0
 30
0.0
 41
2.0
 42
2.0
 43
2.0
 50
270.0
  0
INSERT
  5
1041
330
FFB
100
AcDbEntity
  8
250
  6
CONTINUOUS
100
AcDbBlockReference
  2
_OPEN
 10
165.0
 20
15.0
 30
0.0
 41
2.0
 42
2.0
 43
2.0
 50
90.0
  0
MTEXT
  5
1042
330
FFB
100
AcDbEntity
  8
250
  6
CONTINUOUS
 62
    40
100
AcDbMText
 10
162.6
 20
0.0
 30
0.0
 40
2.8
 41
0.0
 71
     5
 72
     1
  1
\A1;{\H2.8;%%C}30
 11
0.0
 21
1.0
 31
0.0
1001
ACAD
1000
MTEXTBEGIN
1070
    73
1070
     1
1070
    44
1040
1.0
1070
    74
1070
     0
1000
MTEXTEND
1000
MTEXTBEGIN
1070
    73
1070
     1
1070
    44
1040
1.0
1070
    74
1070
     0
1000
MTEXTEND
  0
POINT
  5
1043
330
FFB
100
AcDbEntity
  8
DEFPOINTS
  6
CONTINUOUS
 62
     0
100
AcDbPoint
 10
149.1316525
 20
-15.0
 30
0.0
  0
POINT
  5
1044
330
FFB
100
AcDbEntity
  8
DEFPOINTS
  6
CONTINUOUS
 62
     0
100
AcDbPoint
 10
149.1316525
 20
15.0
 30
0.0
  0
POINT
  5
1045
330
FFB
100
AcDbEntity
  8
DEFPOINTS
  6
CONTINUOUS
 62
     0
100
AcDbPoint
 10
165.0
 20
15.0
 30
0.0
  0
ENDBLK
  5
1006
330
FFB
100
AcDbEntity
  8
0
100
AcDbBlockEnd
  0
BLOCK
  5
1010
330
1007
100
AcDbEntity
  8
0
100
AcDbBlockBegin
  2
*D4
 70
     1
 10
0.0
 20
0.0
 30
0.0
  3
*D4
  1

  0
LINE
  5
1035
330
1007
100
AcDbEntity
  8
250
  6
CONTINUOUS
100
AcDbLine
 10
150.0
 20
4.25
 30
0.0
 11
159.0
 21
4.25
 31
0.0
  0
LINE
  5
1036
330
1007
100
AcDbEntity
  8
250
  6
CONTINUOUS
100
AcDbLine
 10
158.0
 20
-2.02
 30
0.0
 11
158.0
 21
2.02
 31
0.0
  0
INSERT
  5
1037
330
1007
100
AcDbEntity
  8
250
  6
CONTINUOUS
100
AcDbBlockReference
  2
矢印なし
 10
158.0
 20
-4.25
 30
0.0
 41
2.23
 42
2.23
 43
2.23
 50
270.0
  0
INSERT
  5
1038
330
1007
100
AcDbEntity
  8
250
  6
CONTINUOUS
100
AcDbBlockReference
  2
_OPEN
 10
158.0
 20
4.25
 30
0.0
 41
2.23
 42
2.23
 43
2.23
 50
90.0
  0
MTEXT
  5
1039
330
1007
100
AcDbEntity
  8
250
  6
CONTINUOUS
 62
    40
100
AcDbMText
 10
155.6
 20
-1.57812559
 30
0.0
 40
2.8
 41
0.0
 71
     5
 72
     1
  1
\A1;{\H2.8;\U+2205}8.5
 11
0.0
 21
1.0
 31
0.0
1001
ACAD
1000
MTEXTBEGIN
1070
    73
1070
     1
1070
    44
1040
1.0
1070
    74
1070
     0
1000
MTEXTEND
1000
MTEXTBEGIN
1070
    73
1070
     1
1070
    44
1040
1.0
1070
    74
1070
     0
1000
MTEXTEND
  0
POINT
  5
103A
330
1007
100
AcDbEntity
  8
DEFPOINTS
  6
CONTINUOUS
 62
     0
100
AcDbPoint
 10
149.5
 20
-4.25
 30
0.0
  0
POINT
  5
103B
330
1007
100
AcDbEntity
  8
DEFPOINTS
  6
CONTINUOUS
 62
     0
100
AcDbPoint
 10
149.5
 20
4.25
 30
0.0
  0
POINT
  5
103C
330
1007
100
AcDbEntity
  8
DEFPOINTS
  6
CONTINUOUS
 62
     0
100
AcDbPoint
 10
158.0
 20
4.25
 30
0.0
  0
ENDBLK
  5
1011
330
1007
100
AcDbEntity
  8
0
100
AcDbBlockEnd
  0
BLOCK
  5
1047
330
1046
100
AcDbEntity
  8
0
100
AcDbBlockBegin
  2
1
 70
     0
 10
0.0
 20
0.0
 30
0.0
  3
1
  1

  0
LINE
  5
1385
330
1046
100
AcDbEntity
  8
240
100
AcDbLine
 10
125.0
 20
15.0
 30
0.0
 11
1.97309836
 21
15.0
 31
0.0
  0
LINE
  5
1386
330
1046
100
AcDbEntity
  8
240
100
AcDbLine
 10
125.0
 20
-15.0
 30
0.0
 11
1.97309836
 21
-15.0
 31
0.0
  0
LINE
  5
1387
330
1046
100
AcDbEntity
  8
245
100
AcDbLine
 10
-70.0
 20
0.0
 30
0.0
 11
151.0
 21
0.0
 31
0.0
  0
LINE
  5
1388
330
1046
100
AcDbEntity
  8
240
100
AcDbLine
 10
-54.0
 20
12.5
 30
0.0
 11
-56.5
 21
15.0
 31
0.0
  0
LINE
  5
1389
330
1046
100
AcDbEntity
  8
240
100
AcDbLine
 10
-54.0
 20
-12.5
 30
0.0
 11
-56.5
 21
-15.0
 31
0.0
  0
LINE
  5
138A
330
1046
100
AcDbEntity
  8
240
100
AcDbLine
 10
-69.0
 20
-14.0
 30
0.0
 11
-69.0
 21
0.0
 31
0.0
  0
LINE
  5
138B
330
1046
100
AcDbEntity
  8
240
100
AcDbLine
 10
-68.0
 20
-15.0
 30
0.0
 11
-56.5
 21
-15.0
 31
0.0
  0
ARC
  5
138C
330
1046
100
AcDbEntity
  8
240
100
AcDbCircle
 10
-68.0
 20
-14.0
 30
0.0
 40
1.0
100
AcDbArc
 50
180.0
 51
270.0
  0
ARC
  5
138D
330
1046
100
AcDbEntity
  8
240
100
AcDbCircle
 10
-68.0
 20
14.0
 30
0.0
 40
1.0
100
AcDbArc
 50
90.0
 51
180.0
  0
LINE
  5
138E
330
1046
100
AcDbEntity
  8
240
100
AcDbLine
 10
-69.0
 20
14.0
 30
0.0
 11
-69.0
 21
0.0
 31
0.0
  0
LINE
  5
138F
330
1046
100
AcDbEntity
  8
240
100
AcDbLine
 10
-68.0
 20
15.0
 30
0.0
 11
-56.5
 21
15.0
 31
0.0
  0
LINE
  5
1390
330
1046
100
AcDbEntity
  8
241
100
AcDbLine
 10
1.20577137
 20
-15.35874397
 30
0.0
 11
1.20577137
 21
0.0
 31
0.0
  0
LINE
  5
1391
330
1046
100
AcDbEntity
  8
241
100
AcDbLine
 10
-6.12626129
 20
-19.5
 30
0.0
 11
-6.12626129
 21
0.0
 31
0.0
  0
LINE
  5
1392
330
1046
100
AcDbEntity
  8
241
  6
CONTINUOUS
100
AcDbLine
 10
-7.5
 20
-19.00000001
 30
0.0
 11
-7.5
 21
0.0
 31
0.0
  0
LINE
  5
1393
330
1046
100
AcDbEntity
  8
241
100
AcDbLine
 10
0.0
 20
-19.14125603
 30
0.0
 11
0.0
 21
0.0
 31
0.0
  0
LINE
  5
1394
330
1046
100
AcDbEntity
  8
241
100
AcDbLine
 10
-2.0
 20
-18.25
 30
0.0
 11
-2.0
 21
0.0
 31
0.0
  0
LINE
  5
1395
330
1046
100
AcDbEntity
  8
241
100
AcDbLine
 10
-4.5
 20
-18.25
 30
0.0
 11
-4.5
 21
0.0
 31
0.0
  0
LINE
  5
1396
330
1046
100
AcDbEntity
  8
241
100
AcDbLine
 10
-14.5
 20
-15.0
 30
0.0
 11
-14.5
 21
0.0
 31
0.0
  0
LINE
  5
1397
330
1046
100
AcDbEntity
  8
241
100
AcDbLine
 10
-19.0
 20
-13.75
 30
0.0
 11
-19.0
 21
0.0
 31
0.0
  0
LINE
  5
1398
330
1046
100
AcDbEntity
  8
241
100
AcDbLine
 10
-21.5
 20
-13.75
 30
0.0
 11
-21.5
 21
0.0
 31
0.0
  0
LINE
  5
1399
330
1046
100
AcDbEntity
  8
241
100
AcDbLine
 10
-29.5
 20
-13.75
 30
0.0
 11
-29.5
 21
0.0
 31
0.0
  0
LINE
  5
139A
330
1046
100
AcDbEntity
  8
241
100
AcDbLine
 10
-32.0
 20
-13.75
 30
0.0
 11
-32.0
 21
0.0
 31
0.0
  0
LINE
  5
139B
330
1046
100
AcDbEntity
  8
243
100
AcDbLine
 10
-42.0
 20
-12.5
 30
0.0
 11
-42.0
 21
12.5
 31
0.0
1001
GENIUS_GENOREF_13
1005
0
  0
LINE
  5
139C
330
1046
100
AcDbEntity
  8
243
100
AcDbLine
 10
-50.0
 20
-12.5
 30
0.0
 11
-50.0
 21
12.5
 31
0.0
1001
GENIUS_GENOREF_13
1005
0
  0
LINE
  5
139D
330
1046
100
AcDbEntity
  8
245
100
AcDbLine
 10
-46.0
 20
-15.0
 30
0.0
 11
-46.0
 21
15.0
 31
0.0
1001
GENIUS_GENOREF_13
1005
0
  0
LINE
  5
139E
330
1046
100
AcDbEntity
  8
240
100
AcDbLine
 10
-19.0
 20
-15.0
 30
0.0
 11
-14.5
 21
-15.0
 31
0.0
  0
LINE
  5
139F
330
1046
100
AcDbEntity
  8
240
100
AcDbLine
 10
-38.0
 20
-12.5
 30
0.0
 11
-35.5
 21
-15.0
 31
0.0
  0
LINE
  5
13A0
330
1046
100
AcDbEntity
  8
240
100
AcDbLine
 10
-46.0
 20
-12.5
 30
0.0
 11
-38.0
 21
-12.5
 31
0.0
  0
LINE
  5
13A1
330
1046
100
AcDbEntity
  8
240
100
AcDbLine
 10
-54.0
 20
-12.5
 30
0.0
 11
-46.0
 21
-12.5
 31
0.0
  0
LINE
  5
13A2
330
1046
100
AcDbEntity
  8
240
100
AcDbLine
 10
-29.5
 20
-15.0
 30
0.0
 11
-21.5
 21
-15.0
 31
0.0
  0
ARC
  5
13A3
330
1046
100
AcDbEntity
  8
240
100
AcDbCircle
 10
-30.75
 20
-13.75
 30
0.0
 40
1.24999999999827
100
AcDbArc
 50
180.0
 51
0.0
  0
LINE
  5
13A4
330
1046
100
AcDbEntity
  8
240
100
AcDbLine
 10
-35.5
 20
-15.0
 30
0.0
 11
-32.0
 21
-15.0
 31
0.0
  0
LINE
  5
13A5
330
1046
100
AcDbEntity
  8
240
100
AcDbLine
 10
-32.0
 20
-13.75
 30
0.0
 11
-32.0
 21
-15.0
 31
0.0
  0
LINE
  5
13A6
330
1046
100
AcDbEntity
  8
240
100
AcDbLine
 10
-29.5
 20
-13.75
 30
0.0
 11
-29.5
 21
-15.0
 31
0.0
  0
ARC
  5
13A7
330
1046
100
AcDbEntity
  8
240
100
AcDbCircle
 10
-20.25
 20
-13.75
 30
0.0
 40
1.249999999998089
100
AcDbArc
 50
180.0
 51
0.0
  0
LINE
  5
13A8
330
1046
100
AcDbEntity
  8
240
100
AcDbLine
 10
-21.5
 20
-13.75
 30
0.0
 11
-21.5
 21
-15.0
 31
0.0
  0
LINE
  5
13A9
330
1046
100
AcDbEntity
  8
240
100
AcDbLine
 10
-19.0
 20
-13.75
 30
0.0
 11
-19.0
 21
-15.0
 31
0.0
  0
LINE
  5
13AA
330
1046
100
AcDbEntity
  8
240
100
AcDbLine
 10
-7.5
 20
-19.00000001
 30
0.0
 11
-6.12626128
 21
-19.5
 31
0.0
  0
LINE
  5
13AB
330
1046
100
AcDbEntity
  8
240
100
AcDbLine
 10
-13.0
 20
-15.5
 30
0.0
 11
-13.5
 21
-16.0
 31
0.0
  0
LINE
  5
13AC
330
1046
100
AcDbEntity
  8
240
100
AcDbLine
 10
-7.50000001
 20
-19.0
 30
0.0
 11
-13.5
 21
-19.0
 31
0.0
  0
LINE
  5
13AD
330
1046
100
AcDbEntity
  8
240
100
AcDbLine
 10
-13.5
 20
-19.0
 30
0.0
 11
-13.5
 21
-16.0
 31
0.0
  0
LINE
  5
13AE
330
1046
100
AcDbEntity
  8
241
  6
CONTINUOUS
100
AcDbLine
 10
-7.5
 20
-15.2
 30
0.0
 11
-13.0
 21
-15.2
 31
0.0
  0
LINE
  5
13AF
330
1046
100
AcDbEntity
  8
240
100
AcDbLine
 10
-13.0
 20
-15.5
 30
0.0
 11
-13.0
 21
-14.7
 31
0.0
  0
LINE
  5
13B0
330
1046
100
AcDbEntity
  8
240
100
AcDbLine
 10
-14.2
 20
-14.7
 30
0.0
 11
-13.0
 21
-14.7
 31
0.0
  0
LINE
  5
13B1
330
1046
100
AcDbEntity
  8
240
100
AcDbLine
 10
-14.2
 20
-14.7
 30
0.0
 11
-14.5
 21
-15.0
 31
0.0
  0
LINE
  5
13B2
330
1046
100
AcDbEntity
  8
240
100
AcDbLine
 10
0.19859884
 20
-18.75881905
 30
0.0
 11
1.00717253
 21
-15.74118096
 31
0.0
  0
ARC
  5
13B3
330
1046
100
AcDbEntity
  8
240
100
AcDbCircle
 10
-3.25
 20
-18.25
 30
0.0
 40
1.250000000000339
100
AcDbArc
 50
180.0
 51
0.0
  0
LINE
  5
13B4
330
1046
100
AcDbEntity
  8
240
100
AcDbLine
 10
-4.5
 20
-19.5
 30
0.0
 11
-6.12626129
 21
-19.5
 31
0.0
  0
LINE
  5
13B5
330
1046
100
AcDbEntity
  8
240
100
AcDbLine
 10
-4.5
 20
-18.25
 30
0.0
 11
-4.5
 21
-19.5
 31
0.0
  0
LINE
  5
13B6
330
1046
100
AcDbEntity
  8
240
100
AcDbLine
 10
-0.63567449
 20
-19.5
 30
0.0
 11
-2.0
 21
-19.5
 31
0.0
  0
LINE
  5
13B7
330
1046
100
AcDbEntity
  8
240
100
AcDbLine
 10
-2.0
 20
-18.25
 30
0.0
 11
-2.0
 21
-19.5
 31
0.0
  0
ARC
  5
13B8
330
1046
100
AcDbEntity
  8
240
100
AcDbCircle
 10
-0.76732699
 20
-18.5
 30
0.0
 40
1.0
100
AcDbArc
 50
285.0
 51
345.0
1001
GENIUS_GENOBJ-N-FIL_13
1002
{
1000
OWNER
1000
GEN
1002
}
1001
GENIUS_GENODEF_13
1002
{
1000
HIER
1070
     0
1002
}
1002
{
1000
MANEDIT
1070
     0
1002
}
1002
{
1000
NOSEL
1070
     0
1002
}
1002
{
1000
BEHIND
1070
     0
1002
}
1002
{
1000
OTHER
1070
     0
1002
}
1002
{
1000
REACTOR
1002
}
  0
LINE
  5
13B9
330
1046
100
AcDbEntity
  8
240
100
AcDbLine
 10
-0.50850794
 20
-19.46592583
 30
0.0
 11
-0.63567449
 21
-19.5
 31
0.0
  0
ARC
  5
13BA
330
1046
100
AcDbEntity
  8
240
100
AcDbCircle
 10
1.97309836
 20
-16.0
 30
0.0
 40
1.0
100
AcDbArc
 50
90.0
 51
165.00000002
  0
LINE
  5
13BB
330
1046
100
AcDbEntity
  8
240
100
AcDbLine
 10
-19.0
 20
15.0
 30
0.0
 11
-14.5
 21
15.0
 31
0.0
  0
LINE
  5
13BC
330
1046
100
AcDbEntity
  8
240
100
AcDbLine
 10
-38.0
 20
12.5
 30
0.0
 11
-35.5
 21
15.0
 31
0.0
  0
LINE
  5
13BD
330
1046
100
AcDbEntity
  8
240
100
AcDbLine
 10
-46.0
 20
12.5
 30
0.0
 11
-38.0
 21
12.5
 31
0.0
  0
LINE
  5
13BE
330
1046
100
AcDbEntity
  8
240
100
AcDbLine
 10
-54.0
 20
12.5
 30
0.0
 11
-46.0
 21
12.5
 31
0.0
  0
LINE
  5
13BF
330
1046
100
AcDbEntity
  8
241
100
AcDbLine
 10
-32.0
 20
13.75
 30
0.0
 11
-32.0
 21
0.0
 31
0.0
  0
LINE
  5
13C0
330
1046
100
AcDbEntity
  8
241
100
AcDbLine
 10
-29.5
 20
13.75
 30
0.0
 11
-29.5
 21
0.0
 31
0.0
  0
LINE
  5
13C1
330
1046
100
AcDbEntity
  8
241
100
AcDbLine
 10
-21.5
 20
13.75
 30
0.0
 11
-21.5
 21
0.0
 31
0.0
  0
LINE
  5
13C2
330
1046
100
AcDbEntity
  8
241
100
AcDbLine
 10
-19.0
 20
13.75
 30
0.0
 11
-19.0
 21
0.0
 31
0.0
  0
ELLIPSE
  5
13C3
330
1046
100
AcDbEntity
  8
241
100
AcDbEllipse
 10
-25.5000349
 20
-5.08449496
 30
0.0
 11
-2.000524505802109
 21
0.0
 31
0.0
210
0.0
220
0.0
230
1.0
 40
0.93944625
 41
0.0
 42
6.283185307179584
  0
LINE
  5
13C4
330
1046
100
AcDbEntity
  8
245
100
AcDbLine
 10
-27.4999651
 20
-5.13030215
 30
0.0
 11
-23.5000349
 21
-5.13030215
 31
0.0
  0
LINE
  5
13C5
330
1046
100
AcDbEntity
  8
245
100
AcDbLine
 10
-25.5000349
 20
-3.20510972
 30
0.0
 11
-25.5000349
 21
-6.96388021
 31
0.0
  0
LINE
  5
13C6
330
1046
100
AcDbEntity
  8
240
100
AcDbLine
 10
-29.5
 20
15.0
 30
0.0
 11
-21.5
 21
15.0
 31
0.0
  0
ARC
  5
13C7
330
1046
100
AcDbEntity
  8
240
100
AcDbCircle
 10
-30.75
 20
13.75
 30
0.0
 40
1.24999999999827
100
AcDbArc
 50
0.0
 51
180.0
  0
LINE
  5
13C8
330
1046
100
AcDbEntity
  8
240
100
AcDbLine
 10
-35.5
 20
15.0
 30
0.0
 11
-32.0
 21
15.0
 31
0.0
  0
LINE
  5
13C9
330
1046
100
AcDbEntity
  8
240
100
AcDbLine
 10
-32.0
 20
13.75
 30
0.0
 11
-32.0
 21
15.0
 31
0.0
  0
LINE
  5
13CA
330
1046
100
AcDbEntity
  8
240
100
AcDbLine
 10
-29.5
 20
13.75
 30
0.0
 11
-29.5
 21
15.0
 31
0.0
  0
ARC
  5
13CB
330
1046
100
AcDbEntity
  8
240
100
AcDbCircle
 10
-20.25
 20
13.75
 30
0.0
 40
1.249999999998089
100
AcDbArc
 50
0.0
 51
180.0
  0
LINE
  5
13CC
330
1046
100
AcDbEntity
  8
240
100
AcDbLine
 10
-21.5
 20
13.75
 30
0.0
 11
-21.5
 21
15.0
 31
0.0
  0
LINE
  5
13CD
330
1046
100
AcDbEntity
  8
240
100
AcDbLine
 10
-19.0
 20
13.75
 30
0.0
 11
-19.0
 21
15.0
 31
0.0
  0
LINE
  5
13CE
330
1046
100
AcDbEntity
  8
241
100
AcDbLine
 10
-4.5
 20
18.25
 30
0.0
 11
-4.5
 21
0.0
 31
0.0
  0
LINE
  5
13CF
330
1046
100
AcDbEntity
  8
241
100
AcDbLine
 10
-2.0
 20
18.25
 30
0.0
 11
-2.0
 21
0.0
 31
0.0
  0
LINE
  5
13D0
330
1046
100
AcDbEntity
  8
241
100
AcDbLine
 10
0.0
 20
19.14125603
 30
0.0
 11
0.0
 21
0.0
 31
0.0
  0
LINE
  5
13D1
330
1046
100
AcDbEntity
  8
241
  6
CONTINUOUS
100
AcDbLine
 10
-7.5
 20
19.00000001
 30
0.0
 11
-7.5
 21
0.0
 31
0.0
  0
LINE
  5
13D2
330
1046
100
AcDbEntity
  8
241
100
AcDbLine
 10
-6.12626129
 20
19.5
 30
0.0
 11
-6.12626129
 21
0.0
 31
0.0
  0
LINE
  5
13D3
330
1046
100
AcDbEntity
  8
241
100
AcDbLine
 10
1.20577137
 20
15.35874397
 30
0.0
 11
1.20577137
 21
0.0
 31
0.0
  0
ARC
  5
13D4
330
1046
100
AcDbEntity
  8
240
100
AcDbCircle
 10
1.97309836
 20
16.0
 30
0.0
 40
1.0
100
AcDbArc
 50
194.99999998
 51
270.0
  0
LINE
  5
13D5
330
1046
100
AcDbEntity
  8
240
100
AcDbLine
 10
-13.0
 20
15.5
 30
0.0
 11
-13.0
 21
14.7
 31
0.0
  0
LINE
  5
13D6
330
1046
100
AcDbEntity
  8
241
100
AcDbLine
 10
-14.5
 20
15.0
 30
0.0
 11
-14.5
 21
0.0
 31
0.0
  0
LINE
  5
13D7
330
1046
100
AcDbEntity
  8
240
100
AcDbLine
 10
-14.2
 20
14.7
 30
0.0
 11
-14.5
 21
15.0
 31
0.0
  0
LINE
  5
13D8
330
1046
100
AcDbEntity
  8
240
100
AcDbLine
 10
-14.2
 20
14.7
 30
0.0
 11
-13.0
 21
14.7
 31
0.0
  0
LINE
  5
13D9
330
1046
100
AcDbEntity
  8
240
100
AcDbLine
 10
-7.5
 20
19.00000001
 30
0.0
 11
-6.12626128
 21
19.5
 31
0.0
  0
LINE
  5
13DA
330
1046
100
AcDbEntity
  8
241
  6
CONTINUOUS
100
AcDbLine
 10
-7.5
 20
15.2
 30
0.0
 11
-13.0
 21
15.2
 31
0.0
  0
LINE
  5
13DB
330
1046
100
AcDbEntity
  8
240
100
AcDbLine
 10
-7.50000001
 20
19.0
 30
0.0
 11
-13.5
 21
19.0
 31
0.0
  0
LINE
  5
13DC
330
1046
100
AcDbEntity
  8
240
100
AcDbLine
 10
-13.5
 20
19.0
 30
0.0
 11
-13.5
 21
16.0
 31
0.0
  0
LINE
  5
13DD
330
1046
100
AcDbEntity
  8
240
100
AcDbLine
 10
-13.0
 20
15.5
 30
0.0
 11
-13.5
 21
16.0
 31
0.0
  0
ARC
  5
13DE
330
1046
100
AcDbEntity
  8
240
100
AcDbCircle
 10
-3.25
 20
18.25
 30
0.0
 40
1.250000000000339
100
AcDbArc
 50
0.0
 51
180.0
  0
LINE
  5
13DF
330
1046
100
AcDbEntity
  8
240
100
AcDbLine
 10
-4.5
 20
18.25
 30
0.0
 11
-4.5
 21
19.5
 31
0.0
  0
LINE
  5
13E0
330
1046
100
AcDbEntity
  8
240
100
AcDbLine
 10
-4.5
 20
19.5
 30
0.0
 11
-6.12626129
 21
19.5
 31
0.0
  0
LINE
  5
13E1
330
1046
100
AcDbEntity
  8
240
100
AcDbLine
 10
-0.50850794
 20
19.46592583
 30
0.0
 11
-0.63567449
 21
19.5
 31
0.0
  0
ARC
  5
13E2
330
1046
100
AcDbEntity
  8
240
100
AcDbCircle
 10
-0.76732699
 20
18.5
 30
0.0
 40
1.0
100
AcDbArc
 50
15.0
 51
75.0
1001
GENIUS_GENOBJ-N-FIL_13
1002
{
1000
OWNER
1000
GEN
1002
}
1001
GENIUS_GENODEF_13
1002
{
1000
HIER
1070
     0
1002
}
1002
{
1000
MANEDIT
1070
     0
1002
}
1002
{
1000
NOSEL
1070
     0
1002
}
1002
{
1000
BEHIND
1070
     0
1002
}
1002
{
1000
OTHER
1070
     0
1002
}
1002
{
1000
REACTOR
1002
}
  0
LINE
  5
13E3
330
1046
100
AcDbEntity
  8
240
100
AcDbLine
 10
-2.0
 20
18.25
 30
0.0
 11
-2.0
 21
19.5
 31
0.0
  0
LINE
  5
13E4
330
1046
100
AcDbEntity
  8
240
100
AcDbLine
 10
-0.63567449
 20
19.5
 30
0.0
 11
-2.0
 21
19.5
 31
0.0
  0
LINE
  5
13E5
330
1046
100
AcDbEntity
  8
240
100
AcDbLine
 10
0.19859884
 20
18.75881905
 30
0.0
 11
1.00717253
 21
15.74118096
 31
0.0
  0
TEXT
  5
13E6
330
1046
100
AcDbEntity
  8
0
100
AcDbText
 10
48.17883344
 20
4.78534418
 30
0.0
 40
3.0
  1
MGT20-M12-150
  7
YOKO
100
AcDbText
  0
LINE
  5
13E7
330
1046
100
AcDbEntity
  8
0
100
AcDbLine
 10
37.45611705
 20
4.35349915
 30
0.0
 11
44.84034405
 21
4.35349915
 31
0.0
  0
LINE
  5
13E8
330
1046
100
AcDbEntity
  8
0
100
AcDbLine
 10
37.45611705
 20
4.71725647
 30
0.0
 11
44.84034405
 21
4.71725647
 31
0.0
  0
LINE
  5
13E9
330
1046
100
AcDbEntity
  8
0
100
AcDbLine
 10
40.58940686
 20
6.05473205
 30
0.0
 11
41.73007687
 21
7.19540205
 31
0.0
  0
LINE
  5
13EA
330
1046
100
AcDbEntity
  8
0
100
AcDbLine
 10
40.42694296
 20
5.48815663
 30
0.0
 11
41.56761519
 21
6.62882886
 31
0.0
  0
LINE
  5
13EB
330
1046
100
AcDbEntity
  8
0
100
AcDbLine
 10
41.08205852
 20
7.77280194
 30
0.0
 11
40.25804271
 21
4.89913513
 31
0.0
  0
LINE
  5
13EC
330
1046
100
AcDbEntity
  8
0
100
AcDbLine
 10
41.08205852
 20
7.77280194
 30
0.0
 11
40.25804271
 21
4.89913513
 31
0.0
1001
HATCH_DISTANCE
1040
1.0
1001
HATCH_DISPLAY
1070
     0
1001
HATCH_TYPE
1070
     7
  0
LINE
  5
13ED
330
1046
100
AcDbEntity
  8
0
100
AcDbLine
 10
40.25804271
 20
4.89913513
 30
0.0
 11
41.08205852
 21
7.77280194
 31
0.0
  0
LINE
  5
13EE
330
1046
100
AcDbEntity
  8
0
100
AcDbLine
 10
40.94960461
 20
7.77280194
 30
0.0
 11
41.08205852
 21
7.77280194
 31
0.0
  0
LINE
  5
13EF
330
1046
100
AcDbEntity
  8
0
100
AcDbLine
 10
41.06434307
 20
8.17292401
 30
0.0
 11
40.94960461
 21
7.77280194
 31
0.0
  0
LINE
  5
13F0
330
1046
100
AcDbEntity
  8
0
100
AcDbLine
 10
40.94960461
 20
7.77280194
 30
0.0
 11
41.08205852
 21
7.77280194
 31
0.0
1001
HATCH_DISTANCE
1040
1.0
1001
HATCH_DISPLAY
1070
     0
1001
HATCH_TYPE
1070
     7
  0
LINE
  5
13F1
330
1046
100
AcDbEntity
  8
0
100
AcDbLine
 10
41.06434307
 20
8.17292401
 30
0.0
 11
40.94960461
 21
7.77280194
 31
0.0
1001
HATCH_DISTANCE
1040
1.0
1001
HATCH_DISPLAY
1070
     0
1001
HATCH_TYPE
1070
     7
  0
LINE
  5
13F2
330
1046
100
AcDbEntity
  8
0
100
AcDbLine
 10
40.94960461
 20
7.77280194
 30
0.0
 11
41.06434307
 21
8.17292401
 31
0.0
  0
LINE
  5
13F3
330
1046
100
AcDbEntity
  8
0
100
AcDbLine
 10
40.94960461
 20
7.77280194
 30
0.0
 11
41.08205852
 21
7.77280194
 31
0.0
  0
LINE
  5
13F4
330
1046
100
AcDbEntity
  8
0
100
AcDbLine
 10
40.91433464
 20
7.18788289
 30
0.0
 11
41.89937577
 21
8.17292401
 31
0.0
  0
LINE
  5
13F5
330
1046
100
AcDbEntity
  8
0
100
AcDbLine
 10
40.75187075
 20
6.62130746
 30
0.0
 11
41.89253854
 21
7.76197526
 31
0.0
  0
LINE
  5
13F6
330
1046
100
AcDbEntity
  8
0
100
AcDbLine
 10
40.25804271
 20
4.89913513
 30
0.0
 11
41.07163525
 21
4.89913513
 31
0.0
  0
LINE
  5
13F7
330
1046
100
AcDbEntity
  8
0
100
AcDbLine
 10
40.25804271
 20
4.89913513
 30
0.0
 11
41.07163525
 21
4.89913513
 31
0.0
1001
HATCH_DISTANCE
1040
1.0
1001
HATCH_DISPLAY
1070
     0
1001
HATCH_TYPE
1070
     7
  0
LINE
  5
13F8
330
1046
100
AcDbEntity
  8
0
100
AcDbLine
 10
40.25804271
 20
4.89913513
 30
0.0
 11
41.07163525
 21
4.89913513
 31
0.0
  0
LINE
  5
13F9
330
1046
100
AcDbEntity
  8
0
100
AcDbLine
 10
40.26447907
 20
4.9215812
 30
0.0
 11
41.40515351
 21
6.06225565
 31
0.0
  0
LINE
  5
13FA
330
1046
100
AcDbEntity
  8
0
100
AcDbLine
 10
40.64614451
 20
4.89913513
 30
0.0
 11
41.24269183
 21
5.49568244
 31
0.0
  0
LINE
  5
13FB
330
1046
100
AcDbEntity
  8
0
100
AcDbLine
 10
40.90873159
 20
4.35349915
 30
0.0
 11
41.27248889
 21
4.71725647
 31
0.0
  0
ARC
  5
13FC
330
1046
100
AcDbEntity
  8
0
100
AcDbCircle
 10
37.45611705
 20
6.26321179
 30
0.0
 40
1.545954895019525
100
AcDbArc
 50
90.0
 51
270.0
  0
ARC
  5
13FD
330
1046
100
AcDbEntity
  8
0
100
AcDbCircle
 10
37.45611705
 20
6.26321179
 30
0.0
 40
1.909712219238279
100
AcDbArc
 50
90.0
 51
270.0
  0
LINE
  5
13FE
330
1046
100
AcDbEntity
  8
0
100
AcDbLine
 10
35.60339926
 20
6.72628581
 30
0.0
 11
36.99304303
 21
8.11592958
 31
0.0
  0
LINE
  5
13FF
330
1046
100
AcDbEntity
  8
0
100
AcDbLine
 10
36.16128303
 20
4.85950043
 30
0.0
 11
36.41875689
 21
5.11697429
 31
0.0
  0
LINE
  5
1400
330
1046
100
AcDbEntity
  8
0
100
AcDbLine
 10
35.54640585
 20
6.26518087
 30
0.0
 11
35.96984512
 21
6.68862014
 31
0.0
  0
LINE
  5
1401
330
1046
100
AcDbEntity
  8
0
100
AcDbLine
 10
35.58192673
 20
5.89659023
 30
0.0
 11
35.91062732
 21
6.22529082
 31
0.0
  0
LINE
  5
1402
330
1046
100
AcDbEntity
  8
0
100
AcDbLine
 10
35.67187234
 20
5.58242432
 30
0.0
 11
35.96068096
 21
5.87123293
 31
0.0
  0
LINE
  5
1403
330
1046
100
AcDbEntity
  8
0
100
AcDbLine
 10
35.8021324
 20
5.30857285
 30
0.0
 11
36.0707236
 21
5.57716405
 31
0.0
  0
LINE
  5
1404
330
1046
100
AcDbEntity
  8
0
100
AcDbLine
 10
35.9662222
 20
5.06855113
 30
0.0
 11
36.22535756
 21
5.32768649
 31
0.0
  0
LINE
  5
1405
330
1046
100
AcDbEntity
  8
0
100
AcDbLine
 10
37.64699078
 20
4.89913513
 30
0.0
 11
39.15651226
 21
4.89913513
 31
0.0
  0
LINE
  5
1406
330
1046
100
AcDbEntity
  8
0
100
AcDbLine
 10
37.81736384
 20
4.89913513
 30
0.0
 11
38.85180272
 21
5.93357401
 31
0.0
  0
LINE
  5
1407
330
1046
100
AcDbEntity
  8
0
100
AcDbLine
 10
38.22147536
 20
4.89913513
 30
0.0
 11
38.68934835
 21
5.36700811
 31
0.0
  0
LINE
  5
1408
330
1046
100
AcDbEntity
  8
0
100
AcDbLine
 10
38.07995091
 20
4.35349915
 30
0.0
 11
38.44370822
 21
4.71725647
 31
0.0
  0
LINE
  5
1409
330
1046
100
AcDbEntity
  8
0
100
AcDbLine
 10
37.64699078
 20
4.89913513
 30
0.0
 11
38.48142986
 21
7.80916669
 31
0.0
  0
LINE
  5
140A
330
1046
100
AcDbEntity
  8
0
100
AcDbLine
 10
39.2837432
 20
5.96140297
 30
0.0
 11
40.4765188
 21
7.15417857
 31
0.0
  0
LINE
  5
140B
330
1046
100
AcDbEntity
  8
0
100
AcDbLine
 10
37.74095937
 20
5.22684219
 30
0.0
 11
39.28005473
 21
6.76593756
 31
0.0
  0
LINE
  5
140C
330
1046
100
AcDbEntity
  8
0
100
AcDbLine
 10
37.90342211
 20
5.79341646
 30
0.0
 11
39.17672917
 21
7.06672351
 31
0.0
  0
LINE
  5
140D
330
1046
100
AcDbEntity
  8
0
100
AcDbLine
 10
39.14267978
 20
6.22445107
 30
0.0
 11
40.44437762
 21
7.52614892
 31
0.0
  0
LINE
  5
140E
330
1046
100
AcDbEntity
  8
0
100
AcDbLine
 10
38.06588486
 20
6.35999073
 30
0.0
 11
39.33918655
 21
7.63329242
 31
0.0
  0
ARC
  5
140F
330
1046
100
AcDbEntity
  8
0
100
AcDbCircle
 10
39.5737318
 20
7.26354443
 30
0.0
 40
0.9093873023986816
100
AcDbArc
 50
287.66957755
 51
90.23615984
  0
LINE
  5
1410
330
1046
100
AcDbEntity
  8
0
100
AcDbLine
 10
39.70188219
 20
7.18776501
 30
0.0
 11
40.31059496
 21
7.79647778
 31
0.0
  0
ARC
  5
1411
330
1046
100
AcDbEntity
  8
0
100
AcDbCircle
 10
39.16791057
 20
7.29990918
 30
0.0
 40
0.5456207513809207
100
AcDbArc
 50
261.66260169
 51
66.3381551
  0
LINE
  5
1412
330
1046
100
AcDbEntity
  8
0
100
AcDbLine
 10
39.38689033
 20
7.79965898
 30
0.0
 11
39.08879529
 21
6.76005477
 31
0.0
  0
LINE
  5
1413
330
1046
100
AcDbEntity
  8
0
100
AcDbLine
 10
39.65525883
 20
7.54525317
 30
0.0
 11
40.10883734
 21
7.99883168
 31
0.0
  0
LINE
  5
1414
330
1046
100
AcDbEntity
  8
0
100
AcDbLine
 10
38.39651927
 20
8.17292401
 30
0.0
 11
39.56998353
 21
8.17292401
 31
0.0
  0
LINE
  5
1415
330
1046
100
AcDbEntity
  8
0
100
AcDbLine
 10
38.30272624
 20
7.80916669
 30
0.0
 11
38.66648356
 21
8.17292401
 31
0.0
  0
LINE
  5
1416
330
1046
100
AcDbEntity
  8
0
100
AcDbLine
 10
38.39081036
 20
7.49313927
 30
0.0
 11
39.07059508
 21
8.17292401
 31
0.0
  0
LINE
  5
1417
330
1046
100
AcDbEntity
  8
0
100
AcDbLine
 10
38.39651927
 20
8.17292401
 30
0.0
 11
38.29221783
 21
7.80916669
 31
0.0
  0
LINE
  5
1418
330
1046
100
AcDbEntity
  8
0
100
AcDbLine
 10
38.29221783
 20
7.80916669
 30
0.0
 11
38.48142986
 21
7.80916669
 31
0.0
  0
LINE
  5
1419
330
1046
100
AcDbEntity
  8
0
100
AcDbLine
 10
39.46405889
 20
7.75816476
 30
0.0
 11
39.83921187
 21
8.13331773
 31
0.0
  0
LINE
  5
141A
330
1046
100
AcDbEntity
  8
0
100
AcDbLine
 10
37.45611705
 20
8.17292401
 30
0.0
 11
38.20732097
 21
8.17292401
 31
0.0
  0
LINE
  5
141B
330
1046
100
AcDbEntity
  8
0
100
AcDbLine
 10
37.45611705
 20
7.80916669
 30
0.0
 11
38.10301952
 21
7.80916669
 31
0.0
  0
LINE
  5
141C
330
1046
100
AcDbEntity
  8
0
100
AcDbLine
 10
37.49450319
 20
7.80916669
 30
0.0
 11
37.85826051
 21
8.17292401
 31
0.0
  0
LINE
  5
141D
330
1046
100
AcDbEntity
  8
0
100
AcDbLine
 10
37.0307087
 20
7.74948373
 30
0.0
 11
37.45414797
 21
8.17292299
 31
0.0
  0
LINE
  5
141E
330
1046
100
AcDbEntity
  8
0
100
AcDbLine
 10
38.20732097
 20
8.17292401
 30
0.0
 11
38.10301952
 21
7.80916669
 31
0.0
  0
LINE
  5
141F
330
1046
100
AcDbEntity
  8
0
100
AcDbLine
 10
37.89861471
 20
7.80916669
 30
0.0
 11
38.18519041
 21
8.09574237
 31
0.0
  0
LINE
  5
1420
330
1046
100
AcDbEntity
  8
0
100
AcDbLine
 10
38.22834761
 20
6.92656501
 30
0.0
 11
39.47470661
 21
8.17292401
 31
0.0
  0
LINE
  5
1421
330
1046
100
AcDbEntity
  8
0
100
AcDbLine
 10
40.50462005
 20
4.35349915
 30
0.0
 11
40.86837737
 21
4.71725647
 31
0.0
  0
LINE
  5
1422
330
1046
100
AcDbEntity
  8
0
100
AcDbLine
 10
38.62558688
 20
4.89913513
 30
0.0
 11
39.96029521
 21
6.23384346
 31
0.0
  0
ARC
  5
1423
330
1046
100
AcDbEntity
  8
0
100
AcDbCircle
 10
38.75069103
 20
5.84489361
 30
0.0
 40
0.5456363618373872
100
AcDbArc
 50
261.66285421
 51
66.33819216
  0
LINE
  5
1424
330
1046
100
AcDbEntity
  8
0
100
AcDbLine
 10
38.96967512
 20
6.34465856
 30
0.0
 11
38.67157519
 21
5.30502351
 31
0.0
  0
ARC
  5
1425
330
1046
100
AcDbEntity
  8
0
100
AcDbCircle
 10
39.15651226
 20
5.80851513
 30
0.0
 40
0.9093795776367187
100
AcDbArc
 50
270.0
 51
40.32984065
  0
LINE
  5
1426
330
1046
100
AcDbEntity
  8
0
100
AcDbLine
 10
40.10050853
 20
4.35349915
 30
0.0
 11
40.46426585
 21
4.71725647
 31
0.0
  0
LINE
  5
1427
330
1046
100
AcDbEntity
  8
0
100
AcDbLine
 10
39.02969841
 20
4.89913513
 30
0.0
 11
40.05807287
 21
5.92750958
 31
0.0
  0
LINE
  5
1428
330
1046
100
AcDbEntity
  8
0
100
AcDbLine
 10
39.501991
 20
4.96731619
 30
0.0
 11
39.99771119
 21
5.46303639
 31
0.0
  0
LINE
  5
1429
330
1046
100
AcDbEntity
  8
0
100
AcDbLine
 10
38.48406243
 20
4.35349915
 30
0.0
 11
38.84781975
 21
4.71725647
 31
0.0
  0
LINE
  5
142A
330
1046
100
AcDbEntity
  8
0
100
AcDbLine
 10
38.88817396
 20
4.35349915
 30
0.0
 11
39.25193127
 21
4.71725647
 31
0.0
  0
LINE
  5
142B
330
1046
100
AcDbEntity
  8
0
100
AcDbLine
 10
39.29228548
 20
4.35349915
 30
0.0
 11
39.6560428
 21
4.71725647
 31
0.0
  0
LINE
  5
142C
330
1046
100
AcDbEntity
  8
0
100
AcDbLine
 10
39.696397
 20
4.35349915
 30
0.0
 11
40.06015432
 21
4.71725647
 31
0.0
  0
LINE
  5
142D
330
1046
100
AcDbEntity
  8
0
100
AcDbLine
 10
37.67583938
 20
4.35349915
 30
0.0
 11
38.0395967
 21
4.71725647
 31
0.0
  0
LINE
  5
142E
330
1046
100
AcDbEntity
  8
0
100
AcDbLine
 10
36.38682455
 20
4.68093043
 30
0.0
 11
36.64997379
 21
4.94407967
 31
0.0
  0
LINE
  5
142F
330
1046
100
AcDbEntity
  8
0
100
AcDbLine
 10
36.64453651
 20
4.53453085
 30
0.0
 11
36.92233666
 21
4.81233101
 31
0.0
  0
LINE
  5
1430
330
1046
100
AcDbEntity
  8
0
100
AcDbLine
 10
36.93897086
 20
4.42485367
 30
0.0
 11
37.24575341
 21
4.73163624
 31
0.0
  0
LINE
  5
1431
330
1046
100
AcDbEntity
  8
0
100
AcDbLine
 10
37.27987785
 20
4.36164914
 30
0.0
 11
37.63548517
 21
4.71725647
 31
0.0
  0
ARC
  5
1432
330
1046
100
AcDbEntity
  8
0
100
AcDbCircle
 10
44.84034405
 20
6.26321179
 30
0.0
 40
1.545954895019525
100
AcDbArc
 50
270.0
 51
104.1274365
  0
ARC
  5
1433
330
1046
100
AcDbEntity
  8
0
100
AcDbCircle
 10
44.84034405
 20
6.26321179
 30
0.0
 40
1.909712219238279
100
AcDbArc
 50
270.0
 51
104.77079397
  0
LINE
  5
1434
330
1046
100
AcDbEntity
  8
0
100
AcDbLine
 10
45.71180995
 20
7.54013141
 30
0.0
 11
45.97268355
 21
7.80100501
 31
0.0
  0
LINE
  5
1435
330
1046
100
AcDbEntity
  8
0
100
AcDbLine
 10
45.45587667
 20
4.45541745
 30
0.0
 11
46.64813837
 21
5.64767916
 31
0.0
  0
LINE
  5
1436
330
1046
100
AcDbEntity
  8
0
100
AcDbLine
 10
44.76675836
 20
7.80741439
 30
0.0
 11
45.11274109
 21
8.15339713
 31
0.0
  0
LINE
  5
1437
330
1046
100
AcDbEntity
  8
0
100
AcDbLine
 10
45.14275559
 20
7.77930011
 30
0.0
 11
45.43984208
 21
8.07638659
 31
0.0
  0
LINE
  5
1438
330
1046
100
AcDbEntity
  8
0
100
AcDbLine
 10
45.45101171
 20
7.68344471
 30
0.0
 11
45.72383601
 21
7.956269
 31
0.0
  0
LINE
  5
1439
330
1046
100
AcDbEntity
  8
0
100
AcDbLine
 10
44.46300488
 20
7.76241986
 30
0.0
 11
44.46300488
 21
7.76241986
 31
0.0
  0
LINE
  5
143A
330
1046
100
AcDbEntity
  8
0
100
AcDbLine
 10
43.24794841
 20
5.48038139
 30
0.0
 11
44.32988764
 21
6.56232063
 31
0.0
  0
LINE
  5
143B
330
1046
100
AcDbEntity
  8
0
100
AcDbLine
 10
43.07632989
 20
4.90465136
 30
0.0
 11
44.16742439
 21
5.99574587
 31
0.0
  0
LINE
  5
143C
330
1046
100
AcDbEntity
  8
0
100
AcDbLine
 10
43.73751226
 20
4.35349915
 30
0.0
 11
44.10126958
 21
4.71725647
 31
0.0
  0
LINE
  5
143D
330
1046
100
AcDbEntity
  8
0
100
AcDbLine
 10
41.07163525
 20
4.89913513
 30
0.0
 11
42.01037578
 21
8.17292401
 31
0.0
  0
LINE
  5
143E
330
1046
100
AcDbEntity
  8
0
100
AcDbLine
 10
41.07163525
 20
4.89913513
 30
0.0
 11
42.01037578
 21
8.17292401
 31
0.0
1001
HATCH_DISTANCE
1040
1.0
1001
HATCH_DISPLAY
1070
     0
1001
HATCH_TYPE
1070
     7
  0
LINE
  5
143F
330
1046
100
AcDbEntity
  8
0
100
AcDbLine
 10
41.84515197
 20
5.69403107
 30
0.0
 11
42.80449191
 21
6.65337101
 31
0.0
  0
LINE
  5
1440
330
1046
100
AcDbEntity
  8
0
100
AcDbLine
 10
41.07163525
 20
4.89913513
 30
0.0
 11
42.01037578
 21
8.17292401
 31
0.0
  0
LINE
  5
1441
330
1046
100
AcDbEntity
  8
0
100
AcDbLine
 10
42.55591564
 20
5.78648755
 30
0.0
 11
43.04615307
 21
7.49613873
 31
0.0
  0
LINE
  5
1442
330
1046
100
AcDbEntity
  8
0
100
AcDbLine
 10
43.85297527
 20
4.89913513
 30
0.0
 11
44.38493327
 21
6.75428693
 31
0.0
  0
LINE
  5
1443
330
1046
100
AcDbEntity
  8
0
100
AcDbLine
 10
43.34987356
 20
6.39052959
 30
0.0
 11
43.71363088
 21
6.75428693
 31
0.0
  0
LINE
  5
1444
330
1046
100
AcDbEntity
  8
0
100
AcDbLine
 10
43.43125553
 20
6.06780005
 30
0.0
 11
44.11774241
 21
6.75428693
 31
0.0
  0
LINE
  5
1445
330
1046
100
AcDbEntity
  8
0
100
AcDbLine
 10
41.83812437
 20
6.49522651
 30
0.0
 11
43.48613925
 21
8.14324139
 31
0.0
  0
LINE
  5
1446
330
1046
100
AcDbEntity
  8
0
100
AcDbLine
 10
41.78086387
 20
6.03385448
 30
0.0
 11
42.96695571
 21
7.21994633
 31
0.0
  0
ARC
  5
1447
330
1046
100
AcDbEntity
  8
0
100
AcDbCircle
 10
44.89497356
 20
6.01917798
 30
0.0
 40
3.093695068359374
100
AcDbArc
 50
155.20517737
 51
172.79482596
  0
LINE
  5
1448
330
1046
100
AcDbEntity
  8
0
100
AcDbLine
 10
43.22106914
 20
6.39052959
 30
0.0
 11
43.32537059
 21
6.75428693
 31
0.0
  0
LINE
  5
1449
330
1046
100
AcDbEntity
  8
0
100
AcDbLine
 10
44.35345745
 20
8.10982129
 30
0.0
 11
44.46300488
 21
7.76241986
 31
0.0
  0
LINE
  5
144A
330
1046
100
AcDbEntity
  8
0
100
AcDbLine
 10
44.35345745
 20
8.10982129
 30
0.0
 11
44.35345745
 21
8.10982129
 31
0.0
  0
LINE
  5
144B
330
1046
100
AcDbEntity
  8
0
100
AcDbLine
 10
44.46300488
 20
7.76241986
 30
0.0
 11
44.35345745
 21
8.10982129
 31
0.0
  0
LINE
  5
144C
330
1046
100
AcDbEntity
  8
0
100
AcDbLine
 10
44.46300488
 20
7.76241986
 30
0.0
 11
44.46300488
 21
7.76241986
 31
0.0
1001
HATCH_DISTANCE
1040
1.0
1001
HATCH_DISPLAY
1070
     0
1001
HATCH_TYPE
1070
     7
  0
LINE
  5
144D
330
1046
100
AcDbEntity
  8
0
100
AcDbLine
 10
44.35345745
 20
8.10982129
 30
0.0
 11
44.46300488
 21
7.76241986
 31
0.0
1001
HATCH_DISTANCE
1040
1.0
1001
HATCH_DISPLAY
1070
     0
1001
HATCH_TYPE
1070
     7
  0
LINE
  5
144E
330
1046
100
AcDbEntity
  8
0
100
AcDbLine
 10
44.35345745
 20
8.10982129
 30
0.0
 11
44.35345745
 21
8.10982129
 31
0.0
1001
HATCH_DISTANCE
1040
1.0
1001
HATCH_DISPLAY
1070
     0
1001
HATCH_TYPE
1070
     7
  0
LINE
  5
144F
330
1046
100
AcDbEntity
  8
0
100
AcDbLine
 10
44.46300488
 20
7.76241986
 30
0.0
 11
44.35345745
 21
8.10982129
 31
0.0
1001
HATCH_DISTANCE
1040
1.0
1001
HATCH_DISPLAY
1070
     0
1001
HATCH_TYPE
1070
     7
  0
LINE
  5
1450
330
1046
100
AcDbEntity
  8
0
100
AcDbLine
 10
44.46300488
 20
7.76241986
 30
0.0
 11
44.46300488
 21
7.76241986
 31
0.0
  0
LINE
  5
1451
330
1046
100
AcDbEntity
  8
0
100
AcDbLine
 10
44.35345745
 20
8.10982129
 30
0.0
 11
44.46300488
 21
7.76241986
 31
0.0
  0
LINE
  5
1452
330
1046
100
AcDbEntity
  8
0
100
AcDbLine
 10
44.35345745
 20
8.10982129
 30
0.0
 11
44.35345745
 21
8.10982129
 31
0.0
  0
LINE
  5
1453
330
1046
100
AcDbEntity
  8
0
100
AcDbLine
 10
44.46300488
 20
7.76241986
 30
0.0
 11
44.35345745
 21
8.10982129
 31
0.0
  0
LINE
  5
1454
330
1046
100
AcDbEntity
  8
0
100
AcDbLine
 10
44.46300488
 20
7.76241986
 30
0.0
 11
44.46300488
 21
7.76241986
 31
0.0
1001
HATCH_DISTANCE
1040
1.0
1001
HATCH_DISPLAY
1070
     0
1001
HATCH_TYPE
1070
     7
  0
LINE
  5
1455
330
1046
100
AcDbEntity
  8
0
100
AcDbLine
 10
44.35345745
 20
8.10982129
 30
0.0
 11
44.46300488
 21
7.76241986
 31
0.0
1001
HATCH_DISTANCE
1040
1.0
1001
HATCH_DISPLAY
1070
     0
1001
HATCH_TYPE
1070
     7
  0
LINE
  5
1456
330
1046
100
AcDbEntity
  8
0
100
AcDbLine
 10
44.35345745
 20
8.10982129
 30
0.0
 11
44.35345745
 21
8.10982129
 31
0.0
1001
HATCH_DISTANCE
1040
1.0
1001
HATCH_DISPLAY
1070
     0
1001
HATCH_TYPE
1070
     7
  0
LINE
  5
1457
330
1046
100
AcDbEntity
  8
0
100
AcDbLine
 10
44.46300488
 20
7.76241986
 30
0.0
 11
44.35345745
 21
8.10982129
 31
0.0
1001
HATCH_DISTANCE
1040
1.0
1001
HATCH_DISPLAY
1070
     0
1001
HATCH_TYPE
1070
     7
  0
LINE
  5
1458
330
1046
100
AcDbEntity
  8
0
100
AcDbLine
 10
44.24529699
 20
7.69006455
 30
0.0
 11
44.28316979
 21
7.72793736
 31
0.0
  0
LINE
  5
1459
330
1046
100
AcDbEntity
  8
0
100
AcDbLine
 10
44.28954448
 20
7.70772168
 30
0.0
 11
44.17999706
 21
8.05512311
 31
0.0
  0
LINE
  5
145A
330
1046
100
AcDbEntity
  8
0
100
AcDbLine
 10
44.46300488
 20
7.76241986
 30
0.0
 11
44.35345745
 21
8.10982129
 31
0.0
  0
LINE
  5
145B
330
1046
100
AcDbEntity
  8
0
100
AcDbLine
 10
44.42815852
 20
7.87292609
 30
0.0
 11
44.72464865
 21
8.16941622
 31
0.0
  0
LINE
  5
145C
330
1046
100
AcDbEntity
  8
0
100
AcDbLine
 10
43.50790228
 20
7.7608929
 30
0.0
 11
43.78028129
 21
8.03327191
 31
0.0
  0
ARC
  5
145D
330
1046
100
AcDbEntity
  8
0
100
AcDbCircle
 10
43.41330242
 20
7.3908485
 30
0.0
 40
0.3819450080394744
100
AcDbArc
 50
1.71012138
 51
163.99839835
  0
ARC
  5
145E
330
1046
100
AcDbEntity
  8
0
100
AcDbCircle
 10
43.22288188
 20
6.99072644
 30
0.0
 40
1.182199287414549
100
AcDbArc
 50
53.4440122
 51
164.00018439
  0
LINE
  5
145F
330
1046
100
AcDbEntity
  8
0
100
AcDbLine
 10
41.9722865
 20
7.03350017
 30
0.0
 11
43.10591108
 21
8.16712475
 31
0.0
  0
LINE
  5
1460
330
1046
100
AcDbEntity
  8
0
100
AcDbLine
 10
41.05356425
 20
8.13533555
 30
0.0
 11
41.09115272
 21
8.17292401
 31
0.0
  0
LINE
  5
1461
330
1046
100
AcDbEntity
  8
0
100
AcDbLine
 10
41.07679853
 20
7.75445831
 30
0.0
 11
41.49526424
 21
8.17292401
 31
0.0
  0
LINE
  5
1462
330
1046
100
AcDbEntity
  8
0
100
AcDbLine
 10
42.01037578
 20
8.17292401
 30
0.0
 11
41.06434307
 21
8.17292401
 31
0.0
  0
LINE
  5
1463
330
1046
100
AcDbEntity
  8
0
100
AcDbLine
 10
42.01037578
 20
8.17292401
 30
0.0
 11
41.06434307
 21
8.17292401
 31
0.0
1001
HATCH_DISTANCE
1040
1.0
1001
HATCH_DISPLAY
1070
     0
1001
HATCH_TYPE
1070
     7
  0
LINE
  5
1464
330
1046
100
AcDbEntity
  8
0
100
AcDbLine
 10
41.06434307
 20
8.17292401
 30
0.0
 11
42.01037578
 21
8.17292401
 31
0.0
  0
LINE
  5
1465
330
1046
100
AcDbEntity
  8
0
100
AcDbLine
 10
43.32537059
 20
6.75428693
 30
0.0
 11
44.38493327
 21
6.75428693
 31
0.0
  0
LINE
  5
1466
330
1046
100
AcDbEntity
  8
0
100
AcDbLine
 10
43.73993764
 20
7.58881674
 30
0.0
 11
44.18628941
 21
8.03516851
 31
0.0
  0
ARC
  5
1467
330
1046
100
AcDbEntity
  8
0
100
AcDbCircle
 10
44.84034405
 20
6.26321179
 30
0.0
 40
1.545959186553949
100
AcDbArc
 50
110.8721834
 51
132.54194894
  0
ARC
  5
1468
330
1046
100
AcDbEntity
  8
0
100
AcDbCircle
 10
44.84034405
 20
6.26321179
 30
0.0
 40
1.909713077545161
100
AcDbArc
 50
110.22964506
 51
118.57168892
  0
LINE
  5
1469
330
1046
100
AcDbEntity
  8
0
100
AcDbLine
 10
44.14162378
 20
4.35349915
 30
0.0
 11
44.5053811
 21
4.71725647
 31
0.0
  0
LINE
  5
146A
330
1046
100
AcDbEntity
  8
0
100
AcDbLine
 10
44.54573531
 20
4.35349915
 30
0.0
 11
44.91111373
 21
4.71887756
 31
0.0
  0
LINE
  5
146B
330
1046
100
AcDbEntity
  8
0
100
AcDbLine
 10
44.95318388
 20
4.35683618
 30
0.0
 11
45.43080915
 21
4.83446147
 31
0.0
  0
LINE
  5
146C
330
1046
100
AcDbEntity
  8
0
100
AcDbLine
 10
41.97939523
 20
5.42416279
 30
0.0
 11
42.64202811
 21
6.08679567
 31
0.0
  0
LINE
  5
146D
330
1046
100
AcDbEntity
  8
0
100
AcDbLine
 10
43.29021435
 20
5.57593457
 30
0.0
 11
43.52379741
 21
6.39052959
 31
0.0
  0
ARC
  5
146E
330
1046
100
AcDbEntity
  8
0
100
AcDbCircle
 10
42.96212139
 20
6.08133313
 30
0.0
 40
1.182211303710936
100
AcDbArc
 50
163.9997507
 51
304.96387329
  0
LINE
  5
146F
330
1046
100
AcDbEntity
  8
0
100
AcDbLine
 10
43.33340074
 20
4.35349915
 30
0.0
 11
43.69715805
 21
4.71725647
 31
0.0
  0
LINE
  5
1470
330
1046
100
AcDbEntity
  8
0
100
AcDbLine
 10
41.71695464
 20
4.35349915
 30
0.0
 11
42.08071195
 21
4.71725647
 31
0.0
  0
LINE
  5
1471
330
1046
100
AcDbEntity
  8
0
100
AcDbLine
 10
42.12106616
 20
4.35349915
 30
0.0
 11
42.48482348
 21
4.71725647
 31
0.0
  0
LINE
  5
1472
330
1046
100
AcDbEntity
  8
0
100
AcDbLine
 10
42.52517769
 20
4.35349915
 30
0.0
 11
42.888935
 21
4.71725647
 31
0.0
  0
LINE
  5
1473
330
1046
100
AcDbEntity
  8
0
100
AcDbLine
 10
42.92928921
 20
4.35349915
 30
0.0
 11
43.29304653
 21
4.71725647
 31
0.0
  0
LINE
  5
1474
330
1046
100
AcDbEntity
  8
0
100
AcDbLine
 10
42.16637287
 20
5.20702891
 30
0.0
 11
42.55161895
 21
5.59227499
 31
0.0
  0
LINE
  5
1475
330
1046
100
AcDbEntity
  8
0
100
AcDbLine
 10
42.40309891
 20
5.03964343
 30
0.0
 11
42.72072292
 21
5.35726743
 31
0.0
  0
LINE
  5
1476
330
1046
100
AcDbEntity
  8
0
100
AcDbLine
 10
42.69683761
 20
4.9292706
 30
0.0
 11
43.12389466
 21
5.35632764
 31
0.0
  0
ARC
  5
1477
330
1046
100
AcDbEntity
  8
0
100
AcDbCircle
 10
42.92306499
 20
5.68121106
 30
0.0
 40
0.3819447398185731
100
AcDbArc
 50
164.00027306
 51
344.00027306
  0
LINE
  5
1478
330
1046
100
AcDbEntity
  8
0
100
AcDbLine
 10
41.31284311
 20
4.35349915
 30
0.0
 11
41.67660043
 21
4.71725647
 31
0.0
  0
LINE
  5
1479
330
1046
100
AcDbEntity
  8
0
100
AcDbLine
 10
43.66394415
 20
5.08815409
 30
0.0
 11
44.00496115
 21
5.42917109
 31
0.0
  0
LINE
  5
147A
330
1046
100
AcDbEntity
  8
0
100
AcDbLine
 10
43.63959332
 20
5.11250335
 30
0.0
 11
43.85297527
 21
4.89913513
 31
0.0
  0
LINE
  5
147B
330
1046
100
AcDbEntity
  8
0
100
AcDbLine
 10
43.22106914
 20
6.39052959
 30
0.0
 11
43.52379741
 21
6.39052959
 31
0.0
  0
LINE
  5
147C
330
1046
100
AcDbEntity
  8
0
100
AcDbLine
 10
41.05025603
 20
4.89913513
 30
0.0
 11
41.08023015
 21
4.92910925
 31
0.0
  0
LINE
  5
147D
330
1046
100
AcDbEntity
  8
0
100
AcDbLine
 10
46.25976877
 20
6.87575565
 30
0.0
 11
46.53248001
 21
7.1484669
 31
0.0
  0
LINE
  5
147E
330
1046
100
AcDbEntity
  8
0
100
AcDbLine
 10
46.35598453
 20
6.56785989
 30
0.0
 11
46.65285089
 21
6.86472626
 31
0.0
  0
LINE
  5
147F
330
1046
100
AcDbEntity
  8
0
100
AcDbLine
 10
45.93282793
 20
7.35703787
 30
0.0
 11
46.19004325
 21
7.61425317
 31
0.0
  0
LINE
  5
1480
330
1046
100
AcDbEntity
  8
0
100
AcDbLine
 10
46.11617391
 20
7.13627232
 30
0.0
 11
46.37699819
 21
7.39709661
 31
0.0
  0
LINE
  5
1481
330
1046
100
AcDbEntity
  8
0
100
AcDbLine
 10
46.26909437
 20
5.67274668
 30
0.0
 11
46.74671965
 21
6.15037196
 31
0.0
  0
LINE
  5
1482
330
1046
100
AcDbEntity
  8
0
100
AcDbLine
 10
46.38467827
 20
6.1924421
 30
0.0
 11
46.73018996
 21
6.53795379
 31
0.0
  0
LINE
  5
1483
330
1046
100
AcDbEntity
  8
241
100
AcDbLine
 10
125.0
 20
-11.7
 30
0.0
 11
125.0
 21
0.0
 31
0.0
  0
LINE
  5
1484
330
1046
100
AcDbEntity
  8
240
100
AcDbLine
 10
150.0
 20
-14.0
 30
0.0
 11
150.0
 21
0.0
 31
0.0
  0
LINE
  5
1485
330
1046
100
AcDbEntity
  8
241
100
AcDbLine
 10
129.2
 20
-15.0
 30
0.0
 11
129.2
 21
0.0
 31
0.0
  0
LINE
  5
1486
330
1046
100
AcDbEntity
  8
241
100
AcDbLine
 10
128.0
 20
-15.15
 30
0.0
 11
128.0
 21
0.0
 31
0.0
  0
LINE
  5
1487
330
1046
100
AcDbEntity
  8
241
100
AcDbLine
 10
126.0
 20
-11.7
 30
0.0
 11
126.0
 21
0.0
 31
0.0
  0
LINE
  5
1488
330
1046
100
AcDbEntity
  8
240
100
AcDbLine
 10
128.25980762
 20
-15.0
 30
0.0
 11
149.0
 21
-15.0
 31
0.0
  0
LINE
  5
1489
330
1046
100
AcDbEntity
  8
240
100
AcDbLine
 10
126.0
 20
-15.15
 30
0.0
 11
128.0
 21
-15.15
 31
0.0
  0
LINE
  5
148A
330
1046
100
AcDbEntity
  8
240
100
AcDbLine
 10
126.0
 20
-11.7
 30
0.0
 11
126.0
 21
-15.15
 31
0.0
  0
LINE
  5
148B
330
1046
100
AcDbEntity
  8
240
100
AcDbLine
 10
125.0
 20
-11.7
 30
0.0
 11
125.0
 21
-15.0
 31
0.0
  0
LINE
  5
148C
330
1046
100
AcDbEntity
  8
240
100
AcDbLine
 10
126.0
 20
-11.7
 30
0.0
 11
125.0
 21
-11.7
 31
0.0
  0
LINE
  5
148D
330
1046
100
AcDbEntity
  8
240
100
AcDbLine
 10
128.25980762
 20
-15.0
 30
0.0
 11
128.0
 21
-15.15
 31
0.0
  0
ARC
  5
148E
330
1046
100
AcDbEntity
  8
240
100
AcDbCircle
 10
149.0
 20
-14.0
 30
0.0
 40
1.0
100
AcDbArc
 50
270.0
 51
0.0
1001
GENIUS_GENOBJ-N-FIL_13
1002
{
1000
OWNER
1000
GEN
1002
}
1001
GENIUS_GENODEF_13
1002
{
1000
HIER
1070
     0
1002
}
1002
{
1000
MANEDIT
1070
     0
1002
}
1002
{
1000
NOSEL
1070
     0
1002
}
1002
{
1000
BEHIND
1070
     0
1002
}
1002
{
1000
OTHER
1070
     0
1002
}
1002
{
1000
REACTOR
1002
}
  0
LINE
  5
148F
330
1046
100
AcDbEntity
  8
240
100
AcDbLine
 10
128.25980762
 20
15.0
 30
0.0
 11
149.0
 21
15.0
 31
0.0
  0
LINE
  5
1490
330
1046
100
AcDbEntity
  8
241
  6
HIDDEN2
100
AcDbLine
 10
135.0
 20
4.25
 30
0.0
 11
149.5
 21
4.25
 31
0.0
  0
LINE
  5
1491
330
1046
100
AcDbEntity
  8
240
100
AcDbLine
 10
128.25980762
 20
15.0
 30
0.0
 11
128.0
 21
15.15
 31
0.0
  0
LINE
  5
1492
330
1046
100
AcDbEntity
  8
241
100
AcDbLine
 10
128.0
 20
15.15
 30
0.0
 11
128.0
 21
0.0
 31
0.0
  0
LINE
  5
1493
330
1046
100
AcDbEntity
  8
240
100
AcDbLine
 10
126.0
 20
11.7
 30
0.0
 11
126.0
 21
15.15
 31
0.0
  0
LINE
  5
1494
330
1046
100
AcDbEntity
  8
241
100
AcDbLine
 10
126.0
 20
11.7
 30
0.0
 11
126.0
 21
0.0
 31
0.0
  0
LINE
  5
1495
330
1046
100
AcDbEntity
  8
241
100
AcDbLine
 10
129.2
 20
15.0
 30
0.0
 11
129.2
 21
0.0
 31
0.0
  0
LINE
  5
1496
330
1046
100
AcDbEntity
  8
241
100
AcDbLine
 10
125.0
 20
11.7
 30
0.0
 11
125.0
 21
0.0
 31
0.0
  0
LINE
  5
1497
330
1046
100
AcDbEntity
  8
241
  6
HIDDEN2
100
AcDbLine
 10
135.0
 20
5.0
 30
0.0
 11
135.0
 21
0.0
 31
0.0
  0
LINE
  5
1498
330
1046
100
AcDbEntity
  8
241
  6
HIDDEN2
100
AcDbLine
 10
130.0
 20
5.0
 30
0.0
 11
130.0
 21
0.0
 31
0.0
  0
LINE
  5
1499
330
1046
100
AcDbEntity
  8
241
  6
HIDDEN2
100
AcDbLine
 10
124.0
 20
4.66690476
 30
0.0
 11
124.0
 21
0.0
 31
0.0
  0
LINE
  5
149A
330
1046
100
AcDbEntity
  8
242
  6
HIDDEN2
100
AcDbLine
 10
130.0
 20
4.66690476
 30
0.0
 11
124.0
 21
0.0
 31
0.0
  0
LINE
  5
149B
330
1046
100
AcDbEntity
  8
242
  6
HIDDEN2
100
AcDbLine
 10
124.0
 20
4.66690476
 30
0.0
 11
130.0
 21
0.0
 31
0.0
  0
LINE
  5
149C
330
1046
100
AcDbEntity
  8
241
  6
HIDDEN2
100
AcDbLine
 10
124.0
 20
4.66690476
 30
0.0
 11
130.0
 21
4.66690476
 31
0.0
  0
LINE
  5
149D
330
1046
100
AcDbEntity
  8
240
100
AcDbLine
 10
125.0
 20
11.7
 30
0.0
 11
125.0
 21
15.0
 31
0.0
  0
LINE
  5
149E
330
1046
100
AcDbEntity
  8
240
100
AcDbLine
 10
126.0
 20
11.7
 30
0.0
 11
125.0
 21
11.7
 31
0.0
  0
LINE
  5
149F
330
1046
100
AcDbEntity
  8
241
  6
HIDDEN2
100
AcDbLine
 10
130.0
 20
5.0
 30
0.0
 11
135.0
 21
5.0
 31
0.0
  0
LINE
  5
14A0
330
1046
100
AcDbEntity
  8
240
100
AcDbLine
 10
126.0
 20
15.15
 30
0.0
 11
128.0
 21
15.15
 31
0.0
  0
ARC
  5
14A1
330
1046
100
AcDbEntity
  8
240
100
AcDbCircle
 10
149.0
 20
14.0
 30
0.0
 40
1.0
100
AcDbArc
 50
0.0
 51
90.0
1001
GENIUS_GENOBJ-N-FIL_13
1002
{
1000
OWNER
1000
GEN
1002
}
1001
GENIUS_GENODEF_13
1002
{
1000
HIER
1070
     0
1002
}
1002
{
1000
MANEDIT
1070
     0
1002
}
1002
{
1000
NOSEL
1070
     0
1002
}
1002
{
1000
BEHIND
1070
     0
1002
}
1002
{
1000
OTHER
1070
     0
1002
}
1002
{
1000
REACTOR
1002
}
  0
LINE
  5
14A2
330
1046
100
AcDbEntity
  8
240
100
AcDbLine
 10
150.0
 20
14.0
 30
0.0
 11
150.0
 21
0.0
 31
0.0
  0
ARC
  5
14A3
330
1046
100
AcDbEntity
  8
241
100
AcDbCircle
 10
149.5
 20
4.75
 30
0.0
 40
0.5
100
AcDbArc
 50
270.0
 51
0.0
1001
GENIUS_GENODEF_13
1002
{
1000
HIER
1070
     0
1002
}
1002
{
1000
MANEDIT
1070
     0
1002
}
1002
{
1000
NOSEL
1070
     0
1002
}
1002
{
1000
BEHIND
1070
     0
1002
}
1002
{
1000
OTHER
1070
     0
1002
}
1002
{
1000
REACTOR
1002
}
1001
GENIUS_GENOBJ-N-FIL_13
1002
{
1000
OWNER
1000
GEN
1002
}
  0
ENDBLK
  5
1048
330
1046
100
AcDbEntity
  8
0
100
AcDbBlockEnd
  0
ENDSEC
  0
SECTION
  2
ENTITIES
  0
INSERT
  5
6E6
330
1A
100
AcDbEntity
  8
245
100
AcDbBlockReference
  2
矢印なし
 10
175.62382697
 20
90.55123572
 30
0.0
  0
TEXT
  5
F42
330
1A
100
AcDbEntity
  8
241
100
AcDbText
 10
-69.0
 20
49.0
 30
0.0
 40
5.0
  1
MGT20-M12-150
  7
YOKO
 11
-69.0
 21
49.0
 31
0.0
100
AcDbText
 73
     1
  0
DIMENSION
  5
F43
330
1A
100
AcDbEntity
  8
250
  6
CONTINUOUS
100
AcDbDimension
  2
*D2
 10
150.0
 20
35.0
 30
0.0
 11
75.0
 21
37.4
 31
0.0
 70
    32
  3
BIGT
100
AcDbAlignedDimension
 13
0.0
 23
19.14125603
 33
0.0
 14
150.0
 24
14.1316525
 34
0.0
100
AcDbRotatedDimension
  0
LINE
  5
FE1
330
1A
100
AcDbEntity
  8
250
  6
CONTINUOUS
100
AcDbLine
 10
148.80879885
 20
28.04605852
 30
0.0
 11
133.95546552
 21
28.04605852
 31
0.0
1001
ITEMNAME
1000
LNSP2
  0
LEADER
  5
FE2
330
1A
100
AcDbEntity
  8
250
  6
CONTINUOUS
100
AcDbLeader
  3
BIGT
 76
     2
 10
126.65456399
 20
4.66690476
 30
0.0
 10
133.95546552
 20
28.04605852
 30
0.0
1001
ACAD
1000
DSTYLE
1002
{
1070
     6
1000
OPEN
1070
   343
1005
594
1002
}
  0
MTEXT
  5
FE3
330
1A
100
AcDbEntity
  8
251
  6
CONTINUOUS
100
AcDbMText
 10
136.75546552
 20
29.04605852
 30
0.0
 40
2.8
 41
0.0
 71
     7
 72
     1
  1
□6.5
  7
YOKO
1001
ITEMNAME
1000
LNSP3
1001
ACAD
1000
MTEXTBEGIN
1070
    73
1070
     1
1070
    44
1040
1.0
1070
    74
1070
     0
1000
MTEXTEND
1000
MTEXTBEGIN
1070
    73
1070
     1
1070
    44
1040
1.0
1070
    74
1070
     0
1000
MTEXTEND
1000
MTEXTBEGIN
1070
    73
1070
     1
1070
    44
1040
1.0
1070
    74
1070
     0
1000
MTEXTEND
1000
MTEXTBEGIN
1070
    73
1070
     1
1070
    44
1040
1.0
1070
    74
1070
     0
1000
MTEXTEND
1000
MTEXTBEGIN
1070
    73
1070
     1
1070
    44
1040
1.0
1070
    74
1070
     0
1000
MTEXTEND
1000
MTEXTBEGIN
1070
    73
1070
     1
1070
    44
1040
1.0
1070
    74
1070
     0
1000
MTEXTEND
1000
MTEXTBEGIN
1070
    73
1070
     1
1070
    44
1040
1.0
1070
    74
1070
     0
1000
MTEXTEND
1000
MTEXTBEGIN
1070
    73
1070
     1
1070
    44
1040
1.0
1070
    74
1070
     0
1000
MTEXTEND
  0
DIMENSION
  5
FED
330
1A
100
AcDbEntity
  8
250
  6
CONTINUOUS
100
AcDbDimension
  2
*D3
 10
165.0
 20
15.0
 30
0.0
 11
165.0
 21
0.0
 31
0.0
 70
   160
  1
{\H2.8;%%C}<>
  3
BIGT
100
AcDbAlignedDimension
 13
149.1316525
 23
-15.0
 33
0.0
 14
149.1316525
 24
15.0
 34
0.0
 50
90.0
100
AcDbRotatedDimension
1001
ACAD
1000
DSTYLE
1002
{
1070
    41
1040
2.0
1002
}
  0
DIMENSION
  5
FEE
330
1A
100
AcDbEntity
  8
250
  6
CONTINUOUS
100
AcDbDimension
  2
*D4
 10
158.0
 20
4.25
 30
0.0
 11
158.0
 21
-1.57812559
 31
0.0
 70
   160
  1
{\H2.8;\U+2205}<>
  3
BIGT
100
AcDbAlignedDimension
 13
149.5
 23
-4.25
 33
0.0
 14
149.5
 24
4.25
 34
0.0
 50
90.0
100
AcDbRotatedDimension
1001
ACAD
1000
DSTYLE
1002
{
1070
    75
1070
     1
1070
     6
1000
矢印なし
1002
}
  0
INSERT
  5
14A4
330
1A
100
AcDbEntity
  8
245
100
AcDbBlockReference
  2
1
 10
0.0
 20
0.0
 30
0.0
  0
VIEWPORT
  5
22
330
17
100
AcDbEntity
 67
     1
  8
0
100
AcDbViewport
 10
261.51769912
 20
148.5
 30
0.0
 40
523.03539823
 41
297.0
 68
     1
 69
     1
1001
ACAD
1000
MVIEW
1002
{
1070
    16
1010
0.0
1020
0.0
1030
0.0
1010
0.0
1020
0.0
1030
1.0
1040
0.0
1040
297.0
1040
261.51769912
1040
148.5
1040
50.0
1040
0.0
1040
0.0
1070
     0
1070
   100
1070
     1
1070
     1
1070
     0
1070
     0
1070
     0
1070
     0
1040
0.0
1040
0.0
1040
0.0
1040
1.0
1040
1.0
1040
10.0
1040
10.0
1070
     0
1002
{
1002
}
1002
}
  0
ENDSEC
  0
SECTION
  2
OBJECTS
  0
DICTIONARY
  5
C
330
0
100
AcDbDictionary
  3
ACAD_GROUP
350
D
  3
ACAD_LAYOUT
350
565
  3
ACAD_MLINESTYLE
350
E
  3
ACAD_PLOTSETTINGS
350
566
  3
ACAD_PLOTSTYLENAME
350
563
  3
ACDBHEADERROUNDTRIPXREC
350
14A6
  3
GRADE_DWG
350
540
  0
DICTIONARY
  5
11D1
330
1A
100
AcDbDictionary
280
     1
  3
ACAD_LAYOUTSELFREF
360
14C8
  0
DICTIONARY
  5
11CF
330
17
100
AcDbDictionary
280
     1
  3
ACAD_LAYOUTSELFREF
360
14C7
  0
DICTIONARY
  5
D
102
{ACAD_REACTORS
330
C
102
}
330
C
100
AcDbDictionary
  3
*A1
350
6C7
  3
*A2
350
6C8
  3
*A3
350
6D4
  3
*A4
350
6D5
  3
DREC-1
350
5FC
  3
DREC-2
350
654
  3
DREC-3
350
673
  0
DICTIONARY
  5
565
102
{ACAD_REACTORS
330
C
102
}
330
C
100
AcDbDictionary
  0
DICTIONARY
  5
E
102
{ACAD_REACTORS
330
C
102
}
330
C
100
AcDbDictionary
  3
STANDARD
350
13
  0
DICTIONARY
  5
566
102
{ACAD_REACTORS
330
C
102
}
330
C
100
AcDbDictionary
  3
A3_0_5倍_
350
758
  3
A3_1倍_
350
757
  3
A3_1倍__2000_
350
707
  3
A3_2倍_
350
759
  3
A4_0_5倍_
350
755
  3
A4_1倍_
350
754
  3
A4_1倍__2000_
350
708
  3
A4_2倍_
350
756
  0
ACDBDICTIONARYWDFLT
  5
563
102
{ACAD_REACTORS
330
C
102
}
330
C
100
AcDbDictionary
281
     1
  3
Normal
350
564
100
AcDbDictionaryWithDefault
340
564
  0
DICTIONARY
  5
14A6
102
{ACAD_REACTORS
330
C
102
}
330
C
100
AcDbDictionary
  3
CEPSNTYPE
350
14B0
  3
DIMSTYLEDATA
350
14B4
  3
FINGERPRINTGUID
350
14B1
  3
HYPERLINKBASE
350
14A9
  3
INSUNITS
350
14AF
  3
LAYOUTDICT
350
14AB
  3
LWETCUNION
350
14AE
  3
PLOTSETDICT
350
14AC
  3
PLOTSTYLNAMDICT
350
14AD
  3
PSVPSCALE
350
14B3
  3
PUCSBASE
350
14B7
  3
PUCSORGBACK
350
14BD
  3
PUCSORGBOTTOM
350
14B9
  3
PUCSORGFRONT
350
14BC
  3
PUCSORGLEFT
350
14BA
  3
PUCSORGRIGHT
350
14BB
  3
PUCSORGTOP
350
14B8
  3
PUCSORTHOREF
350
14B5
  3
PUCSORTHOVIEW
350
14B6
  3
STYLESHEET
350
14AA
  3
TSTACKALIGN
350
14A7
  3
TSTACKSIZE
350
14A8
  3
UCSBASE
350
14C0
  3
UCSORGBACK
350
14C6
  3
UCSORGBOTTOM
350
14C2
  3
UCSORGFRONT
350
14C5
  3
UCSORGLEFT
350
14C3
  3
UCSORGRIGHT
350
14C4
  3
UCSORGTOP
350
14C1
  3
UCSORTHOREF
350
14BE
  3
UCSORTHOVIEW
350
14BF
  3
VERSIONGUID
350
14B2
  0
DICTIONARY
  5
540
102
{ACAD_REACTORS
330
C
102
}
330
C
100
AcDbDictionary
  3
VERSION
350
560
  0
XRECORD
  5
14C8
102
{ACAD_REACTORS
330
11D1
102
}
330
11D1
100
AcDbXrecord
340
1A
  0
XRECORD
  5
14C7
102
{ACAD_REACTORS
330
11CF
102
}
330
11CF
100
AcDbXrecord
340
17
  0
GROUP
  5
6C7
102
{ACAD_REACTORS
330
D
102
}
330
D
100
AcDbGroup
300

 70
     0
 71
     1
1001
GRPNAME
1000
DMA00
  0
GROUP
  5
6C8
102
{ACAD_REACTORS
330
D
102
}
330
D
100
AcDbGroup
300

 70
     0
 71
     1
1001
GRPNAME
1000
DMA00
  0
GROUP
  5
6D4
102
{ACAD_REACTORS
330
D
102
}
330
D
100
AcDbGroup
300

 70
     0
 71
     1
1001
GRPNAME
1000
DMA00
  0
GROUP
  5
6D5
102
{ACAD_REACTORS
330
D
102
}
330
D
100
AcDbGroup
300

 70
     0
 71
     1
1001
GRPNAME
1000
DMA00
  0
GROUP
  5
5FC
102
{ACAD_REACTORS
330
D
102
}
330
D
100
AcDbGroup
300

 70
     0
 71
     1
1001
GRPNAME
1000
DREC-
1001
GPARA
1000
xsiz
1000
44.182
1000
ysiz
1000
40.677
1000
angl
1000
0
1000
ctyp
1000
0
1000
csiz
1000
5
1000
lfnt
1000
cont
1000
hcnt
1000
hoff
1000
vcnt
1000
voff
1000
opnt
1000
4
1000
dxpt
1000
0
1000
dypt
1000
0
  0
GROUP
  5
654
102
{ACAD_REACTORS
330
D
102
}
330
D
100
AcDbGroup
300

 70
     0
 71
     1
1001
GRPNAME
1000
DREC-
1001
GPARA
1000
xsiz
1000
54.592
1000
ysiz
1000
53.036
1000
angl
1000
0
1000
ctyp
1000
0
1000
csiz
1000
5
1000
lfnt
1000
cont
1000
hcnt
1000
hoff
1000
vcnt
1000
voff
1000
opnt
1000
4
1000
dxpt
1000
0
1000
dypt
1000
0
  0
GROUP
  5
673
102
{ACAD_REACTORS
330
D
102
}
330
D
100
AcDbGroup
300

 70
     0
 71
     1
1001
GRPNAME
1000
DREC-
1001
GPARA
1000
xsiz
1000
30.363
1000
ysiz
1000
36.175
1000
angl
1000
0
1000
ctyp
1000
0
1000
csiz
1000
5
1000
lfnt
1000
cont
1000
hcnt
1000
hoff
1000
vcnt
1000
voff
1000
opnt
1000
4
1000
dxpt
1000
0
1000
dypt
1000
0
  0
MLINESTYLE
  5
13
102
{ACAD_REACTORS
330
E
102
}
330
E
100
AcDbMlineStyle
  2
STANDARD
 70
     0
  3

 62
     0
 51
90.0
 52
90.0
 71
     2
 49
0.5
 62
   256
  6
BYLAYER
 49
-0.5
 62
   256
  6
BYLAYER
  0
PLOTSETTINGS
  5
758
102
{ACAD_REACTORS
330
566
102
}
330
566
100
AcDbPlotSettings
  1
A3(0.5倍)
  2
\\AWTECPC05\HP DeskJet 1120C
  4
A3
  6

 40
5.95841646
 41
13.49375153
 42
6.04309082
 43
3.67242432
 44
296.92599487
 45
419.94665527
 46
89.96
 47
127.14
 48
0.0
 49
0.0
140
0.0
141
0.0
142
1.0
143
2.0
 70
  1716
 72
     1
 73
     1
 74
     2
  7
big.ctb
 75
    17
147
0.5
148
0.0
149
0.0
  0
PLOTSETTINGS
  5
757
102
{ACAD_REACTORS
330
566
102
}
330
566
100
AcDbPlotSettings
  1
A3(1倍)
  2
\\AWTECPC05\HP DeskJet 1120C
  4
A3
  6

 40
5.95841646
 41
13.49375153
 42
6.04309082
 43
3.67242432
 44
296.92599487
 45
419.94665527
 46
37.46
 47
52.89
 48
0.0
 49
0.0
140
0.0
141
0.0
142
1.0
143
1.0
 70
  1716
 72
     1
 73
     1
 74
     2
  7
big.ctb
 75
    16
147
1.0
148
0.0
149
0.0
  0
PLOTSETTINGS
  5
707
102
{ACAD_REACTORS
330
566
102
}
330
566
100
AcDbPlotSettings
  1
A3(1倍)(2000)
  2
SII LS-1300 (D-SCAN)
  4
User258
  6

 40
3.17499995
 41
3.17499995
 42
3.17498779
 43
3.17498779
 44
419.98898315
 45
296.98950195
 46
58.32
 47
40.32
 48
0.0
 49
0.0
140
0.0
141
0.0
142
1.0
143
1.0
 70
  1716
 72
     1
 73
     0
 74
     2
  7
big.ctb
 75
    16
147
1.0
148
0.0
149
0.0
  0
PLOTSETTINGS
  5
759
102
{ACAD_REACTORS
330
566
102
}
330
566
100
AcDbPlotSettings
  1
A3(2倍)
  2
\\AWTECPC05\HP DeskJet 1120C
  4
A3
  6

 40
5.95841646
 41
13.49375153
 42
6.04309082
 43
3.67242432
 44
296.92599487
 45
419.94665527
 46
-67.54
 47
-95.61
 48
0.0
 49
0.0
140
0.0
141
0.0
142
1.0
143
0.5
 70
  1716
 72
     1
 73
     1
 74
     2
  7
big.ctb
 75
    27
147
2.0
148
0.0
149
0.0
  0
PLOTSETTINGS
  5
755
102
{ACAD_REACTORS
330
566
102
}
330
566
100
AcDbPlotSettings
  1
A4(0.5倍)
  2
\\AWTECPC05\HP DeskJet 1120C
  4
A4
  6

 40
4.18041658
 41
13.49374962
 42
4.18040466
 43
3.92642212
 44
209.97332764
 45
296.92599487
 46
48.31
 47
65.5
 48
0.0
 49
0.0
140
0.0
141
0.0
142
1.0
143
2.0
 70
  1716
 72
     1
 73
     1
 74
     2
  7
big.ctb
 75
    17
147
0.5
148
0.0
149
0.0
  0
PLOTSETTINGS
  5
754
102
{ACAD_REACTORS
330
566
102
}
330
566
100
AcDbPlotSettings
  1
A4(1倍)
  2
\\AWTECPC05\HP DeskJet 1120C
  4
A4
  6

 40
4.18041658
 41
13.49374962
 42
4.18040466
 43
3.92642212
 44
209.97332764
 45
296.92599487
 46
-4.19
 47
-8.75
 48
0.0
 49
0.0
140
0.0
141
0.0
142
1.0
143
1.0
 70
  1716
 72
     1
 73
     1
 74
     2
  7
big.ctb
 75
    16
147
1.0
148
0.0
149
0.0
  0
PLOTSETTINGS
  5
708
102
{ACAD_REACTORS
330
566
102
}
330
566
100
AcDbPlotSettings
  1
A4(1倍)(2000)
  2
SII LS-1300 (D-SCAN)
  4
User259
  6

 40
3.17499995
 41
3.17499995
 42
3.17498779
 43
3.17500305
 44
296.98950195
 45
209.99449158
 46
-3.18
 47
-3.18
 48
0.0
 49
0.0
140
0.0
141
0.0
142
1.0
143
1.0
 70
  1716
 72
     1
 73
     0
 74
     2
  7
big.ctb
 75
    16
147
1.0
148
0.0
149
0.0
  0
PLOTSETTINGS
  5
756
102
{ACAD_REACTORS
330
566
102
}
330
566
100
AcDbPlotSettings
  1
A4(2倍)
  2
\\AWTECPC05\HP DeskJet 1120C
  4
A4
  6

 40
4.18041658
 41
13.49374962
 42
4.18040466
 43
3.92642212
 44
209.97332764
 45
296.92599487
 46
-109.19
 47
-157.25
 48
0.0
 49
0.0
140
0.0
141
0.0
142
1.0
143
0.5
 70
  1716
 72
     1
 73
     1
 74
     2
  7
big.ctb
 75
    27
147
2.0
148
0.0
149
0.0
  0
ACDBPLACEHOLDER
  5
564
102
{ACAD_REACTORS
330
563
102
}
330
563
100
AcDbPlaceHolder
280
     0
  0
XRECORD
  5
14B0
102
{ACAD_REACTORS
330
14A6
102
}
330
14A6
100
AcDbXrecord
 90
        0
  0
XRECORD
  5
14B4
102
{ACAD_REACTORS
330
14A6
102
}
330
14A6
100
AcDbXrecord
1000
DSTYLE
1002
{
1070
    79
 70
     2
1070
   179
 70
     3
1070
   341
340
594
1070
   343
340
594
1070
   344
340
594
1070
   371
 70
    -1
1070
   372
 70
    -1
1002
}
  0
XRECORD
  5
14B1
102
{ACAD_REACTORS
330
14A6
102
}
330
14A6
100
AcDbXrecord
  1
{51294030-9CB4-11D3-8E18-00A0C925D94D}
  0
XRECORD
  5
14A9
102
{ACAD_REACTORS
330
14A6
102
}
330
14A6
100
AcDbXrecord
  1

  0
XRECORD
  5
14AF
102
{ACAD_REACTORS
330
14A6
102
}
330
14A6
100
AcDbXrecord
 90
        0
  0
XRECORD
  5
14AB
102
{ACAD_REACTORS
330
14A6
102
}
330
14A6
100
AcDbXrecord
340
565
  0
XRECORD
  5
14AE
102
{ACAD_REACTORS
330
14A6
102
}
330
14A6
100
AcDbXrecord
 90
    10781
  0
XRECORD
  5
14AC
102
{ACAD_REACTORS
330
14A6
102
}
330
14A6
100
AcDbXrecord
340
566
  0
XRECORD
  5
14AD
102
{ACAD_REACTORS
330
14A6
102
}
330
14A6
100
AcDbXrecord
340
563
  0
XRECORD
  5
14B3
102
{ACAD_REACTORS
330
14A6
102
}
330
14A6
100
AcDbXrecord
 40
0.0
  0
XRECORD
  5
14B7
102
{ACAD_REACTORS
330
14A6
102
}
330
14A6
100
AcDbXrecord
340
0
  0
XRECORD
  5
14BD
102
{ACAD_REACTORS
330
14A6
102
}
330
14A6
100
AcDbXrecord
 10
0.0
 20
0.0
 30
0.0
  0
XRECORD
  5
14B9
102
{ACAD_REACTORS
330
14A6
102
}
330
14A6
100
AcDbXrecord
 10
0.0
 20
0.0
 30
0.0
  0
XRECORD
  5
14BC
102
{ACAD_REACTORS
330
14A6
102
}
330
14A6
100
AcDbXrecord
 10
0.0
 20
0.0
 30
0.0
  0
XRECORD
  5
14BA
102
{ACAD_REACTORS
330
14A6
102
}
330
14A6
100
AcDbXrecord
 10
0.0
 20
0.0
 30
0.0
  0
XRECORD
  5
14BB
102
{ACAD_REACTORS
330
14A6
102
}
330
14A6
100
AcDbXrecord
 10
0.0
 20
0.0
 30
0.0
  0
XRECORD
  5
14B8
102
{ACAD_REACTORS
330
14A6
102
}
330
14A6
100
AcDbXrecord
 10
0.0
 20
0.0
 30
0.0
  0
XRECORD
  5
14B5
102
{ACAD_REACTORS
330
14A6
102
}
330
14A6
100
AcDbXrecord
340
0
  0
XRECORD
  5
14B6
102
{ACAD_REACTORS
330
14A6
102
}
330
14A6
100
AcDbXrecord
 70
     0
  0
XRECORD
  5
14AA
102
{ACAD_REACTORS
330
14A6
102
}
330
14A6
100
AcDbXrecord
  1
big.ctb
  0
XRECORD
  5
14A7
102
{ACAD_REACTORS
330
14A6
102
}
330
14A6
100
AcDbXrecord
 90
        1
  0
XRECORD
  5
14A8
102
{ACAD_REACTORS
330
14A6
102
}
330
14A6
100
AcDbXrecord
 90
       70
  0
XRECORD
  5
14C0
102
{ACAD_REACTORS
330
14A6
102
}
330
14A6
100
AcDbXrecord
340
0
  0
XRECORD
  5
14C6
102
{ACAD_REACTORS
330
14A6
102
}
330
14A6
100
AcDbXrecord
 10
0.0
 20
0.0
 30
0.0
  0
XRECORD
  5
14C2
102
{ACAD_REACTORS
330
14A6
102
}
330
14A6
100
AcDbXrecord
 10
0.0
 20
0.0
 30
0.0
  0
XRECORD
  5
14C5
102
{ACAD_REACTORS
330
14A6
102
}
330
14A6
100
AcDbXrecord
 10
0.0
 20
0.0
 30
0.0
  0
XRECORD
  5
14C3
102
{ACAD_REACTORS
330
14A6
102
}
330
14A6
100
AcDbXrecord
 10
0.0
 20
0.0
 30
0.0
  0
XRECORD
  5
14C4
102
{ACAD_REACTORS
330
14A6
102
}
330
14A6
100
AcDbXrecord
 10
0.0
 20
0.0
 30
0.0
  0
XRECORD
  5
14C1
102
{ACAD_REACTORS
330
14A6
102
}
330
14A6
100
AcDbXrecord
 10
0.0
 20
0.0
 30
0.0
  0
XRECORD
  5
14BE
102
{ACAD_REACTORS
330
14A6
102
}
330
14A6
100
AcDbXrecord
340
0
  0
XRECORD
  5
14BF
102
{ACAD_REACTORS
330
14A6
102
}
330
14A6
100
AcDbXrecord
 70
     0
  0
XRECORD
  5
14B2
102
{ACAD_REACTORS
330
14A6
102
}
330
14A6
100
AcDbXrecord
  1
{12DB8861-3130-4994-8405-BE1573C9ED9C}
  0
XRECORD
  5
560
102
{ACAD_REACTORS
330
540
102
}
330
540
100
AcDbXrecord
  1
2.0.0
  0
ENDSEC
  0
EOF
