  0
SECTION
  2
HEADER
  9
$ACADVER
  1
AC1014
  9
$ACADMAINTVER
 70
     9
  9
$DWGCODEPAGE
  3
ANSI_932
  9
$INSBASE
 10
0.0
 20
0.0
 30
0.0
  9
$EXTMIN
 10
-52.0144032
 20
-13.57013701
 30
-0.00152582
  9
$EXTMAX
 10
48.02343817
 20
47.01515995
 30
0.00000003
  9
$LIMMIN
 10
0.0
 20
0.0
  9
$LIMMAX
 10
420.0
 20
297.0
  9
$ORTHOMODE
 70
     0
  9
$REGENMODE
 70
     1
  9
$FILLMODE
 70
     1
  9
$QTEXTMODE
 70
     0
  9
$MIRRTEXT
 70
     1
  9
$DRAGMODE
 70
     2
  9
$LTSCALE
 40
10.0
  9
$OSMODE
 70
   549
  9
$ATTMODE
 70
     1
  9
$TEXTSIZE
 40
3.0
  9
$TRACEWID
 40
1.0
  9
$TEXTSTYLE
  7
YOKO
  9
$CLAYER
  8
245
  9
$CELTYPE
  6
BYLAYER
  9
$CECOLOR
 62
   256
  9
$CELTSCALE
 40
1.0
  9
$DELOBJ
 70
     1
  9
$DISPSILH
 70
     0
  9
$DIMSCALE
 40
1.0
  9
$DIMASZ
 40
2.0
  9
$DIMEXO
 40
2.0
  9
$DIMDLI
 40
2.5
  9
$DIMRND
 40
0.0
  9
$DIMDLE
 40
0.0
  9
$DIMEXE
 40
2.0
  9
$DIMTP
 40
0.0
  9
$DIMTM
 40
0.0
  9
$DIMTXT
 40
4.0
  9
$DIMCEN
 40
0.0
  9
$DIMTSZ
 40
0.0
  9
$DIMTOL
 70
     0
  9
$DIMLIM
 70
     0
  9
$DIMTIH
 70
     0
  9
$DIMTOH
 70
     0
  9
$DIMSE1
 70
     0
  9
$DIMSE2
 70
     0
  9
$DIMTAD
 70
     3
  9
$DIMZIN
 70
     8
  9
$DIMBLK
  1

  9
$DIMASO
 70
     1
  9
$DIMSHO
 70
     1
  9
$DIMPOST
  1

  9
$DIMAPOST
  1

  9
$DIMALT
 70
     0
  9
$DIMALTD
 70
     2
  9
$DIMALTF
 40
25.4
  9
$DIMLFAC
 40
1.0
  9
$DIMTOFL
 70
     1
  9
$DIMTVP
 40
0.0
  9
$DIMTIX
 70
     1
  9
$DIMSOXD
 70
     0
  9
$DIMSAH
 70
     1
  9
$DIMBLK1
  1
OPEN
  9
$DIMBLK2
  1
OPEN
  9
$DIMSTYLE
  2
BIGT
  9
$DIMCLRD
 70
   256
  9
$DIMCLRE
 70
   256
  9
$DIMCLRT
 70
    40
  9
$DIMTFAC
 40
1.0
  9
$DIMGAP
 40
1.0
  9
$DIMJUST
 70
     0
  9
$DIMSD1
 70
     0
  9
$DIMSD2
 70
     0
  9
$DIMTOLJ
 70
     1
  9
$DIMTZIN
 70
     8
  9
$DIMALTZ
 70
     0
  9
$DIMALTTZ
 70
     0
  9
$DIMFIT
 70
     3
  9
$DIMUPT
 70
     0
  9
$DIMUNIT
 70
     2
  9
$DIMDEC
 70
     3
  9
$DIMTDEC
 70
     3
  9
$DIMALTU
 70
     2
  9
$DIMALTTD
 70
     2
  9
$DIMTXSTY
  7
STANDARD
  9
$DIMAUNIT
 70
     0
  9
$LUNITS
 70
     2
  9
$LUPREC
 70
     3
  9
$SKETCHINC
 40
1.0
  9
$FILLETRAD
 40
0.0
  9
$AUNITS
 70
     0
  9
$AUPREC
 70
     3
  9
$MENU
  1
.
  9
$ELEVATION
 40
0.0
  9
$PELEVATION
 40
0.0
  9
$THICKNESS
 40
0.0
  9
$LIMCHECK
 70
     0
  9
$BLIPMODE
 70
     0
  9
$CHAMFERA
 40
10.0
  9
$CHAMFERB
 40
10.0
  9
$CHAMFERC
 40
0.0
  9
$CHAMFERD
 40
0.0
  9
$SKPOLY
 70
     0
  9
$TDCREATE
 40
2455128.501696863
  9
$TDUPDATE
 40
2455316.576414201
  9
$TDINDWG
 40
0.0144543981
  9
$TDUSRTIMER
 40
0.0144543981
  9
$USRTIMER
 70
     1
  9
$ANGBASE
 50
0.0
  9
$ANGDIR
 70
     0
  9
$PDMODE
 70
     1
  9
$PDSIZE
 40
-5.0
  9
$PLINEWID
 40
0.0
  9
$COORDS
 70
     2
  9
$SPLFRAME
 70
     0
  9
$SPLINETYPE
 70
     6
  9
$SPLINESEGS
 70
     8
  9
$ATTDIA
 70
     0
  9
$ATTREQ
 70
     1
  9
$HANDLING
 70
-16383
  9
$HANDSEED
  5
12F8
  9
$SURFTAB1
 70
     6
  9
$SURFTAB2
 70
     6
  9
$SURFTYPE
 70
     6
  9
$SURFU
 70
     6
  9
$SURFV
 70
     6
  9
$UCSNAME
  2

  9
$UCSORG
 10
0.0
 20
0.0
 30
0.0
  9
$UCSXDIR
 10
1.0
 20
0.0
 30
0.0
  9
$UCSYDIR
 10
0.0
 20
1.0
 30
0.0
  9
$PUCSNAME
  2

  9
$PUCSORG
 10
0.0
 20
0.0
 30
0.0
  9
$PUCSXDIR
 10
1.0
 20
0.0
 30
0.0
  9
$PUCSYDIR
 10
0.0
 20
1.0
 30
0.0
  9
$USERI1
 70
     1
  9
$USERI2
 70
     0
  9
$USERI3
 70
     0
  9
$USERI4
 70
     0
  9
$USERI5
 70
     0
  9
$USERR1
 40
0.0
  9
$USERR2
 40
0.0
  9
$USERR3
 40
0.0
  9
$USERR4
 40
0.0
  9
$USERR5
 40
0.0
  9
$WORLDVIEW
 70
     1
  9
$SHADEDGE
 70
     3
  9
$SHADEDIF
 70
    70
  9
$TILEMODE
 70
     1
  9
$MAXACTVP
 70
    16
  9
$PINSBASE
 10
0.0
 20
0.0
 30
0.0
  9
$PLIMCHECK
 70
     0
  9
$PEXTMIN
 10
1.00000000E+20
 20
1.00000000E+20
 30
1.00000000E+20
  9
$PEXTMAX
 10
-1.00000000E+20
 20
-1.00000000E+20
 30
-1.00000000E+20
  9
$PLIMMIN
 10
0.0
 20
0.0
  9
$PLIMMAX
 10
420.0
 20
297.0
  9
$UNITMODE
 70
     0
  9
$VISRETAIN
 70
     0
  9
$PLINEGEN
 70
     0
  9
$PSLTSCALE
 70
     1
  9
$TREEDEPTH
 70
  3020
  9
$PICKSTYLE
 70
     0
  9
$CMLSTYLE
  2
STANDARD
  9
$CMLJUST
 70
     0
  9
$CMLSCALE
 40
1.0
  9
$PROXYGRAPHICS
 70
     1
  9
$MEASUREMENT
 70
     1
  0
ENDSEC
  0
SECTION
  2
CLASSES
  0
CLASS
  1
XRECORD
  2
AcDbXrecord
  3
AutoCAD 2000
 90
        0
280
     0
281
     0
  0
CLASS
  1
ACDBDICTIONARYWDFLT
  2
AcDbDictionaryWithDefault
  3
AutoCAD 2000
 90
        0
280
     0
281
     0
  0
CLASS
  1
ACDBPLACEHOLDER
  2
AcDbPlaceHolder
  3
AutoCAD 2000
 90
        0
280
     0
281
     0
  0
CLASS
  1
LAYOUT
  2
AcDbLayout
  3
AutoCAD 2000
 90
        0
280
     0
281
     0
  0
CLASS
  1
PLOTSETTINGS
  2
AcDbPlotSettings
  3
AutoCAD 2000
 90
        0
280
     0
281
     0
  0
CLASS
  1
LONG_TRANSACTION
  2
AcDbLongTransaction
  3
AutoCAD 2000
 90
        0
280
     0
281
     0
  0
CLASS
  1
LWPOLYLINE
  2
AcDbPolyline
  3
AutoCAD 2000
 90
        0
280
     0
281
     1
  0
CLASS
  1
HATCH
  2
AcDbHatch
  3
AutoCAD 2000
 90
        0
280
     0
281
     1
  0
CLASS
  1
XRECORD
  2
AcDbXrecord
  3
AutoCAD 2000
 90
        0
280
     0
281
     0
  0
CLASS
  1
LONG_TRANSACTION
  2
AcDbLongTransaction
  3
AutoCAD 2000
 90
        0
280
     0
281
     0
  0
CLASS
  1
LWPOLYLINE
  2
AcDbPolyline
  3
AutoCAD 2000
 90
        0
280
     0
281
     1
  0
CLASS
  1
HATCH
  2
AcDbHatch
  3
AutoCAD 2000
 90
        0
280
     0
281
     1
  0
CLASS
  1
XRECORD
  2
AcDbXrecord
  3
AutoCAD 2000
 90
        0
280
     0
281
     0
  0
ENDSEC
  0
SECTION
  2
TABLES
  0
TABLE
  2
VPORT
  5
8
330
0
100
AcDbSymbolTable
 70
     4
  0
VPORT
  5
12D3
330
8
100
AcDbSymbolTableRecord
100
AcDbViewportTableRecord
  2
*ACTIVE
 70
     0
 10
0.0
 20
0.0
 11
1.0
 21
1.0
 12
-1.99548252
 22
16.72251147
 13
0.0
 23
0.0
 14
7.0
 24
7.0
 15
7.0
 25
7.0
 16
0.0
 26
0.0
 36
1.0
 17
0.0
 27
0.0
 37
0.0
 40
70.23876322
 41
1.43184713
 42
50.0
 43
0.0
 44
0.0
 50
0.0
 51
0.0
 71
     0
 72
  2000
 73
     1
 74
     0
 75
     0
 76
     0
 77
     0
 78
     0
  0
ENDTAB
  0
TABLE
  2
LTYPE
  5
5
330
0
100
AcDbSymbolTable
 70
     3
  0
LTYPE
  5
14
330
5
100
AcDbSymbolTableRecord
100
AcDbLinetypeTableRecord
  2
BYBLOCK
 70
     0
  3

 72
    65
 73
     0
 40
0.0
  0
LTYPE
  5
15
330
5
100
AcDbSymbolTableRecord
100
AcDbLinetypeTableRecord
  2
BYLAYER
 70
     0
  3

 72
    65
 73
     0
 40
0.0
  0
LTYPE
  5
16
330
5
100
AcDbSymbolTableRecord
100
AcDbLinetypeTableRecord
  2
CONTINUOUS
 70
     0
  3
Solid line
 72
    65
 73
     0
 40
0.0
  0
LTYPE
  5
258
330
5
100
AcDbSymbolTableRecord
100
AcDbLinetypeTableRecord
  2
CENTER2
 70
     0
  3
___ _ ___ _ ___ _ ___ _ ___ _ ___ _ ___ _ ___ _
 72
    65
 73
     4
 40
1.125
 49
0.75
 74
     0
 49
-0.125
 74
     0
 49
0.125
 74
     0
 49
-0.125
 74
     0
  0
LTYPE
  5
25C
330
5
100
AcDbSymbolTableRecord
100
AcDbLinetypeTableRecord
  2
HIDDEN2
 70
     0
  3
_ _ _ _ _ _ _ _ _ _ _ _ _ _ _ _ _ _ _ _ _ _ _ _
 72
    65
 73
     2
 40
0.1875
 49
0.125
 74
     0
 49
-0.0625
 74
     0
  0
ENDTAB
  0
TABLE
  2
LAYER
  5
2
330
0
100
AcDbSymbolTable
 70
    11
  0
LAYER
  5
F
330
2
100
AcDbSymbolTableRecord
100
AcDbLayerTableRecord
  2
0
 70
     0
 62
     7
  6
CONTINUOUS
  0
LAYER
  5
1AA
330
2
100
AcDbSymbolTableRecord
100
AcDbLayerTableRecord
  2
240
 70
     0
 62
     4
  6
CONTINUOUS
  0
LAYER
  5
1AB
330
2
100
AcDbSymbolTableRecord
100
AcDbLayerTableRecord
  2
241
 70
     0
 62
   211
  6
CONTINUOUS
  0
LAYER
  5
1AC
330
2
100
AcDbSymbolTableRecord
100
AcDbLayerTableRecord
  2
242
 70
     0
 62
     3
  6
CONTINUOUS
  0
LAYER
  5
1AD
330
2
100
AcDbSymbolTableRecord
100
AcDbLayerTableRecord
  2
243
 70
     0
 62
   211
  6
HIDDEN2
  0
LAYER
  5
1AF
330
2
100
AcDbSymbolTableRecord
100
AcDbLayerTableRecord
  2
245
 70
     0
 62
     2
  6
CENTER2
  0
LAYER
  5
21E
330
2
100
AcDbSymbolTableRecord
100
AcDbLayerTableRecord
  2
250
 70
     0
 62
     3
  6
CONTINUOUS
  0
LAYER
  5
21F
330
2
100
AcDbSymbolTableRecord
100
AcDbLayerTableRecord
  2
251
 70
     0
 62
    40
  6
CONTINUOUS
  0
LAYER
  5
5C4
330
2
100
AcDbSymbolTableRecord
100
AcDbLayerTableRecord
  2
DEFPOINTS
 70
     0
 62
     7
  6
CONTINUOUS
  0
ENDTAB
  0
TABLE
  2
STYLE
  5
3
330
0
100
AcDbSymbolTable
 70
     2
  0
STYLE
  5
10
330
3
100
AcDbSymbolTableRecord
100
AcDbTextStyleTableRecord
  2
STANDARD
 70
     0
 40
0.0
 41
1.0
 50
0.0
 71
     0
 42
3.0
  3
romans.shx
  4
BIGFONT.SHX
  0
STYLE
  5
339
330
3
100
AcDbSymbolTableRecord
100
AcDbTextStyleTableRecord
  2
YOKO
 70
     0
 40
0.0
 41
1.0
 50
0.0
 71
     0
 42
3.0
  3
romans.shx
  4
extfont.shx
  0
ENDTAB
  0
TABLE
  2
VIEW
  5
6
330
0
100
AcDbSymbolTable
 70
     1
  0
VIEW
  5
12D1
330
6
100
AcDbSymbolTableRecord
100
AcDbViewTableRecord
  2
OLE1
 70
     0
 40
70.23876322
 10
-1.99548252
 20
16.72251147
 41
100.57117179
 11
0.0
 21
0.0
 31
1.0
 12
0.0
 22
0.0
 32
0.0
 42
50.0
 43
0.0
 44
0.0
 50
0.0
 71
     0
  0
ENDTAB
  0
TABLE
  2
UCS
  5
7
330
0
100
AcDbSymbolTable
 70
     0
  0
ENDTAB
  0
TABLE
  2
APPID
  5
9
330
0
100
AcDbSymbolTable
 70
    15
  0
APPID
  5
11
330
9
100
AcDbSymbolTableRecord
100
AcDbRegAppTableRecord
  2
ACAD
 70
     0
  0
APPID
  5
1B1
330
9
100
AcDbSymbolTableRecord
100
AcDbRegAppTableRecord
  2
GLOBAL
 70
     0
  0
APPID
  5
2A4
330
9
100
AcDbSymbolTableRecord
100
AcDbRegAppTableRecord
  2
DETAIL
 70
     0
  0
APPID
  5
5FD
330
9
100
AcDbSymbolTableRecord
100
AcDbRegAppTableRecord
  2
GRPNAME
 70
     0
  0
APPID
  5
5FE
330
9
100
AcDbSymbolTableRecord
100
AcDbRegAppTableRecord
  2
GPARA
 70
     0
  0
APPID
  5
6C4
330
9
100
AcDbSymbolTableRecord
100
AcDbRegAppTableRecord
  2
DCO15
 70
     0
  0
APPID
  5
6C5
330
9
100
AcDbSymbolTableRecord
100
AcDbRegAppTableRecord
  2
ITEMNAME
 70
     0
  0
APPID
  5
6C6
330
9
100
AcDbSymbolTableRecord
100
AcDbRegAppTableRecord
  2
GRADE_0
 70
     0
  0
APPID
  5
8C5
330
9
100
AcDbSymbolTableRecord
100
AcDbRegAppTableRecord
  2
GENIUS_GENODEF_13
 70
     0
  0
APPID
  5
8C6
330
9
100
AcDbSymbolTableRecord
100
AcDbRegAppTableRecord
  2
GENIUS_GENOBJ-N-FIL_13
 70
     0
  0
APPID
  5
8C7
330
9
100
AcDbSymbolTableRecord
100
AcDbRegAppTableRecord
  2
GENIUS_GENOBJ-N-CEN_13
 70
     0
  0
APPID
  5
8C8
330
9
100
AcDbSymbolTableRecord
100
AcDbRegAppTableRecord
  2
HATCH_TYPE
 70
     0
  0
APPID
  5
8C9
330
9
100
AcDbSymbolTableRecord
100
AcDbRegAppTableRecord
  2
HATCH_DISPLAY
 70
     0
  0
APPID
  5
8CA
330
9
100
AcDbSymbolTableRecord
100
AcDbRegAppTableRecord
  2
HATCH_DISTANCE
 70
     0
  0
APPID
  5
D69
330
9
100
AcDbSymbolTableRecord
100
AcDbRegAppTableRecord
  2
CONTENTBLOCKICON
 70
     0
  0
ENDTAB
  0
TABLE
  2
DIMSTYLE
  5
A
330
0
100
AcDbSymbolTable
 70
     1
  0
DIMSTYLE
105
725
102
{ACAD_REACTORS
330
1004
330
1005
330
1107
102
}
330
A
100
AcDbSymbolTableRecord
100
AcDbDimStyleTableRecord
  2
BIGT
 70
     0
  3

  4

  5

  6
OPEN
  7
OPEN
 40
1.0
 41
2.23
 42
0.5
 43
2.5
 44
1.0
 45
0.0
 46
0.0
 47
0.0
 48
0.0
140
2.8
141
0.0
142
0.0
143
25.4
144
1.0
145
0.0
146
1.0
147
1.0
 71
     0
 72
     0
 73
     0
 74
     0
 75
     0
 76
     0
 77
     3
 78
     8
170
     0
171
     2
172
     1
173
     1
174
     1
175
     0
176
   256
177
   256
178
    40
270
     2
271
     3
272
     3
273
     2
274
     2
340
10
275
     0
280
     0
281
     0
282
     0
283
     1
284
     8
285
     0
286
     0
287
     3
288
     0
  0
ENDTAB
  0
TABLE
  2
BLOCK_RECORD
  5
1
330
0
100
AcDbSymbolTable
 70
    13
  0
BLOCK_RECORD
  5
1A
102
{ACAD_XDICTIONARY
360
D67
102
}
330
1
100
AcDbSymbolTableRecord
100
AcDbBlockTableRecord
  2
*MODEL_SPACE
  0
BLOCK_RECORD
  5
17
102
{ACAD_XDICTIONARY
360
D65
102
}
330
1
100
AcDbSymbolTableRecord
100
AcDbBlockTableRecord
  2
*PAPER_SPACE
  0
BLOCK_RECORD
  5
594
330
1
100
AcDbSymbolTableRecord
100
AcDbBlockTableRecord
  2
_OPEN
  0
BLOCK_RECORD
  5
6E3
330
1
100
AcDbSymbolTableRecord
100
AcDbBlockTableRecord
  2
矢印なし
  0
BLOCK_RECORD
  5
762
330
1
100
AcDbSymbolTableRecord
100
AcDbBlockTableRecord
  2
1
1001
CONTENTBLOCKICON
1071
        0
1004
2800000020000000200000000100080000000000000400000000000000000000000000000000000000000000000080000080000000808000800000008000800080800000C0C0C000C0DCC000F0CAA6000020400000206000002080000020A0000020C0000020E00000400000004020000040400000406000004080000040A0
1004
000040C0000040E00000600000006020000060400000606000006080000060A0000060C0000060E00000800000008020000080400000806000008080000080A0000080C0000080E00000A0000000A0200000A0400000A0600000A0800000A0A00000A0C00000A0E00000C0000000C0200000C0400000C0600000C0800000C0
1004
A00000C0C00000C0E00000E0000000E0200000E0400000E0600000E0800000E0A00000E0C00000E0E00040000000400020004000400040006000400080004000A0004000C0004000E00040200000402020004020400040206000402080004020A0004020C0004020E000404000004040200040404000404060004040800040
1004
40A0004040C0004040E00040600000406020004060400040606000406080004060A0004060C0004060E00040800000408020004080400040806000408080004080A0004080C0004080E00040A0000040A0200040A0400040A0600040A0800040A0A00040A0C00040A0E00040C0000040C0200040C0400040C0600040C08000
1004
40C0A00040C0C00040C0E00040E0000040E0200040E0400040E0600040E0800040E0A00040E0C00040E0E00080000000800020008000400080006000800080008000A0008000C0008000E00080200000802020008020400080206000802080008020A0008020C0008020E00080400000804020008040400080406000804080
1004
008040A0008040C0008040E00080600000806020008060400080606000806080008060A0008060C0008060E00080800000808020008080400080806000808080008080A0008080C0008080E00080A0000080A0200080A0400080A0600080A0800080A0A00080A0C00080A0E00080C0000080C0200080C0400080C0600080C0
1004
800080C0A00080C0C00080C0E00080E0000080E0200080E0400080E0600080E0800080E0A00080E0C00080E0E000C0000000C0002000C0004000C0006000C0008000C000A000C000C000C000E000C0200000C0202000C0204000C0206000C0208000C020A000C020C000C020E000C0400000C0402000C0404000C0406000C0
1004
408000C040A000C040C000C040E000C0600000C0602000C0604000C0606000C0608000C060A000C060C000C060E000C0800000C0802000C0804000C0806000C0808000C080A000C080C000C080E000C0A00000C0A02000C0A04000C0A06000C0A08000C0A0A000C0A0C000C0A0E000C0C00000C0C02000C0C04000C0C06000
1004
C0C08000C0C0A000F0FBFF00A4A0A000808080000000FF0000FF000000FFFF00FF000000FF00FF00FFFF0000FFFFFF0000000000000000000000000000000000000000000000000000000000000000000000000000000000000000000000000000000000000000000000000000000000000000000000000000000000000000
1004
00000000000000000000000000000000000000000000000000000000000000000000000000000000000000000000000000000000000000000000000000000000000000000000000000000000000000000000000000000000000000000000000000000000000000000000000000000000000000000000000000000000000000
1004
00000000000000000000000000000000000000000000000000000000000000000000000000000000000000000000000000000000000000000000000000000000000000000000000000000000000000000000000000000000000000000000000000000000000000000000000000000000000000000000000000000000000000
1004
0000000000000000000000000000000000000000000000000000000000000000000000FEFEFEFE0000000000000000000000000000FEFEFEFE00FB0000FEFEFEFEFEFEFEE7E7FEFEFEFEFEFEFEFEFEFEFE00000000FE0000FEE7FEFEFEE7E700E7E7E700E7E7E7FF00FEE70000000000FE00000000FE000000E7FBE700E7E7
1004
FBFBE7E700E7E7E7FF00E7E70000000000FE00000000FE000000E7FBE700E7E7FBE7E7E700E7E7E7FF00E7E70000000000FE000000FBFEFBFBFBE7FBE7FBE7E7FBE7E7E7FBE7E7E7FFE7E7E7E7FBFBFBFBFEFB000000FE000000E7FBE700E7E700E7E7E700E7E7E7FFE7E7E7E7E7E7E7E7FE00000000FE0000FEE7FEFEFEE7
1004
E700E7E7E700E7E7E7FF00E7E70000000000FE00000000FEFEFEFE00FB0000FEFEFEFEFEFEFEE7E7FEFEFEFEFEFEFEFEFEFEFE000000000000000000000000000000000000FEFEFEFE000000000000000000000000000000000000000000000000000000000000000000000000000000000000000000000000000000000000
1004
00000000000000000000000000000000000000000000000000000000000000000000000000000000000000000000000000000000000000000000000000000000000000000000000000000000000000000000000000000000000000000000000000000000000000000000000000000000000000000000000000000000000000
1004
00000000000000000000000000000000000000000000000000000000000000000000000000000000000000000000000000000000000000000000000000000000000000000000000000000000000000000000000000000000000000000000000000000000000000000000000000000000000000000000000000000000000000
1004
0000000000000000000000000000000000000000000000000000000000000000000000000000000000000000000000000000000000000000
  0
BLOCK_RECORD
  5
1129
330
1
100
AcDbSymbolTableRecord
100
AcDbBlockTableRecord
  2
*D10
  0
BLOCK_RECORD
  5
1135
330
1
100
AcDbSymbolTableRecord
100
AcDbBlockTableRecord
  2
*D11
  0
BLOCK_RECORD
  5
1141
330
1
100
AcDbSymbolTableRecord
100
AcDbBlockTableRecord
  2
*D12
  0
ENDTAB
  0
ENDSEC
  0
SECTION
  2
BLOCKS
  0
BLOCK
  5
1B
330
1A
100
AcDbEntity
  8
0
100
AcDbBlockBegin
  2
*MODEL_SPACE
 70
     0
 10
0.0
 20
0.0
 30
0.0
  3
*MODEL_SPACE
  1

  0
ENDBLK
  5
1C
330
1A
100
AcDbEntity
  8
0
100
AcDbBlockEnd
  0
BLOCK
  5
18
330
17
100
AcDbEntity
 67
     1
  8
0
100
AcDbBlockBegin
  2
*PAPER_SPACE
 70
     0
 10
0.0
 20
0.0
 30
0.0
  3
*PAPER_SPACE
  1

  0
ENDBLK
  5
19
330
17
100
AcDbEntity
 67
     1
  8
0
100
AcDbBlockEnd
  0
BLOCK
  5
598
330
594
100
AcDbEntity
  8
0
100
AcDbBlockBegin
  2
_OPEN
 70
     0
 10
0.0
 20
0.0
 30
0.0
  3
_OPEN
  1

  0
LINE
  5
595
330
594
100
AcDbEntity
  8
0
  6
BYBLOCK
 62
     0
100
AcDbLine
 10
-1.0
 20
0.16666667
 30
0.0
 11
0.0
 21
0.0
 31
0.0
  0
LINE
  5
596
330
594
100
AcDbEntity
  8
0
  6
BYBLOCK
 62
     0
100
AcDbLine
 10
-1.0
 20
-0.16666667
 30
0.0
 11
0.0
 21
0.0
 31
0.0
  0
LINE
  5
597
330
594
100
AcDbEntity
  8
0
  6
BYBLOCK
 62
     0
100
AcDbLine
 10
0.0
 20
0.0
 30
0.0
 11
-1.0
 21
0.0
 31
0.0
  0
ENDBLK
  5
599
330
594
100
AcDbEntity
  8
0
100
AcDbBlockEnd
  0
BLOCK
  5
6E4
330
6E3
100
AcDbEntity
  8
0
100
AcDbBlockBegin
  2
矢印なし
 70
     0
 10
0.0
 20
0.0
 30
0.0
  3
矢印なし
  1

  0
ENDBLK
  5
6E5
330
6E3
100
AcDbEntity
  8
0
100
AcDbBlockEnd
  0
BLOCK
  5
89F
330
762
100
AcDbEntity
  8
0
100
AcDbBlockBegin
  2
1
 70
     0
 10
0.0
 20
0.0
 30
0.0
  3
1
  1

  0
LINE
  5
118D
330
762
100
AcDbEntity
  8
245
100
AcDbLine
 10
-52.0
 20
0.0
 30
0.0
 11
31.0
 21
0.0
 31
0.0
  0
LINE
  5
118E
330
762
100
AcDbEntity
  8
240
100
AcDbLine
 10
-40.5
 20
-8.0
 30
0.0
 11
-35.0
 21
-8.0
 31
0.0
  0
LINE
  5
118F
330
762
100
AcDbEntity
  8
240
100
AcDbLine
 10
-40.5
 20
8.0
 30
0.0
 11
-35.0
 21
8.0
 31
0.0
  0
LINE
  5
1190
330
762
100
AcDbEntity
  8
240
100
AcDbLine
 10
-51.0
 20
-9.0
 30
0.0
 11
-51.0
 21
0.0
 31
0.0
  0
LINE
  5
1191
330
762
100
AcDbEntity
  8
243
100
AcDbLine
 10
-38.0
 20
8.0
 30
0.0
 11
-38.0
 21
-8.0
 31
0.0
  0
LINE
  5
1192
330
762
100
AcDbEntity
  8
240
100
AcDbLine
 10
-50.0
 20
-10.0
 30
0.0
 11
-42.5
 21
-10.0
 31
0.0
  0
ARC
  5
1193
330
762
100
AcDbEntity
  8
240
100
AcDbCircle
 10
-50.0
 20
-9.0
 30
0.0
 40
1.0
100
AcDbArc
 50
180.0
 51
270.0
  0
LINE
  5
1194
330
762
100
AcDbEntity
  8
240
100
AcDbLine
 10
-40.5
 20
-8.0
 30
0.0
 11
-42.5
 21
-10.0
 31
0.0
  0
LINE
  5
1195
330
762
100
AcDbEntity
  8
240
100
AcDbLine
 10
-51.0
 20
9.0
 30
0.0
 11
-51.0
 21
0.0
 31
0.0
  0
LINE
  5
1196
330
762
100
AcDbEntity
  8
240
100
AcDbLine
 10
-40.5
 20
8.0
 30
0.0
 11
-42.5
 21
10.0
 31
0.0
  0
LINE
  5
1197
330
762
100
AcDbEntity
  8
240
100
AcDbLine
 10
-50.0
 20
10.0
 30
0.0
 11
-42.5
 21
10.0
 31
0.0
  0
ARC
  5
1198
330
762
100
AcDbEntity
  8
240
100
AcDbCircle
 10
-50.0
 20
9.0
 30
0.0
 40
1.0
100
AcDbArc
 50
90.0
 51
180.0
  0
LINE
  5
1199
330
762
100
AcDbEntity
  8
241
100
AcDbLine
 10
8.0
 20
-8.2
 30
0.0
 11
8.0
 21
0.0
 31
0.0
  0
LINE
  5
119A
330
762
100
AcDbEntity
  8
241
100
AcDbLine
 10
9.0
 20
-8.2
 30
0.0
 11
9.0
 21
0.0
 31
0.0
  0
LINE
  5
119B
330
762
100
AcDbEntity
  8
240
100
AcDbLine
 10
30.0
 20
-9.0
 30
0.0
 11
30.0
 21
0.0
 31
0.0
  0
LINE
  5
119C
330
762
100
AcDbEntity
  8
241
100
AcDbLine
 10
12.2
 20
-10.0
 30
0.0
 11
12.2
 21
0.0
 31
0.0
  0
LINE
  5
119D
330
762
100
AcDbEntity
  8
241
100
AcDbLine
 10
11.0
 20
-10.15
 30
0.0
 11
11.0
 21
0.0
 31
0.0
  0
LINE
  5
119E
330
762
100
AcDbEntity
  8
241
100
AcDbLine
 10
0.0
 20
-13.14125603
 30
0.0
 11
0.0
 21
0.0
 31
0.0
  0
LINE
  5
119F
330
762
100
AcDbEntity
  8
241
100
AcDbLine
 10
0.93782217
 20
-10.35874398
 30
0.0
 11
0.93782217
 21
0.0
 31
0.0
  0
LINE
  5
11A0
330
762
100
AcDbEntity
  8
241
100
AcDbLine
 10
-2.0
 20
-12.5
 30
0.0
 11
-2.0
 21
0.0
 31
0.0
  0
LINE
  5
11A1
330
762
100
AcDbEntity
  8
241
100
AcDbLine
 10
-4.0
 20
-12.5
 30
0.0
 11
-4.0
 21
0.0
 31
0.0
  0
LINE
  5
11A2
330
762
100
AcDbEntity
  8
241
100
AcDbLine
 10
-5.12626129
 20
-13.5
 30
0.0
 11
-5.12626129
 21
0.0
 31
0.0
  0
LINE
  5
11A3
330
762
100
AcDbEntity
  8
241
  6
CONTINUOUS
100
AcDbLine
 10
-6.5
 20
-13.0
 30
0.0
 11
-6.5
 21
0.0
 31
0.0
  0
LINE
  5
11A4
330
762
100
AcDbEntity
  8
241
100
AcDbLine
 10
-11.5
 20
-10.0
 30
0.0
 11
-11.5
 21
0.0
 31
0.0
  0
LINE
  5
11A5
330
762
100
AcDbEntity
  8
241
100
AcDbLine
 10
-14.5
 20
-9.0
 30
0.0
 11
-14.5
 21
0.0
 31
0.0
  0
LINE
  5
11A6
330
762
100
AcDbEntity
  8
241
100
AcDbLine
 10
-16.5
 20
-9.0
 30
0.0
 11
-16.5
 21
0.0
 31
0.0
  0
LINE
  5
11A7
330
762
100
AcDbEntity
  8
241
100
AcDbLine
 10
-23.5
 20
-9.0
 30
0.0
 11
-23.5
 21
0.0
 31
0.0
  0
LINE
  5
11A8
330
762
100
AcDbEntity
  8
241
100
AcDbLine
 10
-25.5
 20
-9.0
 30
0.0
 11
-25.5
 21
0.0
 31
0.0
  0
ELLIPSE
  5
11A9
330
762
100
AcDbEntity
  8
241
100
AcDbEllipse
 10
-20.0
 20
-3.35109933
 30
0.0
 11
-1.999999999999971
 21
0.0
 31
0.0
210
0.0
220
0.0
230
1.0
 40
0.93969262
 41
0.0
 42
6.283185307179584
  0
LINE
  5
11AA
330
762
100
AcDbEntity
  8
245
100
AcDbLine
 10
-20.0
 20
-1.47171409
 30
0.0
 11
-20.0
 21
-5.23048457
 31
0.0
  0
LINE
  5
11AB
330
762
100
AcDbEntity
  8
245
100
AcDbLine
 10
-35.0
 20
10.0
 30
0.0
 11
-35.0
 21
-10.0
 31
0.0
1001
GENIUS_GENOBJ-N-CEN_13
1002
{
1000
OWNER
1000
GEN
1002
}
1001
GENIUS_GENODEF_13
1002
{
1000
HIER
1070
     0
1002
}
1002
{
1000
MANEDIT
1070
     0
1002
}
1002
{
1000
NOSEL
1070
     0
1002
}
1002
{
1000
BEHIND
1070
     0
1002
}
1002
{
1000
OTHER
1070
     0
1002
}
1002
{
1000
REACTOR
1002
}
  0
LINE
  5
11AC
330
762
100
AcDbEntity
  8
243
100
AcDbLine
 10
-32.0
 20
8.0
 30
0.0
 11
-32.0
 21
-8.0
 31
0.0
  0
ARC
  5
11AD
330
762
100
AcDbEntity
  8
240
100
AcDbCircle
 10
-0.76732699
 20
-12.5
 30
0.0
 40
1.0
100
AcDbArc
 50
285.0
 51
345.0
1001
GENIUS_GENODEF_13
1002
{
1000
HIER
1070
     0
1002
}
1002
{
1000
MANEDIT
1070
     0
1002
}
1002
{
1000
NOSEL
1070
     0
1002
}
1002
{
1000
BEHIND
1070
     0
1002
}
1002
{
1000
OTHER
1070
     0
1002
}
1002
{
1000
REACTOR
1002
}
1001
GENIUS_GENOBJ-N-FIL_13
1002
{
1000
OWNER
1000
GEN
1002
}
  0
LINE
  5
11AE
330
762
100
AcDbEntity
  8
240
100
AcDbLine
 10
-23.5
 20
-10.0
 30
0.0
 11
-16.5
 21
-10.0
 31
0.0
  0
LINE
  5
11AF
330
762
100
AcDbEntity
  8
240
100
AcDbLine
 10
-29.5
 20
-8.0
 30
0.0
 11
-27.5
 21
-10.0
 31
0.0
  0
LINE
  5
11B0
330
762
100
AcDbEntity
  8
240
100
AcDbLine
 10
-35.0
 20
-8.0
 30
0.0
 11
-29.5
 21
-8.0
 31
0.0
  0
LINE
  5
11B1
330
762
100
AcDbEntity
  8
240
100
AcDbLine
 10
-23.5
 20
-9.0
 30
0.0
 11
-23.5
 21
-10.0
 31
0.0
  0
LINE
  5
11B2
330
762
100
AcDbEntity
  8
240
100
AcDbLine
 10
-25.5
 20
-9.0
 30
0.0
 11
-25.5
 21
-10.0
 31
0.0
  0
ARC
  5
11B3
330
762
100
AcDbEntity
  8
240
100
AcDbCircle
 10
-24.5
 20
-9.0
 30
0.0
 40
0.9999999999999495
100
AcDbArc
 50
180.0
 51
0.0
  0
LINE
  5
11B4
330
762
100
AcDbEntity
  8
240
100
AcDbLine
 10
-27.5
 20
-10.0
 30
0.0
 11
-25.5
 21
-10.0
 31
0.0
  0
LINE
  5
11B5
330
762
100
AcDbEntity
  8
240
100
AcDbLine
 10
-6.50000001
 20
-13.0
 30
0.0
 11
-10.5
 21
-13.0
 31
0.0
  0
LINE
  5
11B6
330
762
100
AcDbEntity
  8
241
  6
CONTINUOUS
100
AcDbLine
 10
-6.5
 20
-10.2
 30
0.0
 11
-10.0
 21
-10.2
 31
0.0
  0
LINE
  5
11B7
330
762
100
AcDbEntity
  8
240
100
AcDbLine
 10
-10.0
 20
-10.5
 30
0.0
 11
-10.0
 21
-9.7
 31
0.0
  0
LINE
  5
11B8
330
762
100
AcDbEntity
  8
240
100
AcDbLine
 10
-14.5
 20
-9.0
 30
0.0
 11
-14.5
 21
-10.0
 31
0.0
  0
LINE
  5
11B9
330
762
100
AcDbEntity
  8
240
100
AcDbLine
 10
-16.5
 20
-9.0
 30
0.0
 11
-16.5
 21
-10.0
 31
0.0
  0
LINE
  5
11BA
330
762
100
AcDbEntity
  8
240
100
AcDbLine
 10
-11.2
 20
-9.7
 30
0.0
 11
-11.5
 21
-10.0
 31
0.0
  0
ARC
  5
11BB
330
762
100
AcDbEntity
  8
240
100
AcDbCircle
 10
-15.5
 20
-9.0
 30
0.0
 40
1.0
100
AcDbArc
 50
180.0
 51
0.0
  0
LINE
  5
11BC
330
762
100
AcDbEntity
  8
240
100
AcDbLine
 10
-14.5
 20
-10.0
 30
0.0
 11
-11.5
 21
-10.0
 31
0.0
  0
LINE
  5
11BD
330
762
100
AcDbEntity
  8
240
100
AcDbLine
 10
-10.5
 20
-13.0
 30
0.0
 11
-10.5
 21
-11.0
 31
0.0
  0
LINE
  5
11BE
330
762
100
AcDbEntity
  8
240
100
AcDbLine
 10
-10.0
 20
-10.5
 30
0.0
 11
-10.5
 21
-11.0
 31
0.0
  0
LINE
  5
11BF
330
762
100
AcDbEntity
  8
240
100
AcDbLine
 10
-11.2
 20
-9.7
 30
0.0
 11
-10.0
 21
-9.7
 31
0.0
  0
LINE
  5
11C0
330
762
100
AcDbEntity
  8
240
100
AcDbLine
 10
-4.0
 20
-13.5
 30
0.0
 11
-5.12626128
 21
-13.5
 31
0.0
  0
LINE
  5
11C1
330
762
100
AcDbEntity
  8
240
100
AcDbLine
 10
-6.50000001
 20
-13.0
 30
0.0
 11
-5.12626128
 21
-13.5
 31
0.0
  0
LINE
  5
11C2
330
762
100
AcDbEntity
  8
240
100
AcDbLine
 10
-0.63567449
 20
-13.5
 30
0.0
 11
-2.0
 21
-13.5
 31
0.0
  0
LINE
  5
11C3
330
762
100
AcDbEntity
  8
240
100
AcDbLine
 10
-2.0
 20
-12.5
 30
0.0
 11
-2.0
 21
-13.5
 31
0.0
  0
LINE
  5
11C4
330
762
100
AcDbEntity
  8
240
100
AcDbLine
 10
-4.0
 20
-12.5
 30
0.0
 11
-4.0
 21
-13.5
 31
0.0
  0
LINE
  5
11C5
330
762
100
AcDbEntity
  8
240
100
AcDbLine
 10
-0.50850794
 20
-13.46592583
 30
0.0
 11
-0.63567449
 21
-13.5
 31
0.0
  0
ARC
  5
11C6
330
762
100
AcDbEntity
  8
240
100
AcDbCircle
 10
-3.0
 20
-12.5
 30
0.0
 40
1.000000000000227
100
AcDbArc
 50
180.0
 51
0.0
  0
LINE
  5
11C7
330
762
100
AcDbEntity
  8
240
100
AcDbLine
 10
11.25980762
 20
-10.0
 30
0.0
 11
29.0
 21
-10.0
 31
0.0
  0
LINE
  5
11C8
330
762
100
AcDbEntity
  8
240
100
AcDbLine
 10
9.0
 20
-8.2
 30
0.0
 11
8.0
 21
-8.2
 31
0.0
  0
LINE
  5
11C9
330
762
100
AcDbEntity
  8
240
100
AcDbLine
 10
8.0
 20
-8.2
 30
0.0
 11
8.0
 21
-10.0
 31
0.0
  0
ARC
  5
11CA
330
762
100
AcDbEntity
  8
240
100
AcDbCircle
 10
1.70514916
 20
-11.0
 30
0.0
 40
1.0
100
AcDbArc
 50
90.0
 51
165.00000022
  0
LINE
  5
11CB
330
762
100
AcDbEntity
  8
240
100
AcDbLine
 10
8.0
 20
-10.0
 30
0.0
 11
1.70514916
 21
-10.0
 31
0.0
  0
LINE
  5
11CC
330
762
100
AcDbEntity
  8
240
100
AcDbLine
 10
0.19859884
 20
-12.75881905
 30
0.0
 11
0.73922333
 21
-10.74118096
 31
0.0
  0
LINE
  5
11CD
330
762
100
AcDbEntity
  8
0
100
AcDbLine
 10
3.69822591
 20
-7.08412947
 30
0.0
 11
3.68533806
 21
-4.62275422
 31
0.0
  0
LINE
  5
11CE
330
762
100
AcDbEntity
  8
0
100
AcDbLine
 10
3.57697513
 20
-7.08476434
 30
0.0
 11
3.56408729
 21
-4.62338909
 31
0.0
  0
LINE
  5
11CF
330
762
100
AcDbEntity
  8
0
100
AcDbLine
 10
3.69078938
 20
-5.66386975
 30
0.0
 11
3.56890373
 21
-5.54325384
 31
0.0
  0
LINE
  5
11D0
330
762
100
AcDbEntity
  8
0
100
AcDbLine
 10
3.51601661
 20
-7.02145809
 30
0.0
 11
3.51338201
 21
-6.51829115
 31
0.0
  0
LINE
  5
11D1
330
762
100
AcDbEntity
  8
0
100
AcDbLine
 10
3.69643182
 20
-6.74148571
 30
0.0
 11
3.57454617
 21
-6.62086981
 31
0.0
  0
LINE
  5
11D2
330
762
100
AcDbEntity
  8
0
100
AcDbLine
 10
3.69581688
 20
-7.1428893
 30
0.0
 11
3.57666208
 21
-7.0249758
 31
0.0
  0
LINE
  5
11D3
330
762
100
AcDbEntity
  8
0
100
AcDbLine
 10
3.67534398
 20
-7.25663372
 30
0.0
 11
3.5725491
 21
-7.1549097
 31
0.0
  0
LINE
  5
11D4
330
762
100
AcDbEntity
  8
0
100
AcDbLine
 10
3.38275911
 20
-7.63711705
 30
0.0
 11
3.29276116
 21
-7.54805665
 31
0.0
  0
LINE
  5
11D5
330
762
100
AcDbEntity
  8
0
100
AcDbLine
 10
3.46247886
 20
-7.58200227
 30
0.0
 11
3.37564932
 21
-7.49607729
 31
0.0
  0
LINE
  5
11D6
330
762
100
AcDbEntity
  8
0
100
AcDbLine
 10
3.59094991
 20
-7.44112689
 30
0.0
 11
3.50277541
 21
-7.35387096
 31
0.0
  0
LINE
  5
11D7
330
762
100
AcDbEntity
  8
0
100
AcDbLine
 10
3.53182103
 20
-7.51661803
 30
0.0
 11
3.44554822
 21
-7.43124397
 31
0.0
  0
LINE
  5
11D8
330
762
100
AcDbEntity
  8
0
100
AcDbLine
 10
3.6392993
 20
-7.35496857
 30
0.0
 11
3.54621567
 21
-7.26285464
 31
0.0
  0
LINE
  5
11D9
330
762
100
AcDbEntity
  8
0
100
AcDbLine
 10
3.69784243
 20
-7.0108897
 30
0.0
 11
3.57595678
 21
-6.8902738
 31
0.0
  0
LINE
  5
11DA
330
762
100
AcDbEntity
  8
0
100
AcDbLine
 10
3.69713712
 20
-6.87618771
 30
0.0
 11
3.57525147
 21
-6.7555718
 31
0.0
  0
LINE
  5
11DB
330
762
100
AcDbEntity
  8
0
100
AcDbLine
 10
3.51501395
 20
-6.82996585
 30
0.0
 11
3.35824183
 21
-6.67482691
 31
0.0
  0
LINE
  5
11DC
330
762
100
AcDbEntity
  8
0
100
AcDbLine
 10
3.69149469
 20
-5.79857174
 30
0.0
 11
3.56960904
 21
-5.67795584
 31
0.0
  0
LINE
  5
11DD
330
762
100
AcDbEntity
  8
0
100
AcDbLine
 10
3.51007681
 20
-5.88705188
 30
0.0
 11
3.50003327
 21
-5.87711296
 31
0.0
  0
LINE
  5
11DE
330
762
100
AcDbEntity
  8
0
100
AcDbLine
 10
3.51145948
 20
-6.15111937
 30
0.0
 11
3.5100395
 21
-5.87992557
 31
0.0
  0
LINE
  5
11DF
330
762
100
AcDbEntity
  8
0
100
AcDbLine
 10
3.69219999
 20
-5.93327374
 30
0.0
 11
3.57031434
 21
-5.81265784
 31
0.0
  0
LINE
  5
11E0
330
762
100
AcDbEntity
  8
0
100
AcDbLine
 10
3.51145948
 20
-6.15111937
 30
0.0
 11
3.5100395
 21
-5.87992557
 31
0.0
  0
LINE
  5
11E1
330
762
100
AcDbEntity
  8
0
100
AcDbLine
 10
3.51145948
 20
-6.15111937
 30
0.0
 11
3.5100395
 21
-5.87992557
 31
0.0
1001
HATCH_DISTANCE
1040
1.0
1001
HATCH_DISPLAY
1070
     0
1001
HATCH_TYPE
1070
     7
  0
LINE
  5
11E2
330
762
100
AcDbEntity
  8
0
100
AcDbLine
 10
3.51078212
 20
-6.02175388
 30
0.0
 11
3.31089457
 21
-5.82394866
 31
0.0
  0
LINE
  5
11E3
330
762
100
AcDbEntity
  8
0
100
AcDbLine
 10
3.69572651
 20
-6.60678372
 30
0.0
 11
3.57384086
 21
-6.48616781
 31
0.0
  0
LINE
  5
11E4
330
762
100
AcDbEntity
  8
0
100
AcDbLine
 10
3.49005232
 20
-6.40325214
 30
0.0
 11
3.32394933
 21
-6.23887954
 31
0.0
  0
LINE
  5
11E5
330
762
100
AcDbEntity
  8
0
100
AcDbLine
 10
3.6943159
 20
-6.33737972
 30
0.0
 11
3.57243025
 21
-6.21676382
 31
0.0
  0
LINE
  5
11E6
330
762
100
AcDbEntity
  8
0
100
AcDbLine
 10
3.6936106
 20
-6.20267773
 30
0.0
 11
3.57172495
 21
-6.08206183
 31
0.0
  0
LINE
  5
11E7
330
762
100
AcDbEntity
  8
0
100
AcDbLine
 10
3.6929053
 20
-6.06797574
 30
0.0
 11
3.57101964
 21
-5.94735983
 31
0.0
  0
LINE
  5
11E8
330
762
100
AcDbEntity
  8
0
100
AcDbLine
 10
3.69502121
 20
-6.47208172
 30
0.0
 11
3.57313556
 21
-6.35146582
 31
0.0
  0
LINE
  5
11E9
330
762
100
AcDbEntity
  8
0
100
AcDbLine
 10
3.69008408
 20
-5.52916775
 30
0.0
 11
3.56819843
 21
-5.40855185
 31
0.0
  0
LINE
  5
11EA
330
762
100
AcDbEntity
  8
0
100
AcDbLine
 10
3.68937877
 20
-5.39446576
 30
0.0
 11
3.56749312
 21
-5.27384986
 31
0.0
  0
LINE
  5
11EB
330
762
100
AcDbEntity
  8
0
100
AcDbLine
 10
3.68867347
 20
-5.25976376
 30
0.0
 11
3.56678782
 21
-5.13914786
 31
0.0
  0
LINE
  5
11EC
330
762
100
AcDbEntity
  8
0
100
AcDbLine
 10
3.68796816
 20
-5.12506177
 30
0.0
 11
3.56608251
 21
-5.00444586
 31
0.0
  0
LINE
  5
11ED
330
762
100
AcDbEntity
  8
0
100
AcDbLine
 10
3.68726286
 20
-4.99035977
 30
0.0
 11
3.56537721
 21
-4.86974387
 31
0.0
  0
LINE
  5
11EE
330
762
100
AcDbEntity
  8
0
100
AcDbLine
 10
3.68655756
 20
-4.85565778
 30
0.0
 11
3.5646719
 21
-4.73504187
 31
0.0
  0
LINE
  5
11EF
330
762
100
AcDbEntity
  8
0
100
AcDbLine
 10
3.46088022
 20
-5.43635567
 30
0.0
 11
3.35445264
 21
-5.33103681
 31
0.0
  0
LINE
  5
11F0
330
762
100
AcDbEntity
  8
0
100
AcDbLine
 10
3.49715799
 20
-5.33825148
 30
0.0
 11
3.35406223
 21
-5.19664643
 31
0.0
  0
LINE
  5
11F1
330
762
100
AcDbEntity
  8
0
100
AcDbLine
 10
3.44250963
 20
-5.01616435
 30
0.0
 11
3.32824368
 21
-4.90308876
 31
0.0
  0
LINE
  5
11F2
330
762
100
AcDbEntity
  8
0
100
AcDbLine
 10
3.43443583
 20
-5.02432368
 30
0.0
 11
3.50518517
 21
-4.95282494
 31
0.0
  0
LINE
  5
11F3
330
762
100
AcDbEntity
  8
0
100
AcDbLine
 10
3.40549898
 20
-5.5155554
 30
0.0
 11
3.27641301
 21
-5.38781418
 31
0.0
  0
LINE
  5
11F4
330
762
100
AcDbEntity
  8
0
100
AcDbLine
 10
3.68402879
 20
-4.58514728
 30
0.0
 11
3.52398893
 21
-4.42677465
 31
0.0
  0
LINE
  5
11F5
330
762
100
AcDbEntity
  8
0
100
AcDbLine
 10
3.68585225
 20
-4.72095579
 30
0.0
 11
3.56342341
 21
-4.59980235
 31
0.0
  0
LINE
  5
11F6
330
762
100
AcDbEntity
  8
0
100
AcDbLine
 10
3.65029145
 20
-4.41775737
 30
0.0
 11
3.25079545
 21
-4.02242313
 31
0.0
  0
LINE
  5
11F7
330
762
100
AcDbEntity
  8
0
100
AcDbLine
 10
2.83920126
 20
-6.83121364
 30
0.0
 11
2.42157865
 21
-6.41794163
 31
0.0
  0
LINE
  5
11F8
330
762
100
AcDbEntity
  8
0
100
AcDbLine
 10
2.65006221
 20
-6.77804899
 30
0.0
 11
2.42228396
 21
-6.55264363
 31
0.0
  0
LINE
  5
11F9
330
762
100
AcDbEntity
  8
0
100
AcDbLine
 10
2.54487491
 20
-6.80796153
 30
0.0
 11
2.42298926
 21
-6.68734563
 31
0.0
  0
LINE
  5
11FA
330
762
100
AcDbEntity
  8
0
100
AcDbLine
 10
2.42346044
 20
-6.77733248
 30
0.0
 11
2.54489325
 21
-6.81146429
 31
0.0
  0
LINE
  5
11FB
330
762
100
AcDbEntity
  8
0
100
AcDbLine
 10
2.56698904
 20
-7.2318574
 30
0.0
 11
2.42510551
 21
-7.09145195
 31
0.0
  0
LINE
  5
11FC
330
762
100
AcDbEntity
  8
0
100
AcDbLine
 10
2.54628552
 20
-7.07736552
 30
0.0
 11
2.42439987
 21
-6.95674962
 31
0.0
  0
LINE
  5
11FD
330
762
100
AcDbEntity
  8
0
100
AcDbLine
 10
2.91054145
 20
-7.70583488
 30
0.0
 11
2.44490784
 21
-7.24505201
 31
0.0
  0
LINE
  5
11FE
330
762
100
AcDbEntity
  8
0
100
AcDbLine
 10
2.54558022
 20
-6.94266353
 30
0.0
 11
2.44955613
 21
-6.84763977
 31
0.0
  0
LINE
  5
11FF
330
762
100
AcDbEntity
  8
0
100
AcDbLine
 10
2.42379065
 20
-6.84039772
 30
0.0
 11
2.54522347
 21
-6.87452952
 31
0.0
  0
LINE
  5
1200
330
762
100
AcDbEntity
  8
0
100
AcDbLine
 10
2.74740858
 20
-5.93635299
 30
0.0
 11
2.41734683
 21
-5.60972966
 31
0.0
  0
LINE
  5
1201
330
762
100
AcDbEntity
  8
0
100
AcDbLine
 10
2.41880423
 20
-5.88807008
 30
0.0
 11
2.55237668
 21
-5.92561737
 31
0.0
  0
LINE
  5
1202
330
762
100
AcDbEntity
  8
0
100
AcDbLine
 10
2.41880423
 20
-5.88807008
 30
0.0
 11
2.55237668
 21
-5.92561737
 31
0.0
1001
HATCH_DISTANCE
1040
1.0
1001
HATCH_DISPLAY
1070
     0
1001
HATCH_TYPE
1070
     7
  0
LINE
  5
1203
330
762
100
AcDbEntity
  8
0
100
AcDbLine
 10
2.55237668
 20
-5.92561737
 30
0.0
 11
2.41880423
 21
-5.88807008
 31
0.0
  0
LINE
  5
1204
330
762
100
AcDbEntity
  8
0
100
AcDbLine
 10
2.63048427
 20
-6.3566629
 30
0.0
 11
2.47850187
 21
-6.20626378
 31
0.0
  0
LINE
  5
1205
330
762
100
AcDbEntity
  8
0
100
AcDbLine
 10
2.55984843
 20
-6.42076694
 30
0.0
 11
2.43414439
 21
-6.29637242
 31
0.0
  0
ARC
  5
1206
330
762
100
AcDbEntity
  8
0
100
AcDbCircle
 10
2.7245282
 20
-6.38334653
 30
0.0
 40
0.3031291007995605
100
AcDbArc
 50
17.96957755
 51
180.53615984
  0
ARC
  5
1207
330
762
100
AcDbEntity
  8
0
100
AcDbCircle
 10
2.80909734
 20
-5.16650369
 30
0.0
 40
0.3940664291381835
100
AcDbArc
 50
143.7440122
 51
254.30018439
  0
LINE
  5
1208
330
762
100
AcDbEntity
  8
0
100
AcDbLine
 10
2.51293123
 20
-4.76629004
 30
0.0
 11
2.41358507
 21
-4.66797882
 31
0.0
  0
LINE
  5
1209
330
762
100
AcDbEntity
  8
0
100
AcDbLine
 10
2.55826914
 20
-5.88318796
 30
0.0
 11
2.41805213
 21
-5.74443166
 31
0.0
  0
LINE
  5
120A
330
762
100
AcDbEntity
  8
0
100
AcDbLine
 10
2.43409762
 20
-4.79160351
 30
0.0
 11
2.54970531
 21
-4.75448188
 31
0.0
  0
LINE
  5
120B
330
762
100
AcDbEntity
  8
0
100
AcDbLine
 10
2.54970531
 20
-4.75448188
 30
0.0
 11
2.43409762
 21
-4.79160351
 31
0.0
  0
LINE
  5
120C
330
762
100
AcDbEntity
  8
0
100
AcDbLine
 10
2.43409762
 20
-4.79160351
 30
0.0
 11
2.54970531
 21
-4.75448188
 31
0.0
1001
HATCH_DISTANCE
1040
1.0
1001
HATCH_DISPLAY
1070
     0
1001
HATCH_TYPE
1070
     7
  0
LINE
  5
120D
330
762
100
AcDbEntity
  8
0
100
AcDbLine
 10
2.54970531
 20
-4.75448188
 30
0.0
 11
2.43409762
 21
-4.79160351
 31
0.0
1001
HATCH_DISTANCE
1040
1.0
1001
HATCH_DISPLAY
1070
     0
1001
HATCH_TYPE
1070
     7
  0
LINE
  5
120E
330
762
100
AcDbEntity
  8
0
100
AcDbLine
 10
2.43409762
 20
-4.79160351
 30
0.0
 11
2.54970531
 21
-4.75448188
 31
0.0
  0
LINE
  5
120F
330
762
100
AcDbEntity
  8
0
100
AcDbLine
 10
2.54970531
 20
-4.75448188
 30
0.0
 11
2.43409762
 21
-4.79160351
 31
0.0
  0
LINE
  5
1210
330
762
100
AcDbEntity
  8
0
100
AcDbLine
 10
2.43409762
 20
-4.79160351
 30
0.0
 11
2.54970531
 21
-4.75448188
 31
0.0
1001
HATCH_DISTANCE
1040
1.0
1001
HATCH_DISPLAY
1070
     0
1001
HATCH_TYPE
1070
     7
  0
LINE
  5
1211
330
762
100
AcDbEntity
  8
0
100
AcDbLine
 10
2.54970531
 20
-4.75448188
 30
0.0
 11
2.43409762
 21
-4.79160351
 31
0.0
1001
HATCH_DISTANCE
1040
1.0
1001
HATCH_DISPLAY
1070
     0
1001
HATCH_TYPE
1070
     7
  0
LINE
  5
1212
330
762
100
AcDbEntity
  8
0
100
AcDbLine
 10
2.79702232
 20
-5.58343775
 30
0.0
 11
2.4171741
 21
-5.20754662
 31
0.0
  0
LINE
  5
1213
330
762
100
AcDbEntity
  8
0
100
AcDbLine
 10
2.55188125
 20
-5.07284238
 30
0.0
 11
2.46061411
 21
-4.98252601
 31
0.0
  0
LINE
  5
1214
330
762
100
AcDbEntity
  8
0
100
AcDbLine
 10
2.60883421
 20
-4.99519799
 30
0.0
 11
2.4592733
 21
-4.84719513
 31
0.0
  0
LINE
  5
1215
330
762
100
AcDbEntity
  8
0
100
AcDbLine
 10
2.56824054
 20
-4.81220575
 30
0.0
 11
2.45263284
 21
-4.84932738
 31
0.0
  0
LINE
  5
1216
330
762
100
AcDbEntity
  8
0
100
AcDbLine
 10
2.54970531
 20
-4.75448188
 30
0.0
 11
2.43409762
 21
-4.79160351
 31
0.0
  0
LINE
  5
1217
330
762
100
AcDbEntity
  8
0
100
AcDbLine
 10
2.54289226
 20
-4.52793088
 30
0.0
 11
2.44334627
 21
-4.42942191
 31
0.0
  0
LINE
  5
1218
330
762
100
AcDbEntity
  8
0
100
AcDbLine
 10
2.57430561
 20
-4.42501294
 30
0.0
 11
2.48288926
 21
-4.33454893
 31
0.0
  0
LINE
  5
1219
330
762
100
AcDbEntity
  8
0
100
AcDbLine
 10
2.53417719
 20
-4.65331063
 30
0.0
 11
2.41824734
 21
-4.53858849
 31
0.0
  0
LINE
  5
121A
330
762
100
AcDbEntity
  8
0
100
AcDbLine
 10
2.97667856
 20
-5.62721839
 30
0.0
 11
2.42447149
 21
-5.08076395
 31
0.0
  0
LINE
  5
121B
330
762
100
AcDbEntity
  8
0
100
AcDbLine
 10
2.42770124
 20
-5.88402957
 30
0.0
 11
2.42770124
 21
-5.56868533
 31
0.0
  0
LINE
  5
121C
330
762
100
AcDbEntity
  8
0
100
AcDbLine
 10
2.42770124
 20
-5.56868533
 30
0.0
 11
2.42770124
 21
-5.88402957
 31
0.0
1001
HATCH_DISTANCE
1040
1.0
1001
HATCH_DISPLAY
1070
     0
1001
HATCH_TYPE
1070
     7
  0
LINE
  5
121D
330
762
100
AcDbEntity
  8
0
100
AcDbLine
 10
2.42770124
 20
-5.56868533
 30
0.0
 11
2.42770124
 21
-5.88402957
 31
0.0
  0
LINE
  5
121E
330
762
100
AcDbEntity
  8
0
100
AcDbLine
 10
2.42770124
 20
-6.77330416
 30
0.0
 11
2.42770124
 21
-6.38214942
 31
0.0
  0
LINE
  5
121F
330
762
100
AcDbEntity
  8
0
100
AcDbLine
 10
2.42770124
 20
-7.08677157
 30
0.0
 11
2.42770124
 21
-6.83637027
 31
0.0
  0
LINE
  5
1220
330
762
100
AcDbEntity
  8
0
100
AcDbLine
 10
2.44023073
 20
-5.88762251
 30
0.0
 11
2.42770124
 21
-5.87509302
 31
0.0
  0
LINE
  5
1221
330
762
100
AcDbEntity
  8
0
100
AcDbLine
 10
2.44873548
 20
-4.78765811
 30
0.0
 11
2.44873548
 21
-4.78765811
 31
0.0
1001
HATCH_DISTANCE
1040
1.0
1001
HATCH_DISPLAY
1070
     0
1001
HATCH_TYPE
1070
     7
  0
LINE
  5
1222
330
762
100
AcDbEntity
  8
0
100
AcDbLine
 10
2.44873548
 20
-4.78765811
 30
0.0
 11
2.44873548
 21
-4.78765811
 31
0.0
  0
LINE
  5
1223
330
762
100
AcDbEntity
  8
0
100
AcDbLine
 10
2.44873548
 20
-4.78765811
 30
0.0
 11
2.44873548
 21
-4.78765811
 31
0.0
1001
HATCH_DISTANCE
1040
1.0
1001
HATCH_DISPLAY
1070
     0
1001
HATCH_TYPE
1070
     7
  0
LINE
  5
1224
330
762
100
AcDbEntity
  8
0
100
AcDbLine
 10
2.44873548
 20
-4.78765811
 30
0.0
 11
2.44873548
 21
-4.78765811
 31
0.0
  0
ARC
  5
1225
330
762
100
AcDbEntity
  8
0
100
AcDbCircle
 10
3.04877591
 20
-4.62608728
 30
0.0
 40
0.6365710258483876
100
AcDbArc
 50
200.52964506
 51
208.87168892
  0
LINE
  5
1226
330
762
100
AcDbEntity
  8
0
100
AcDbLine
 10
2.93654801
 20
-5.98951802
 30
0.0
 11
2.5543398
 21
-5.61129147
 31
0.0
  0
LINE
  5
1227
330
762
100
AcDbEntity
  8
0
100
AcDbLine
 10
3.13056707
 20
-5.64549973
 30
0.0
 11
2.73313843
 21
-5.25221131
 31
0.0
  0
ARC
  5
1228
330
762
100
AcDbEntity
  8
0
100
AcDbCircle
 10
3.13002405
 20
-4.60745177
 30
0.0
 40
1.031231689453121
100
AcDbArc
 50
245.50517737
 51
263.09482596
  0
LINE
  5
1229
330
762
100
AcDbEntity
  8
0
100
AcDbLine
 10
3.02834031
 20
-6.88437829
 30
0.0
 11
2.60168991
 21
-6.46217254
 31
0.0
  0
LINE
  5
122A
330
762
100
AcDbEntity
  8
0
100
AcDbLine
 10
3.18714033
 20
-7.71154421
 30
0.0
 11
3.07700128
 21
-7.60255254
 31
0.0
  0
LINE
  5
122B
330
762
100
AcDbEntity
  8
0
100
AcDbLine
 10
2.54489325
 20
-6.81146429
 30
0.0
 11
2.54456302
 21
-6.74839447
 31
0.0
  0
LINE
  5
122C
330
762
100
AcDbEntity
  8
0
100
AcDbLine
 10
3.06434046
 20
-7.72402764
 30
0.0
 11
2.92245694
 21
-7.5836222
 31
0.0
  0
LINE
  5
122D
330
762
100
AcDbEntity
  8
0
100
AcDbLine
 10
2.54635252
 20
-7.09016072
 30
0.0
 11
2.54522347
 21
-6.87452952
 31
0.0
  0
LINE
  5
122E
330
762
100
AcDbEntity
  8
0
100
AcDbLine
 10
3.15907552
 20
-6.47773542
 30
0.0
 11
2.75940733
 21
-6.08223077
 31
0.0
  0
LINE
  5
122F
330
762
100
AcDbEntity
  8
0
100
AcDbLine
 10
2.55237668
 20
-5.92561737
 30
0.0
 11
2.5521455
 21
-5.88146667
 31
0.0
  0
LINE
  5
1230
330
762
100
AcDbEntity
  8
0
100
AcDbLine
 10
2.55237668
 20
-5.92561737
 30
0.0
 11
2.5521455
 21
-5.88146667
 31
0.0
1001
HATCH_DISTANCE
1040
1.0
1001
HATCH_DISPLAY
1070
     0
1001
HATCH_TYPE
1070
     7
  0
LINE
  5
1231
330
762
100
AcDbEntity
  8
0
100
AcDbLine
 10
2.55237668
 20
-5.92561737
 30
0.0
 11
2.5521455
 21
-5.88146667
 31
0.0
  0
LINE
  5
1232
330
762
100
AcDbEntity
  8
0
100
AcDbLine
 10
3.12568746
 20
-6.04268306
 30
0.0
 11
2.74347849
 21
-5.66445577
 31
0.0
  0
LINE
  5
1233
330
762
100
AcDbEntity
  8
0
100
AcDbLine
 10
2.74956399
 20
-6.34049806
 30
0.0
 11
2.54560012
 21
-6.13865899
 31
0.0
  0
LINE
  5
1234
330
762
100
AcDbEntity
  8
0
100
AcDbLine
 10
3.07164023
 20
-6.52521502
 30
0.0
 11
2.63547501
 21
-6.09359356
 31
0.0
  0
ARC
  5
1235
330
762
100
AcDbEntity
  8
0
100
AcDbCircle
 10
2.71311507
 20
-6.51868188
 30
0.0
 40
0.1818735837936403
100
AcDbArc
 50
351.96260169
 51
156.6381551
  0
LINE
  5
1236
330
762
100
AcDbEntity
  8
0
100
AcDbLine
 10
2.54615189
 20
-6.44656186
 30
0.0
 11
2.89320215
 21
-6.54411107
 31
0.0
  0
LINE
  5
1237
330
762
100
AcDbEntity
  8
0
100
AcDbLine
 10
3.21747936
 20
-6.93754295
 30
0.0
 11
2.79082717
 21
-6.51533541
 31
0.0
  0
LINE
  5
1238
330
762
100
AcDbEntity
  8
0
100
AcDbLine
 10
3.21166887
 20
-5.38672094
 30
0.0
 11
2.64093734
 21
-5.22629459
 31
0.0
  0
LINE
  5
1239
330
762
100
AcDbEntity
  8
0
100
AcDbLine
 10
3.00893857
 20
-5.12312618
 30
0.0
 11
2.88705292
 21
-5.00251027
 31
0.0
  0
LINE
  5
123A
330
762
100
AcDbEntity
  8
0
100
AcDbLine
 10
3.11637158
 20
-5.09543595
 30
0.0
 11
2.88634761
 21
-4.86780827
 31
0.0
  0
LINE
  5
123B
330
762
100
AcDbEntity
  8
0
100
AcDbLine
 10
2.88773056
 20
-5.13192859
 30
0.0
 11
2.88588128
 21
-4.77874587
 31
0.0
  0
LINE
  5
123C
330
762
100
AcDbEntity
  8
0
100
AcDbLine
 10
3.00916337
 20
-5.16606039
 30
0.0
 11
2.88773056
 21
-5.13192859
 31
0.0
  0
LINE
  5
123D
330
762
100
AcDbEntity
  8
0
100
AcDbLine
 10
3.00916337
 20
-5.16606039
 30
0.0
 11
3.00863502
 21
-5.06515235
 31
0.0
  0
LINE
  5
123E
330
762
100
AcDbEntity
  8
0
100
AcDbLine
 10
2.54970531
 20
-4.75448188
 30
0.0
 11
2.54970531
 21
-4.75448188
 31
0.0
  0
LINE
  5
123F
330
762
100
AcDbEntity
  8
0
100
AcDbLine
 10
2.54970531
 20
-4.75448188
 30
0.0
 11
2.54970531
 21
-4.75448188
 31
0.0
1001
HATCH_DISTANCE
1040
1.0
1001
HATCH_DISPLAY
1070
     0
1001
HATCH_TYPE
1070
     7
  0
LINE
  5
1240
330
762
100
AcDbEntity
  8
0
100
AcDbLine
 10
2.54970531
 20
-4.75448188
 30
0.0
 11
2.54970531
 21
-4.75448188
 31
0.0
  0
LINE
  5
1241
330
762
100
AcDbEntity
  8
0
100
AcDbLine
 10
2.54970531
 20
-4.75448188
 30
0.0
 11
2.54970531
 21
-4.75448188
 31
0.0
1001
HATCH_DISTANCE
1040
1.0
1001
HATCH_DISPLAY
1070
     0
1001
HATCH_TYPE
1070
     7
  0
LINE
  5
1242
330
762
100
AcDbEntity
  8
0
100
AcDbLine
 10
2.57420339
 20
-4.8269239
 30
0.0
 11
2.56151319
 21
-4.8143659
 31
0.0
  0
ARC
  5
1243
330
762
100
AcDbEntity
  8
0
100
AcDbCircle
 10
3.04877591
 20
-4.62608728
 30
0.0
 40
0.5153197288513173
100
AcDbArc
 50
201.1721834
 51
222.84194894
  0
ARC
  5
1244
330
762
100
AcDbEntity
  8
0
100
AcDbCircle
 10
2.6753928
 20
-5.10372939
 30
0.0
 40
0.1273150026798248
100
AcDbArc
 50
92.01012138
 51
254.29839835
  0
LINE
  5
1245
330
762
100
AcDbEntity
  8
0
100
AcDbLine
 10
3.06967012
 20
-4.11119274
 30
0.0
 11
2.95389811
 21
-3.99662679
 31
0.0
  0
LINE
  5
1246
330
762
100
AcDbEntity
  8
0
100
AcDbLine
 10
2.75553298
 20
-4.20234026
 30
0.0
 11
2.66813753
 21
-4.11585524
 31
0.0
  0
LINE
  5
1247
330
762
100
AcDbEntity
  8
0
100
AcDbLine
 10
2.84212006
 20
-4.15402128
 30
0.0
 11
2.75074159
 21
-4.06359474
 31
0.0
  0
LINE
  5
1248
330
762
100
AcDbEntity
  8
0
100
AcDbLine
 10
2.62162088
 20
-4.33783126
 30
0.0
 11
2.5342089
 21
-4.25132989
 31
0.0
  0
LINE
  5
1249
330
762
100
AcDbEntity
  8
0
100
AcDbLine
 10
2.68226548
 20
-4.26384006
 30
0.0
 11
2.59607929
 21
-4.17855171
 31
0.0
  0
LINE
  5
124A
330
762
100
AcDbEntity
  8
0
100
AcDbLine
 10
2.94458265
 20
-4.12141242
 30
0.0
 11
2.84511043
 21
-4.02297645
 31
0.0
  0
LINE
  5
124B
330
762
100
AcDbEntity
  8
0
100
AcDbLine
 10
3.24372779
 20
-5.62347754
 30
0.0
 11
2.92227784
 21
-5.30537631
 31
0.0
  0
LINE
  5
124C
330
762
100
AcDbEntity
  8
0
100
AcDbLine
 10
3.24310128
 20
-4.14881315
 30
0.0
 11
3.08306143
 21
-3.99044051
 31
0.0
  0
ARC
  5
124D
330
762
100
AcDbEntity
  8
0
100
AcDbCircle
 10
3.06166376
 20
-7.08746253
 30
0.0
 40
0.6365707397460935
100
AcDbArc
 50
180.3
 51
0.3
  0
LINE
  5
124E
330
762
100
AcDbEntity
  8
0
100
AcDbLine
 10
3.5100395
 20
-5.87992557
 30
0.0
 11
2.4171531
 21
-5.57273016
 31
0.0
  0
LINE
  5
124F
330
762
100
AcDbEntity
  8
0
100
AcDbLine
 10
3.5100395
 20
-5.87992557
 30
0.0
 11
2.4171531
 21
-5.57273016
 31
0.0
1001
HATCH_DISTANCE
1040
1.0
1001
HATCH_DISPLAY
1070
     0
1001
HATCH_TYPE
1070
     7
  0
LINE
  5
1250
330
762
100
AcDbEntity
  8
0
100
AcDbLine
 10
3.5100395
 20
-5.87992557
 30
0.0
 11
2.4171531
 21
-5.57273016
 31
0.0
  0
ARC
  5
1251
330
762
100
AcDbEntity
  8
0
100
AcDbCircle
 10
3.04877591
 20
-4.62608728
 30
0.0
 40
0.6365707397460935
100
AcDbArc
 50
0.3
 51
195.07079397
  0
ARC
  5
1252
330
762
100
AcDbEntity
  8
0
100
AcDbCircle
 10
3.1126794
 20
-5.25183548
 30
0.0
 40
0.3940704345703125
100
AcDbArc
 50
254.2997507
 51
35.26387329
  0
LINE
  5
1253
330
762
100
AcDbEntity
  8
0
100
AcDbLine
 10
3.51430864
 20
-6.69526385
 30
0.0
 11
3.06708247
 21
-6.25269667
 31
0.0
  0
ARC
  5
1254
330
762
100
AcDbEntity
  8
0
100
AcDbCircle
 10
3.19884179
 20
-6.65521369
 30
0.0
 40
0.1818787872791291
100
AcDbArc
 50
351.96285421
 51
156.63819216
  0
LINE
  5
1255
330
762
100
AcDbEntity
  8
0
100
AcDbLine
 10
3.03187356
 20
-6.58309225
 30
0.0
 11
3.3789341
 21
-6.68064304
 31
0.0
  0
LINE
  5
1256
330
762
100
AcDbEntity
  8
0
100
AcDbLine
 10
3.40661841
 20
-6.9907076
 30
0.0
 11
2.89090744
 21
-6.48036906
 31
0.0
  0
LINE
  5
1257
330
762
100
AcDbEntity
  8
0
100
AcDbLine
 10
3.51571925
 20
-6.96466784
 30
0.0
 11
3.16910559
 21
-6.62166503
 31
0.0
  0
ARC
  5
1258
330
762
100
AcDbEntity
  8
0
100
AcDbCircle
 10
3.06166376
 20
-7.08746253
 30
0.0
 40
0.5153182983398425
100
AcDbArc
 50
180.3
 51
0.3
  0
LINE
  5
1259
330
762
100
AcDbEntity
  8
0
100
AcDbLine
 10
3.51601661
 20
-7.02145809
 30
0.0
 11
2.54456302
 21
-6.74839447
 31
0.0
  0
LINE
  5
125A
330
762
100
AcDbEntity
  8
0
100
AcDbLine
 10
3.29170388
 20
-7.68101443
 30
0.0
 11
3.1949316
 21
-7.58525028
 31
0.0
  0
LINE
  5
125B
330
762
100
AcDbEntity
  8
0
100
AcDbLine
 10
3.31482689
 20
-6.09584809
 30
0.0
 11
2.93261718
 21
-5.71762006
 31
0.0
  0
LINE
  5
125C
330
762
100
AcDbEntity
  8
0
100
AcDbLine
 10
3.50396633
 20
-6.14901312
 30
0.0
 11
3.12175588
 21
-5.77078436
 31
0.0
  0
LINE
  5
125D
330
762
100
AcDbEntity
  8
0
100
AcDbLine
 10
3.51145948
 20
-6.15111937
 30
0.0
 11
2.5521455
 21
-5.88146667
 31
0.0
  0
LINE
  5
125E
330
762
100
AcDbEntity
  8
0
100
AcDbLine
 10
2.5521455
 20
-5.88146667
 30
0.0
 11
3.51145948
 21
-6.15111937
 31
0.0
  0
LINE
  5
125F
330
762
100
AcDbEntity
  8
0
100
AcDbLine
 10
2.5521455
 20
-5.88146667
 30
0.0
 11
3.51145948
 21
-6.15111937
 31
0.0
1001
HATCH_DISTANCE
1040
1.0
1001
HATCH_DISPLAY
1070
     0
1001
HATCH_TYPE
1070
     7
  0
ARC
  5
1260
330
762
100
AcDbEntity
  8
0
100
AcDbCircle
 10
3.2102595
 20
-6.51987831
 30
0.0
 40
0.3031265258789064
100
AcDbArc
 50
0.3
 51
130.62984065
  0
LINE
  5
1261
330
762
100
AcDbEntity
  8
0
100
AcDbLine
 10
3.51360334
 20
-6.56056186
 30
0.0
 11
3.1690217
 21
-6.21956991
 31
0.0
  0
LINE
  5
1262
330
762
100
AcDbEntity
  8
0
100
AcDbLine
 10
3.31249504
 20
-5.15551226
 30
0.0
 11
2.94996524
 21
-4.79675912
 31
0.0
  0
LINE
  5
1263
330
762
100
AcDbEntity
  8
0
100
AcDbLine
 10
3.28057065
 20
-5.14159057
 30
0.0
 11
3.00863502
 21
-5.06515235
 31
0.0
  0
LINE
  5
1264
330
762
100
AcDbEntity
  8
0
100
AcDbLine
 10
3.33344835
 20
-5.57825941
 30
0.0
 11
3.11141724
 21
-5.35854131
 31
0.0
  0
LINE
  5
1265
330
762
100
AcDbEntity
  8
0
100
AcDbLine
 10
3.50470195
 20
-5.21171281
 30
0.0
 11
3.13910445
 21
-4.84992394
 31
0.0
  0
LINE
  5
1266
330
762
100
AcDbEntity
  8
0
100
AcDbLine
 10
3.50518517
 20
-4.95282494
 30
0.0
 11
2.88588128
 21
-4.77874587
 31
0.0
  0
ARC
  5
1267
330
762
100
AcDbEntity
  8
0
100
AcDbCircle
 10
3.04877591
 20
-4.62608728
 30
0.0
 40
0.5153182983398425
100
AcDbArc
 50
0.3
 51
194.4274365
  0
ARC
  5
1268
330
762
100
AcDbEntity
  8
0
100
AcDbCircle
 10
3.24611976
 20
-5.26415576
 30
0.0
 40
0.1273149132728577
100
AcDbArc
 50
254.30027306
 51
74.30027306
  0
LINE
  5
1269
330
762
100
AcDbEntity
  8
240
100
AcDbLine
 10
9.0
 20
-8.2
 30
0.0
 11
9.0
 21
-10.15
 31
0.0
  0
LINE
  5
126A
330
762
100
AcDbEntity
  8
240
100
AcDbLine
 10
11.25980762
 20
-10.0
 30
0.0
 11
11.0
 21
-10.15
 31
0.0
  0
LINE
  5
126B
330
762
100
AcDbEntity
  8
240
100
AcDbLine
 10
9.0
 20
-10.15
 30
0.0
 11
11.0
 21
-10.15
 31
0.0
  0
ARC
  5
126C
330
762
100
AcDbEntity
  8
240
100
AcDbCircle
 10
29.0
 20
-9.0
 30
0.0
 40
1.0
100
AcDbArc
 50
270.0
 51
0.0
1001
GENIUS_GENOBJ-N-FIL_13
1002
{
1000
OWNER
1000
GEN
1002
}
1001
GENIUS_GENODEF_13
1002
{
1000
HIER
1070
     0
1002
}
1002
{
1000
MANEDIT
1070
     0
1002
}
1002
{
1000
NOSEL
1070
     0
1002
}
1002
{
1000
BEHIND
1070
     0
1002
}
1002
{
1000
OTHER
1070
     0
1002
}
1002
{
1000
REACTOR
1002
}
  0
ARC
  5
126D
330
762
100
AcDbEntity
  8
240
100
AcDbCircle
 10
-0.76732699
 20
12.5
 30
0.0
 40
1.0
100
AcDbArc
 50
15.0
 51
75.0
1001
GENIUS_GENODEF_13
1002
{
1000
HIER
1070
     0
1002
}
1002
{
1000
MANEDIT
1070
     0
1002
}
1002
{
1000
NOSEL
1070
     0
1002
}
1002
{
1000
BEHIND
1070
     0
1002
}
1002
{
1000
OTHER
1070
     0
1002
}
1002
{
1000
REACTOR
1002
}
1001
GENIUS_GENOBJ-N-FIL_13
1002
{
1000
OWNER
1000
GEN
1002
}
  0
LINE
  5
126E
330
762
100
AcDbEntity
  8
240
100
AcDbLine
 10
-23.5
 20
10.0
 30
0.0
 11
-16.5
 21
10.0
 31
0.0
  0
LINE
  5
126F
330
762
100
AcDbEntity
  8
245
100
AcDbLine
 10
-21.99864763
 20
-3.42020133
 30
0.0
 11
-18.00135237
 21
-3.42020133
 31
0.0
  0
LINE
  5
1270
330
762
100
AcDbEntity
  8
241
100
AcDbLine
 10
-25.5
 20
9.0
 30
0.0
 11
-25.5
 21
0.0
 31
0.0
  0
LINE
  5
1271
330
762
100
AcDbEntity
  8
241
100
AcDbLine
 10
-23.5
 20
9.0
 30
0.0
 11
-23.5
 21
0.0
 31
0.0
  0
LINE
  5
1272
330
762
100
AcDbEntity
  8
240
100
AcDbLine
 10
-29.5
 20
8.0
 30
0.0
 11
-27.5
 21
10.0
 31
0.0
  0
LINE
  5
1273
330
762
100
AcDbEntity
  8
240
100
AcDbLine
 10
-35.0
 20
8.0
 30
0.0
 11
-29.5
 21
8.0
 31
0.0
  0
LINE
  5
1274
330
762
100
AcDbEntity
  8
240
100
AcDbLine
 10
-27.5
 20
10.0
 30
0.0
 11
-25.5
 21
10.0
 31
0.0
  0
ARC
  5
1275
330
762
100
AcDbEntity
  8
240
100
AcDbCircle
 10
-24.5
 20
9.0
 30
0.0
 40
0.9999999999999495
100
AcDbArc
 50
0.0
 51
180.0
  0
LINE
  5
1276
330
762
100
AcDbEntity
  8
240
100
AcDbLine
 10
-25.5
 20
9.0
 30
0.0
 11
-25.5
 21
10.0
 31
0.0
  0
LINE
  5
1277
330
762
100
AcDbEntity
  8
240
100
AcDbLine
 10
-23.5
 20
9.0
 30
0.0
 11
-23.5
 21
10.0
 31
0.0
  0
LINE
  5
1278
330
762
100
AcDbEntity
  8
241
100
AcDbLine
 10
-16.5
 20
9.0
 30
0.0
 11
-16.5
 21
0.0
 31
0.0
  0
LINE
  5
1279
330
762
100
AcDbEntity
  8
241
100
AcDbLine
 10
-14.5
 20
9.0
 30
0.0
 11
-14.5
 21
0.0
 31
0.0
  0
LINE
  5
127A
330
762
100
AcDbEntity
  8
241
100
AcDbLine
 10
-11.5
 20
10.0
 30
0.0
 11
-11.5
 21
0.0
 31
0.0
  0
LINE
  5
127B
330
762
100
AcDbEntity
  8
241
  6
CONTINUOUS
100
AcDbLine
 10
-6.5
 20
13.0
 30
0.0
 11
-6.5
 21
0.0
 31
0.0
  0
LINE
  5
127C
330
762
100
AcDbEntity
  8
241
100
AcDbLine
 10
-5.12626129
 20
13.5
 30
0.0
 11
-5.12626129
 21
0.0
 31
0.0
  0
LINE
  5
127D
330
762
100
AcDbEntity
  8
241
100
AcDbLine
 10
-4.0
 20
12.5
 30
0.0
 11
-4.0
 21
0.0
 31
0.0
  0
LINE
  5
127E
330
762
100
AcDbEntity
  8
241
100
AcDbLine
 10
-2.0
 20
12.5
 30
0.0
 11
-2.0
 21
0.0
 31
0.0
  0
LINE
  5
127F
330
762
100
AcDbEntity
  8
241
  6
CONTINUOUS
100
AcDbLine
 10
-6.5
 20
10.2
 30
0.0
 11
-10.0
 21
10.2
 31
0.0
  0
LINE
  5
1280
330
762
100
AcDbEntity
  8
240
100
AcDbLine
 10
-6.50000001
 20
13.0
 30
0.0
 11
-10.5
 21
13.0
 31
0.0
  0
LINE
  5
1281
330
762
100
AcDbEntity
  8
240
100
AcDbLine
 10
-14.5
 20
10.0
 30
0.0
 11
-11.5
 21
10.0
 31
0.0
  0
ARC
  5
1282
330
762
100
AcDbEntity
  8
240
100
AcDbCircle
 10
-15.5
 20
9.0
 30
0.0
 40
1.0
100
AcDbArc
 50
0.0
 51
180.0
  0
LINE
  5
1283
330
762
100
AcDbEntity
  8
240
100
AcDbLine
 10
-16.5
 20
9.0
 30
0.0
 11
-16.5
 21
10.0
 31
0.0
  0
LINE
  5
1284
330
762
100
AcDbEntity
  8
240
100
AcDbLine
 10
-14.5
 20
9.0
 30
0.0
 11
-14.5
 21
10.0
 31
0.0
  0
LINE
  5
1285
330
762
100
AcDbEntity
  8
240
100
AcDbLine
 10
-11.2
 20
9.7
 30
0.0
 11
-10.0
 21
9.7
 31
0.0
  0
LINE
  5
1286
330
762
100
AcDbEntity
  8
240
100
AcDbLine
 10
-10.0
 20
10.5
 30
0.0
 11
-10.5
 21
11.0
 31
0.0
  0
LINE
  5
1287
330
762
100
AcDbEntity
  8
240
100
AcDbLine
 10
-10.5
 20
13.0
 30
0.0
 11
-10.5
 21
11.0
 31
0.0
  0
LINE
  5
1288
330
762
100
AcDbEntity
  8
240
100
AcDbLine
 10
-11.2
 20
9.7
 30
0.0
 11
-11.5
 21
10.0
 31
0.0
  0
LINE
  5
1289
330
762
100
AcDbEntity
  8
240
100
AcDbLine
 10
-10.0
 20
10.5
 30
0.0
 11
-10.0
 21
9.7
 31
0.0
  0
LINE
  5
128A
330
762
100
AcDbEntity
  8
240
100
AcDbLine
 10
-4.0
 20
13.5
 30
0.0
 11
-5.12626128
 21
13.5
 31
0.0
  0
LINE
  5
128B
330
762
100
AcDbEntity
  8
240
100
AcDbLine
 10
-6.50000001
 20
13.0
 30
0.0
 11
-5.12626128
 21
13.5
 31
0.0
  0
LINE
  5
128C
330
762
100
AcDbEntity
  8
240
100
AcDbLine
 10
-2.0
 20
12.5
 30
0.0
 11
-2.0
 21
13.5
 31
0.0
  0
LINE
  5
128D
330
762
100
AcDbEntity
  8
240
100
AcDbLine
 10
-0.63567449
 20
13.5
 30
0.0
 11
-2.0
 21
13.5
 31
0.0
  0
ARC
  5
128E
330
762
100
AcDbEntity
  8
240
100
AcDbCircle
 10
-3.0
 20
12.5
 30
0.0
 40
1.000000000000227
100
AcDbArc
 50
0.0
 51
180.0
  0
LINE
  5
128F
330
762
100
AcDbEntity
  8
240
100
AcDbLine
 10
-0.50850794
 20
13.46592583
 30
0.0
 11
-0.63567449
 21
13.5
 31
0.0
  0
LINE
  5
1290
330
762
100
AcDbEntity
  8
240
100
AcDbLine
 10
-4.0
 20
12.5
 30
0.0
 11
-4.0
 21
13.5
 31
0.0
  0
LINE
  5
1291
330
762
100
AcDbEntity
  8
240
100
AcDbLine
 10
11.25980762
 20
10.0
 30
0.0
 11
29.0
 21
10.0
 31
0.0
  0
LINE
  5
1292
330
762
100
AcDbEntity
  8
241
  6
HIDDEN2
100
AcDbLine
 10
15.0
 20
3.1
 30
0.0
 11
30.0
 21
3.1
 31
0.0
  0
LINE
  5
1293
330
762
100
AcDbEntity
  8
241
100
AcDbLine
 10
11.0
 20
10.15
 30
0.0
 11
11.0
 21
0.0
 31
0.0
  0
LINE
  5
1294
330
762
100
AcDbEntity
  8
241
100
AcDbLine
 10
12.2
 20
10.0
 30
0.0
 11
12.2
 21
0.0
 31
0.0
  0
LINE
  5
1295
330
762
100
AcDbEntity
  8
240
100
AcDbLine
 10
9.0
 20
8.2
 30
0.0
 11
9.0
 21
10.15
 31
0.0
  0
LINE
  5
1296
330
762
100
AcDbEntity
  8
240
100
AcDbLine
 10
8.0
 20
8.2
 30
0.0
 11
8.0
 21
10.0
 31
0.0
  0
LINE
  5
1297
330
762
100
AcDbEntity
  8
241
100
AcDbLine
 10
0.93782217
 20
10.35874398
 30
0.0
 11
0.93782217
 21
0.0
 31
0.0
  0
LINE
  5
1298
330
762
100
AcDbEntity
  8
241
100
AcDbLine
 10
0.0
 20
13.14125603
 30
0.0
 11
0.0
 21
0.0
 31
0.0
  0
LINE
  5
1299
330
762
100
AcDbEntity
  8
240
100
AcDbLine
 10
9.0
 20
8.2
 30
0.0
 11
8.0
 21
8.2
 31
0.0
  0
LINE
  5
129A
330
762
100
AcDbEntity
  8
242
  6
HIDDEN2
100
AcDbLine
 10
5.0
 20
3.60624458
 30
0.0
 11
10.0
 21
0.0
 31
0.0
  0
LINE
  5
129B
330
762
100
AcDbEntity
  8
242
  6
HIDDEN2
100
AcDbLine
 10
5.0
 20
0.0
 30
0.0
 11
10.0
 21
3.60624458
 31
0.0
  0
LINE
  5
129C
330
762
100
AcDbEntity
  8
241
  6
HIDDEN2
100
AcDbLine
 10
5.0
 20
3.60624458
 30
0.0
 11
10.0
 21
3.60624458
 31
0.0
  0
TEXT
  5
129D
330
762
100
AcDbEntity
  8
0
100
AcDbText
 10
3.50642169
 20
-3.61565717
 30
0.0
 40
1.0
  1
MGT12-M8-30
 50
90.0
  7
YOKO
100
AcDbText
  0
LINE
  5
129E
330
762
100
AcDbEntity
  8
241
100
AcDbLine
 10
8.0
 20
8.2
 30
0.0
 11
8.0
 21
0.0
 31
0.0
  0
LINE
  5
129F
330
762
100
AcDbEntity
  8
241
  6
HIDDEN2
100
AcDbLine
 10
5.0
 20
3.60624458
 30
0.0
 11
5.0
 21
0.0
 31
0.0
  0
LINE
  5
12A0
330
762
100
AcDbEntity
  8
241
100
AcDbLine
 10
9.0
 20
8.2
 30
0.0
 11
9.0
 21
0.0
 31
0.0
  0
LINE
  5
12A1
330
762
100
AcDbEntity
  8
241
  6
HIDDEN2
100
AcDbLine
 10
15.0
 20
3.6
 30
0.0
 11
15.0
 21
0.0
 31
0.0
  0
LINE
  5
12A2
330
762
100
AcDbEntity
  8
241
  6
HIDDEN2
100
AcDbLine
 10
10.0
 20
3.60624458
 30
0.0
 11
10.0
 21
0.0
 31
0.0
  0
LINE
  5
12A3
330
762
100
AcDbEntity
  8
241
  6
HIDDEN2
100
AcDbLine
 10
10.0
 20
3.6
 30
0.0
 11
15.0
 21
3.6
 31
0.0
  0
LINE
  5
12A4
330
762
100
AcDbEntity
  8
240
100
AcDbLine
 10
8.0
 20
10.0
 30
0.0
 11
1.70514916
 21
10.0
 31
0.0
  0
LINE
  5
12A5
330
762
100
AcDbEntity
  8
240
100
AcDbLine
 10
0.19859884
 20
12.75881905
 30
0.0
 11
0.73922333
 21
10.74118096
 31
0.0
  0
ARC
  5
12A6
330
762
100
AcDbEntity
  8
240
100
AcDbCircle
 10
1.70514916
 20
11.0
 30
0.0
 40
1.0
100
AcDbArc
 50
194.99999978
 51
270.0
  0
LINE
  5
12A7
330
762
100
AcDbEntity
  8
240
100
AcDbLine
 10
11.25980762
 20
10.0
 30
0.0
 11
11.0
 21
10.15
 31
0.0
  0
LINE
  5
12A8
330
762
100
AcDbEntity
  8
240
100
AcDbLine
 10
9.0
 20
10.15
 30
0.0
 11
11.0
 21
10.15
 31
0.0
  0
LINE
  5
12A9
330
762
100
AcDbEntity
  8
240
100
AcDbLine
 10
30.0
 20
9.0
 30
0.0
 11
30.0
 21
0.0
 31
0.0
  0
ARC
  5
12AA
330
762
100
AcDbEntity
  8
240
100
AcDbCircle
 10
29.0
 20
9.0
 30
0.0
 40
1.0
100
AcDbArc
 50
0.0
 51
90.0
1001
GENIUS_GENOBJ-N-FIL_13
1002
{
1000
OWNER
1000
GEN
1002
}
1001
GENIUS_GENODEF_13
1002
{
1000
HIER
1070
     0
1002
}
1002
{
1000
MANEDIT
1070
     0
1002
}
1002
{
1000
NOSEL
1070
     0
1002
}
1002
{
1000
BEHIND
1070
     0
1002
}
1002
{
1000
OTHER
1070
     0
1002
}
1002
{
1000
REACTOR
1002
}
  0
ENDBLK
  5
8A0
330
762
100
AcDbEntity
  8
0
100
AcDbBlockEnd
  0
BLOCK
  5
1133
330
1129
100
AcDbEntity
  8
0
100
AcDbBlockBegin
  2
*D10
 70
     1
 10
0.0
 20
0.0
 30
0.0
  3
*D10
  1

  0
LINE
  5
117B
330
1129
100
AcDbEntity
  8
250
  6
CONTINUOUS
100
AcDbLine
 10
0.0
 20
13.64125603
 30
0.0
 11
0.0
 21
29.0
 31
0.0
  0
LINE
  5
117C
330
1129
100
AcDbEntity
  8
250
  6
CONTINUOUS
100
AcDbLine
 10
30.0
 20
9.5
 30
0.0
 11
30.0
 21
29.0
 31
0.0
  0
LINE
  5
117D
330
1129
100
AcDbEntity
  8
250
  6
CONTINUOUS
100
AcDbLine
 10
2.23
 20
28.0
 30
0.0
 11
27.77
 21
28.0
 31
0.0
  0
INSERT
  5
117E
330
1129
100
AcDbEntity
  8
250
  6
CONTINUOUS
100
AcDbBlockReference
  2
_OPEN
 10
0.0
 20
28.0
 30
0.0
 41
2.23
 42
2.23
 43
2.23
 50
180.0
  0
INSERT
  5
117F
330
1129
100
AcDbEntity
  8
250
  6
CONTINUOUS
100
AcDbBlockReference
  2
_OPEN
 10
30.0
 20
28.0
 30
0.0
 41
2.23
 42
2.23
 43
2.23
  0
MTEXT
  5
1180
330
1129
100
AcDbEntity
  8
250
  6
CONTINUOUS
 62
    40
100
AcDbMText
 10
15.0
 20
30.4
 30
0.0
 40
2.8
 41
0.0
 71
     5
 72
     1
  1
\A1;30
1001
ACAD
1000
MTEXTBEGIN
1070
    73
1070
     1
1070
    44
1040
1.0
1070
    74
1070
     0
1000
MTEXTEND
  0
POINT
  5
1181
330
1129
100
AcDbEntity
  8
DEFPOINTS
  6
CONTINUOUS
 62
     0
100
AcDbPoint
 10
0.0
 20
13.14125603
 30
0.0
  0
POINT
  5
1182
330
1129
100
AcDbEntity
  8
DEFPOINTS
  6
CONTINUOUS
 62
     0
100
AcDbPoint
 10
30.0
 20
9.0
 30
0.0
  0
POINT
  5
1183
330
1129
100
AcDbEntity
  8
DEFPOINTS
  6
CONTINUOUS
 62
     0
100
AcDbPoint
 10
30.0
 20
28.0
 30
0.0
  0
ENDBLK
  5
1134
330
1129
100
AcDbEntity
  8
0
100
AcDbBlockEnd
  0
BLOCK
  5
113F
330
1135
100
AcDbEntity
  8
0
100
AcDbBlockBegin
  2
*D11
 70
     1
 10
0.0
 20
0.0
 30
0.0
  3
*D11
  1

  0
LINE
  5
1172
330
1135
100
AcDbEntity
  8
250
  6
CONTINUOUS
100
AcDbLine
 10
0.0
 20
13.64125603
 30
0.0
 11
0.0
 21
29.0
 31
0.0
  0
LINE
  5
1173
330
1135
100
AcDbEntity
  8
250
  6
CONTINUOUS
100
AcDbLine
 10
30.0
 20
9.5
 30
0.0
 11
30.0
 21
29.0
 31
0.0
  0
LINE
  5
1174
330
1135
100
AcDbEntity
  8
250
  6
CONTINUOUS
100
AcDbLine
 10
2.23
 20
28.0
 30
0.0
 11
27.77
 21
28.0
 31
0.0
  0
INSERT
  5
1175
330
1135
100
AcDbEntity
  8
250
  6
CONTINUOUS
100
AcDbBlockReference
  2
_OPEN
 10
0.0
 20
28.0
 30
0.0
 41
2.23
 42
2.23
 43
2.23
 50
180.0
  0
INSERT
  5
1176
330
1135
100
AcDbEntity
  8
250
  6
CONTINUOUS
100
AcDbBlockReference
  2
_OPEN
 10
30.0
 20
28.0
 30
0.0
 41
2.23
 42
2.23
 43
2.23
  0
MTEXT
  5
1177
330
1135
100
AcDbEntity
  8
250
  6
CONTINUOUS
 62
    40
100
AcDbMText
 10
15.0
 20
30.4
 30
0.0
 40
2.8
 41
0.0
 71
     5
 72
     1
  1
\A1;30
1001
ACAD
1000
MTEXTBEGIN
1070
    73
1070
     1
1070
    44
1040
1.0
1070
    74
1070
     0
1000
MTEXTEND
  0
POINT
  5
1178
330
1135
100
AcDbEntity
  8
DEFPOINTS
  6
CONTINUOUS
 62
     0
100
AcDbPoint
 10
0.0
 20
13.14125603
 30
0.0
  0
POINT
  5
1179
330
1135
100
AcDbEntity
  8
DEFPOINTS
  6
CONTINUOUS
 62
     0
100
AcDbPoint
 10
30.0
 20
9.0
 30
0.0
  0
POINT
  5
117A
330
1135
100
AcDbEntity
  8
DEFPOINTS
  6
CONTINUOUS
 62
     0
100
AcDbPoint
 10
30.0
 20
28.0
 30
0.0
  0
ENDBLK
  5
1140
330
1135
100
AcDbEntity
  8
0
100
AcDbBlockEnd
  0
BLOCK
  5
114B
330
1141
100
AcDbEntity
  8
0
100
AcDbBlockBegin
  2
*D12
 70
     1
 10
0.0
 20
0.0
 30
0.0
  3
*D12
  1

  0
LINE
  5
1184
330
1141
100
AcDbEntity
  8
250
  6
CONTINUOUS
100
AcDbLine
 10
29.6316525
 20
-10.0
 30
0.0
 11
48.0
 21
-10.0
 31
0.0
  0
LINE
  5
1185
330
1141
100
AcDbEntity
  8
250
  6
CONTINUOUS
100
AcDbLine
 10
29.6316525
 20
10.0
 30
0.0
 11
48.0
 21
10.0
 31
0.0
  0
LINE
  5
1186
330
1141
100
AcDbEntity
  8
250
  6
CONTINUOUS
100
AcDbLine
 10
47.0
 20
-7.77
 30
0.0
 11
47.0
 21
7.77
 31
0.0
  0
INSERT
  5
1187
330
1141
100
AcDbEntity
  8
250
  6
CONTINUOUS
100
AcDbBlockReference
  2
_OPEN
 10
47.0
 20
-10.0
 30
0.0
 41
2.23
 42
2.23
 43
2.23
 50
270.0
  0
INSERT
  5
1188
330
1141
100
AcDbEntity
  8
250
  6
CONTINUOUS
100
AcDbBlockReference
  2
_OPEN
 10
47.0
 20
10.0
 30
0.0
 41
2.23
 42
2.23
 43
2.23
 50
90.0
  0
MTEXT
  5
1189
330
1141
100
AcDbEntity
  8
250
  6
CONTINUOUS
 62
    40
100
AcDbMText
 10
44.6
 20
0.0
 30
0.0
 40
2.8
 41
0.0
 71
     5
 72
     1
  1
\A1;{\H2.8;%%C}20
 11
0.0
 21
1.0
 31
0.0
1001
ACAD
1000
MTEXTBEGIN
1070
    73
1070
     1
1070
    44
1040
1.0
1070
    74
1070
     0
1000
MTEXTEND
  0
POINT
  5
118A
330
1141
100
AcDbEntity
  8
DEFPOINTS
  6
CONTINUOUS
 62
     0
100
AcDbPoint
 10
29.1316525
 20
-10.0
 30
0.0
  0
POINT
  5
118B
330
1141
100
AcDbEntity
  8
DEFPOINTS
  6
CONTINUOUS
 62
     0
100
AcDbPoint
 10
29.1316525
 20
10.0
 30
0.0
  0
POINT
  5
118C
330
1141
100
AcDbEntity
  8
DEFPOINTS
  6
CONTINUOUS
 62
     0
100
AcDbPoint
 10
47.0
 20
10.0
 30
0.0
  0
ENDBLK
  5
114C
330
1141
100
AcDbEntity
  8
0
100
AcDbBlockEnd
  0
ENDSEC
  0
SECTION
  2
ENTITIES
  0
INSERT
  5
6E6
330
1A
100
AcDbEntity
  8
245
100
AcDbBlockReference
  2
矢印なし
 10
175.62382697
 20
90.55123572
 30
0.0
  0
TEXT
  5
8DF
330
1A
100
AcDbEntity
  8
241
100
AcDbText
 10
-51.0
 20
42.0
 30
0.0
 40
5.0
  1
MGT12-M8-30
  7
YOKO
 11
-51.0
 21
42.0
 31
0.0
100
AcDbText
 73
     1
  0
DIMENSION
  5
1004
330
1A
100
AcDbEntity
  8
250
  6
CONTINUOUS
100
AcDbDimension
  2
*D10
 10
30.0
 20
28.0
 30
0.0
 11
15.0
 21
30.4
 31
0.0
 70
    32
  3
BIGT
100
AcDbAlignedDimension
 13
0.0
 23
13.14125603
 33
0.0
 14
30.0
 24
9.0
 34
0.0
100
AcDbRotatedDimension
  0
DIMENSION
  5
1005
330
1A
100
AcDbEntity
  8
250
  6
CONTINUOUS
100
AcDbDimension
  2
*D11
 10
30.0
 20
28.0
 30
0.0
 11
15.0
 21
30.4
 31
0.0
 70
    32
  3
BIGT
100
AcDbAlignedDimension
 13
0.0
 23
13.14125603
 33
0.0
 14
30.0
 24
9.0
 34
0.0
100
AcDbRotatedDimension
  0
MTEXT
  5
1106
330
1A
100
AcDbEntity
  8
250
  6
CONTINUOUS
 62
    40
100
AcDbMText
 10
37.6
 20
-2.25704702
 30
0.0
 40
2.8
 41
0.0
 71
     5
 72
     1
  1
\A1;{\H2.8;\U+2205}6.2
 11
0.0
 21
1.0
 31
0.0
1001
ACAD
1000
MTEXTBEGIN
1070
    73
1070
     1
1070
    44
1040
1.0
1070
    74
1070
     0
1000
MTEXTEND
1000
MTEXTBEGIN
1070
    73
1070
     1
1070
    44
1040
1.0
1070
    74
1070
     0
1000
MTEXTEND
1000
MTEXTBEGIN
1070
    73
1070
     1
1070
    44
1040
1.0
1070
    74
1070
     0
1000
MTEXTEND
1000
MTEXTBEGIN
1070
    73
1070
     1
1070
    44
1040
1.0
1070
    74
1070
     0
1000
MTEXTEND
1000
MTEXTBEGIN
1070
    73
1070
     1
1070
    44
1040
1.0
1070
    74
1070
     0
1000
MTEXTEND
1000
MTEXTBEGIN
1070
    73
1070
     1
1070
    44
1040
1.0
1070
    74
1070
     0
1000
MTEXTEND
  0
DIMENSION
  5
1107
330
1A
100
AcDbEntity
  8
250
  6
CONTINUOUS
100
AcDbDimension
  2
*D12
 10
47.0
 20
10.0
 30
0.0
 11
47.0
 21
0.0
 31
0.0
 70
   160
  1
{\H2.8;%%C}<>
  3
BIGT
100
AcDbAlignedDimension
 13
29.1316525
 23
-10.0
 33
0.0
 14
29.1316525
 24
10.0
 34
0.0
 50
90.0
100
AcDbRotatedDimension
  0
LINE
  5
1108
330
1A
100
AcDbEntity
  8
250
  6
CONTINUOUS
100
AcDbLine
 10
40.0
 20
3.1
 30
0.0
 11
40.0
 21
-5.95830972
 31
0.0
  0
LEADER
  5
1112
330
1A
100
AcDbEntity
  8
250
  6
CONTINUOUS
100
AcDbLeader
  3
BIGT
 76
     2
 10
9.49411778
 20
3.60624458
 30
0.0
 10
15.87763366
 20
21.0
 30
0.0
1001
ACAD
1000
DSTYLE
1002
{
1070
     6
1000
OPEN
1070
   343
1005
594
1002
}
  0
LINE
  5
1123
330
1A
100
AcDbEntity
  8
250
  6
CONTINUOUS
100
AcDbLine
 10
15.87763366
 20
21.0
 30
0.0
 11
26.73096699
 21
21.0
 31
0.0
1001
ITEMNAME
1000
LNSP2
  0
MTEXT
  5
1124
330
1A
100
AcDbEntity
  8
251
  6
CONTINUOUS
100
AcDbMText
 10
18.67763366
 20
22.0
 30
0.0
 40
2.8
 41
0.0
 71
     7
 72
     1
  1
□5
  7
YOKO
1001
ITEMNAME
1000
LNSP3
1001
ACAD
1000
MTEXTBEGIN
1070
    73
1070
     1
1070
    44
1040
1.0
1070
    74
1070
     0
1000
MTEXTEND
1000
MTEXTBEGIN
1070
    73
1070
     1
1070
    44
1040
1.0
1070
    74
1070
     0
1000
MTEXTEND
1000
MTEXTBEGIN
1070
    73
1070
     1
1070
    44
1040
1.0
1070
    74
1070
     0
1000
MTEXTEND
1000
MTEXTBEGIN
1070
    73
1070
     1
1070
    44
1040
1.0
1070
    74
1070
     0
1000
MTEXTEND
1000
MTEXTBEGIN
1070
    73
1070
     1
1070
    44
1040
1.0
1070
    74
1070
     0
1000
MTEXTEND
1000
MTEXTBEGIN
1070
    73
1070
     1
1070
    44
1040
1.0
1070
    74
1070
     0
1000
MTEXTEND
  0
LINE
  5
1126
330
1A
100
AcDbEntity
  8
250
  6
CONTINUOUS
100
AcDbLine
 10
30.5
 20
3.1
 30
0.0
 11
41.0
 21
3.1
 31
0.0
  0
INSERT
  5
1127
330
1A
100
AcDbEntity
  8
250
  6
CONTINUOUS
100
AcDbBlockReference
  2
_OPEN
 10
40.0
 20
3.1
 30
0.0
 41
2.23
 42
2.23
 43
2.23
 50
90.0
  0
INSERT
  5
12AB
330
1A
100
AcDbEntity
  8
245
100
AcDbBlockReference
  2
1
 10
0.0
 20
0.0
 30
0.0
  0
VIEWPORT
  5
22
330
17
100
AcDbEntity
 67
     1
  8
0
100
AcDbViewport
 10
261.51769912
 20
148.5
 30
0.0
 40
523.03539823
 41
297.0
 68
     1
 69
     1
1001
ACAD
1000
MVIEW
1002
{
1070
    16
1010
0.0
1020
0.0
1030
0.0
1010
0.0
1020
0.0
1030
1.0
1040
0.0
1040
297.0
1040
261.51769912
1040
148.5
1040
50.0
1040
0.0
1040
0.0
1070
     0
1070
   100
1070
     1
1070
     1
1070
     0
1070
     0
1070
     0
1070
     0
1040
0.0
1040
0.0
1040
0.0
1040
1.0
1040
1.0
1040
10.0
1040
10.0
1070
     0
1002
{
1002
}
1002
}
  0
ENDSEC
  0
SECTION
  2
OBJECTS
  0
DICTIONARY
  5
C
330
0
100
AcDbDictionary
  3
ACAD_GROUP
350
D
  3
ACAD_LAYOUT
350
565
  3
ACAD_MLINESTYLE
350
E
  3
ACAD_PLOTSETTINGS
350
566
  3
ACAD_PLOTSTYLENAME
350
563
  3
ACDBHEADERROUNDTRIPXREC
350
12D4
  3
GRADE_DWG
350
540
  0
DICTIONARY
  5
D67
330
1A
100
AcDbDictionary
280
     1
  3
ACAD_LAYOUTSELFREF
360
12F6
  0
DICTIONARY
  5
D65
330
17
100
AcDbDictionary
280
     1
  3
ACAD_LAYOUTSELFREF
360
12F5
  0
DICTIONARY
  5
D
102
{ACAD_REACTORS
330
C
102
}
330
C
100
AcDbDictionary
  3
*A1
350
6C7
  3
*A2
350
6C8
  3
*A3
350
6D4
  3
*A4
350
6D5
  3
DREC-1
350
5FC
  3
DREC-2
350
654
  3
DREC-3
350
673
  0
DICTIONARY
  5
565
102
{ACAD_REACTORS
330
C
102
}
330
C
100
AcDbDictionary
  0
DICTIONARY
  5
E
102
{ACAD_REACTORS
330
C
102
}
330
C
100
AcDbDictionary
  3
STANDARD
350
13
  0
DICTIONARY
  5
566
102
{ACAD_REACTORS
330
C
102
}
330
C
100
AcDbDictionary
  3
A3_0_5倍_
350
758
  3
A3_1倍_
350
757
  3
A3_1倍__2000_
350
707
  3
A3_2倍_
350
759
  3
A4_0_5倍_
350
755
  3
A4_1倍_
350
754
  3
A4_1倍__2000_
350
708
  3
A4_2倍_
350
756
  0
ACDBDICTIONARYWDFLT
  5
563
102
{ACAD_REACTORS
330
C
102
}
330
C
100
AcDbDictionary
281
     1
  3
Normal
350
564
100
AcDbDictionaryWithDefault
340
564
  0
DICTIONARY
  5
12D4
102
{ACAD_REACTORS
330
C
102
}
330
C
100
AcDbDictionary
  3
CEPSNTYPE
350
12DE
  3
DIMSTYLEDATA
350
12E2
  3
FINGERPRINTGUID
350
12DF
  3
HYPERLINKBASE
350
12D7
  3
INSUNITS
350
12DD
  3
LAYOUTDICT
350
12D9
  3
LWETCUNION
350
12DC
  3
PLOTSETDICT
350
12DA
  3
PLOTSTYLNAMDICT
350
12DB
  3
PSVPSCALE
350
12E1
  3
PUCSBASE
350
12E5
  3
PUCSORGBACK
350
12EB
  3
PUCSORGBOTTOM
350
12E7
  3
PUCSORGFRONT
350
12EA
  3
PUCSORGLEFT
350
12E8
  3
PUCSORGRIGHT
350
12E9
  3
PUCSORGTOP
350
12E6
  3
PUCSORTHOREF
350
12E3
  3
PUCSORTHOVIEW
350
12E4
  3
STYLESHEET
350
12D8
  3
TSTACKALIGN
350
12D5
  3
TSTACKSIZE
350
12D6
  3
UCSBASE
350
12EE
  3
UCSORGBACK
350
12F4
  3
UCSORGBOTTOM
350
12F0
  3
UCSORGFRONT
350
12F3
  3
UCSORGLEFT
350
12F1
  3
UCSORGRIGHT
350
12F2
  3
UCSORGTOP
350
12EF
  3
UCSORTHOREF
350
12EC
  3
UCSORTHOVIEW
350
12ED
  3
VERSIONGUID
350
12E0
  0
DICTIONARY
  5
540
102
{ACAD_REACTORS
330
C
102
}
330
C
100
AcDbDictionary
  3
VERSION
350
560
  0
XRECORD
  5
12F6
102
{ACAD_REACTORS
330
D67
102
}
330
D67
100
AcDbXrecord
340
1A
  0
XRECORD
  5
12F5
102
{ACAD_REACTORS
330
D65
102
}
330
D65
100
AcDbXrecord
340
17
  0
GROUP
  5
6C7
102
{ACAD_REACTORS
330
D
102
}
330
D
100
AcDbGroup
300

 70
     0
 71
     1
1001
GRPNAME
1000
DMA00
  0
GROUP
  5
6C8
102
{ACAD_REACTORS
330
D
102
}
330
D
100
AcDbGroup
300

 70
     0
 71
     1
1001
GRPNAME
1000
DMA00
  0
GROUP
  5
6D4
102
{ACAD_REACTORS
330
D
102
}
330
D
100
AcDbGroup
300

 70
     0
 71
     1
1001
GRPNAME
1000
DMA00
  0
GROUP
  5
6D5
102
{ACAD_REACTORS
330
D
102
}
330
D
100
AcDbGroup
300

 70
     0
 71
     1
1001
GRPNAME
1000
DMA00
  0
GROUP
  5
5FC
102
{ACAD_REACTORS
330
D
102
}
330
D
100
AcDbGroup
300

 70
     0
 71
     1
1001
GRPNAME
1000
DREC-
1001
GPARA
1000
xsiz
1000
44.182
1000
ysiz
1000
40.677
1000
angl
1000
0
1000
ctyp
1000
0
1000
csiz
1000
5
1000
lfnt
1000
cont
1000
hcnt
1000
hoff
1000
vcnt
1000
voff
1000
opnt
1000
4
1000
dxpt
1000
0
1000
dypt
1000
0
  0
GROUP
  5
654
102
{ACAD_REACTORS
330
D
102
}
330
D
100
AcDbGroup
300

 70
     0
 71
     1
1001
GRPNAME
1000
DREC-
1001
GPARA
1000
xsiz
1000
54.592
1000
ysiz
1000
53.036
1000
angl
1000
0
1000
ctyp
1000
0
1000
csiz
1000
5
1000
lfnt
1000
cont
1000
hcnt
1000
hoff
1000
vcnt
1000
voff
1000
opnt
1000
4
1000
dxpt
1000
0
1000
dypt
1000
0
  0
GROUP
  5
673
102
{ACAD_REACTORS
330
D
102
}
330
D
100
AcDbGroup
300

 70
     0
 71
     1
1001
GRPNAME
1000
DREC-
1001
GPARA
1000
xsiz
1000
30.363
1000
ysiz
1000
36.175
1000
angl
1000
0
1000
ctyp
1000
0
1000
csiz
1000
5
1000
lfnt
1000
cont
1000
hcnt
1000
hoff
1000
vcnt
1000
voff
1000
opnt
1000
4
1000
dxpt
1000
0
1000
dypt
1000
0
  0
MLINESTYLE
  5
13
102
{ACAD_REACTORS
330
E
102
}
330
E
100
AcDbMlineStyle
  2
STANDARD
 70
     0
  3

 62
     0
 51
90.0
 52
90.0
 71
     2
 49
0.5
 62
   256
  6
BYLAYER
 49
-0.5
 62
   256
  6
BYLAYER
  0
PLOTSETTINGS
  5
758
102
{ACAD_REACTORS
330
566
102
}
330
566
100
AcDbPlotSettings
  1
A3(0.5倍)
  2
\\AWTECPC05\HP DeskJet 1120C
  4
A3
  6

 40
5.95841646
 41
13.49375153
 42
6.04309082
 43
3.67242432
 44
296.92599487
 45
419.94665527
 46
89.96
 47
127.14
 48
0.0
 49
0.0
140
0.0
141
0.0
142
1.0
143
2.0
 70
  1716
 72
     1
 73
     1
 74
     2
  7
big.ctb
 75
    17
147
0.5
148
0.0
149
0.0
  0
PLOTSETTINGS
  5
757
102
{ACAD_REACTORS
330
566
102
}
330
566
100
AcDbPlotSettings
  1
A3(1倍)
  2
\\AWTECPC05\HP DeskJet 1120C
  4
A3
  6

 40
5.95841646
 41
13.49375153
 42
6.04309082
 43
3.67242432
 44
296.92599487
 45
419.94665527
 46
37.46
 47
52.89
 48
0.0
 49
0.0
140
0.0
141
0.0
142
1.0
143
1.0
 70
  1716
 72
     1
 73
     1
 74
     2
  7
big.ctb
 75
    16
147
1.0
148
0.0
149
0.0
  0
PLOTSETTINGS
  5
707
102
{ACAD_REACTORS
330
566
102
}
330
566
100
AcDbPlotSettings
  1
A3(1倍)(2000)
  2
SII LS-1300 (D-SCAN)
  4
User258
  6

 40
3.17499995
 41
3.17499995
 42
3.17498779
 43
3.17498779
 44
419.98898315
 45
296.98950195
 46
58.32
 47
40.32
 48
0.0
 49
0.0
140
0.0
141
0.0
142
1.0
143
1.0
 70
  1716
 72
     1
 73
     0
 74
     2
  7
big.ctb
 75
    16
147
1.0
148
0.0
149
0.0
  0
PLOTSETTINGS
  5
759
102
{ACAD_REACTORS
330
566
102
}
330
566
100
AcDbPlotSettings
  1
A3(2倍)
  2
\\AWTECPC05\HP DeskJet 1120C
  4
A3
  6

 40
5.95841646
 41
13.49375153
 42
6.04309082
 43
3.67242432
 44
296.92599487
 45
419.94665527
 46
-67.54
 47
-95.61
 48
0.0
 49
0.0
140
0.0
141
0.0
142
1.0
143
0.5
 70
  1716
 72
     1
 73
     1
 74
     2
  7
big.ctb
 75
    27
147
2.0
148
0.0
149
0.0
  0
PLOTSETTINGS
  5
755
102
{ACAD_REACTORS
330
566
102
}
330
566
100
AcDbPlotSettings
  1
A4(0.5倍)
  2
\\AWTECPC05\HP DeskJet 1120C
  4
A4
  6

 40
4.18041658
 41
13.49374962
 42
4.18040466
 43
3.92642212
 44
209.97332764
 45
296.92599487
 46
48.31
 47
65.5
 48
0.0
 49
0.0
140
0.0
141
0.0
142
1.0
143
2.0
 70
  1716
 72
     1
 73
     1
 74
     2
  7
big.ctb
 75
    17
147
0.5
148
0.0
149
0.0
  0
PLOTSETTINGS
  5
754
102
{ACAD_REACTORS
330
566
102
}
330
566
100
AcDbPlotSettings
  1
A4(1倍)
  2
\\AWTECPC05\HP DeskJet 1120C
  4
A4
  6

 40
4.18041658
 41
13.49374962
 42
4.18040466
 43
3.92642212
 44
209.97332764
 45
296.92599487
 46
-4.19
 47
-8.75
 48
0.0
 49
0.0
140
0.0
141
0.0
142
1.0
143
1.0
 70
  1716
 72
     1
 73
     1
 74
     2
  7
big.ctb
 75
    16
147
1.0
148
0.0
149
0.0
  0
PLOTSETTINGS
  5
708
102
{ACAD_REACTORS
330
566
102
}
330
566
100
AcDbPlotSettings
  1
A4(1倍)(2000)
  2
SII LS-1300 (D-SCAN)
  4
User259
  6

 40
3.17499995
 41
3.17499995
 42
3.17498779
 43
3.17500305
 44
296.98950195
 45
209.99449158
 46
-3.18
 47
-3.18
 48
0.0
 49
0.0
140
0.0
141
0.0
142
1.0
143
1.0
 70
  1716
 72
     1
 73
     0
 74
     2
  7
big.ctb
 75
    16
147
1.0
148
0.0
149
0.0
  0
PLOTSETTINGS
  5
756
102
{ACAD_REACTORS
330
566
102
}
330
566
100
AcDbPlotSettings
  1
A4(2倍)
  2
\\AWTECPC05\HP DeskJet 1120C
  4
A4
  6

 40
4.18041658
 41
13.49374962
 42
4.18040466
 43
3.92642212
 44
209.97332764
 45
296.92599487
 46
-109.19
 47
-157.25
 48
0.0
 49
0.0
140
0.0
141
0.0
142
1.0
143
0.5
 70
  1716
 72
     1
 73
     1
 74
     2
  7
big.ctb
 75
    27
147
2.0
148
0.0
149
0.0
  0
ACDBPLACEHOLDER
  5
564
102
{ACAD_REACTORS
330
563
102
}
330
563
100
AcDbPlaceHolder
280
     0
  0
XRECORD
  5
12DE
102
{ACAD_REACTORS
330
12D4
102
}
330
12D4
100
AcDbXrecord
 90
        0
  0
XRECORD
  5
12E2
102
{ACAD_REACTORS
330
12D4
102
}
330
12D4
100
AcDbXrecord
1000
DSTYLE
1002
{
1070
    79
 70
     2
1070
   179
 70
     3
1070
   341
340
594
1070
   343
340
594
1070
   344
340
594
1070
   371
 70
    -1
1070
   372
 70
    -1
1002
}
  0
XRECORD
  5
12DF
102
{ACAD_REACTORS
330
12D4
102
}
330
12D4
100
AcDbXrecord
  1
{51294030-9CB4-11D3-8E18-00A0C925D94D}
  0
XRECORD
  5
12D7
102
{ACAD_REACTORS
330
12D4
102
}
330
12D4
100
AcDbXrecord
  1

  0
XRECORD
  5
12DD
102
{ACAD_REACTORS
330
12D4
102
}
330
12D4
100
AcDbXrecord
 90
        0
  0
XRECORD
  5
12D9
102
{ACAD_REACTORS
330
12D4
102
}
330
12D4
100
AcDbXrecord
340
565
  0
XRECORD
  5
12DC
102
{ACAD_REACTORS
330
12D4
102
}
330
12D4
100
AcDbXrecord
 90
    10781
  0
XRECORD
  5
12DA
102
{ACAD_REACTORS
330
12D4
102
}
330
12D4
100
AcDbXrecord
340
566
  0
XRECORD
  5
12DB
102
{ACAD_REACTORS
330
12D4
102
}
330
12D4
100
AcDbXrecord
340
563
  0
XRECORD
  5
12E1
102
{ACAD_REACTORS
330
12D4
102
}
330
12D4
100
AcDbXrecord
 40
0.0
  0
XRECORD
  5
12E5
102
{ACAD_REACTORS
330
12D4
102
}
330
12D4
100
AcDbXrecord
340
0
  0
XRECORD
  5
12EB
102
{ACAD_REACTORS
330
12D4
102
}
330
12D4
100
AcDbXrecord
 10
0.0
 20
0.0
 30
0.0
  0
XRECORD
  5
12E7
102
{ACAD_REACTORS
330
12D4
102
}
330
12D4
100
AcDbXrecord
 10
0.0
 20
0.0
 30
0.0
  0
XRECORD
  5
12EA
102
{ACAD_REACTORS
330
12D4
102
}
330
12D4
100
AcDbXrecord
 10
0.0
 20
0.0
 30
0.0
  0
XRECORD
  5
12E8
102
{ACAD_REACTORS
330
12D4
102
}
330
12D4
100
AcDbXrecord
 10
0.0
 20
0.0
 30
0.0
  0
XRECORD
  5
12E9
102
{ACAD_REACTORS
330
12D4
102
}
330
12D4
100
AcDbXrecord
 10
0.0
 20
0.0
 30
0.0
  0
XRECORD
  5
12E6
102
{ACAD_REACTORS
330
12D4
102
}
330
12D4
100
AcDbXrecord
 10
0.0
 20
0.0
 30
0.0
  0
XRECORD
  5
12E3
102
{ACAD_REACTORS
330
12D4
102
}
330
12D4
100
AcDbXrecord
340
0
  0
XRECORD
  5
12E4
102
{ACAD_REACTORS
330
12D4
102
}
330
12D4
100
AcDbXrecord
 70
     0
  0
XRECORD
  5
12D8
102
{ACAD_REACTORS
330
12D4
102
}
330
12D4
100
AcDbXrecord
  1
big.ctb
  0
XRECORD
  5
12D5
102
{ACAD_REACTORS
330
12D4
102
}
330
12D4
100
AcDbXrecord
 90
        1
  0
XRECORD
  5
12D6
102
{ACAD_REACTORS
330
12D4
102
}
330
12D4
100
AcDbXrecord
 90
       70
  0
XRECORD
  5
12EE
102
{ACAD_REACTORS
330
12D4
102
}
330
12D4
100
AcDbXrecord
340
0
  0
XRECORD
  5
12F4
102
{ACAD_REACTORS
330
12D4
102
}
330
12D4
100
AcDbXrecord
 10
0.0
 20
0.0
 30
0.0
  0
XRECORD
  5
12F0
102
{ACAD_REACTORS
330
12D4
102
}
330
12D4
100
AcDbXrecord
 10
0.0
 20
0.0
 30
0.0
  0
XRECORD
  5
12F3
102
{ACAD_REACTORS
330
12D4
102
}
330
12D4
100
AcDbXrecord
 10
0.0
 20
0.0
 30
0.0
  0
XRECORD
  5
12F1
102
{ACAD_REACTORS
330
12D4
102
}
330
12D4
100
AcDbXrecord
 10
0.0
 20
0.0
 30
0.0
  0
XRECORD
  5
12F2
102
{ACAD_REACTORS
330
12D4
102
}
330
12D4
100
AcDbXrecord
 10
0.0
 20
0.0
 30
0.0
  0
XRECORD
  5
12EF
102
{ACAD_REACTORS
330
12D4
102
}
330
12D4
100
AcDbXrecord
 10
0.0
 20
0.0
 30
0.0
  0
XRECORD
  5
12EC
102
{ACAD_REACTORS
330
12D4
102
}
330
12D4
100
AcDbXrecord
340
0
  0
XRECORD
  5
12ED
102
{ACAD_REACTORS
330
12D4
102
}
330
12D4
100
AcDbXrecord
 70
     0
  0
XRECORD
  5
12E0
102
{ACAD_REACTORS
330
12D4
102
}
330
12D4
100
AcDbXrecord
  1
{ED4D70FB-59A5-48C4-AC43-B80FEB06DC0D}
  0
XRECORD
  5
560
102
{ACAD_REACTORS
330
540
102
}
330
540
100
AcDbXrecord
  1
2.0.0
  0
ENDSEC
  0
EOF
