  0
SECTION
  2
HEADER
  9
$ACADVER
  1
AC1014
  9
$ACADMAINTVER
 70
     9
  9
$DWGCODEPAGE
  3
ANSI_932
  9
$INSBASE
 10
0.0
 20
0.0
 30
0.0
  9
$EXTMIN
 10
-52.0144032
 20
-13.57013701
 30
-0.00152582
  9
$EXTMAX
 10
218.03015223
 20
47.01515995
 30
0.00000003
  9
$LIMMIN
 10
0.0
 20
0.0
  9
$LIMMAX
 10
420.0
 20
297.0
  9
$ORTHOMODE
 70
     1
  9
$REGENMODE
 70
     1
  9
$FILLMODE
 70
     1
  9
$QTEXTMODE
 70
     0
  9
$MIRRTEXT
 70
     1
  9
$DRAGMODE
 70
     2
  9
$LTSCALE
 40
10.0
  9
$OSMODE
 70
   549
  9
$ATTMODE
 70
     1
  9
$TEXTSIZE
 40
3.0
  9
$TRACEWID
 40
1.0
  9
$TEXTSTYLE
  7
YOKO
  9
$CLAYER
  8
245
  9
$CELTYPE
  6
BYLAYER
  9
$CECOLOR
 62
   256
  9
$CELTSCALE
 40
1.0
  9
$DELOBJ
 70
     1
  9
$DISPSILH
 70
     0
  9
$DIMSCALE
 40
1.0
  9
$DIMASZ
 40
2.0
  9
$DIMEXO
 40
2.0
  9
$DIMDLI
 40
2.5
  9
$DIMRND
 40
0.0
  9
$DIMDLE
 40
0.0
  9
$DIMEXE
 40
2.0
  9
$DIMTP
 40
0.0
  9
$DIMTM
 40
0.0
  9
$DIMTXT
 40
4.0
  9
$DIMCEN
 40
0.0
  9
$DIMTSZ
 40
0.0
  9
$DIMTOL
 70
     0
  9
$DIMLIM
 70
     0
  9
$DIMTIH
 70
     0
  9
$DIMTOH
 70
     0
  9
$DIMSE1
 70
     0
  9
$DIMSE2
 70
     0
  9
$DIMTAD
 70
     3
  9
$DIMZIN
 70
     8
  9
$DIMBLK
  1

  9
$DIMASO
 70
     1
  9
$DIMSHO
 70
     1
  9
$DIMPOST
  1

  9
$DIMAPOST
  1

  9
$DIMALT
 70
     0
  9
$DIMALTD
 70
     2
  9
$DIMALTF
 40
25.4
  9
$DIMLFAC
 40
1.0
  9
$DIMTOFL
 70
     1
  9
$DIMTVP
 40
0.0
  9
$DIMTIX
 70
     1
  9
$DIMSOXD
 70
     0
  9
$DIMSAH
 70
     1
  9
$DIMBLK1
  1
OPEN
  9
$DIMBLK2
  1
OPEN
  9
$DIMSTYLE
  2
BIGT
  9
$DIMCLRD
 70
   256
  9
$DIMCLRE
 70
   256
  9
$DIMCLRT
 70
    40
  9
$DIMTFAC
 40
1.0
  9
$DIMGAP
 40
1.0
  9
$DIMJUST
 70
     0
  9
$DIMSD1
 70
     0
  9
$DIMSD2
 70
     0
  9
$DIMTOLJ
 70
     1
  9
$DIMTZIN
 70
     8
  9
$DIMALTZ
 70
     0
  9
$DIMALTTZ
 70
     0
  9
$DIMFIT
 70
     3
  9
$DIMUPT
 70
     0
  9
$DIMUNIT
 70
     2
  9
$DIMDEC
 70
     3
  9
$DIMTDEC
 70
     3
  9
$DIMALTU
 70
     2
  9
$DIMALTTD
 70
     2
  9
$DIMTXSTY
  7
STANDARD
  9
$DIMAUNIT
 70
     0
  9
$LUNITS
 70
     2
  9
$LUPREC
 70
     3
  9
$SKETCHINC
 40
1.0
  9
$FILLETRAD
 40
0.0
  9
$AUNITS
 70
     0
  9
$AUPREC
 70
     3
  9
$MENU
  1
.
  9
$ELEVATION
 40
0.0
  9
$PELEVATION
 40
0.0
  9
$THICKNESS
 40
0.0
  9
$LIMCHECK
 70
     0
  9
$BLIPMODE
 70
     0
  9
$CHAMFERA
 40
10.0
  9
$CHAMFERB
 40
10.0
  9
$CHAMFERC
 40
0.0
  9
$CHAMFERD
 40
0.0
  9
$SKPOLY
 70
     0
  9
$TDCREATE
 40
2455128.495639467
  9
$TDUPDATE
 40
2455316.576112731
  9
$TDINDWG
 40
0.0137570486
  9
$TDUSRTIMER
 40
0.0137570486
  9
$USRTIMER
 70
     1
  9
$ANGBASE
 50
0.0
  9
$ANGDIR
 70
     0
  9
$PDMODE
 70
     1
  9
$PDSIZE
 40
-5.0
  9
$PLINEWID
 40
0.0
  9
$COORDS
 70
     2
  9
$SPLFRAME
 70
     0
  9
$SPLINETYPE
 70
     6
  9
$SPLINESEGS
 70
     8
  9
$ATTDIA
 70
     0
  9
$ATTREQ
 70
     1
  9
$HANDLING
 70
-16383
  9
$HANDSEED
  5
145E
  9
$SURFTAB1
 70
     6
  9
$SURFTAB2
 70
     6
  9
$SURFTYPE
 70
     6
  9
$SURFU
 70
     6
  9
$SURFV
 70
     6
  9
$UCSNAME
  2

  9
$UCSORG
 10
0.0
 20
0.0
 30
0.0
  9
$UCSXDIR
 10
1.0
 20
0.0
 30
0.0
  9
$UCSYDIR
 10
0.0
 20
1.0
 30
0.0
  9
$PUCSNAME
  2

  9
$PUCSORG
 10
0.0
 20
0.0
 30
0.0
  9
$PUCSXDIR
 10
1.0
 20
0.0
 30
0.0
  9
$PUCSYDIR
 10
0.0
 20
1.0
 30
0.0
  9
$USERI1
 70
     1
  9
$USERI2
 70
     0
  9
$USERI3
 70
     0
  9
$USERI4
 70
     0
  9
$USERI5
 70
     0
  9
$USERR1
 40
0.0
  9
$USERR2
 40
0.0
  9
$USERR3
 40
0.0
  9
$USERR4
 40
0.0
  9
$USERR5
 40
0.0
  9
$WORLDVIEW
 70
     1
  9
$SHADEDGE
 70
     3
  9
$SHADEDIF
 70
    70
  9
$TILEMODE
 70
     1
  9
$MAXACTVP
 70
    16
  9
$PINSBASE
 10
0.0
 20
0.0
 30
0.0
  9
$PLIMCHECK
 70
     0
  9
$PEXTMIN
 10
1.00000000E+20
 20
1.00000000E+20
 30
1.00000000E+20
  9
$PEXTMAX
 10
-1.00000000E+20
 20
-1.00000000E+20
 30
-1.00000000E+20
  9
$PLIMMIN
 10
0.0
 20
0.0
  9
$PLIMMAX
 10
420.0
 20
297.0
  9
$UNITMODE
 70
     0
  9
$VISRETAIN
 70
     0
  9
$PLINEGEN
 70
     0
  9
$PSLTSCALE
 70
     1
  9
$TREEDEPTH
 70
  3020
  9
$PICKSTYLE
 70
     0
  9
$CMLSTYLE
  2
STANDARD
  9
$CMLJUST
 70
     0
  9
$CMLSCALE
 40
1.0
  9
$PROXYGRAPHICS
 70
     1
  9
$MEASUREMENT
 70
     1
  0
ENDSEC
  0
SECTION
  2
CLASSES
  0
CLASS
  1
XRECORD
  2
AcDbXrecord
  3
AutoCAD 2000
 90
        0
280
     0
281
     0
  0
CLASS
  1
ACDBDICTIONARYWDFLT
  2
AcDbDictionaryWithDefault
  3
AutoCAD 2000
 90
        0
280
     0
281
     0
  0
CLASS
  1
ACDBPLACEHOLDER
  2
AcDbPlaceHolder
  3
AutoCAD 2000
 90
        0
280
     0
281
     0
  0
CLASS
  1
LAYOUT
  2
AcDbLayout
  3
AutoCAD 2000
 90
        0
280
     0
281
     0
  0
CLASS
  1
PLOTSETTINGS
  2
AcDbPlotSettings
  3
AutoCAD 2000
 90
        0
280
     0
281
     0
  0
CLASS
  1
LONG_TRANSACTION
  2
AcDbLongTransaction
  3
AutoCAD 2000
 90
        0
280
     0
281
     0
  0
CLASS
  1
LWPOLYLINE
  2
AcDbPolyline
  3
AutoCAD 2000
 90
        0
280
     0
281
     1
  0
CLASS
  1
HATCH
  2
AcDbHatch
  3
AutoCAD 2000
 90
        0
280
     0
281
     1
  0
CLASS
  1
XRECORD
  2
AcDbXrecord
  3
AutoCAD 2000
 90
        0
280
     0
281
     0
  0
CLASS
  1
LONG_TRANSACTION
  2
AcDbLongTransaction
  3
AutoCAD 2000
 90
        0
280
     0
281
     0
  0
CLASS
  1
LWPOLYLINE
  2
AcDbPolyline
  3
AutoCAD 2000
 90
        0
280
     0
281
     1
  0
CLASS
  1
HATCH
  2
AcDbHatch
  3
AutoCAD 2000
 90
        0
280
     0
281
     1
  0
CLASS
  1
XRECORD
  2
AcDbXrecord
  3
AutoCAD 2000
 90
        0
280
     0
281
     0
  0
ENDSEC
  0
SECTION
  2
TABLES
  0
TABLE
  2
VPORT
  5
8
330
0
100
AcDbSymbolTable
 70
     5
  0
VPORT
  5
1439
330
8
100
AcDbSymbolTableRecord
100
AcDbViewportTableRecord
  2
*ACTIVE
 70
     0
 10
0.0
 20
0.0
 11
1.0
 21
1.0
 12
83.00787452
 22
16.72251147
 13
0.0
 23
0.0
 14
7.0
 24
7.0
 15
7.0
 25
7.0
 16
0.0
 26
0.0
 36
1.0
 17
0.0
 27
0.0
 37
0.0
 40
189.60420705
 41
1.43184713
 42
50.0
 43
0.0
 44
0.0
 50
0.0
 51
0.0
 71
     0
 72
  2000
 73
     1
 74
     0
 75
     0
 76
     0
 77
     0
 78
     0
  0
ENDTAB
  0
TABLE
  2
LTYPE
  5
5
330
0
100
AcDbSymbolTable
 70
     3
  0
LTYPE
  5
14
330
5
100
AcDbSymbolTableRecord
100
AcDbLinetypeTableRecord
  2
BYBLOCK
 70
     0
  3

 72
    65
 73
     0
 40
0.0
  0
LTYPE
  5
15
330
5
100
AcDbSymbolTableRecord
100
AcDbLinetypeTableRecord
  2
BYLAYER
 70
     0
  3

 72
    65
 73
     0
 40
0.0
  0
LTYPE
  5
16
330
5
100
AcDbSymbolTableRecord
100
AcDbLinetypeTableRecord
  2
CONTINUOUS
 70
     0
  3
Solid line
 72
    65
 73
     0
 40
0.0
  0
LTYPE
  5
258
330
5
100
AcDbSymbolTableRecord
100
AcDbLinetypeTableRecord
  2
CENTER2
 70
     0
  3
___ _ ___ _ ___ _ ___ _ ___ _ ___ _ ___ _ ___ _
 72
    65
 73
     4
 40
1.125
 49
0.75
 74
     0
 49
-0.125
 74
     0
 49
0.125
 74
     0
 49
-0.125
 74
     0
  0
LTYPE
  5
25C
330
5
100
AcDbSymbolTableRecord
100
AcDbLinetypeTableRecord
  2
HIDDEN2
 70
     0
  3
_ _ _ _ _ _ _ _ _ _ _ _ _ _ _ _ _ _ _ _ _ _ _ _
 72
    65
 73
     2
 40
0.1875
 49
0.125
 74
     0
 49
-0.0625
 74
     0
  0
ENDTAB
  0
TABLE
  2
LAYER
  5
2
330
0
100
AcDbSymbolTable
 70
    11
  0
LAYER
  5
F
330
2
100
AcDbSymbolTableRecord
100
AcDbLayerTableRecord
  2
0
 70
     0
 62
     7
  6
CONTINUOUS
  0
LAYER
  5
1AA
330
2
100
AcDbSymbolTableRecord
100
AcDbLayerTableRecord
  2
240
 70
     0
 62
     4
  6
CONTINUOUS
  0
LAYER
  5
1AB
330
2
100
AcDbSymbolTableRecord
100
AcDbLayerTableRecord
  2
241
 70
     0
 62
   211
  6
CONTINUOUS
  0
LAYER
  5
1AC
330
2
100
AcDbSymbolTableRecord
100
AcDbLayerTableRecord
  2
242
 70
     0
 62
     3
  6
CONTINUOUS
  0
LAYER
  5
1AD
330
2
100
AcDbSymbolTableRecord
100
AcDbLayerTableRecord
  2
243
 70
     0
 62
   211
  6
HIDDEN2
  0
LAYER
  5
1AF
330
2
100
AcDbSymbolTableRecord
100
AcDbLayerTableRecord
  2
245
 70
     0
 62
     2
  6
CENTER2
  0
LAYER
  5
21E
330
2
100
AcDbSymbolTableRecord
100
AcDbLayerTableRecord
  2
250
 70
     0
 62
     3
  6
CONTINUOUS
  0
LAYER
  5
21F
330
2
100
AcDbSymbolTableRecord
100
AcDbLayerTableRecord
  2
251
 70
     0
 62
    40
  6
CONTINUOUS
  0
LAYER
  5
5C4
330
2
100
AcDbSymbolTableRecord
100
AcDbLayerTableRecord
  2
DEFPOINTS
 70
     0
 62
     7
  6
CONTINUOUS
  0
ENDTAB
  0
TABLE
  2
STYLE
  5
3
330
0
100
AcDbSymbolTable
 70
     2
  0
STYLE
  5
10
330
3
100
AcDbSymbolTableRecord
100
AcDbTextStyleTableRecord
  2
STANDARD
 70
     0
 40
0.0
 41
1.0
 50
0.0
 71
     0
 42
3.0
  3
romans.shx
  4
BIGFONT.SHX
  0
STYLE
  5
339
330
3
100
AcDbSymbolTableRecord
100
AcDbTextStyleTableRecord
  2
YOKO
 70
     0
 40
0.0
 41
1.0
 50
0.0
 71
     0
 42
3.0
  3
romans.shx
  4
extfont.shx
  0
ENDTAB
  0
TABLE
  2
VIEW
  5
6
330
0
100
AcDbSymbolTable
 70
     1
  0
VIEW
  5
1437
330
6
100
AcDbSymbolTableRecord
100
AcDbViewTableRecord
  2
OLE1
 70
     0
 40
189.60420705
 10
83.00787452
 20
16.72251147
 41
271.48424041
 11
0.0
 21
0.0
 31
1.0
 12
0.0
 22
0.0
 32
0.0
 42
50.0
 43
0.0
 44
0.0
 50
0.0
 71
     0
  0
ENDTAB
  0
TABLE
  2
UCS
  5
7
330
0
100
AcDbSymbolTable
 70
     0
  0
ENDTAB
  0
TABLE
  2
APPID
  5
9
330
0
100
AcDbSymbolTable
 70
    15
  0
APPID
  5
11
330
9
100
AcDbSymbolTableRecord
100
AcDbRegAppTableRecord
  2
ACAD
 70
     0
  0
APPID
  5
1B1
330
9
100
AcDbSymbolTableRecord
100
AcDbRegAppTableRecord
  2
GLOBAL
 70
     0
  0
APPID
  5
2A4
330
9
100
AcDbSymbolTableRecord
100
AcDbRegAppTableRecord
  2
DETAIL
 70
     0
  0
APPID
  5
5FD
330
9
100
AcDbSymbolTableRecord
100
AcDbRegAppTableRecord
  2
GRPNAME
 70
     0
  0
APPID
  5
5FE
330
9
100
AcDbSymbolTableRecord
100
AcDbRegAppTableRecord
  2
GPARA
 70
     0
  0
APPID
  5
6C4
330
9
100
AcDbSymbolTableRecord
100
AcDbRegAppTableRecord
  2
DCO15
 70
     0
  0
APPID
  5
6C5
330
9
100
AcDbSymbolTableRecord
100
AcDbRegAppTableRecord
  2
ITEMNAME
 70
     0
  0
APPID
  5
6C6
330
9
100
AcDbSymbolTableRecord
100
AcDbRegAppTableRecord
  2
GRADE_0
 70
     0
  0
APPID
  5
8B9
330
9
100
AcDbSymbolTableRecord
100
AcDbRegAppTableRecord
  2
GENIUS_GENODEF_13
 70
     0
  0
APPID
  5
8BA
330
9
100
AcDbSymbolTableRecord
100
AcDbRegAppTableRecord
  2
GENIUS_GENOBJ-N-FIL_13
 70
     0
  0
APPID
  5
8BB
330
9
100
AcDbSymbolTableRecord
100
AcDbRegAppTableRecord
  2
GENIUS_GENOBJ-N-CEN_13
 70
     0
  0
APPID
  5
8BC
330
9
100
AcDbSymbolTableRecord
100
AcDbRegAppTableRecord
  2
HATCH_TYPE
 70
     0
  0
APPID
  5
8BD
330
9
100
AcDbSymbolTableRecord
100
AcDbRegAppTableRecord
  2
HATCH_DISPLAY
 70
     0
  0
APPID
  5
8BE
330
9
100
AcDbSymbolTableRecord
100
AcDbRegAppTableRecord
  2
HATCH_DISTANCE
 70
     0
  0
APPID
  5
DA9
330
9
100
AcDbSymbolTableRecord
100
AcDbRegAppTableRecord
  2
CONTENTBLOCKICON
 70
     0
  0
ENDTAB
  0
TABLE
  2
DIMSTYLE
  5
A
330
0
100
AcDbSymbolTable
 70
     1
  0
DIMSTYLE
105
725
102
{ACAD_REACTORS
330
F08
330
F09
330
100B
102
}
330
A
100
AcDbSymbolTableRecord
100
AcDbDimStyleTableRecord
  2
BIGT
 70
     0
  3

  4

  5

  6
OPEN
  7
OPEN
 40
1.0
 41
2.23
 42
0.5
 43
2.5
 44
1.0
 45
0.0
 46
0.0
 47
0.0
 48
0.0
140
2.8
141
0.0
142
0.0
143
25.4
144
1.0
145
0.0
146
1.0
147
1.0
 71
     0
 72
     0
 73
     0
 74
     0
 75
     0
 76
     0
 77
     3
 78
     8
170
     0
171
     2
172
     1
173
     1
174
     1
175
     0
176
   256
177
   256
178
    40
270
     2
271
     3
272
     3
273
     2
274
     2
340
10
275
     0
280
     0
281
     0
282
     0
283
     1
284
     8
285
     0
286
     0
287
     3
288
     0
  0
ENDTAB
  0
TABLE
  2
BLOCK_RECORD
  5
1
330
0
100
AcDbSymbolTable
 70
    13
  0
BLOCK_RECORD
  5
1A
102
{ACAD_XDICTIONARY
360
DA7
102
}
330
1
100
AcDbSymbolTableRecord
100
AcDbBlockTableRecord
  2
*MODEL_SPACE
  0
BLOCK_RECORD
  5
17
102
{ACAD_XDICTIONARY
360
DA5
102
}
330
1
100
AcDbSymbolTableRecord
100
AcDbBlockTableRecord
  2
*PAPER_SPACE
  0
BLOCK_RECORD
  5
594
330
1
100
AcDbSymbolTableRecord
100
AcDbBlockTableRecord
  2
_OPEN
  0
BLOCK_RECORD
  5
6E3
330
1
100
AcDbSymbolTableRecord
100
AcDbBlockTableRecord
  2
矢印なし
  0
BLOCK_RECORD
  5
762
330
1
100
AcDbSymbolTableRecord
100
AcDbBlockTableRecord
  2
1
1001
CONTENTBLOCKICON
1071
        0
1004
2800000020000000200000000100080000000000000400000000000000000000000000000000000000000000000080000080000000808000800000008000800080800000C0C0C000C0DCC000F0CAA6000020400000206000002080000020A0000020C0000020E00000400000004020000040400000406000004080000040A0
1004
000040C0000040E00000600000006020000060400000606000006080000060A0000060C0000060E00000800000008020000080400000806000008080000080A0000080C0000080E00000A0000000A0200000A0400000A0600000A0800000A0A00000A0C00000A0E00000C0000000C0200000C0400000C0600000C0800000C0
1004
A00000C0C00000C0E00000E0000000E0200000E0400000E0600000E0800000E0A00000E0C00000E0E00040000000400020004000400040006000400080004000A0004000C0004000E00040200000402020004020400040206000402080004020A0004020C0004020E000404000004040200040404000404060004040800040
1004
40A0004040C0004040E00040600000406020004060400040606000406080004060A0004060C0004060E00040800000408020004080400040806000408080004080A0004080C0004080E00040A0000040A0200040A0400040A0600040A0800040A0A00040A0C00040A0E00040C0000040C0200040C0400040C0600040C08000
1004
40C0A00040C0C00040C0E00040E0000040E0200040E0400040E0600040E0800040E0A00040E0C00040E0E00080000000800020008000400080006000800080008000A0008000C0008000E00080200000802020008020400080206000802080008020A0008020C0008020E00080400000804020008040400080406000804080
1004
008040A0008040C0008040E00080600000806020008060400080606000806080008060A0008060C0008060E00080800000808020008080400080806000808080008080A0008080C0008080E00080A0000080A0200080A0400080A0600080A0800080A0A00080A0C00080A0E00080C0000080C0200080C0400080C0600080C0
1004
800080C0A00080C0C00080C0E00080E0000080E0200080E0400080E0600080E0800080E0A00080E0C00080E0E000C0000000C0002000C0004000C0006000C0008000C000A000C000C000C000E000C0200000C0202000C0204000C0206000C0208000C020A000C020C000C020E000C0400000C0402000C0404000C0406000C0
1004
408000C040A000C040C000C040E000C0600000C0602000C0604000C0606000C0608000C060A000C060C000C060E000C0800000C0802000C0804000C0806000C0808000C080A000C080C000C080E000C0A00000C0A02000C0A04000C0A06000C0A08000C0A0A000C0A0C000C0A0E000C0C00000C0C02000C0C04000C0C06000
1004
C0C08000C0C0A000F0FBFF00A4A0A000808080000000FF0000FF000000FFFF00FF000000FF00FF00FFFF0000FFFFFF0000000000000000000000000000000000000000000000000000000000000000000000000000000000000000000000000000000000000000000000000000000000000000000000000000000000000000
1004
00000000000000000000000000000000000000000000000000000000000000000000000000000000000000000000000000000000000000000000000000000000000000000000000000000000000000000000000000000000000000000000000000000000000000000000000000000000000000000000000000000000000000
1004
00000000000000000000000000000000000000000000000000000000000000000000000000000000000000000000000000000000000000000000000000000000000000000000000000000000000000000000000000000000000000000000000000000000000000000000000000000000000000000000000000000000000000
1004
000000000000000000000000000000000000000000000000000000000000000000000000000000000000000000000000000000000000000000000000000000000000000000000000000000000000000000000000000000000000000000000000000000000000000000000000000000000000000000FEFBFEFEFEFEFEFEFEFE
1004
FEFEFEFEFEFEFEFEFEFEFEFEFEFEFEFEFEFE00000000FEFEFEFBE7E700000000000000000000000000000000000000FE00FE000000FBFEFEFEE7E7E7FBFBFBFBFBFBFBFFFFFFFFFFFBFBFBFBFBFBFBFEE7E7FB000000FEFBFEFEFEFEFEFEFEFEFEFEFEFEFEFEFEFEFEFEFEFEFEFEFEFEFEFE00000000000000000000000000
1004
00000000000000000000000000000000000000000000000000000000000000000000000000000000000000000000000000000000000000000000000000000000000000000000000000000000000000000000000000000000000000000000000000000000000000000000000000000000000000000000000000000000000000
1004
00000000000000000000000000000000000000000000000000000000000000000000000000000000000000000000000000000000000000000000000000000000000000000000000000000000000000000000000000000000000000000000000000000000000000000000000000000000000000000000000000000000000000
1004
00000000000000000000000000000000000000000000000000000000000000000000000000000000000000000000000000000000000000000000000000000000000000000000000000000000000000000000000000000000000000000000000000000000000000000000000000000000000000000000000000000000000000
1004
0000000000000000000000000000000000000000000000000000000000000000000000000000000000000000000000000000000000000000
  0
BLOCK_RECORD
  5
102D
330
1
100
AcDbSymbolTableRecord
100
AcDbBlockTableRecord
  2
*D10
  0
BLOCK_RECORD
  5
1039
330
1
100
AcDbSymbolTableRecord
100
AcDbBlockTableRecord
  2
*D11
  0
BLOCK_RECORD
  5
1045
330
1
100
AcDbSymbolTableRecord
100
AcDbBlockTableRecord
  2
*D12
  0
ENDTAB
  0
ENDSEC
  0
SECTION
  2
BLOCKS
  0
BLOCK
  5
1B
330
1A
100
AcDbEntity
  8
0
100
AcDbBlockBegin
  2
*MODEL_SPACE
 70
     0
 10
0.0
 20
0.0
 30
0.0
  3
*MODEL_SPACE
  1

  0
ENDBLK
  5
1C
330
1A
100
AcDbEntity
  8
0
100
AcDbBlockEnd
  0
BLOCK
  5
18
330
17
100
AcDbEntity
 67
     1
  8
0
100
AcDbBlockBegin
  2
*PAPER_SPACE
 70
     0
 10
0.0
 20
0.0
 30
0.0
  3
*PAPER_SPACE
  1

  0
ENDBLK
  5
19
330
17
100
AcDbEntity
 67
     1
  8
0
100
AcDbBlockEnd
  0
BLOCK
  5
598
330
594
100
AcDbEntity
  8
0
100
AcDbBlockBegin
  2
_OPEN
 70
     0
 10
0.0
 20
0.0
 30
0.0
  3
_OPEN
  1

  0
LINE
  5
595
330
594
100
AcDbEntity
  8
0
  6
BYBLOCK
 62
     0
100
AcDbLine
 10
-1.0
 20
0.16666667
 30
0.0
 11
0.0
 21
0.0
 31
0.0
  0
LINE
  5
596
330
594
100
AcDbEntity
  8
0
  6
BYBLOCK
 62
     0
100
AcDbLine
 10
-1.0
 20
-0.16666667
 30
0.0
 11
0.0
 21
0.0
 31
0.0
  0
LINE
  5
597
330
594
100
AcDbEntity
  8
0
  6
BYBLOCK
 62
     0
100
AcDbLine
 10
0.0
 20
0.0
 30
0.0
 11
-1.0
 21
0.0
 31
0.0
  0
ENDBLK
  5
599
330
594
100
AcDbEntity
  8
0
100
AcDbBlockEnd
  0
BLOCK
  5
6E4
330
6E3
100
AcDbEntity
  8
0
100
AcDbBlockBegin
  2
矢印なし
 70
     0
 10
0.0
 20
0.0
 30
0.0
  3
矢印なし
  1

  0
ENDBLK
  5
6E5
330
6E3
100
AcDbEntity
  8
0
100
AcDbBlockEnd
  0
BLOCK
  5
89F
330
762
100
AcDbEntity
  8
0
100
AcDbBlockBegin
  2
1
 70
     0
 10
0.0
 20
0.0
 30
0.0
  3
1
  1

  0
LINE
  5
12F3
330
762
100
AcDbEntity
  8
245
100
AcDbLine
 10
-52.0
 20
0.0
 30
0.0
 11
201.0
 21
0.0
 31
0.0
  0
LINE
  5
12F4
330
762
100
AcDbEntity
  8
240
100
AcDbLine
 10
181.25980762
 20
-10.0
 30
0.0
 11
199.0
 21
-10.0
 31
0.0
  0
LINE
  5
12F5
330
762
100
AcDbEntity
  8
240
100
AcDbLine
 10
181.25980762
 20
10.0
 30
0.0
 11
199.0
 21
10.0
 31
0.0
  0
LINE
  5
12F6
330
762
100
AcDbEntity
  8
241
  6
HIDDEN2
100
AcDbLine
 10
180.0
 20
3.6
 30
0.0
 11
185.0
 21
3.6
 31
0.0
  0
LINE
  5
12F7
330
762
100
AcDbEntity
  8
240
100
AcDbLine
 10
178.0
 20
-10.0
 30
0.0
 11
1.70514916
 21
-10.0
 31
0.0
  0
LINE
  5
12F8
330
762
100
AcDbEntity
  8
240
100
AcDbLine
 10
178.0
 20
10.0
 30
0.0
 11
1.70514916
 21
10.0
 31
0.0
  0
LINE
  5
12F9
330
762
100
AcDbEntity
  8
240
100
AcDbLine
 10
-40.5
 20
8.0
 30
0.0
 11
-35.0
 21
8.0
 31
0.0
  0
LINE
  5
12FA
330
762
100
AcDbEntity
  8
240
100
AcDbLine
 10
-40.5
 20
-8.0
 30
0.0
 11
-35.0
 21
-8.0
 31
0.0
  0
LINE
  5
12FB
330
762
100
AcDbEntity
  8
243
100
AcDbLine
 10
-38.0
 20
8.0
 30
0.0
 11
-38.0
 21
-8.0
 31
0.0
  0
LINE
  5
12FC
330
762
100
AcDbEntity
  8
240
100
AcDbLine
 10
-51.0
 20
-9.0
 30
0.0
 11
-51.0
 21
0.0
 31
0.0
  0
LINE
  5
12FD
330
762
100
AcDbEntity
  8
240
100
AcDbLine
 10
-50.0
 20
-10.0
 30
0.0
 11
-42.5
 21
-10.0
 31
0.0
  0
ARC
  5
12FE
330
762
100
AcDbEntity
  8
240
100
AcDbCircle
 10
-50.0
 20
-9.0
 30
0.0
 40
1.0
100
AcDbArc
 50
180.0
 51
270.0
  0
LINE
  5
12FF
330
762
100
AcDbEntity
  8
240
100
AcDbLine
 10
-40.5
 20
-8.0
 30
0.0
 11
-42.5
 21
-10.0
 31
0.0
  0
LINE
  5
1300
330
762
100
AcDbEntity
  8
240
100
AcDbLine
 10
-40.5
 20
8.0
 30
0.0
 11
-42.5
 21
10.0
 31
0.0
  0
LINE
  5
1301
330
762
100
AcDbEntity
  8
240
100
AcDbLine
 10
-51.0
 20
9.0
 30
0.0
 11
-51.0
 21
0.0
 31
0.0
  0
LINE
  5
1302
330
762
100
AcDbEntity
  8
240
100
AcDbLine
 10
-50.0
 20
10.0
 30
0.0
 11
-42.5
 21
10.0
 31
0.0
  0
ARC
  5
1303
330
762
100
AcDbEntity
  8
240
100
AcDbCircle
 10
-50.0
 20
9.0
 30
0.0
 40
1.0
100
AcDbArc
 50
90.0
 51
180.0
  0
LINE
  5
1304
330
762
100
AcDbEntity
  8
243
100
AcDbLine
 10
-32.0
 20
8.0
 30
0.0
 11
-32.0
 21
-8.0
 31
0.0
  0
LINE
  5
1305
330
762
100
AcDbEntity
  8
245
100
AcDbLine
 10
-35.0
 20
10.0
 30
0.0
 11
-35.0
 21
-10.0
 31
0.0
1001
GENIUS_GENOBJ-N-CEN_13
1002
{
1000
OWNER
1000
GEN
1002
}
1001
GENIUS_GENODEF_13
1002
{
1000
HIER
1070
     0
1002
}
1002
{
1000
MANEDIT
1070
     0
1002
}
1002
{
1000
NOSEL
1070
     0
1002
}
1002
{
1000
BEHIND
1070
     0
1002
}
1002
{
1000
OTHER
1070
     0
1002
}
1002
{
1000
REACTOR
1002
}
  0
LINE
  5
1306
330
762
100
AcDbEntity
  8
245
100
AcDbLine
 10
-20.0
 20
-1.47171409
 30
0.0
 11
-20.0
 21
-5.23048457
 31
0.0
  0
ELLIPSE
  5
1307
330
762
100
AcDbEntity
  8
241
100
AcDbEllipse
 10
-20.0
 20
-3.35109933
 30
0.0
 11
-1.999999999999971
 21
0.0
 31
0.0
210
0.0
220
0.0
230
1.0
 40
0.93969262
 41
0.0
 42
6.283185307179584
  0
LINE
  5
1308
330
762
100
AcDbEntity
  8
241
100
AcDbLine
 10
-25.5
 20
-9.0
 30
0.0
 11
-25.5
 21
0.0
 31
0.0
  0
LINE
  5
1309
330
762
100
AcDbEntity
  8
241
100
AcDbLine
 10
-23.5
 20
-9.0
 30
0.0
 11
-23.5
 21
0.0
 31
0.0
  0
LINE
  5
130A
330
762
100
AcDbEntity
  8
241
100
AcDbLine
 10
-16.5
 20
-9.0
 30
0.0
 11
-16.5
 21
0.0
 31
0.0
  0
LINE
  5
130B
330
762
100
AcDbEntity
  8
241
100
AcDbLine
 10
-14.5
 20
-9.0
 30
0.0
 11
-14.5
 21
0.0
 31
0.0
  0
LINE
  5
130C
330
762
100
AcDbEntity
  8
241
100
AcDbLine
 10
-11.5
 20
-10.0
 30
0.0
 11
-11.5
 21
0.0
 31
0.0
  0
LINE
  5
130D
330
762
100
AcDbEntity
  8
241
  6
CONTINUOUS
100
AcDbLine
 10
-6.5
 20
-13.0
 30
0.0
 11
-6.5
 21
0.0
 31
0.0
  0
LINE
  5
130E
330
762
100
AcDbEntity
  8
241
100
AcDbLine
 10
-5.12626129
 20
-13.5
 30
0.0
 11
-5.12626129
 21
0.0
 31
0.0
  0
LINE
  5
130F
330
762
100
AcDbEntity
  8
241
100
AcDbLine
 10
-4.0
 20
-12.5
 30
0.0
 11
-4.0
 21
0.0
 31
0.0
  0
LINE
  5
1310
330
762
100
AcDbEntity
  8
241
100
AcDbLine
 10
-2.0
 20
-12.5
 30
0.0
 11
-2.0
 21
0.0
 31
0.0
  0
LINE
  5
1311
330
762
100
AcDbEntity
  8
241
100
AcDbLine
 10
0.93782217
 20
-10.35874398
 30
0.0
 11
0.93782217
 21
0.0
 31
0.0
  0
LINE
  5
1312
330
762
100
AcDbEntity
  8
241
100
AcDbLine
 10
0.0
 20
-13.14125603
 30
0.0
 11
0.0
 21
0.0
 31
0.0
  0
ARC
  5
1313
330
762
100
AcDbEntity
  8
240
100
AcDbCircle
 10
-0.76732699
 20
-12.5
 30
0.0
 40
1.0
100
AcDbArc
 50
285.0
 51
345.0
1001
GENIUS_GENODEF_13
1002
{
1000
HIER
1070
     0
1002
}
1002
{
1000
MANEDIT
1070
     0
1002
}
1002
{
1000
NOSEL
1070
     0
1002
}
1002
{
1000
BEHIND
1070
     0
1002
}
1002
{
1000
OTHER
1070
     0
1002
}
1002
{
1000
REACTOR
1002
}
1001
GENIUS_GENOBJ-N-FIL_13
1002
{
1000
OWNER
1000
GEN
1002
}
  0
LINE
  5
1314
330
762
100
AcDbEntity
  8
240
100
AcDbLine
 10
-23.5
 20
-10.0
 30
0.0
 11
-16.5
 21
-10.0
 31
0.0
  0
LINE
  5
1315
330
762
100
AcDbEntity
  8
240
100
AcDbLine
 10
-29.5
 20
-8.0
 30
0.0
 11
-27.5
 21
-10.0
 31
0.0
  0
LINE
  5
1316
330
762
100
AcDbEntity
  8
240
100
AcDbLine
 10
-35.0
 20
-8.0
 30
0.0
 11
-29.5
 21
-8.0
 31
0.0
  0
ARC
  5
1317
330
762
100
AcDbEntity
  8
240
100
AcDbCircle
 10
-24.5
 20
-9.0
 30
0.0
 40
0.9999999999999495
100
AcDbArc
 50
180.0
 51
0.0
  0
LINE
  5
1318
330
762
100
AcDbEntity
  8
240
100
AcDbLine
 10
-25.5
 20
-9.0
 30
0.0
 11
-25.5
 21
-10.0
 31
0.0
  0
LINE
  5
1319
330
762
100
AcDbEntity
  8
240
100
AcDbLine
 10
-23.5
 20
-9.0
 30
0.0
 11
-23.5
 21
-10.0
 31
0.0
  0
LINE
  5
131A
330
762
100
AcDbEntity
  8
240
100
AcDbLine
 10
-27.5
 20
-10.0
 30
0.0
 11
-25.5
 21
-10.0
 31
0.0
  0
LINE
  5
131B
330
762
100
AcDbEntity
  8
241
  6
CONTINUOUS
100
AcDbLine
 10
-6.5
 20
-10.2
 30
0.0
 11
-10.0
 21
-10.2
 31
0.0
  0
LINE
  5
131C
330
762
100
AcDbEntity
  8
240
100
AcDbLine
 10
-6.50000001
 20
-13.0
 30
0.0
 11
-10.5
 21
-13.0
 31
0.0
  0
ARC
  5
131D
330
762
100
AcDbEntity
  8
240
100
AcDbCircle
 10
-15.5
 20
-9.0
 30
0.0
 40
1.0
100
AcDbArc
 50
180.0
 51
0.0
  0
LINE
  5
131E
330
762
100
AcDbEntity
  8
240
100
AcDbLine
 10
-11.2
 20
-9.7
 30
0.0
 11
-11.5
 21
-10.0
 31
0.0
  0
LINE
  5
131F
330
762
100
AcDbEntity
  8
240
100
AcDbLine
 10
-16.5
 20
-9.0
 30
0.0
 11
-16.5
 21
-10.0
 31
0.0
  0
LINE
  5
1320
330
762
100
AcDbEntity
  8
240
100
AcDbLine
 10
-14.5
 20
-9.0
 30
0.0
 11
-14.5
 21
-10.0
 31
0.0
  0
LINE
  5
1321
330
762
100
AcDbEntity
  8
240
100
AcDbLine
 10
-10.0
 20
-10.5
 30
0.0
 11
-10.0
 21
-9.7
 31
0.0
  0
LINE
  5
1322
330
762
100
AcDbEntity
  8
240
100
AcDbLine
 10
-14.5
 20
-10.0
 30
0.0
 11
-11.5
 21
-10.0
 31
0.0
  0
LINE
  5
1323
330
762
100
AcDbEntity
  8
240
100
AcDbLine
 10
-10.0
 20
-10.5
 30
0.0
 11
-10.5
 21
-11.0
 31
0.0
  0
LINE
  5
1324
330
762
100
AcDbEntity
  8
240
100
AcDbLine
 10
-10.5
 20
-13.0
 30
0.0
 11
-10.5
 21
-11.0
 31
0.0
  0
LINE
  5
1325
330
762
100
AcDbEntity
  8
240
100
AcDbLine
 10
-11.2
 20
-9.7
 30
0.0
 11
-10.0
 21
-9.7
 31
0.0
  0
LINE
  5
1326
330
762
100
AcDbEntity
  8
240
100
AcDbLine
 10
-4.0
 20
-13.5
 30
0.0
 11
-5.12626128
 21
-13.5
 31
0.0
  0
LINE
  5
1327
330
762
100
AcDbEntity
  8
240
100
AcDbLine
 10
-6.50000001
 20
-13.0
 30
0.0
 11
-5.12626128
 21
-13.5
 31
0.0
  0
ARC
  5
1328
330
762
100
AcDbEntity
  8
240
100
AcDbCircle
 10
-3.0
 20
-12.5
 30
0.0
 40
1.000000000000227
100
AcDbArc
 50
180.0
 51
0.0
  0
LINE
  5
1329
330
762
100
AcDbEntity
  8
240
100
AcDbLine
 10
-0.50850794
 20
-13.46592583
 30
0.0
 11
-0.63567449
 21
-13.5
 31
0.0
  0
LINE
  5
132A
330
762
100
AcDbEntity
  8
240
100
AcDbLine
 10
-4.0
 20
-12.5
 30
0.0
 11
-4.0
 21
-13.5
 31
0.0
  0
LINE
  5
132B
330
762
100
AcDbEntity
  8
240
100
AcDbLine
 10
-2.0
 20
-12.5
 30
0.0
 11
-2.0
 21
-13.5
 31
0.0
  0
LINE
  5
132C
330
762
100
AcDbEntity
  8
240
100
AcDbLine
 10
-0.63567449
 20
-13.5
 30
0.0
 11
-2.0
 21
-13.5
 31
0.0
  0
ARC
  5
132D
330
762
100
AcDbEntity
  8
240
100
AcDbCircle
 10
1.70514916
 20
-11.0
 30
0.0
 40
1.0
100
AcDbArc
 50
90.0
 51
165.00000022
  0
LINE
  5
132E
330
762
100
AcDbEntity
  8
240
100
AcDbLine
 10
0.19859884
 20
-12.75881905
 30
0.0
 11
0.73922333
 21
-10.74118096
 31
0.0
  0
ARC
  5
132F
330
762
100
AcDbEntity
  8
240
100
AcDbCircle
 10
-0.76732699
 20
12.5
 30
0.0
 40
1.0
100
AcDbArc
 50
15.0
 51
75.0
1001
GENIUS_GENODEF_13
1002
{
1000
HIER
1070
     0
1002
}
1002
{
1000
MANEDIT
1070
     0
1002
}
1002
{
1000
NOSEL
1070
     0
1002
}
1002
{
1000
BEHIND
1070
     0
1002
}
1002
{
1000
OTHER
1070
     0
1002
}
1002
{
1000
REACTOR
1002
}
1001
GENIUS_GENOBJ-N-FIL_13
1002
{
1000
OWNER
1000
GEN
1002
}
  0
LINE
  5
1330
330
762
100
AcDbEntity
  8
245
100
AcDbLine
 10
-21.99864763
 20
-3.42020133
 30
0.0
 11
-18.00135237
 21
-3.42020133
 31
0.0
  0
LINE
  5
1331
330
762
100
AcDbEntity
  8
240
100
AcDbLine
 10
-23.5
 20
10.0
 30
0.0
 11
-16.5
 21
10.0
 31
0.0
  0
LINE
  5
1332
330
762
100
AcDbEntity
  8
240
100
AcDbLine
 10
-29.5
 20
8.0
 30
0.0
 11
-27.5
 21
10.0
 31
0.0
  0
LINE
  5
1333
330
762
100
AcDbEntity
  8
241
100
AcDbLine
 10
-23.5
 20
9.0
 30
0.0
 11
-23.5
 21
0.0
 31
0.0
  0
LINE
  5
1334
330
762
100
AcDbEntity
  8
241
100
AcDbLine
 10
-25.5
 20
9.0
 30
0.0
 11
-25.5
 21
0.0
 31
0.0
  0
LINE
  5
1335
330
762
100
AcDbEntity
  8
240
100
AcDbLine
 10
-35.0
 20
8.0
 30
0.0
 11
-29.5
 21
8.0
 31
0.0
  0
LINE
  5
1336
330
762
100
AcDbEntity
  8
240
100
AcDbLine
 10
-23.5
 20
9.0
 30
0.0
 11
-23.5
 21
10.0
 31
0.0
  0
LINE
  5
1337
330
762
100
AcDbEntity
  8
240
100
AcDbLine
 10
-25.5
 20
9.0
 30
0.0
 11
-25.5
 21
10.0
 31
0.0
  0
ARC
  5
1338
330
762
100
AcDbEntity
  8
240
100
AcDbCircle
 10
-24.5
 20
9.0
 30
0.0
 40
0.9999999999999495
100
AcDbArc
 50
0.0
 51
180.0
  0
LINE
  5
1339
330
762
100
AcDbEntity
  8
240
100
AcDbLine
 10
-27.5
 20
10.0
 30
0.0
 11
-25.5
 21
10.0
 31
0.0
  0
LINE
  5
133A
330
762
100
AcDbEntity
  8
241
100
AcDbLine
 10
-2.0
 20
12.5
 30
0.0
 11
-2.0
 21
0.0
 31
0.0
  0
LINE
  5
133B
330
762
100
AcDbEntity
  8
241
100
AcDbLine
 10
-4.0
 20
12.5
 30
0.0
 11
-4.0
 21
0.0
 31
0.0
  0
LINE
  5
133C
330
762
100
AcDbEntity
  8
241
100
AcDbLine
 10
-5.12626129
 20
13.5
 30
0.0
 11
-5.12626129
 21
0.0
 31
0.0
  0
LINE
  5
133D
330
762
100
AcDbEntity
  8
241
  6
CONTINUOUS
100
AcDbLine
 10
-6.5
 20
13.0
 30
0.0
 11
-6.5
 21
0.0
 31
0.0
  0
LINE
  5
133E
330
762
100
AcDbEntity
  8
241
100
AcDbLine
 10
-11.5
 20
10.0
 30
0.0
 11
-11.5
 21
0.0
 31
0.0
  0
LINE
  5
133F
330
762
100
AcDbEntity
  8
241
100
AcDbLine
 10
-14.5
 20
9.0
 30
0.0
 11
-14.5
 21
0.0
 31
0.0
  0
LINE
  5
1340
330
762
100
AcDbEntity
  8
241
100
AcDbLine
 10
-16.5
 20
9.0
 30
0.0
 11
-16.5
 21
0.0
 31
0.0
  0
LINE
  5
1341
330
762
100
AcDbEntity
  8
240
100
AcDbLine
 10
-6.50000001
 20
13.0
 30
0.0
 11
-10.5
 21
13.0
 31
0.0
  0
LINE
  5
1342
330
762
100
AcDbEntity
  8
241
  6
CONTINUOUS
100
AcDbLine
 10
-6.5
 20
10.2
 30
0.0
 11
-10.0
 21
10.2
 31
0.0
  0
LINE
  5
1343
330
762
100
AcDbEntity
  8
240
100
AcDbLine
 10
-14.5
 20
10.0
 30
0.0
 11
-11.5
 21
10.0
 31
0.0
  0
LINE
  5
1344
330
762
100
AcDbEntity
  8
240
100
AcDbLine
 10
-14.5
 20
9.0
 30
0.0
 11
-14.5
 21
10.0
 31
0.0
  0
LINE
  5
1345
330
762
100
AcDbEntity
  8
240
100
AcDbLine
 10
-16.5
 20
9.0
 30
0.0
 11
-16.5
 21
10.0
 31
0.0
  0
ARC
  5
1346
330
762
100
AcDbEntity
  8
240
100
AcDbCircle
 10
-15.5
 20
9.0
 30
0.0
 40
1.0
100
AcDbArc
 50
0.0
 51
180.0
  0
LINE
  5
1347
330
762
100
AcDbEntity
  8
240
100
AcDbLine
 10
-10.0
 20
10.5
 30
0.0
 11
-10.0
 21
9.7
 31
0.0
  0
LINE
  5
1348
330
762
100
AcDbEntity
  8
240
100
AcDbLine
 10
-11.2
 20
9.7
 30
0.0
 11
-11.5
 21
10.0
 31
0.0
  0
LINE
  5
1349
330
762
100
AcDbEntity
  8
240
100
AcDbLine
 10
-10.5
 20
13.0
 30
0.0
 11
-10.5
 21
11.0
 31
0.0
  0
LINE
  5
134A
330
762
100
AcDbEntity
  8
240
100
AcDbLine
 10
-10.0
 20
10.5
 30
0.0
 11
-10.5
 21
11.0
 31
0.0
  0
LINE
  5
134B
330
762
100
AcDbEntity
  8
240
100
AcDbLine
 10
-11.2
 20
9.7
 30
0.0
 11
-10.0
 21
9.7
 31
0.0
  0
LINE
  5
134C
330
762
100
AcDbEntity
  8
240
100
AcDbLine
 10
-4.0
 20
13.5
 30
0.0
 11
-5.12626128
 21
13.5
 31
0.0
  0
LINE
  5
134D
330
762
100
AcDbEntity
  8
240
100
AcDbLine
 10
-6.50000001
 20
13.0
 30
0.0
 11
-5.12626128
 21
13.5
 31
0.0
  0
LINE
  5
134E
330
762
100
AcDbEntity
  8
240
100
AcDbLine
 10
-4.0
 20
12.5
 30
0.0
 11
-4.0
 21
13.5
 31
0.0
  0
LINE
  5
134F
330
762
100
AcDbEntity
  8
240
100
AcDbLine
 10
-0.50850794
 20
13.46592583
 30
0.0
 11
-0.63567449
 21
13.5
 31
0.0
  0
ARC
  5
1350
330
762
100
AcDbEntity
  8
240
100
AcDbCircle
 10
-3.0
 20
12.5
 30
0.0
 40
1.000000000000227
100
AcDbArc
 50
0.0
 51
180.0
  0
LINE
  5
1351
330
762
100
AcDbEntity
  8
240
100
AcDbLine
 10
-0.63567449
 20
13.5
 30
0.0
 11
-2.0
 21
13.5
 31
0.0
  0
LINE
  5
1352
330
762
100
AcDbEntity
  8
240
100
AcDbLine
 10
-2.0
 20
12.5
 30
0.0
 11
-2.0
 21
13.5
 31
0.0
  0
LINE
  5
1353
330
762
100
AcDbEntity
  8
241
100
AcDbLine
 10
0.0
 20
13.14125603
 30
0.0
 11
0.0
 21
0.0
 31
0.0
  0
LINE
  5
1354
330
762
100
AcDbEntity
  8
241
100
AcDbLine
 10
0.93782217
 20
10.35874398
 30
0.0
 11
0.93782217
 21
0.0
 31
0.0
  0
ARC
  5
1355
330
762
100
AcDbEntity
  8
240
100
AcDbCircle
 10
1.70514916
 20
11.0
 30
0.0
 40
1.0
100
AcDbArc
 50
194.99999978
 51
270.0
  0
LINE
  5
1356
330
762
100
AcDbEntity
  8
240
100
AcDbLine
 10
0.19859884
 20
12.75881905
 30
0.0
 11
0.73922333
 21
10.74118096
 31
0.0
  0
LINE
  5
1357
330
762
100
AcDbEntity
  8
0
100
AcDbLine
 10
68.99819162
 20
3.73757128
 30
0.0
 11
74.9868588
 21
3.73757128
 31
0.0
  0
LINE
  5
1358
330
762
100
AcDbEntity
  8
0
100
AcDbLine
 10
68.99819162
 20
3.44256118
 30
0.0
 11
74.9868588
 21
3.44256118
 31
0.0
  0
LINE
  5
1359
330
762
100
AcDbEntity
  8
0
100
AcDbLine
 10
72.55203462
 20
5.1795192
 30
0.0
 11
73.88858787
 21
6.51607245
 31
0.0
  0
LINE
  5
135A
330
762
100
AcDbEntity
  8
0
100
AcDbLine
 10
72.66084118
 20
5.61606344
 30
0.0
 11
73.58021978
 21
6.53544205
 31
0.0
  0
LINE
  5
135B
330
762
100
AcDbEntity
  8
0
100
AcDbLine
 10
72.50559589
 20
4.8053428
 30
0.0
 11
73.46752586
 21
5.76727277
 31
0.0
  0
ARC
  5
135C
330
762
100
AcDbEntity
  8
0
100
AcDbCircle
 10
73.67508404
 20
5.58137361
 30
0.0
 40
0.9587730796874998
100
AcDbArc
 50
53.4440122
 51
164.00018439
  0
LINE
  5
135D
330
762
100
AcDbEntity
  8
0
100
AcDbLine
 10
73.13416908
 20
4.60472624
 30
0.0
 11
73.53175556
 21
5.99126702
 31
0.0
  0
LINE
  5
135E
330
762
100
AcDbEntity
  8
0
100
AcDbLine
 10
73.24845792
 20
3.90951643
 30
0.0
 11
73.59480461
 21
4.25586311
 31
0.0
  0
LINE
  5
135F
330
762
100
AcDbEntity
  8
0
100
AcDbLine
 10
73.10924036
 20
3.44256118
 30
0.0
 11
73.40425044
 21
3.73757128
 31
0.0
  0
ARC
  5
1360
330
762
100
AcDbEntity
  8
0
100
AcDbCircle
 10
73.43193014
 20
4.51934616
 30
0.0
 40
0.3097602395507813
100
AcDbArc
 50
164.00027306
 51
344.00027306
  0
ARC
  5
1361
330
762
100
AcDbEntity
  8
0
100
AcDbCircle
 10
73.46360519
 20
4.84384836
 30
0.0
 40
0.9587828249999999
100
AcDbArc
 50
163.9997507
 51
304.96387329
  0
ARC
  5
1362
330
762
100
AcDbEntity
  8
0
100
AcDbCircle
 10
68.99819162
 20
4.99135341
 30
0.0
 40
1.548791887499996
100
AcDbArc
 50
90.0
 51
270.0
  0
ARC
  5
1363
330
762
100
AcDbEntity
  8
0
100
AcDbCircle
 10
68.99819162
 20
4.99135341
 30
0.0
 40
1.253781787499995
100
AcDbArc
 50
90.0
 51
270.0
  0
LINE
  5
1364
330
762
100
AcDbEntity
  8
0
100
AcDbLine
 10
68.57878193
 20
3.50043027
 30
0.0
 11
68.82758503
 21
3.74923338
 31
0.0
  0
LINE
  5
1365
330
762
100
AcDbEntity
  8
0
100
AcDbLine
 10
68.65318205
 20
6.19673184
 30
0.0
 11
68.99659468
 21
6.54014447
 31
0.0
  0
LINE
  5
1366
330
762
100
AcDbEntity
  8
0
100
AcDbLine
 10
68.33999331
 20
3.58937934
 30
0.0
 11
68.56529146
 21
3.81467749
 31
0.0
  0
LINE
  5
1367
330
762
100
AcDbEntity
  8
0
100
AcDbLine
 10
67.55115489
 20
4.43922933
 30
0.0
 11
67.78538099
 21
4.67345542
 31
0.0
  0
LINE
  5
1368
330
762
100
AcDbEntity
  8
0
100
AcDbLine
 10
67.44940056
 20
4.99295035
 30
0.0
 11
67.7928132
 21
5.33636299
 31
0.0
  0
LINE
  5
1369
330
762
100
AcDbEntity
  8
0
100
AcDbLine
 10
67.47820828
 20
4.69402039
 30
0.0
 11
67.74478709
 21
4.9605992
 31
0.0
  0
LINE
  5
136A
330
762
100
AcDbEntity
  8
0
100
AcDbLine
 10
67.94807088
 20
3.85293226
 30
0.0
 11
68.15688424
 21
4.06174562
 31
0.0
  0
LINE
  5
136B
330
762
100
AcDbEntity
  8
0
100
AcDbLine
 10
67.78987498
 20
4.02247406
 30
0.0
 11
68.00003583
 21
4.2326349
 31
0.0
  0
LINE
  5
136C
330
762
100
AcDbEntity
  8
0
100
AcDbLine
 10
67.65679684
 20
4.21713359
 30
0.0
 11
67.87462646
 21
4.4349632
 31
0.0
  0
LINE
  5
136D
330
762
100
AcDbEntity
  8
0
100
AcDbLine
 10
68.13098686
 20
3.70811057
 30
0.0
 11
68.34440299
 21
3.9215267
 31
0.0
  0
LINE
  5
136E
330
762
100
AcDbEntity
  8
0
100
AcDbLine
 10
67.49562268
 20
5.36691015
 30
0.0
 11
68.62263489
 21
6.49392236
 31
0.0
  0
LINE
  5
136F
330
762
100
AcDbEntity
  8
0
100
AcDbLine
 10
69.76086535
 20
6.5401453
 30
0.0
 11
70.71255425
 21
6.5401453
 31
0.0
  0
LINE
  5
1370
330
762
100
AcDbEntity
  8
0
100
AcDbLine
 10
69.62447679
 20
5.52933818
 30
0.0
 11
70.63528391
 21
6.5401453
 31
0.0
  0
ARC
  5
1371
330
762
100
AcDbEntity
  8
0
100
AcDbCircle
 10
70.38646986
 20
5.83212328
 30
0.0
 40
0.4425027943359379
100
AcDbArc
 50
261.66260169
 51
66.3381551
  0
LINE
  5
1372
330
762
100
AcDbEntity
  8
0
100
AcDbLine
 10
70.48041105
 20
4.74658404
 30
0.0
 11
71.44776161
 21
5.7139346
 31
0.0
  0
LINE
  5
1373
330
762
100
AcDbEntity
  8
0
100
AcDbLine
 10
70.36600749
 20
4.95991815
 30
0.0
 11
71.42169485
 21
6.01560553
 31
0.0
  0
LINE
  5
1374
330
762
100
AcDbEntity
  8
0
100
AcDbLine
 10
70.48733891
 20
3.44256118
 30
0.0
 11
70.78234901
 21
3.73757128
 31
0.0
  0
LINE
  5
1375
330
762
100
AcDbEntity
  8
0
100
AcDbLine
 10
69.94664101
 20
3.88507632
 30
0.0
 11
71.02910014
 21
4.96753546
 31
0.0
  0
ARC
  5
1376
330
762
100
AcDbEntity
  8
0
100
AcDbCircle
 10
70.04810148
 20
4.65209402
 30
0.0
 40
0.4425154545410158
100
AcDbArc
 50
261.66285421
 51
66.33819216
  0
ARC
  5
1377
330
762
100
AcDbEntity
  8
0
100
AcDbCircle
 10
70.37722574
 20
4.62259078
 30
0.0
 40
0.7375141125000005
100
AcDbArc
 50
270.0
 51
40.32984065
  0
LINE
  5
1378
330
762
100
AcDbEntity
  8
0
100
AcDbLine
 10
70.2743787
 20
3.88507632
 30
0.0
 11
71.10839861
 21
4.71909623
 31
0.0
  0
LINE
  5
1379
330
762
100
AcDbEntity
  8
0
100
AcDbLine
 10
68.85526022
 20
3.44917089
 30
0.0
 11
69.1436606
 21
3.73757128
 31
0.0
  0
LINE
  5
137A
330
762
100
AcDbEntity
  8
0
100
AcDbLine
 10
69.36095961
 20
4.61034564
 30
0.0
 11
70.39362182
 21
5.64300784
 31
0.0
  0
LINE
  5
137B
330
762
100
AcDbEntity
  8
0
100
AcDbLine
 10
69.75623537
 20
5.98883444
 30
0.0
 11
70.30754622
 21
6.5401453
 31
0.0
  0
LINE
  5
137C
330
762
100
AcDbEntity
  8
0
100
AcDbLine
 10
69.4927182
 20
5.06984191
 30
0.0
 11
70.52537605
 21
6.10249976
 31
0.0
  0
LINE
  5
137D
330
762
100
AcDbEntity
  8
0
100
AcDbLine
 10
69.60742402
 20
6.5401453
 30
0.0
 11
69.5228347
 21
6.2451352
 31
0.0
  0
LINE
  5
137E
330
762
100
AcDbEntity
  8
0
100
AcDbLine
 10
68.99819162
 20
6.2451352
 30
0.0
 11
69.5228347
 21
6.2451352
 31
0.0
  0
LINE
  5
137F
330
762
100
AcDbEntity
  8
0
100
AcDbLine
 10
68.99819162
 20
6.5401453
 30
0.0
 11
69.60742402
 21
6.5401453
 31
0.0
  0
LINE
  5
1380
330
762
100
AcDbEntity
  8
0
100
AcDbLine
 10
69.67627605
 20
6.2451352
 30
0.0
 11
69.82972851
 21
6.2451352
 31
0.0
  0
LINE
  5
1381
330
762
100
AcDbEntity
  8
0
100
AcDbLine
 10
69.76086535
 20
6.5401453
 30
0.0
 11
69.67627605
 21
6.2451352
 31
0.0
  0
LINE
  5
1382
330
762
100
AcDbEntity
  8
0
100
AcDbLine
 10
69.35706077
 20
6.2451352
 30
0.0
 11
69.58947595
 21
6.47755037
 31
0.0
  0
LINE
  5
1383
330
762
100
AcDbEntity
  8
0
100
AcDbLine
 10
69.02932309
 20
6.2451352
 30
0.0
 11
69.32433319
 21
6.5401453
 31
0.0
  0
LINE
  5
1384
330
762
100
AcDbEntity
  8
0
100
AcDbLine
 10
69.68479845
 20
6.2451352
 30
0.0
 11
69.97980855
 21
6.5401453
 31
0.0
  0
LINE
  5
1385
330
762
100
AcDbEntity
  8
0
100
AcDbLine
 10
70.5640642
 20
6.23742437
 30
0.0
 11
70.32230674
 21
5.39429704
 31
0.0
  0
LINE
  5
1386
330
762
100
AcDbEntity
  8
0
100
AcDbLine
 10
69.83186355
 20
3.44256118
 30
0.0
 11
70.12687365
 21
3.73757128
 31
0.0
  0
LINE
  5
1387
330
762
100
AcDbEntity
  8
0
100
AcDbLine
 10
69.15299174
 20
3.88507632
 30
0.0
 11
70.37722574
 21
3.88507632
 31
0.0
  0
LINE
  5
1388
330
762
100
AcDbEntity
  8
0
100
AcDbLine
 10
69.50412588
 20
3.44256118
 30
0.0
 11
69.79913596
 21
3.73757128
 31
0.0
  0
LINE
  5
1389
330
762
100
AcDbEntity
  8
0
100
AcDbLine
 10
69.17638819
 20
3.44256118
 30
0.0
 11
69.47139829
 21
3.73757128
 31
0.0
  0
LINE
  5
138A
330
762
100
AcDbEntity
  8
0
100
AcDbLine
 10
69.61890334
 20
3.88507632
 30
0.0
 11
69.99835207
 21
4.26452505
 31
0.0
  0
LINE
  5
138B
330
762
100
AcDbEntity
  8
0
100
AcDbLine
 10
70.15960124
 20
3.44256118
 30
0.0
 11
70.45461132
 21
3.73757128
 31
0.0
  0
LINE
  5
138C
330
762
100
AcDbEntity
  8
0
100
AcDbLine
 10
70.22569933
 20
5.05740739
 30
0.0
 11
69.9839379
 21
4.21425505
 31
0.0
  0
LINE
  5
138D
330
762
100
AcDbEntity
  8
0
100
AcDbLine
 10
69.29116566
 20
3.88507632
 30
0.0
 11
70.13010387
 21
4.72401453
 31
0.0
  0
LINE
  5
138E
330
762
100
AcDbEntity
  8
0
100
AcDbLine
 10
69.22920102
 20
4.15084938
 30
0.0
 11
70.47741968
 21
5.39906803
 31
0.0
  0
LINE
  5
138F
330
762
100
AcDbEntity
  8
0
100
AcDbLine
 10
69.15299174
 20
3.88507632
 30
0.0
 11
69.82972851
 21
6.2451352
 31
0.0
  0
LINE
  5
1390
330
762
100
AcDbEntity
  8
0
100
AcDbLine
 10
71.83143798
 20
6.2156431
 30
0.0
 11
71.93885916
 21
6.2156431
 31
0.0
  0
LINE
  5
1391
330
762
100
AcDbEntity
  8
0
100
AcDbLine
 10
71.83143798
 20
6.2156431
 30
0.0
 11
71.9244918
 21
6.5401453
 31
0.0
  0
LINE
  5
1392
330
762
100
AcDbEntity
  8
0
100
AcDbLine
 10
71.9244918
 20
6.5401453
 30
0.0
 11
71.83143798
 21
6.2156431
 31
0.0
1001
HATCH_DISTANCE
1040
1.0
1001
HATCH_DISPLAY
1070
     0
1001
HATCH_TYPE
1070
     7
  0
LINE
  5
1393
330
762
100
AcDbEntity
  8
0
100
AcDbLine
 10
71.83143798
 20
6.2156431
 30
0.0
 11
71.93885916
 21
6.2156431
 31
0.0
1001
HATCH_DISTANCE
1040
1.0
1001
HATCH_DISPLAY
1070
     0
1001
HATCH_TYPE
1070
     7
  0
LINE
  5
1394
330
762
100
AcDbEntity
  8
0
100
AcDbLine
 10
71.9244918
 20
6.5401453
 30
0.0
 11
71.83143798
 21
6.2156431
 31
0.0
  0
LINE
  5
1395
330
762
100
AcDbEntity
  8
0
100
AcDbLine
 10
71.83143798
 20
6.2156431
 30
0.0
 11
71.93885916
 21
6.2156431
 31
0.0
  0
LINE
  5
1396
330
762
100
AcDbEntity
  8
0
100
AcDbLine
 10
71.40755521
 20
4.36277747
 30
0.0
 11
72.33264951
 21
5.28787178
 31
0.0
  0
LINE
  5
1397
330
762
100
AcDbEntity
  8
0
100
AcDbLine
 10
71.53931473
 20
4.82227467
 30
0.0
 11
72.46440723
 21
5.74736717
 31
0.0
  0
LINE
  5
1398
330
762
100
AcDbEntity
  8
0
100
AcDbLine
 10
71.67107424
 20
5.28177186
 30
0.0
 11
72.59616495
 21
6.20686257
 31
0.0
  0
LINE
  5
1399
330
762
100
AcDbEntity
  8
0
100
AcDbLine
 10
71.80283375
 20
5.74126907
 30
0.0
 11
72.60170999
 21
6.5401453
 31
0.0
  0
LINE
  5
139A
330
762
100
AcDbEntity
  8
0
100
AcDbLine
 10
71.27057575
 20
3.88507632
 30
0.0
 11
71.93040581
 21
3.88507632
 31
0.0
1001
HATCH_DISTANCE
1040
1.0
1001
HATCH_DISPLAY
1070
     0
1001
HATCH_TYPE
1070
     7
  0
LINE
  5
139B
330
762
100
AcDbEntity
  8
0
100
AcDbLine
 10
71.27057575
 20
3.88507632
 30
0.0
 11
71.93040581
 21
3.88507632
 31
0.0
  0
LINE
  5
139C
330
762
100
AcDbEntity
  8
0
100
AcDbLine
 10
71.79828963
 20
3.44256118
 30
0.0
 11
72.09329972
 21
3.73757128
 31
0.0
  0
LINE
  5
139D
330
762
100
AcDbEntity
  8
0
100
AcDbLine
 10
71.27057575
 20
3.88507632
 30
0.0
 11
71.93040581
 21
3.88507632
 31
0.0
  0
LINE
  5
139E
330
762
100
AcDbEntity
  8
0
100
AcDbLine
 10
71.93885916
 20
6.2156431
 30
0.0
 11
71.27057575
 21
3.88507632
 31
0.0
1001
HATCH_DISTANCE
1040
1.0
1001
HATCH_DISPLAY
1070
     0
1001
HATCH_TYPE
1070
     7
  0
LINE
  5
139F
330
762
100
AcDbEntity
  8
0
100
AcDbLine
 10
71.93885916
 20
6.2156431
 30
0.0
 11
71.27057575
 21
3.88507632
 31
0.0
  0
LINE
  5
13A0
330
762
100
AcDbEntity
  8
0
100
AcDbLine
 10
71.58532942
 20
3.88507632
 30
0.0
 11
72.06913406
 21
4.36888097
 31
0.0
  0
LINE
  5
13A1
330
762
100
AcDbEntity
  8
0
100
AcDbLine
 10
71.27579569
 20
3.90328027
 30
0.0
 11
72.20089179
 21
4.82837637
 31
0.0
  0
LINE
  5
13A2
330
762
100
AcDbEntity
  8
0
100
AcDbLine
 10
71.27057575
 20
3.88507632
 30
0.0
 11
71.93885916
 21
6.2156431
 31
0.0
  0
LINE
  5
13A3
330
762
100
AcDbEntity
  8
0
100
AcDbLine
 10
70.62664852
 20
6.20377223
 30
0.0
 11
70.93090059
 21
6.50802429
 31
0.0
  0
LINE
  5
13A4
330
762
100
AcDbEntity
  8
0
100
AcDbLine
 10
70.7817132
 20
6.03109923
 30
0.0
 11
71.149569
 21
6.39895503
 31
0.0
  0
LINE
  5
13A5
330
762
100
AcDbEntity
  8
0
100
AcDbLine
 10
70.81952512
 20
5.74117347
 30
0.0
 11
71.31319604
 21
6.23484439
 31
0.0
  0
LINE
  5
13A6
330
762
100
AcDbEntity
  8
0
100
AcDbLine
 10
71.47055195
 20
3.44256118
 30
0.0
 11
71.76556205
 21
3.73757128
 31
0.0
  0
LINE
  5
13A7
330
762
100
AcDbEntity
  8
0
100
AcDbLine
 10
71.14281427
 20
3.44256118
 30
0.0
 11
71.43782437
 21
3.73757128
 31
0.0
  0
LINE
  5
13A8
330
762
100
AcDbEntity
  8
0
100
AcDbLine
 10
70.81507659
 20
3.44256118
 30
0.0
 11
71.11008668
 21
3.73757128
 31
0.0
  0
LINE
  5
13A9
330
762
100
AcDbEntity
  8
0
100
AcDbLine
 10
70.65741177
 20
3.94037171
 30
0.0
 11
71.05944481
 21
4.34240476
 31
0.0
  0
LINE
  5
13AA
330
762
100
AcDbEntity
  8
0
100
AcDbLine
 10
72.55773406
 20
4.52974329
 30
0.0
 11
73.33576642
 21
5.30777565
 31
0.0
  0
ARC
  5
13AB
330
762
100
AcDbEntity
  8
0
100
AcDbCircle
 10
75.03116376
 20
4.79344003
 30
0.0
 40
2.509011449999999
100
AcDbArc
 50
155.20517737
 51
172.79482596
  0
LINE
  5
13AC
330
762
100
AcDbEntity
  8
0
100
AcDbLine
 10
71.9244918
 20
6.5401453
 30
0.0
 11
72.69173189
 21
6.5401453
 31
0.0
  0
LINE
  5
13AD
330
762
100
AcDbEntity
  8
0
100
AcDbLine
 10
72.69173189
 20
6.5401453
 30
0.0
 11
71.9244918
 21
6.5401453
 31
0.0
1001
HATCH_DISTANCE
1040
1.0
1001
HATCH_DISPLAY
1070
     0
1001
HATCH_TYPE
1070
     7
  0
LINE
  5
13AE
330
762
100
AcDbEntity
  8
0
100
AcDbLine
 10
72.69173189
 20
6.5401453
 30
0.0
 11
71.9244918
 21
6.5401453
 31
0.0
  0
ARC
  5
13AF
330
762
100
AcDbEntity
  8
0
100
AcDbCircle
 10
70.71559413
 20
5.80263118
 30
0.0
 40
0.73752037734375
100
AcDbArc
 50
287.66957755
 51
90.23615984
  0
LINE
  5
13B0
330
762
100
AcDbEntity
  8
0
100
AcDbLine
 10
71.93459327
 20
6.20076626
 30
0.0
 11
72.27397231
 21
6.5401453
 31
0.0
  0
LINE
  5
13B1
330
762
100
AcDbEntity
  8
0
100
AcDbLine
 10
71.91575009
 20
6.50966075
 30
0.0
 11
71.94623463
 21
6.5401453
 31
0.0
  0
LINE
  5
13B2
330
762
100
AcDbEntity
  8
0
100
AcDbLine
 10
72.78150267
 20
3.44256118
 30
0.0
 11
73.07651277
 21
3.73757128
 31
0.0
  0
LINE
  5
13B3
330
762
100
AcDbEntity
  8
0
100
AcDbLine
 10
71.91306709
 20
3.88507632
 30
0.0
 11
71.93737634
 21
3.90938557
 31
0.0
  0
LINE
  5
13B4
330
762
100
AcDbEntity
  8
0
100
AcDbLine
 10
72.453765
 20
3.44256118
 30
0.0
 11
72.74877508
 21
3.73757128
 31
0.0
  0
LINE
  5
13B5
330
762
100
AcDbEntity
  8
0
100
AcDbLine
 10
72.12602731
 20
3.44256118
 30
0.0
 11
72.42103741
 21
3.73757128
 31
0.0
  0
LINE
  5
13B6
330
762
100
AcDbEntity
  8
0
100
AcDbLine
 10
73.01023349
 20
3.99902968
 30
0.0
 11
73.2678291
 21
4.25662529
 31
0.0
  0
LINE
  5
13B7
330
762
100
AcDbEntity
  8
0
100
AcDbLine
 10
71.93040581
 20
3.88507632
 30
0.0
 11
72.69173189
 21
6.5401453
 31
0.0
  0
LINE
  5
13B8
330
762
100
AcDbEntity
  8
0
100
AcDbLine
 10
71.93040581
 20
3.88507632
 30
0.0
 11
72.69173189
 21
6.5401453
 31
0.0
1001
HATCH_DISTANCE
1040
1.0
1001
HATCH_DISPLAY
1070
     0
1001
HATCH_TYPE
1070
     7
  0
LINE
  5
13B9
330
762
100
AcDbEntity
  8
0
100
AcDbLine
 10
71.93040581
 20
3.88507632
 30
0.0
 11
72.69173189
 21
6.5401453
 31
0.0
  0
LINE
  5
13BA
330
762
100
AcDbEntity
  8
0
100
AcDbLine
 10
72.81824677
 20
4.13478064
 30
0.0
 11
73.13068443
 21
4.4472183
 31
0.0
  0
LINE
  5
13BB
330
762
100
AcDbEntity
  8
0
100
AcDbLine
 10
72.66660641
 20
4.31087796
 30
0.0
 11
73.20400698
 21
4.84827853
 31
0.0
  0
TEXT
  5
13BC
330
762
100
AcDbEntity
  8
0
100
AcDbText
 10
78.21021997
 20
3.82257714
 30
0.0
 40
2.5
  1
MGT12-M8-200
  7
YOKO
100
AcDbText
  0
ARC
  5
13BD
330
762
100
AcDbEntity
  8
0
100
AcDbCircle
 10
74.9868588
 20
4.99135341
 30
0.0
 40
1.253781787499995
100
AcDbArc
 50
270.0
 51
104.1274365
  0
ARC
  5
13BE
330
762
100
AcDbEntity
  8
0
100
AcDbCircle
 10
74.9868588
 20
4.99135341
 30
0.0
 40
1.548791887499996
100
AcDbArc
 50
270.0
 51
104.77079397
  0
LINE
  5
13BF
330
762
100
AcDbEntity
  8
0
100
AcDbLine
 10
74.92718021
 20
6.24371407
 30
0.0
 11
75.20777497
 21
6.52430884
 31
0.0
  0
LINE
  5
13C0
330
762
100
AcDbEntity
  8
0
100
AcDbLine
 10
75.0783728
 20
3.44526754
 30
0.0
 11
75.46573072
 21
3.83262547
 31
0.0
  0
LINE
  5
13C1
330
762
100
AcDbEntity
  8
0
100
AcDbLine
 10
74.65257303
 20
6.29684458
 30
0.0
 11
74.8930289
 21
6.53730045
 31
0.0
  0
LINE
  5
13C2
330
762
100
AcDbEntity
  8
0
100
AcDbLine
 10
74.74792875
 20
3.44256118
 30
0.0
 11
75.04425357
 21
3.738886
 31
0.0
  0
LINE
  5
13C3
330
762
100
AcDbEntity
  8
0
100
AcDbLine
 10
74.50427087
 20
6.14854242
 30
0.0
 11
74.53498602
 21
6.17925756
 31
0.0
  0
LINE
  5
13C4
330
762
100
AcDbEntity
  8
0
100
AcDbLine
 10
74.0944204
 20
6.06642963
 30
0.0
 11
74.45641525
 21
6.42842448
 31
0.0
  0
LINE
  5
13C5
330
762
100
AcDbEntity
  8
0
100
AcDbLine
 10
74.68083371
 20
6.20722315
 30
0.0
 11
74.59198987
 21
6.48896849
 31
0.0
1001
HATCH_DISTANCE
1040
1.0
1001
HATCH_DISPLAY
1070
     0
1001
HATCH_TYPE
1070
     7
  0
LINE
  5
13C6
330
762
100
AcDbEntity
  8
0
100
AcDbLine
 10
74.59198987
 20
6.48896849
 30
0.0
 11
74.59198987
 21
6.48896849
 31
0.0
1001
HATCH_DISTANCE
1040
1.0
1001
HATCH_DISPLAY
1070
     0
1001
HATCH_TYPE
1070
     7
  0
LINE
  5
13C7
330
762
100
AcDbEntity
  8
0
100
AcDbLine
 10
74.59198987
 20
6.48896849
 30
0.0
 11
74.68083371
 21
6.20722315
 31
0.0
1001
HATCH_DISTANCE
1040
1.0
1001
HATCH_DISPLAY
1070
     0
1001
HATCH_TYPE
1070
     7
  0
LINE
  5
13C8
330
762
100
AcDbEntity
  8
0
100
AcDbLine
 10
74.68083371
 20
6.20722315
 30
0.0
 11
74.68083371
 21
6.20722315
 31
0.0
1001
HATCH_DISTANCE
1040
1.0
1001
HATCH_DISPLAY
1070
     0
1001
HATCH_TYPE
1070
     7
  0
LINE
  5
13C9
330
762
100
AcDbEntity
  8
0
100
AcDbLine
 10
74.68083371
 20
6.20722315
 30
0.0
 11
74.59198987
 21
6.48896849
 31
0.0
  0
LINE
  5
13CA
330
762
100
AcDbEntity
  8
0
100
AcDbLine
 10
74.59198987
 20
6.48896849
 30
0.0
 11
74.59198987
 21
6.48896849
 31
0.0
  0
LINE
  5
13CB
330
762
100
AcDbEntity
  8
0
100
AcDbLine
 10
74.59198987
 20
6.48896849
 30
0.0
 11
74.68083371
 21
6.20722315
 31
0.0
  0
LINE
  5
13CC
330
762
100
AcDbEntity
  8
0
100
AcDbLine
 10
74.68083371
 20
6.20722315
 30
0.0
 11
74.68083371
 21
6.20722315
 31
0.0
  0
LINE
  5
13CD
330
762
100
AcDbEntity
  8
0
100
AcDbLine
 10
74.68083371
 20
6.20722315
 30
0.0
 11
74.59198987
 21
6.48896849
 31
0.0
1001
HATCH_DISTANCE
1040
1.0
1001
HATCH_DISPLAY
1070
     0
1001
HATCH_TYPE
1070
     7
  0
LINE
  5
13CE
330
762
100
AcDbEntity
  8
0
100
AcDbLine
 10
74.59198987
 20
6.48896849
 30
0.0
 11
74.59198987
 21
6.48896849
 31
0.0
1001
HATCH_DISTANCE
1040
1.0
1001
HATCH_DISPLAY
1070
     0
1001
HATCH_TYPE
1070
     7
  0
LINE
  5
13CF
330
762
100
AcDbEntity
  8
0
100
AcDbLine
 10
74.59198987
 20
6.48896849
 30
0.0
 11
74.68083371
 21
6.20722315
 31
0.0
1001
HATCH_DISTANCE
1040
1.0
1001
HATCH_DISPLAY
1070
     0
1001
HATCH_TYPE
1070
     7
  0
LINE
  5
13D0
330
762
100
AcDbEntity
  8
0
100
AcDbLine
 10
74.68083371
 20
6.20722315
 30
0.0
 11
74.68083371
 21
6.20722315
 31
0.0
1001
HATCH_DISTANCE
1040
1.0
1001
HATCH_DISPLAY
1070
     0
1001
HATCH_TYPE
1070
     7
  0
LINE
  5
13D1
330
762
100
AcDbEntity
  8
0
100
AcDbLine
 10
74.68083371
 20
6.20722315
 30
0.0
 11
74.59198987
 21
6.48896849
 31
0.0
  0
LINE
  5
13D2
330
762
100
AcDbEntity
  8
0
100
AcDbLine
 10
74.59198987
 20
6.48896849
 30
0.0
 11
74.59198987
 21
6.48896849
 31
0.0
  0
LINE
  5
13D3
330
762
100
AcDbEntity
  8
0
100
AcDbLine
 10
74.59198987
 20
6.48896849
 30
0.0
 11
74.68083371
 21
6.20722315
 31
0.0
  0
LINE
  5
13D4
330
762
100
AcDbEntity
  8
0
100
AcDbLine
 10
74.68083371
 20
6.20722315
 30
0.0
 11
74.68083371
 21
6.20722315
 31
0.0
  0
LINE
  5
13D5
330
762
100
AcDbEntity
  8
0
100
AcDbLine
 10
74.68083371
 20
6.20722315
 30
0.0
 11
74.59198987
 21
6.48896849
 31
0.0
  0
ARC
  5
13D6
330
762
100
AcDbEntity
  8
0
100
AcDbCircle
 10
74.9868588
 20
4.99135341
 30
0.0
 40
1.548792583593745
100
AcDbArc
 50
110.22964506
 51
118.57168892
  0
ARC
  5
13D7
330
762
100
AcDbEntity
  8
0
100
AcDbCircle
 10
74.9868588
 20
4.99135341
 30
0.0
 40
1.253785267968747
100
AcDbArc
 50
110.8721834
 51
132.54194894
  0
LINE
  5
13D8
330
762
100
AcDbEntity
  8
0
100
AcDbLine
 10
74.54015594
 20
6.16286248
 30
0.0
 11
74.4513121
 21
6.44460782
 31
0.0
  0
LINE
  5
13D9
330
762
100
AcDbEntity
  8
0
100
AcDbLine
 10
74.03278907
 20
4.03837221
 30
0.0
 11
74.30935658
 21
4.31493973
 31
0.0
  0
LINE
  5
13DA
330
762
100
AcDbEntity
  8
0
100
AcDbLine
 10
74.42019107
 20
3.44256118
 30
0.0
 11
74.71520116
 21
3.73757128
 31
0.0
  0
LINE
  5
13DB
330
762
100
AcDbEntity
  8
0
100
AcDbLine
 10
74.09245339
 20
3.44256118
 30
0.0
 11
74.38746349
 21
3.73757128
 31
0.0
  0
LINE
  5
13DC
330
762
100
AcDbEntity
  8
0
100
AcDbLine
 10
74.01304035
 20
4.05811966
 30
0.0
 11
74.18609481
 21
3.88507632
 31
0.0
  0
LINE
  5
13DD
330
762
100
AcDbEntity
  8
0
100
AcDbLine
 10
74.18609481
 20
3.88507632
 30
0.0
 11
74.61751701
 21
5.38961927
 31
0.0
  0
LINE
  5
13DE
330
762
100
AcDbEntity
  8
0
100
AcDbLine
 10
73.72969121
 20
4.43396608
 30
0.0
 11
73.91912894
 21
5.09460917
 31
0.0
  0
LINE
  5
13DF
330
762
100
AcDbEntity
  8
0
100
AcDbLine
 10
73.67361389
 20
5.09460917
 30
0.0
 11
73.91912894
 21
5.09460917
 31
0.0
  0
LINE
  5
13E0
330
762
100
AcDbEntity
  8
0
100
AcDbLine
 10
73.67361389
 20
5.09460917
 30
0.0
 11
73.7582032
 21
5.38961927
 31
0.0
  0
LINE
  5
13E1
330
762
100
AcDbEntity
  8
0
100
AcDbLine
 10
73.43697803
 20
3.44256118
 30
0.0
 11
73.73198813
 21
3.73757128
 31
0.0
  0
LINE
  5
13E2
330
762
100
AcDbEntity
  8
0
100
AcDbLine
 10
73.5562292
 20
3.88955003
 30
0.0
 11
74.44111557
 21
4.7744364
 31
0.0
  0
LINE
  5
13E3
330
762
100
AcDbEntity
  8
0
100
AcDbLine
 10
73.76471572
 20
3.44256118
 30
0.0
 11
74.0597258
 21
3.73757128
 31
0.0
  0
LINE
  5
13E4
330
762
100
AcDbEntity
  8
0
100
AcDbLine
 10
73.69541319
 20
4.35647169
 30
0.0
 11
74.57287456
 21
5.23393307
 31
0.0
  0
LINE
  5
13E5
330
762
100
AcDbEntity
  8
0
100
AcDbLine
 10
73.84407674
 20
4.83287292
 30
0.0
 11
74.40082309
 21
5.38961927
 31
0.0
  0
LINE
  5
13E6
330
762
100
AcDbEntity
  8
0
100
AcDbLine
 10
73.77807531
 20
5.09460917
 30
0.0
 11
74.0730854
 21
5.38961927
 31
0.0
  0
LINE
  5
13E7
330
762
100
AcDbEntity
  8
0
100
AcDbLine
 10
73.90623786
 20
6.20598477
 30
0.0
 11
74.12713942
 21
6.42688633
 31
0.0
  0
LINE
  5
13E8
330
762
100
AcDbEntity
  8
0
100
AcDbLine
 10
73.7582032
 20
5.38961927
 30
0.0
 11
74.61751701
 21
5.38961927
 31
0.0
  0
ARC
  5
13E9
330
762
100
AcDbEntity
  8
0
100
AcDbCircle
 10
73.82951662
 20
5.9058758
 30
0.0
 40
0.3097604570800781
100
AcDbArc
 50
1.71012138
 51
163.99839835
  0
LINE
  5
13EA
330
762
100
AcDbEntity
  8
0
100
AcDbLine
 10
75.69362461
 20
6.02694543
 30
0.0
 11
75.90519519
 21
6.23851601
 31
0.0
  0
LINE
  5
13EB
330
762
100
AcDbEntity
  8
0
100
AcDbLine
 10
75.23211698
 20
6.22091316
 30
0.0
 11
75.47305649
 21
6.46185268
 31
0.0
  0
LINE
  5
13EC
330
762
100
AcDbEntity
  8
0
100
AcDbLine
 10
75.48211516
 20
6.14317367
 30
0.0
 11
75.70337784
 21
6.36443635
 31
0.0
  0
LINE
  5
13ED
330
762
100
AcDbEntity
  8
0
100
AcDbLine
 10
75.87287196
 20
5.87845511
 30
0.0
 11
76.08147564
 21
6.08705878
 31
0.0
  0
LINE
  5
13EE
330
762
100
AcDbEntity
  8
0
100
AcDbLine
 10
76.14558674
 20
4.51248148
 30
0.0
 11
76.53294465
 21
4.89983941
 31
0.0
  0
LINE
  5
13EF
330
762
100
AcDbEntity
  8
0
100
AcDbLine
 10
76.2393262
 20
4.93395863
 30
0.0
 11
76.51953895
 21
5.21417137
 31
0.0
  0
LINE
  5
13F0
330
762
100
AcDbEntity
  8
0
100
AcDbLine
 10
76.21605535
 20
5.23842546
 30
0.0
 11
76.45681635
 21
5.47918646
 31
0.0
  0
LINE
  5
13F1
330
762
100
AcDbEntity
  8
0
100
AcDbLine
 10
76.1380236
 20
5.48813138
 30
0.0
 11
76.3591946
 21
5.70930238
 31
0.0
  0
LINE
  5
13F2
330
762
100
AcDbEntity
  8
0
100
AcDbLine
 10
76.02156702
 20
5.69941248
 30
0.0
 11
76.2330976
 21
5.91094307
 31
0.0
  0
LINE
  5
13F3
330
762
100
AcDbEntity
  8
0
100
AcDbLine
 10
75.48606067
 20
3.52521774
 30
0.0
 11
76.45299445
 21
4.49215152
 31
0.0
  0
LINE
  5
13F4
330
762
100
AcDbEntity
  8
241
100
AcDbLine
 10
179.0
 20
-8.2
 30
0.0
 11
179.0
 21
0.0
 31
0.0
  0
LINE
  5
13F5
330
762
100
AcDbEntity
  8
241
100
AcDbLine
 10
178.0
 20
-8.2
 30
0.0
 11
178.0
 21
0.0
 31
0.0
  0
LINE
  5
13F6
330
762
100
AcDbEntity
  8
241
100
AcDbLine
 10
181.0
 20
-10.15
 30
0.0
 11
181.0
 21
0.0
 31
0.0
  0
LINE
  5
13F7
330
762
100
AcDbEntity
  8
241
100
AcDbLine
 10
182.2
 20
-10.0
 30
0.0
 11
182.2
 21
0.0
 31
0.0
  0
LINE
  5
13F8
330
762
100
AcDbEntity
  8
240
100
AcDbLine
 10
178.0
 20
-8.2
 30
0.0
 11
178.0
 21
-10.0
 31
0.0
  0
LINE
  5
13F9
330
762
100
AcDbEntity
  8
240
100
AcDbLine
 10
179.0
 20
-8.2
 30
0.0
 11
179.0
 21
-10.15
 31
0.0
  0
LINE
  5
13FA
330
762
100
AcDbEntity
  8
240
100
AcDbLine
 10
179.0
 20
-10.15
 30
0.0
 11
181.0
 21
-10.15
 31
0.0
  0
LINE
  5
13FB
330
762
100
AcDbEntity
  8
240
100
AcDbLine
 10
181.25980762
 20
-10.0
 30
0.0
 11
181.0
 21
-10.15
 31
0.0
  0
LINE
  5
13FC
330
762
100
AcDbEntity
  8
240
100
AcDbLine
 10
179.0
 20
-8.2
 30
0.0
 11
178.0
 21
-8.2
 31
0.0
  0
LINE
  5
13FD
330
762
100
AcDbEntity
  8
240
100
AcDbLine
 10
178.0
 20
8.2
 30
0.0
 11
178.0
 21
10.0
 31
0.0
  0
LINE
  5
13FE
330
762
100
AcDbEntity
  8
240
100
AcDbLine
 10
179.0
 20
8.2
 30
0.0
 11
179.0
 21
10.15
 31
0.0
  0
LINE
  5
13FF
330
762
100
AcDbEntity
  8
241
100
AcDbLine
 10
182.2
 20
10.0
 30
0.0
 11
182.2
 21
0.0
 31
0.0
  0
LINE
  5
1400
330
762
100
AcDbEntity
  8
241
100
AcDbLine
 10
181.0
 20
10.15
 30
0.0
 11
181.0
 21
0.0
 31
0.0
  0
LINE
  5
1401
330
762
100
AcDbEntity
  8
242
  6
HIDDEN2
100
AcDbLine
 10
175.0
 20
0.0
 30
0.0
 11
180.0
 21
3.60624458
 31
0.0
  0
LINE
  5
1402
330
762
100
AcDbEntity
  8
242
  6
HIDDEN2
100
AcDbLine
 10
175.0
 20
3.60624458
 30
0.0
 11
180.0
 21
0.0
 31
0.0
  0
LINE
  5
1403
330
762
100
AcDbEntity
  8
241
  6
HIDDEN2
100
AcDbLine
 10
175.0
 20
3.60624458
 30
0.0
 11
175.0
 21
0.0
 31
0.0
  0
LINE
  5
1404
330
762
100
AcDbEntity
  8
241
100
AcDbLine
 10
178.0
 20
8.2
 30
0.0
 11
178.0
 21
0.0
 31
0.0
  0
LINE
  5
1405
330
762
100
AcDbEntity
  8
241
  6
HIDDEN2
100
AcDbLine
 10
180.0
 20
3.60624458
 30
0.0
 11
180.0
 21
0.0
 31
0.0
  0
LINE
  5
1406
330
762
100
AcDbEntity
  8
241
100
AcDbLine
 10
179.0
 20
8.2
 30
0.0
 11
179.0
 21
0.0
 31
0.0
  0
LINE
  5
1407
330
762
100
AcDbEntity
  8
241
  6
HIDDEN2
100
AcDbLine
 10
175.0
 20
3.60624458
 30
0.0
 11
180.0
 21
3.60624458
 31
0.0
  0
LINE
  5
1408
330
762
100
AcDbEntity
  8
240
100
AcDbLine
 10
179.0
 20
8.2
 30
0.0
 11
178.0
 21
8.2
 31
0.0
  0
LINE
  5
1409
330
762
100
AcDbEntity
  8
240
100
AcDbLine
 10
179.0
 20
10.15
 30
0.0
 11
181.0
 21
10.15
 31
0.0
  0
LINE
  5
140A
330
762
100
AcDbEntity
  8
240
100
AcDbLine
 10
181.25980762
 20
10.0
 30
0.0
 11
181.0
 21
10.15
 31
0.0
  0
LINE
  5
140B
330
762
100
AcDbEntity
  8
240
100
AcDbLine
 10
200.0
 20
-9.0
 30
0.0
 11
200.0
 21
0.0
 31
0.0
  0
ARC
  5
140C
330
762
100
AcDbEntity
  8
240
100
AcDbCircle
 10
199.0
 20
-9.0
 30
0.0
 40
1.0
100
AcDbArc
 50
270.0
 51
0.0
1001
GENIUS_GENOBJ-N-FIL_13
1002
{
1000
OWNER
1000
GEN
1002
}
1001
GENIUS_GENODEF_13
1002
{
1000
HIER
1070
     0
1002
}
1002
{
1000
MANEDIT
1070
     0
1002
}
1002
{
1000
NOSEL
1070
     0
1002
}
1002
{
1000
BEHIND
1070
     0
1002
}
1002
{
1000
OTHER
1070
     0
1002
}
1002
{
1000
REACTOR
1002
}
  0
LINE
  5
140D
330
762
100
AcDbEntity
  8
240
100
AcDbLine
 10
200.0
 20
9.0
 30
0.0
 11
200.0
 21
0.0
 31
0.0
  0
LINE
  5
140E
330
762
100
AcDbEntity
  8
241
  6
HIDDEN2
100
AcDbLine
 10
185.0
 20
3.1
 30
0.0
 11
200.0
 21
3.1
 31
0.0
  0
LINE
  5
140F
330
762
100
AcDbEntity
  8
241
  6
HIDDEN2
100
AcDbLine
 10
185.0
 20
3.6
 30
0.0
 11
185.0
 21
0.0
 31
0.0
  0
ARC
  5
1410
330
762
100
AcDbEntity
  8
240
100
AcDbCircle
 10
199.0
 20
9.0
 30
0.0
 40
1.0
100
AcDbArc
 50
0.0
 51
90.0
1001
GENIUS_GENOBJ-N-FIL_13
1002
{
1000
OWNER
1000
GEN
1002
}
1001
GENIUS_GENODEF_13
1002
{
1000
HIER
1070
     0
1002
}
1002
{
1000
MANEDIT
1070
     0
1002
}
1002
{
1000
NOSEL
1070
     0
1002
}
1002
{
1000
BEHIND
1070
     0
1002
}
1002
{
1000
OTHER
1070
     0
1002
}
1002
{
1000
REACTOR
1002
}
  0
ENDBLK
  5
8A0
330
762
100
AcDbEntity
  8
0
100
AcDbBlockEnd
  0
BLOCK
  5
1037
330
102D
100
AcDbEntity
  8
0
100
AcDbBlockBegin
  2
*D10
 70
     1
 10
0.0
 20
0.0
 30
0.0
  3
*D10
  1

  0
LINE
  5
107F
330
102D
100
AcDbEntity
  8
250
  6
CONTINUOUS
100
AcDbLine
 10
0.0
 20
13.64125603
 30
0.0
 11
0.0
 21
29.0
 31
0.0
  0
LINE
  5
1080
330
102D
100
AcDbEntity
  8
250
  6
CONTINUOUS
100
AcDbLine
 10
200.0
 20
9.5
 30
0.0
 11
200.0
 21
29.0
 31
0.0
  0
LINE
  5
1081
330
102D
100
AcDbEntity
  8
250
  6
CONTINUOUS
100
AcDbLine
 10
2.23
 20
28.0
 30
0.0
 11
197.77
 21
28.0
 31
0.0
  0
INSERT
  5
1082
330
102D
100
AcDbEntity
  8
250
  6
CONTINUOUS
100
AcDbBlockReference
  2
_OPEN
 10
0.0
 20
28.0
 30
0.0
 41
2.23
 42
2.23
 43
2.23
 50
180.0
  0
INSERT
  5
1083
330
102D
100
AcDbEntity
  8
250
  6
CONTINUOUS
100
AcDbBlockReference
  2
_OPEN
 10
200.0
 20
28.0
 30
0.0
 41
2.23
 42
2.23
 43
2.23
  0
MTEXT
  5
1084
330
102D
100
AcDbEntity
  8
250
  6
CONTINUOUS
 62
    40
100
AcDbMText
 10
100.0
 20
30.4
 30
0.0
 40
2.8
 41
0.0
 71
     5
 72
     1
  1
\A1;200
1001
ACAD
1000
MTEXTBEGIN
1070
    73
1070
     1
1070
    44
1040
1.0
1070
    74
1070
     0
1000
MTEXTEND
  0
POINT
  5
1085
330
102D
100
AcDbEntity
  8
DEFPOINTS
  6
CONTINUOUS
 62
     0
100
AcDbPoint
 10
0.0
 20
13.14125603
 30
0.0
  0
POINT
  5
1086
330
102D
100
AcDbEntity
  8
DEFPOINTS
  6
CONTINUOUS
 62
     0
100
AcDbPoint
 10
200.0
 20
9.0
 30
0.0
  0
POINT
  5
1087
330
102D
100
AcDbEntity
  8
DEFPOINTS
  6
CONTINUOUS
 62
     0
100
AcDbPoint
 10
200.0
 20
28.0
 30
0.0
  0
ENDBLK
  5
1038
330
102D
100
AcDbEntity
  8
0
100
AcDbBlockEnd
  0
BLOCK
  5
1043
330
1039
100
AcDbEntity
  8
0
100
AcDbBlockBegin
  2
*D11
 70
     1
 10
0.0
 20
0.0
 30
0.0
  3
*D11
  1

  0
LINE
  5
1076
330
1039
100
AcDbEntity
  8
250
  6
CONTINUOUS
100
AcDbLine
 10
0.0
 20
13.64125603
 30
0.0
 11
0.0
 21
29.0
 31
0.0
  0
LINE
  5
1077
330
1039
100
AcDbEntity
  8
250
  6
CONTINUOUS
100
AcDbLine
 10
200.0
 20
9.5
 30
0.0
 11
200.0
 21
29.0
 31
0.0
  0
LINE
  5
1078
330
1039
100
AcDbEntity
  8
250
  6
CONTINUOUS
100
AcDbLine
 10
2.23
 20
28.0
 30
0.0
 11
197.77
 21
28.0
 31
0.0
  0
INSERT
  5
1079
330
1039
100
AcDbEntity
  8
250
  6
CONTINUOUS
100
AcDbBlockReference
  2
_OPEN
 10
0.0
 20
28.0
 30
0.0
 41
2.23
 42
2.23
 43
2.23
 50
180.0
  0
INSERT
  5
107A
330
1039
100
AcDbEntity
  8
250
  6
CONTINUOUS
100
AcDbBlockReference
  2
_OPEN
 10
200.0
 20
28.0
 30
0.0
 41
2.23
 42
2.23
 43
2.23
  0
MTEXT
  5
107B
330
1039
100
AcDbEntity
  8
250
  6
CONTINUOUS
 62
    40
100
AcDbMText
 10
100.0
 20
30.4
 30
0.0
 40
2.8
 41
0.0
 71
     5
 72
     1
  1
\A1;200
1001
ACAD
1000
MTEXTBEGIN
1070
    73
1070
     1
1070
    44
1040
1.0
1070
    74
1070
     0
1000
MTEXTEND
  0
POINT
  5
107C
330
1039
100
AcDbEntity
  8
DEFPOINTS
  6
CONTINUOUS
 62
     0
100
AcDbPoint
 10
0.0
 20
13.14125603
 30
0.0
  0
POINT
  5
107D
330
1039
100
AcDbEntity
  8
DEFPOINTS
  6
CONTINUOUS
 62
     0
100
AcDbPoint
 10
200.0
 20
9.0
 30
0.0
  0
POINT
  5
107E
330
1039
100
AcDbEntity
  8
DEFPOINTS
  6
CONTINUOUS
 62
     0
100
AcDbPoint
 10
200.0
 20
28.0
 30
0.0
  0
ENDBLK
  5
1044
330
1039
100
AcDbEntity
  8
0
100
AcDbBlockEnd
  0
BLOCK
  5
104F
330
1045
100
AcDbEntity
  8
0
100
AcDbBlockBegin
  2
*D12
 70
     1
 10
0.0
 20
0.0
 30
0.0
  3
*D12
  1

  0
LINE
  5
1088
330
1045
100
AcDbEntity
  8
250
  6
CONTINUOUS
100
AcDbLine
 10
199.6316525
 20
-10.0
 30
0.0
 11
218.0
 21
-10.0
 31
0.0
  0
LINE
  5
1089
330
1045
100
AcDbEntity
  8
250
  6
CONTINUOUS
100
AcDbLine
 10
199.6316525
 20
10.0
 30
0.0
 11
218.0
 21
10.0
 31
0.0
  0
LINE
  5
108A
330
1045
100
AcDbEntity
  8
250
  6
CONTINUOUS
100
AcDbLine
 10
217.0
 20
-7.77
 30
0.0
 11
217.0
 21
7.77
 31
0.0
  0
INSERT
  5
108B
330
1045
100
AcDbEntity
  8
250
  6
CONTINUOUS
100
AcDbBlockReference
  2
_OPEN
 10
217.0
 20
-10.0
 30
0.0
 41
2.23
 42
2.23
 43
2.23
 50
270.0
  0
INSERT
  5
108C
330
1045
100
AcDbEntity
  8
250
  6
CONTINUOUS
100
AcDbBlockReference
  2
_OPEN
 10
217.0
 20
10.0
 30
0.0
 41
2.23
 42
2.23
 43
2.23
 50
90.0
  0
MTEXT
  5
108D
330
1045
100
AcDbEntity
  8
250
  6
CONTINUOUS
 62
    40
100
AcDbMText
 10
214.6
 20
0.0
 30
0.0
 40
2.8
 41
0.0
 71
     5
 72
     1
  1
\A1;{\H2.8;%%C}20
 11
0.0
 21
1.0
 31
0.0
1001
ACAD
1000
MTEXTBEGIN
1070
    73
1070
     1
1070
    44
1040
1.0
1070
    74
1070
     0
1000
MTEXTEND
  0
POINT
  5
108E
330
1045
100
AcDbEntity
  8
DEFPOINTS
  6
CONTINUOUS
 62
     0
100
AcDbPoint
 10
199.1316525
 20
-10.0
 30
0.0
  0
POINT
  5
108F
330
1045
100
AcDbEntity
  8
DEFPOINTS
  6
CONTINUOUS
 62
     0
100
AcDbPoint
 10
199.1316525
 20
10.0
 30
0.0
  0
POINT
  5
1090
330
1045
100
AcDbEntity
  8
DEFPOINTS
  6
CONTINUOUS
 62
     0
100
AcDbPoint
 10
217.0
 20
10.0
 30
0.0
  0
ENDBLK
  5
1050
330
1045
100
AcDbEntity
  8
0
100
AcDbBlockEnd
  0
ENDSEC
  0
SECTION
  2
ENTITIES
  0
INSERT
  5
6E6
330
1A
100
AcDbEntity
  8
245
100
AcDbBlockReference
  2
矢印なし
 10
175.62382697
 20
90.55123572
 30
0.0
  0
INSERT
  5
8D1
330
1A
100
AcDbEntity
  8
245
100
AcDbBlockReference
  2
矢印なし
 10
364.62382697
 20
237.55123572
 30
0.0
  0
INSERT
  5
8D2
330
1A
100
AcDbEntity
  8
245
100
AcDbBlockReference
  2
矢印なし
 10
546.62382697
 20
391.55123572
 30
0.0
  0
INSERT
  5
8D3
330
1A
100
AcDbEntity
  8
245
100
AcDbBlockReference
  2
矢印なし
 10
735.62382697
 20
552.55123572
 30
0.0
  0
TEXT
  5
8D8
330
1A
100
AcDbEntity
  8
241
100
AcDbText
 10
-51.0
 20
42.0
 30
0.0
 40
5.0
  1
MGT12-M8-200
  7
YOKO
 11
-51.0
 21
42.0
 31
0.0
100
AcDbText
 73
     1
  0
TEXT
  5
BC8
330
1A
100
AcDbEntity
  8
241
100
AcDbText
 10
-51.0
 20
42.0
 30
0.0
 40
5.0
  1
MGT12-M8-200
  7
YOKO
 11
-51.0
 21
42.0
 31
0.0
100
AcDbText
 73
     1
  0
DIMENSION
  5
F08
330
1A
100
AcDbEntity
  8
250
  6
CONTINUOUS
100
AcDbDimension
  2
*D10
 10
200.0
 20
28.0
 30
0.0
 11
100.0
 21
30.4
 31
0.0
 70
    32
  3
BIGT
100
AcDbAlignedDimension
 13
0.0
 23
13.14125603
 33
0.0
 14
200.0
 24
9.0
 34
0.0
100
AcDbRotatedDimension
  0
DIMENSION
  5
F09
330
1A
100
AcDbEntity
  8
250
  6
CONTINUOUS
100
AcDbDimension
  2
*D11
 10
200.0
 20
28.0
 30
0.0
 11
100.0
 21
30.4
 31
0.0
 70
    32
  3
BIGT
100
AcDbAlignedDimension
 13
0.0
 23
13.14125603
 33
0.0
 14
200.0
 24
9.0
 34
0.0
100
AcDbRotatedDimension
  0
MTEXT
  5
100A
330
1A
100
AcDbEntity
  8
250
  6
CONTINUOUS
 62
    40
100
AcDbMText
 10
207.6
 20
-2.25704702
 30
0.0
 40
2.8
 41
0.0
 71
     5
 72
     1
  1
\A1;{\H2.8;\U+2205}6.2
 11
0.0
 21
1.0
 31
0.0
1001
ACAD
1000
MTEXTBEGIN
1070
    73
1070
     1
1070
    44
1040
1.0
1070
    74
1070
     0
1000
MTEXTEND
1000
MTEXTBEGIN
1070
    73
1070
     1
1070
    44
1040
1.0
1070
    74
1070
     0
1000
MTEXTEND
1000
MTEXTBEGIN
1070
    73
1070
     1
1070
    44
1040
1.0
1070
    74
1070
     0
1000
MTEXTEND
1000
MTEXTBEGIN
1070
    73
1070
     1
1070
    44
1040
1.0
1070
    74
1070
     0
1000
MTEXTEND
1000
MTEXTBEGIN
1070
    73
1070
     1
1070
    44
1040
1.0
1070
    74
1070
     0
1000
MTEXTEND
1000
MTEXTBEGIN
1070
    73
1070
     1
1070
    44
1040
1.0
1070
    74
1070
     0
1000
MTEXTEND
  0
DIMENSION
  5
100B
330
1A
100
AcDbEntity
  8
250
  6
CONTINUOUS
100
AcDbDimension
  2
*D12
 10
217.0
 20
10.0
 30
0.0
 11
217.0
 21
0.0
 31
0.0
 70
   160
  1
{\H2.8;%%C}<>
  3
BIGT
100
AcDbAlignedDimension
 13
199.1316525
 23
-10.0
 33
0.0
 14
199.1316525
 24
10.0
 34
0.0
 50
90.0
100
AcDbRotatedDimension
  0
LINE
  5
100C
330
1A
100
AcDbEntity
  8
250
  6
CONTINUOUS
100
AcDbLine
 10
210.0
 20
3.1
 30
0.0
 11
210.0
 21
-5.95830972
 31
0.0
  0
LEADER
  5
1016
330
1A
100
AcDbEntity
  8
250
  6
CONTINUOUS
100
AcDbLeader
  3
BIGT
 76
     2
 10
179.49411778
 20
3.60624458
 30
0.0
 10
185.87763366
 20
21.0
 30
0.0
1001
ACAD
1000
DSTYLE
1002
{
1070
     6
1000
OPEN
1070
   343
1005
594
1002
}
  0
LINE
  5
1027
330
1A
100
AcDbEntity
  8
250
  6
CONTINUOUS
100
AcDbLine
 10
185.87763366
 20
21.0
 30
0.0
 11
196.73096699
 21
21.0
 31
0.0
1001
ITEMNAME
1000
LNSP2
  0
MTEXT
  5
1028
330
1A
100
AcDbEntity
  8
251
  6
CONTINUOUS
100
AcDbMText
 10
188.67763366
 20
22.0
 30
0.0
 40
2.8
 41
0.0
 71
     7
 72
     1
  1
□5
  7
YOKO
1001
ITEMNAME
1000
LNSP3
1001
ACAD
1000
MTEXTBEGIN
1070
    73
1070
     1
1070
    44
1040
1.0
1070
    74
1070
     0
1000
MTEXTEND
1000
MTEXTBEGIN
1070
    73
1070
     1
1070
    44
1040
1.0
1070
    74
1070
     0
1000
MTEXTEND
1000
MTEXTBEGIN
1070
    73
1070
     1
1070
    44
1040
1.0
1070
    74
1070
     0
1000
MTEXTEND
1000
MTEXTBEGIN
1070
    73
1070
     1
1070
    44
1040
1.0
1070
    74
1070
     0
1000
MTEXTEND
1000
MTEXTBEGIN
1070
    73
1070
     1
1070
    44
1040
1.0
1070
    74
1070
     0
1000
MTEXTEND
1000
MTEXTBEGIN
1070
    73
1070
     1
1070
    44
1040
1.0
1070
    74
1070
     0
1000
MTEXTEND
  0
LINE
  5
102A
330
1A
100
AcDbEntity
  8
250
  6
CONTINUOUS
100
AcDbLine
 10
200.5
 20
3.1
 30
0.0
 11
211.0
 21
3.1
 31
0.0
  0
INSERT
  5
102B
330
1A
100
AcDbEntity
  8
250
  6
CONTINUOUS
100
AcDbBlockReference
  2
_OPEN
 10
210.0
 20
3.1
 30
0.0
 41
2.23
 42
2.23
 43
2.23
 50
90.0
  0
INSERT
  5
1411
330
1A
100
AcDbEntity
  8
245
100
AcDbBlockReference
  2
1
 10
0.0
 20
0.0
 30
0.0
  0
VIEWPORT
  5
22
330
17
100
AcDbEntity
 67
     1
  8
0
100
AcDbViewport
 10
261.51769912
 20
148.5
 30
0.0
 40
523.03539823
 41
297.0
 68
     1
 69
     1
1001
ACAD
1000
MVIEW
1002
{
1070
    16
1010
0.0
1020
0.0
1030
0.0
1010
0.0
1020
0.0
1030
1.0
1040
0.0
1040
297.0
1040
261.51769912
1040
148.5
1040
50.0
1040
0.0
1040
0.0
1070
     0
1070
   100
1070
     1
1070
     1
1070
     0
1070
     0
1070
     0
1070
     0
1040
0.0
1040
0.0
1040
0.0
1040
1.0
1040
1.0
1040
10.0
1040
10.0
1070
     0
1002
{
1002
}
1002
}
  0
ENDSEC
  0
SECTION
  2
OBJECTS
  0
DICTIONARY
  5
C
330
0
100
AcDbDictionary
  3
ACAD_GROUP
350
D
  3
ACAD_LAYOUT
350
565
  3
ACAD_MLINESTYLE
350
E
  3
ACAD_PLOTSETTINGS
350
566
  3
ACAD_PLOTSTYLENAME
350
563
  3
ACDBHEADERROUNDTRIPXREC
350
143A
  3
GRADE_DWG
350
540
  0
DICTIONARY
  5
DA7
330
1A
100
AcDbDictionary
280
     1
  3
ACAD_LAYOUTSELFREF
360
145C
  0
DICTIONARY
  5
DA5
330
17
100
AcDbDictionary
280
     1
  3
ACAD_LAYOUTSELFREF
360
145B
  0
DICTIONARY
  5
D
102
{ACAD_REACTORS
330
C
102
}
330
C
100
AcDbDictionary
  3
*A1
350
6C7
  3
*A2
350
6C8
  3
*A3
350
6D4
  3
*A4
350
6D5
  3
DREC-1
350
5FC
  3
DREC-2
350
654
  3
DREC-3
350
673
  0
DICTIONARY
  5
565
102
{ACAD_REACTORS
330
C
102
}
330
C
100
AcDbDictionary
  0
DICTIONARY
  5
E
102
{ACAD_REACTORS
330
C
102
}
330
C
100
AcDbDictionary
  3
STANDARD
350
13
  0
DICTIONARY
  5
566
102
{ACAD_REACTORS
330
C
102
}
330
C
100
AcDbDictionary
  3
A3_0_5倍_
350
758
  3
A3_1倍_
350
757
  3
A3_1倍__2000_
350
707
  3
A3_2倍_
350
759
  3
A4_0_5倍_
350
755
  3
A4_1倍_
350
754
  3
A4_1倍__2000_
350
708
  3
A4_2倍_
350
756
  0
ACDBDICTIONARYWDFLT
  5
563
102
{ACAD_REACTORS
330
C
102
}
330
C
100
AcDbDictionary
281
     1
  3
Normal
350
564
100
AcDbDictionaryWithDefault
340
564
  0
DICTIONARY
  5
143A
102
{ACAD_REACTORS
330
C
102
}
330
C
100
AcDbDictionary
  3
CEPSNTYPE
350
1444
  3
DIMSTYLEDATA
350
1448
  3
FINGERPRINTGUID
350
1445
  3
HYPERLINKBASE
350
143D
  3
INSUNITS
350
1443
  3
LAYOUTDICT
350
143F
  3
LWETCUNION
350
1442
  3
PLOTSETDICT
350
1440
  3
PLOTSTYLNAMDICT
350
1441
  3
PSVPSCALE
350
1447
  3
PUCSBASE
350
144B
  3
PUCSORGBACK
350
1451
  3
PUCSORGBOTTOM
350
144D
  3
PUCSORGFRONT
350
1450
  3
PUCSORGLEFT
350
144E
  3
PUCSORGRIGHT
350
144F
  3
PUCSORGTOP
350
144C
  3
PUCSORTHOREF
350
1449
  3
PUCSORTHOVIEW
350
144A
  3
STYLESHEET
350
143E
  3
TSTACKALIGN
350
143B
  3
TSTACKSIZE
350
143C
  3
UCSBASE
350
1454
  3
UCSORGBACK
350
145A
  3
UCSORGBOTTOM
350
1456
  3
UCSORGFRONT
350
1459
  3
UCSORGLEFT
350
1457
  3
UCSORGRIGHT
350
1458
  3
UCSORGTOP
350
1455
  3
UCSORTHOREF
350
1452
  3
UCSORTHOVIEW
350
1453
  3
VERSIONGUID
350
1446
  0
DICTIONARY
  5
540
102
{ACAD_REACTORS
330
C
102
}
330
C
100
AcDbDictionary
  3
VERSION
350
560
  0
XRECORD
  5
145C
102
{ACAD_REACTORS
330
DA7
102
}
330
DA7
100
AcDbXrecord
340
1A
  0
XRECORD
  5
145B
102
{ACAD_REACTORS
330
DA5
102
}
330
DA5
100
AcDbXrecord
340
17
  0
GROUP
  5
6C7
102
{ACAD_REACTORS
330
D
102
}
330
D
100
AcDbGroup
300

 70
     0
 71
     1
1001
GRPNAME
1000
DMA00
  0
GROUP
  5
6C8
102
{ACAD_REACTORS
330
D
102
}
330
D
100
AcDbGroup
300

 70
     0
 71
     1
1001
GRPNAME
1000
DMA00
  0
GROUP
  5
6D4
102
{ACAD_REACTORS
330
D
102
}
330
D
100
AcDbGroup
300

 70
     0
 71
     1
1001
GRPNAME
1000
DMA00
  0
GROUP
  5
6D5
102
{ACAD_REACTORS
330
D
102
}
330
D
100
AcDbGroup
300

 70
     0
 71
     1
1001
GRPNAME
1000
DMA00
  0
GROUP
  5
5FC
102
{ACAD_REACTORS
330
D
102
}
330
D
100
AcDbGroup
300

 70
     0
 71
     1
1001
GRPNAME
1000
DREC-
1001
GPARA
1000
xsiz
1000
44.182
1000
ysiz
1000
40.677
1000
angl
1000
0
1000
ctyp
1000
0
1000
csiz
1000
5
1000
lfnt
1000
cont
1000
hcnt
1000
hoff
1000
vcnt
1000
voff
1000
opnt
1000
4
1000
dxpt
1000
0
1000
dypt
1000
0
  0
GROUP
  5
654
102
{ACAD_REACTORS
330
D
102
}
330
D
100
AcDbGroup
300

 70
     0
 71
     1
1001
GRPNAME
1000
DREC-
1001
GPARA
1000
xsiz
1000
54.592
1000
ysiz
1000
53.036
1000
angl
1000
0
1000
ctyp
1000
0
1000
csiz
1000
5
1000
lfnt
1000
cont
1000
hcnt
1000
hoff
1000
vcnt
1000
voff
1000
opnt
1000
4
1000
dxpt
1000
0
1000
dypt
1000
0
  0
GROUP
  5
673
102
{ACAD_REACTORS
330
D
102
}
330
D
100
AcDbGroup
300

 70
     0
 71
     1
1001
GRPNAME
1000
DREC-
1001
GPARA
1000
xsiz
1000
30.363
1000
ysiz
1000
36.175
1000
angl
1000
0
1000
ctyp
1000
0
1000
csiz
1000
5
1000
lfnt
1000
cont
1000
hcnt
1000
hoff
1000
vcnt
1000
voff
1000
opnt
1000
4
1000
dxpt
1000
0
1000
dypt
1000
0
  0
MLINESTYLE
  5
13
102
{ACAD_REACTORS
330
E
102
}
330
E
100
AcDbMlineStyle
  2
STANDARD
 70
     0
  3

 62
     0
 51
90.0
 52
90.0
 71
     2
 49
0.5
 62
   256
  6
BYLAYER
 49
-0.5
 62
   256
  6
BYLAYER
  0
PLOTSETTINGS
  5
758
102
{ACAD_REACTORS
330
566
102
}
330
566
100
AcDbPlotSettings
  1
A3(0.5倍)
  2
\\AWTECPC05\HP DeskJet 1120C
  4
A3
  6

 40
5.95841646
 41
13.49375153
 42
6.04309082
 43
3.67242432
 44
296.92599487
 45
419.94665527
 46
89.96
 47
127.14
 48
0.0
 49
0.0
140
0.0
141
0.0
142
1.0
143
2.0
 70
  1716
 72
     1
 73
     1
 74
     2
  7
big.ctb
 75
    17
147
0.5
148
0.0
149
0.0
  0
PLOTSETTINGS
  5
757
102
{ACAD_REACTORS
330
566
102
}
330
566
100
AcDbPlotSettings
  1
A3(1倍)
  2
\\AWTECPC05\HP DeskJet 1120C
  4
A3
  6

 40
5.95841646
 41
13.49375153
 42
6.04309082
 43
3.67242432
 44
296.92599487
 45
419.94665527
 46
37.46
 47
52.89
 48
0.0
 49
0.0
140
0.0
141
0.0
142
1.0
143
1.0
 70
  1716
 72
     1
 73
     1
 74
     2
  7
big.ctb
 75
    16
147
1.0
148
0.0
149
0.0
  0
PLOTSETTINGS
  5
707
102
{ACAD_REACTORS
330
566
102
}
330
566
100
AcDbPlotSettings
  1
A3(1倍)(2000)
  2
SII LS-1300 (D-SCAN)
  4
User258
  6

 40
3.17499995
 41
3.17499995
 42
3.17498779
 43
3.17498779
 44
419.98898315
 45
296.98950195
 46
58.32
 47
40.32
 48
0.0
 49
0.0
140
0.0
141
0.0
142
1.0
143
1.0
 70
  1716
 72
     1
 73
     0
 74
     2
  7
big.ctb
 75
    16
147
1.0
148
0.0
149
0.0
  0
PLOTSETTINGS
  5
759
102
{ACAD_REACTORS
330
566
102
}
330
566
100
AcDbPlotSettings
  1
A3(2倍)
  2
\\AWTECPC05\HP DeskJet 1120C
  4
A3
  6

 40
5.95841646
 41
13.49375153
 42
6.04309082
 43
3.67242432
 44
296.92599487
 45
419.94665527
 46
-67.54
 47
-95.61
 48
0.0
 49
0.0
140
0.0
141
0.0
142
1.0
143
0.5
 70
  1716
 72
     1
 73
     1
 74
     2
  7
big.ctb
 75
    27
147
2.0
148
0.0
149
0.0
  0
PLOTSETTINGS
  5
755
102
{ACAD_REACTORS
330
566
102
}
330
566
100
AcDbPlotSettings
  1
A4(0.5倍)
  2
\\AWTECPC05\HP DeskJet 1120C
  4
A4
  6

 40
4.18041658
 41
13.49374962
 42
4.18040466
 43
3.92642212
 44
209.97332764
 45
296.92599487
 46
48.31
 47
65.5
 48
0.0
 49
0.0
140
0.0
141
0.0
142
1.0
143
2.0
 70
  1716
 72
     1
 73
     1
 74
     2
  7
big.ctb
 75
    17
147
0.5
148
0.0
149
0.0
  0
PLOTSETTINGS
  5
754
102
{ACAD_REACTORS
330
566
102
}
330
566
100
AcDbPlotSettings
  1
A4(1倍)
  2
\\AWTECPC05\HP DeskJet 1120C
  4
A4
  6

 40
4.18041658
 41
13.49374962
 42
4.18040466
 43
3.92642212
 44
209.97332764
 45
296.92599487
 46
-4.19
 47
-8.75
 48
0.0
 49
0.0
140
0.0
141
0.0
142
1.0
143
1.0
 70
  1716
 72
     1
 73
     1
 74
     2
  7
big.ctb
 75
    16
147
1.0
148
0.0
149
0.0
  0
PLOTSETTINGS
  5
708
102
{ACAD_REACTORS
330
566
102
}
330
566
100
AcDbPlotSettings
  1
A4(1倍)(2000)
  2
SII LS-1300 (D-SCAN)
  4
User259
  6

 40
3.17499995
 41
3.17499995
 42
3.17498779
 43
3.17500305
 44
296.98950195
 45
209.99449158
 46
-3.18
 47
-3.18
 48
0.0
 49
0.0
140
0.0
141
0.0
142
1.0
143
1.0
 70
  1716
 72
     1
 73
     0
 74
     2
  7
big.ctb
 75
    16
147
1.0
148
0.0
149
0.0
  0
PLOTSETTINGS
  5
756
102
{ACAD_REACTORS
330
566
102
}
330
566
100
AcDbPlotSettings
  1
A4(2倍)
  2
\\AWTECPC05\HP DeskJet 1120C
  4
A4
  6

 40
4.18041658
 41
13.49374962
 42
4.18040466
 43
3.92642212
 44
209.97332764
 45
296.92599487
 46
-109.19
 47
-157.25
 48
0.0
 49
0.0
140
0.0
141
0.0
142
1.0
143
0.5
 70
  1716
 72
     1
 73
     1
 74
     2
  7
big.ctb
 75
    27
147
2.0
148
0.0
149
0.0
  0
ACDBPLACEHOLDER
  5
564
102
{ACAD_REACTORS
330
563
102
}
330
563
100
AcDbPlaceHolder
280
     0
  0
XRECORD
  5
1444
102
{ACAD_REACTORS
330
143A
102
}
330
143A
100
AcDbXrecord
 90
        0
  0
XRECORD
  5
1448
102
{ACAD_REACTORS
330
143A
102
}
330
143A
100
AcDbXrecord
1000
DSTYLE
1002
{
1070
    79
 70
     2
1070
   179
 70
     3
1070
   341
340
594
1070
   343
340
594
1070
   344
340
594
1070
   371
 70
    -1
1070
   372
 70
    -1
1002
}
  0
XRECORD
  5
1445
102
{ACAD_REACTORS
330
143A
102
}
330
143A
100
AcDbXrecord
  1
{51294030-9CB4-11D3-8E18-00A0C925D94D}
  0
XRECORD
  5
143D
102
{ACAD_REACTORS
330
143A
102
}
330
143A
100
AcDbXrecord
  1

  0
XRECORD
  5
1443
102
{ACAD_REACTORS
330
143A
102
}
330
143A
100
AcDbXrecord
 90
        0
  0
XRECORD
  5
143F
102
{ACAD_REACTORS
330
143A
102
}
330
143A
100
AcDbXrecord
340
565
  0
XRECORD
  5
1442
102
{ACAD_REACTORS
330
143A
102
}
330
143A
100
AcDbXrecord
 90
    10781
  0
XRECORD
  5
1440
102
{ACAD_REACTORS
330
143A
102
}
330
143A
100
AcDbXrecord
340
566
  0
XRECORD
  5
1441
102
{ACAD_REACTORS
330
143A
102
}
330
143A
100
AcDbXrecord
340
563
  0
XRECORD
  5
1447
102
{ACAD_REACTORS
330
143A
102
}
330
143A
100
AcDbXrecord
 40
0.0
  0
XRECORD
  5
144B
102
{ACAD_REACTORS
330
143A
102
}
330
143A
100
AcDbXrecord
340
0
  0
XRECORD
  5
1451
102
{ACAD_REACTORS
330
143A
102
}
330
143A
100
AcDbXrecord
 10
0.0
 20
0.0
 30
0.0
  0
XRECORD
  5
144D
102
{ACAD_REACTORS
330
143A
102
}
330
143A
100
AcDbXrecord
 10
0.0
 20
0.0
 30
0.0
  0
XRECORD
  5
1450
102
{ACAD_REACTORS
330
143A
102
}
330
143A
100
AcDbXrecord
 10
0.0
 20
0.0
 30
0.0
  0
XRECORD
  5
144E
102
{ACAD_REACTORS
330
143A
102
}
330
143A
100
AcDbXrecord
 10
0.0
 20
0.0
 30
0.0
  0
XRECORD
  5
144F
102
{ACAD_REACTORS
330
143A
102
}
330
143A
100
AcDbXrecord
 10
0.0
 20
0.0
 30
0.0
  0
XRECORD
  5
144C
102
{ACAD_REACTORS
330
143A
102
}
330
143A
100
AcDbXrecord
 10
0.0
 20
0.0
 30
0.0
  0
XRECORD
  5
1449
102
{ACAD_REACTORS
330
143A
102
}
330
143A
100
AcDbXrecord
340
0
  0
XRECORD
  5
144A
102
{ACAD_REACTORS
330
143A
102
}
330
143A
100
AcDbXrecord
 70
     0
  0
XRECORD
  5
143E
102
{ACAD_REACTORS
330
143A
102
}
330
143A
100
AcDbXrecord
  1
big.ctb
  0
XRECORD
  5
143B
102
{ACAD_REACTORS
330
143A
102
}
330
143A
100
AcDbXrecord
 90
        1
  0
XRECORD
  5
143C
102
{ACAD_REACTORS
330
143A
102
}
330
143A
100
AcDbXrecord
 90
       70
  0
XRECORD
  5
1454
102
{ACAD_REACTORS
330
143A
102
}
330
143A
100
AcDbXrecord
340
0
  0
XRECORD
  5
145A
102
{ACAD_REACTORS
330
143A
102
}
330
143A
100
AcDbXrecord
 10
0.0
 20
0.0
 30
0.0
  0
XRECORD
  5
1456
102
{ACAD_REACTORS
330
143A
102
}
330
143A
100
AcDbXrecord
 10
0.0
 20
0.0
 30
0.0
  0
XRECORD
  5
1459
102
{ACAD_REACTORS
330
143A
102
}
330
143A
100
AcDbXrecord
 10
0.0
 20
0.0
 30
0.0
  0
XRECORD
  5
1457
102
{ACAD_REACTORS
330
143A
102
}
330
143A
100
AcDbXrecord
 10
0.0
 20
0.0
 30
0.0
  0
XRECORD
  5
1458
102
{ACAD_REACTORS
330
143A
102
}
330
143A
100
AcDbXrecord
 10
0.0
 20
0.0
 30
0.0
  0
XRECORD
  5
1455
102
{ACAD_REACTORS
330
143A
102
}
330
143A
100
AcDbXrecord
 10
0.0
 20
0.0
 30
0.0
  0
XRECORD
  5
1452
102
{ACAD_REACTORS
330
143A
102
}
330
143A
100
AcDbXrecord
340
0
  0
XRECORD
  5
1453
102
{ACAD_REACTORS
330
143A
102
}
330
143A
100
AcDbXrecord
 70
     0
  0
XRECORD
  5
1446
102
{ACAD_REACTORS
330
143A
102
}
330
143A
100
AcDbXrecord
  1
{A3ADA8FB-B41B-4964-892A-565FEAAE18ED}
  0
XRECORD
  5
560
102
{ACAD_REACTORS
330
540
102
}
330
540
100
AcDbXrecord
  1
2.0.0
  0
ENDSEC
  0
EOF
