  0
SECTION
  2
HEADER
  9
$ACADVER
  1
AC1014
  9
$ACADMAINTVER
 70
     9
  9
$DWGCODEPAGE
  3
ANSI_932
  9
$INSBASE
 10
0.0
 20
0.0
 30
0.0
  9
$EXTMIN
 10
-52.0144032
 20
-13.57013701
 30
-0.00152582
  9
$EXTMAX
 10
88.03137278
 20
47.01515995
 30
0.00000003
  9
$LIMMIN
 10
0.0
 20
0.0
  9
$LIMMAX
 10
420.0
 20
297.0
  9
$ORTHOMODE
 70
     1
  9
$REGENMODE
 70
     1
  9
$FILLMODE
 70
     1
  9
$QTEXTMODE
 70
     0
  9
$MIRRTEXT
 70
     1
  9
$DRAGMODE
 70
     2
  9
$LTSCALE
 40
10.0
  9
$OSMODE
 70
   549
  9
$ATTMODE
 70
     1
  9
$TEXTSIZE
 40
3.0
  9
$TRACEWID
 40
1.0
  9
$TEXTSTYLE
  7
YOKO
  9
$CLAYER
  8
245
  9
$CELTYPE
  6
BYLAYER
  9
$CECOLOR
 62
   256
  9
$CELTSCALE
 40
1.0
  9
$DELOBJ
 70
     1
  9
$DISPSILH
 70
     0
  9
$DIMSCALE
 40
1.0
  9
$DIMASZ
 40
2.0
  9
$DIMEXO
 40
2.0
  9
$DIMDLI
 40
2.5
  9
$DIMRND
 40
0.0
  9
$DIMDLE
 40
0.0
  9
$DIMEXE
 40
2.0
  9
$DIMTP
 40
0.0
  9
$DIMTM
 40
0.0
  9
$DIMTXT
 40
4.0
  9
$DIMCEN
 40
0.0
  9
$DIMTSZ
 40
0.0
  9
$DIMTOL
 70
     0
  9
$DIMLIM
 70
     0
  9
$DIMTIH
 70
     0
  9
$DIMTOH
 70
     0
  9
$DIMSE1
 70
     0
  9
$DIMSE2
 70
     0
  9
$DIMTAD
 70
     3
  9
$DIMZIN
 70
     8
  9
$DIMBLK
  1

  9
$DIMASO
 70
     1
  9
$DIMSHO
 70
     1
  9
$DIMPOST
  1

  9
$DIMAPOST
  1

  9
$DIMALT
 70
     0
  9
$DIMALTD
 70
     2
  9
$DIMALTF
 40
25.4
  9
$DIMLFAC
 40
1.0
  9
$DIMTOFL
 70
     1
  9
$DIMTVP
 40
0.0
  9
$DIMTIX
 70
     1
  9
$DIMSOXD
 70
     0
  9
$DIMSAH
 70
     1
  9
$DIMBLK1
  1
OPEN
  9
$DIMBLK2
  1
OPEN
  9
$DIMSTYLE
  2
BIGT
  9
$DIMCLRD
 70
   256
  9
$DIMCLRE
 70
   256
  9
$DIMCLRT
 70
    40
  9
$DIMTFAC
 40
1.0
  9
$DIMGAP
 40
1.0
  9
$DIMJUST
 70
     0
  9
$DIMSD1
 70
     0
  9
$DIMSD2
 70
     0
  9
$DIMTOLJ
 70
     1
  9
$DIMTZIN
 70
     8
  9
$DIMALTZ
 70
     0
  9
$DIMALTTZ
 70
     0
  9
$DIMFIT
 70
     3
  9
$DIMUPT
 70
     0
  9
$DIMUNIT
 70
     2
  9
$DIMDEC
 70
     3
  9
$DIMTDEC
 70
     3
  9
$DIMALTU
 70
     2
  9
$DIMALTTD
 70
     2
  9
$DIMTXSTY
  7
STANDARD
  9
$DIMAUNIT
 70
     0
  9
$LUNITS
 70
     2
  9
$LUPREC
 70
     3
  9
$SKETCHINC
 40
1.0
  9
$FILLETRAD
 40
0.0
  9
$AUNITS
 70
     0
  9
$AUPREC
 70
     3
  9
$MENU
  1
.
  9
$ELEVATION
 40
0.0
  9
$PELEVATION
 40
0.0
  9
$THICKNESS
 40
0.0
  9
$LIMCHECK
 70
     0
  9
$BLIPMODE
 70
     0
  9
$CHAMFERA
 40
10.0
  9
$CHAMFERB
 40
10.0
  9
$CHAMFERC
 40
0.0
  9
$CHAMFERD
 40
0.0
  9
$SKPOLY
 70
     0
  9
$TDCREATE
 40
2455128.576114363
  9
$TDUPDATE
 40
2455316.493090810
  9
$TDINDWG
 40
0.0039344560
  9
$TDUSRTIMER
 40
0.0039344560
  9
$USRTIMER
 70
     1
  9
$ANGBASE
 50
0.0
  9
$ANGDIR
 70
     0
  9
$PDMODE
 70
     1
  9
$PDSIZE
 40
-5.0
  9
$PLINEWID
 40
0.0
  9
$COORDS
 70
     0
  9
$SPLFRAME
 70
     0
  9
$SPLINETYPE
 70
     6
  9
$SPLINESEGS
 70
     8
  9
$ATTDIA
 70
     0
  9
$ATTREQ
 70
     1
  9
$HANDLING
 70
-16383
  9
$HANDSEED
  5
119F
  9
$SURFTAB1
 70
     6
  9
$SURFTAB2
 70
     6
  9
$SURFTYPE
 70
     6
  9
$SURFU
 70
     6
  9
$SURFV
 70
     6
  9
$UCSNAME
  2

  9
$UCSORG
 10
0.0
 20
0.0
 30
0.0
  9
$UCSXDIR
 10
1.0
 20
0.0
 30
0.0
  9
$UCSYDIR
 10
0.0
 20
1.0
 30
0.0
  9
$PUCSNAME
  2

  9
$PUCSORG
 10
0.0
 20
0.0
 30
0.0
  9
$PUCSXDIR
 10
1.0
 20
0.0
 30
0.0
  9
$PUCSYDIR
 10
0.0
 20
1.0
 30
0.0
  9
$USERI1
 70
     1
  9
$USERI2
 70
     0
  9
$USERI3
 70
     0
  9
$USERI4
 70
     0
  9
$USERI5
 70
     0
  9
$USERR1
 40
0.0
  9
$USERR2
 40
0.0
  9
$USERR3
 40
0.0
  9
$USERR4
 40
0.0
  9
$USERR5
 40
0.0
  9
$WORLDVIEW
 70
     1
  9
$SHADEDGE
 70
     3
  9
$SHADEDIF
 70
    70
  9
$TILEMODE
 70
     1
  9
$MAXACTVP
 70
    16
  9
$PINSBASE
 10
0.0
 20
0.0
 30
0.0
  9
$PLIMCHECK
 70
     0
  9
$PEXTMIN
 10
1.00000000E+20
 20
1.00000000E+20
 30
1.00000000E+20
  9
$PEXTMAX
 10
-1.00000000E+20
 20
-1.00000000E+20
 30
-1.00000000E+20
  9
$PLIMMIN
 10
0.0
 20
0.0
  9
$PLIMMAX
 10
420.0
 20
297.0
  9
$UNITMODE
 70
     0
  9
$VISRETAIN
 70
     0
  9
$PLINEGEN
 70
     0
  9
$PSLTSCALE
 70
     1
  9
$TREEDEPTH
 70
  3020
  9
$PICKSTYLE
 70
     0
  9
$CMLSTYLE
  2
STANDARD
  9
$CMLJUST
 70
     0
  9
$CMLSCALE
 40
1.0
  9
$PROXYGRAPHICS
 70
     1
  9
$MEASUREMENT
 70
     1
  0
ENDSEC
  0
SECTION
  2
CLASSES
  0
CLASS
  1
XRECORD
  2
AcDbXrecord
  3
AutoCAD 2000
 90
        0
280
     0
281
     0
  0
CLASS
  1
ACDBDICTIONARYWDFLT
  2
AcDbDictionaryWithDefault
  3
AutoCAD 2000
 90
        0
280
     0
281
     0
  0
CLASS
  1
ACDBPLACEHOLDER
  2
AcDbPlaceHolder
  3
AutoCAD 2000
 90
        0
280
     0
281
     0
  0
CLASS
  1
LAYOUT
  2
AcDbLayout
  3
AutoCAD 2000
 90
        0
280
     0
281
     0
  0
CLASS
  1
PLOTSETTINGS
  2
AcDbPlotSettings
  3
AutoCAD 2000
 90
        0
280
     0
281
     0
  0
CLASS
  1
LONG_TRANSACTION
  2
AcDbLongTransaction
  3
AutoCAD 2000
 90
        0
280
     0
281
     0
  0
CLASS
  1
LWPOLYLINE
  2
AcDbPolyline
  3
AutoCAD 2000
 90
        0
280
     0
281
     1
  0
CLASS
  1
HATCH
  2
AcDbHatch
  3
AutoCAD 2000
 90
        0
280
     0
281
     1
  0
CLASS
  1
XRECORD
  2
AcDbXrecord
  3
AutoCAD 2000
 90
        0
280
     0
281
     0
  0
CLASS
  1
LONG_TRANSACTION
  2
AcDbLongTransaction
  3
AutoCAD 2000
 90
        0
280
     0
281
     0
  0
CLASS
  1
LWPOLYLINE
  2
AcDbPolyline
  3
AutoCAD 2000
 90
        0
280
     0
281
     1
  0
CLASS
  1
HATCH
  2
AcDbHatch
  3
AutoCAD 2000
 90
        0
280
     0
281
     1
  0
CLASS
  1
XRECORD
  2
AcDbXrecord
  3
AutoCAD 2000
 90
        0
280
     0
281
     0
  0
ENDSEC
  0
SECTION
  2
TABLES
  0
TABLE
  2
VPORT
  5
8
330
0
100
AcDbSymbolTable
 70
     2
  0
VPORT
  5
117A
330
8
100
AcDbSymbolTableRecord
100
AcDbViewportTableRecord
  2
*ACTIVE
 70
     0
 10
0.0
 20
0.0
 11
1.0
 21
1.0
 12
18.00848479
 22
16.72251147
 13
0.0
 23
0.0
 14
7.0
 24
7.0
 15
7.0
 25
7.0
 16
0.0
 26
0.0
 36
1.0
 17
0.0
 27
0.0
 37
0.0
 40
98.32921187
 41
1.43184713
 42
50.0
 43
0.0
 44
0.0
 50
0.0
 51
0.0
 71
     0
 72
  2000
 73
     1
 74
     0
 75
     0
 76
     0
 77
     0
 78
     0
  0
ENDTAB
  0
TABLE
  2
LTYPE
  5
5
330
0
100
AcDbSymbolTable
 70
     3
  0
LTYPE
  5
14
330
5
100
AcDbSymbolTableRecord
100
AcDbLinetypeTableRecord
  2
BYBLOCK
 70
     0
  3

 72
    65
 73
     0
 40
0.0
  0
LTYPE
  5
15
330
5
100
AcDbSymbolTableRecord
100
AcDbLinetypeTableRecord
  2
BYLAYER
 70
     0
  3

 72
    65
 73
     0
 40
0.0
  0
LTYPE
  5
16
330
5
100
AcDbSymbolTableRecord
100
AcDbLinetypeTableRecord
  2
CONTINUOUS
 70
     0
  3
Solid line
 72
    65
 73
     0
 40
0.0
  0
LTYPE
  5
258
330
5
100
AcDbSymbolTableRecord
100
AcDbLinetypeTableRecord
  2
CENTER2
 70
     0
  3
___ _ ___ _ ___ _ ___ _ ___ _ ___ _ ___ _ ___ _
 72
    65
 73
     4
 40
1.125
 49
0.75
 74
     0
 49
-0.125
 74
     0
 49
0.125
 74
     0
 49
-0.125
 74
     0
  0
LTYPE
  5
25C
330
5
100
AcDbSymbolTableRecord
100
AcDbLinetypeTableRecord
  2
HIDDEN2
 70
     0
  3
_ _ _ _ _ _ _ _ _ _ _ _ _ _ _ _ _ _ _ _ _ _ _ _
 72
    65
 73
     2
 40
0.1875
 49
0.125
 74
     0
 49
-0.0625
 74
     0
  0
ENDTAB
  0
TABLE
  2
LAYER
  5
2
330
0
100
AcDbSymbolTable
 70
    11
  0
LAYER
  5
F
330
2
100
AcDbSymbolTableRecord
100
AcDbLayerTableRecord
  2
0
 70
     0
 62
     7
  6
CONTINUOUS
  0
LAYER
  5
1AA
330
2
100
AcDbSymbolTableRecord
100
AcDbLayerTableRecord
  2
240
 70
     0
 62
     4
  6
CONTINUOUS
  0
LAYER
  5
1AB
330
2
100
AcDbSymbolTableRecord
100
AcDbLayerTableRecord
  2
241
 70
     0
 62
   211
  6
CONTINUOUS
  0
LAYER
  5
1AC
330
2
100
AcDbSymbolTableRecord
100
AcDbLayerTableRecord
  2
242
 70
     0
 62
     3
  6
CONTINUOUS
  0
LAYER
  5
1AD
330
2
100
AcDbSymbolTableRecord
100
AcDbLayerTableRecord
  2
243
 70
     0
 62
   211
  6
HIDDEN2
  0
LAYER
  5
1AF
330
2
100
AcDbSymbolTableRecord
100
AcDbLayerTableRecord
  2
245
 70
     0
 62
     2
  6
CENTER2
  0
LAYER
  5
21E
330
2
100
AcDbSymbolTableRecord
100
AcDbLayerTableRecord
  2
250
 70
     0
 62
     3
  6
CONTINUOUS
  0
LAYER
  5
21F
330
2
100
AcDbSymbolTableRecord
100
AcDbLayerTableRecord
  2
251
 70
     0
 62
    40
  6
CONTINUOUS
  0
LAYER
  5
5C4
330
2
100
AcDbSymbolTableRecord
100
AcDbLayerTableRecord
  2
DEFPOINTS
 70
     0
 62
     7
  6
CONTINUOUS
  0
ENDTAB
  0
TABLE
  2
STYLE
  5
3
330
0
100
AcDbSymbolTable
 70
     2
  0
STYLE
  5
10
330
3
100
AcDbSymbolTableRecord
100
AcDbTextStyleTableRecord
  2
STANDARD
 70
     0
 40
0.0
 41
1.0
 50
0.0
 71
     0
 42
3.0
  3
romans.shx
  4
BIGFONT.SHX
  0
STYLE
  5
339
330
3
100
AcDbSymbolTableRecord
100
AcDbTextStyleTableRecord
  2
YOKO
 70
     0
 40
0.0
 41
1.0
 50
0.0
 71
     0
 42
3.0
  3
romans.shx
  4
extfont.shx
  0
ENDTAB
  0
TABLE
  2
VIEW
  5
6
330
0
100
AcDbSymbolTable
 70
     0
  0
ENDTAB
  0
TABLE
  2
UCS
  5
7
330
0
100
AcDbSymbolTable
 70
     0
  0
ENDTAB
  0
TABLE
  2
APPID
  5
9
330
0
100
AcDbSymbolTable
 70
    15
  0
APPID
  5
11
330
9
100
AcDbSymbolTableRecord
100
AcDbRegAppTableRecord
  2
ACAD
 70
     0
  0
APPID
  5
1B1
330
9
100
AcDbSymbolTableRecord
100
AcDbRegAppTableRecord
  2
GLOBAL
 70
     0
  0
APPID
  5
2A4
330
9
100
AcDbSymbolTableRecord
100
AcDbRegAppTableRecord
  2
DETAIL
 70
     0
  0
APPID
  5
5FD
330
9
100
AcDbSymbolTableRecord
100
AcDbRegAppTableRecord
  2
GRPNAME
 70
     0
  0
APPID
  5
5FE
330
9
100
AcDbSymbolTableRecord
100
AcDbRegAppTableRecord
  2
GPARA
 70
     0
  0
APPID
  5
6C4
330
9
100
AcDbSymbolTableRecord
100
AcDbRegAppTableRecord
  2
DCO15
 70
     0
  0
APPID
  5
6C5
330
9
100
AcDbSymbolTableRecord
100
AcDbRegAppTableRecord
  2
ITEMNAME
 70
     0
  0
APPID
  5
6C6
330
9
100
AcDbSymbolTableRecord
100
AcDbRegAppTableRecord
  2
GRADE_0
 70
     0
  0
APPID
  5
8C6
330
9
100
AcDbSymbolTableRecord
100
AcDbRegAppTableRecord
  2
GENIUS_GENODEF_13
 70
     0
  0
APPID
  5
8C7
330
9
100
AcDbSymbolTableRecord
100
AcDbRegAppTableRecord
  2
GENIUS_GENOBJ-N-FIL_13
 70
     0
  0
APPID
  5
8C8
330
9
100
AcDbSymbolTableRecord
100
AcDbRegAppTableRecord
  2
GENIUS_GENOBJ-N-CEN_13
 70
     0
  0
APPID
  5
8C9
330
9
100
AcDbSymbolTableRecord
100
AcDbRegAppTableRecord
  2
HATCH_TYPE
 70
     0
  0
APPID
  5
8CA
330
9
100
AcDbSymbolTableRecord
100
AcDbRegAppTableRecord
  2
HATCH_DISPLAY
 70
     0
  0
APPID
  5
8CB
330
9
100
AcDbSymbolTableRecord
100
AcDbRegAppTableRecord
  2
HATCH_DISTANCE
 70
     0
  0
APPID
  5
D77
330
9
100
AcDbSymbolTableRecord
100
AcDbRegAppTableRecord
  2
CONTENTBLOCKICON
 70
     0
  0
ENDTAB
  0
TABLE
  2
DIMSTYLE
  5
A
330
0
100
AcDbSymbolTable
 70
     1
  0
DIMSTYLE
105
725
102
{ACAD_REACTORS
330
FF1
330
FF3
330
EDB
102
}
330
A
100
AcDbSymbolTableRecord
100
AcDbDimStyleTableRecord
  2
BIGT
 70
     0
  3

  4

  5

  6
OPEN
  7
OPEN
 40
1.0
 41
2.23
 42
0.5
 43
2.5
 44
1.0
 45
0.0
 46
0.0
 47
0.0
 48
0.0
140
2.8
141
0.0
142
0.0
143
25.4
144
1.0
145
0.0
146
1.0
147
1.0
 71
     0
 72
     0
 73
     0
 74
     0
 75
     0
 76
     0
 77
     3
 78
     8
170
     0
171
     2
172
     1
173
     1
174
     1
175
     0
176
   256
177
   256
178
    40
270
     2
271
     3
272
     3
273
     2
274
     2
340
10
275
     0
280
     0
281
     0
282
     0
283
     1
284
     8
285
     0
286
     0
287
     3
288
     0
  0
ENDTAB
  0
TABLE
  2
BLOCK_RECORD
  5
1
330
0
100
AcDbSymbolTable
 70
    13
  0
BLOCK_RECORD
  5
1A
102
{ACAD_XDICTIONARY
360
D75
102
}
330
1
100
AcDbSymbolTableRecord
100
AcDbBlockTableRecord
  2
*MODEL_SPACE
  0
BLOCK_RECORD
  5
17
102
{ACAD_XDICTIONARY
360
D73
102
}
330
1
100
AcDbSymbolTableRecord
100
AcDbBlockTableRecord
  2
*PAPER_SPACE
  0
BLOCK_RECORD
  5
594
330
1
100
AcDbSymbolTableRecord
100
AcDbBlockTableRecord
  2
_OPEN
  0
BLOCK_RECORD
  5
6E3
330
1
100
AcDbSymbolTableRecord
100
AcDbBlockTableRecord
  2
矢印なし
  0
BLOCK_RECORD
  5
762
330
1
100
AcDbSymbolTableRecord
100
AcDbBlockTableRecord
  2
1
1001
CONTENTBLOCKICON
1071
        0
1004
2800000020000000200000000100080000000000000400000000000000000000000000000000000000000000000080000080000000808000800000008000800080800000C0C0C000C0DCC000F0CAA6000020400000206000002080000020A0000020C0000020E00000400000004020000040400000406000004080000040A0
1004
000040C0000040E00000600000006020000060400000606000006080000060A0000060C0000060E00000800000008020000080400000806000008080000080A0000080C0000080E00000A0000000A0200000A0400000A0600000A0800000A0A00000A0C00000A0E00000C0000000C0200000C0400000C0600000C0800000C0
1004
A00000C0C00000C0E00000E0000000E0200000E0400000E0600000E0800000E0A00000E0C00000E0E00040000000400020004000400040006000400080004000A0004000C0004000E00040200000402020004020400040206000402080004020A0004020C0004020E000404000004040200040404000404060004040800040
1004
40A0004040C0004040E00040600000406020004060400040606000406080004060A0004060C0004060E00040800000408020004080400040806000408080004080A0004080C0004080E00040A0000040A0200040A0400040A0600040A0800040A0A00040A0C00040A0E00040C0000040C0200040C0400040C0600040C08000
1004
40C0A00040C0C00040C0E00040E0000040E0200040E0400040E0600040E0800040E0A00040E0C00040E0E00080000000800020008000400080006000800080008000A0008000C0008000E00080200000802020008020400080206000802080008020A0008020C0008020E00080400000804020008040400080406000804080
1004
008040A0008040C0008040E00080600000806020008060400080606000806080008060A0008060C0008060E00080800000808020008080400080806000808080008080A0008080C0008080E00080A0000080A0200080A0400080A0600080A0800080A0A00080A0C00080A0E00080C0000080C0200080C0400080C0600080C0
1004
800080C0A00080C0C00080C0E00080E0000080E0200080E0400080E0600080E0800080E0A00080E0C00080E0E000C0000000C0002000C0004000C0006000C0008000C000A000C000C000C000E000C0200000C0202000C0204000C0206000C0208000C020A000C020C000C020E000C0400000C0402000C0404000C0406000C0
1004
408000C040A000C040C000C040E000C0600000C0602000C0604000C0606000C0608000C060A000C060C000C060E000C0800000C0802000C0804000C0806000C0808000C080A000C080C000C080E000C0A00000C0A02000C0A04000C0A06000C0A08000C0A0A000C0A0C000C0A0E000C0C00000C0C02000C0C04000C0C06000
1004
C0C08000C0C0A000F0FBFF00A4A0A000808080000000FF0000FF000000FFFF00FF000000FF00FF00FFFF0000FFFFFF0000000000000000000000000000000000000000000000000000000000000000000000000000000000000000000000000000000000000000000000000000000000000000000000000000000000000000
1004
00000000000000000000000000000000000000000000000000000000000000000000000000000000000000000000000000000000000000000000000000000000000000000000000000000000000000000000000000000000000000000000000000000000000000000000000000000000000000000000000000000000000000
1004
00000000000000000000000000000000000000000000000000000000000000000000000000000000000000000000000000000000000000000000000000000000000000000000000000000000000000000000000000000000000000000000000000000000000000000000000000000000000000000000000000000000000000
1004
000000000000000000000000000000000000000000000000000000000000000000000000000000000000000000000000000000000000000000000000000000FEFE0000000000000000000000000000000000000000FEFEFEFB00FEFEFEFEFEFEFEFEFEFEFEFEFEFEFEFEFEFEFEFEFEFEFE00000000FE00FEFEFEFEE7E7E7E7
1004
E7E7E7000000000000000000FEFE000000FE00000000FE0000FBE7E7FBFBE7E7E7E7E7000000000000000000E7E7000000FE000000FBFEFBFBFBE7E7E7FBE7E7E7E7FFFFFFFBFBFBFBFBFBE7E7E7E7E7E7E7FB000000FE00FEFEFEFEE700E7E7E7E7FFFFFFFFFFFFFFFFFFE7FEFEE70000FE00000000FEFEFEFB00FEFEFEFE
1004
FEFEFEFEFEFEFEFEFEFEFEFEFEFEFEFEFEFEFE0000000000000000000000000000FEE70000000000000000000000000000000000000000000000000000000000000000000000000000000000000000000000000000000000000000000000000000000000000000000000000000000000000000000000000000000000000000
1004
00000000000000000000000000000000000000000000000000000000000000000000000000000000000000000000000000000000000000000000000000000000000000000000000000000000000000000000000000000000000000000000000000000000000000000000000000000000000000000000000000000000000000
1004
00000000000000000000000000000000000000000000000000000000000000000000000000000000000000000000000000000000000000000000000000000000000000000000000000000000000000000000000000000000000000000000000000000000000000000000000000000000000000000000000000000000000000
1004
0000000000000000000000000000000000000000000000000000000000000000000000000000000000000000000000000000000000000000
  0
BLOCK_RECORD
  5
FFA
330
1
100
AcDbSymbolTableRecord
100
AcDbBlockTableRecord
  2
*D10
  0
BLOCK_RECORD
  5
1005
330
1
100
AcDbSymbolTableRecord
100
AcDbBlockTableRecord
  2
*D11
  0
BLOCK_RECORD
  5
1011
330
1
100
AcDbSymbolTableRecord
100
AcDbBlockTableRecord
  2
*D12
  0
ENDTAB
  0
ENDSEC
  0
SECTION
  2
BLOCKS
  0
BLOCK
  5
1B
330
1A
100
AcDbEntity
  8
0
100
AcDbBlockBegin
  2
*MODEL_SPACE
 70
     0
 10
0.0
 20
0.0
 30
0.0
  3
*MODEL_SPACE
  1

  0
ENDBLK
  5
1C
330
1A
100
AcDbEntity
  8
0
100
AcDbBlockEnd
  0
BLOCK
  5
18
330
17
100
AcDbEntity
 67
     1
  8
0
100
AcDbBlockBegin
  2
*PAPER_SPACE
 70
     0
 10
0.0
 20
0.0
 30
0.0
  3
*PAPER_SPACE
  1

  0
ENDBLK
  5
19
330
17
100
AcDbEntity
 67
     1
  8
0
100
AcDbBlockEnd
  0
BLOCK
  5
598
330
594
100
AcDbEntity
  8
0
100
AcDbBlockBegin
  2
_OPEN
 70
     0
 10
0.0
 20
0.0
 30
0.0
  3
_OPEN
  1

  0
LINE
  5
595
330
594
100
AcDbEntity
  8
0
  6
BYBLOCK
 62
     0
100
AcDbLine
 10
-1.0
 20
0.16666667
 30
0.0
 11
0.0
 21
0.0
 31
0.0
  0
LINE
  5
596
330
594
100
AcDbEntity
  8
0
  6
BYBLOCK
 62
     0
100
AcDbLine
 10
-1.0
 20
-0.16666667
 30
0.0
 11
0.0
 21
0.0
 31
0.0
  0
LINE
  5
597
330
594
100
AcDbEntity
  8
0
  6
BYBLOCK
 62
     0
100
AcDbLine
 10
0.0
 20
0.0
 30
0.0
 11
-1.0
 21
0.0
 31
0.0
  0
ENDBLK
  5
599
330
594
100
AcDbEntity
  8
0
100
AcDbBlockEnd
  0
BLOCK
  5
6E4
330
6E3
100
AcDbEntity
  8
0
100
AcDbBlockBegin
  2
矢印なし
 70
     0
 10
0.0
 20
0.0
 30
0.0
  3
矢印なし
  1

  0
ENDBLK
  5
6E5
330
6E3
100
AcDbEntity
  8
0
100
AcDbBlockEnd
  0
BLOCK
  5
8A1
330
762
100
AcDbEntity
  8
0
100
AcDbBlockBegin
  2
1
 70
     0
 10
0.0
 20
0.0
 30
0.0
  3
1
  1

  0
TEXT
  5
105B
330
762
100
AcDbEntity
  8
0
100
AcDbText
 10
12.23365151
 20
4.17866093
 30
0.0
 40
2.45
  1
MGT12-M12-70
  7
YOKO
100
AcDbText
  0
LINE
  5
105C
330
762
100
AcDbEntity
  8
240
100
AcDbLine
 10
48.0
 20
10.0
 30
0.0
 11
1.70514916
 21
10.0
 31
0.0
  0
LINE
  5
105D
330
762
100
AcDbEntity
  8
240
100
AcDbLine
 10
48.0
 20
-10.0
 30
0.0
 11
1.70514916
 21
-10.0
 31
0.0
  0
LINE
  5
105E
330
762
100
AcDbEntity
  8
245
100
AcDbLine
 10
-52.0
 20
0.0
 30
0.0
 11
71.0
 21
0.0
 31
0.0
  0
LINE
  5
105F
330
762
100
AcDbEntity
  8
240
100
AcDbLine
 10
-40.5
 20
8.0
 30
0.0
 11
-35.0
 21
8.0
 31
0.0
  0
LINE
  5
1060
330
762
100
AcDbEntity
  8
240
100
AcDbLine
 10
-40.5
 20
-8.0
 30
0.0
 11
-35.0
 21
-8.0
 31
0.0
  0
LINE
  5
1061
330
762
100
AcDbEntity
  8
243
100
AcDbLine
 10
-38.0
 20
8.0
 30
0.0
 11
-38.0
 21
-8.0
 31
0.0
  0
LINE
  5
1062
330
762
100
AcDbEntity
  8
240
100
AcDbLine
 10
-51.0
 20
-9.0
 30
0.0
 11
-51.0
 21
0.0
 31
0.0
  0
LINE
  5
1063
330
762
100
AcDbEntity
  8
240
100
AcDbLine
 10
-50.0
 20
-10.0
 30
0.0
 11
-42.5
 21
-10.0
 31
0.0
  0
ARC
  5
1064
330
762
100
AcDbEntity
  8
240
100
AcDbCircle
 10
-50.0
 20
-9.0
 30
0.0
 40
1.0
100
AcDbArc
 50
180.0
 51
270.0
  0
LINE
  5
1065
330
762
100
AcDbEntity
  8
240
100
AcDbLine
 10
-40.5
 20
-8.0
 30
0.0
 11
-42.5
 21
-10.0
 31
0.0
  0
LINE
  5
1066
330
762
100
AcDbEntity
  8
240
100
AcDbLine
 10
-40.5
 20
8.0
 30
0.0
 11
-42.5
 21
10.0
 31
0.0
  0
LINE
  5
1067
330
762
100
AcDbEntity
  8
240
100
AcDbLine
 10
-51.0
 20
9.0
 30
0.0
 11
-51.0
 21
0.0
 31
0.0
  0
LINE
  5
1068
330
762
100
AcDbEntity
  8
240
100
AcDbLine
 10
-50.0
 20
10.0
 30
0.0
 11
-42.5
 21
10.0
 31
0.0
  0
ARC
  5
1069
330
762
100
AcDbEntity
  8
240
100
AcDbCircle
 10
-50.0
 20
9.0
 30
0.0
 40
1.0
100
AcDbArc
 50
90.0
 51
180.0
  0
LINE
  5
106A
330
762
100
AcDbEntity
  8
243
100
AcDbLine
 10
-32.0
 20
8.0
 30
0.0
 11
-32.0
 21
-8.0
 31
0.0
  0
LINE
  5
106B
330
762
100
AcDbEntity
  8
245
100
AcDbLine
 10
-35.0
 20
10.0
 30
0.0
 11
-35.0
 21
-10.0
 31
0.0
1001
GENIUS_GENOBJ-N-CEN_13
1002
{
1000
OWNER
1000
GEN
1002
}
1001
GENIUS_GENODEF_13
1002
{
1000
HIER
1070
     0
1002
}
1002
{
1000
MANEDIT
1070
     0
1002
}
1002
{
1000
NOSEL
1070
     0
1002
}
1002
{
1000
BEHIND
1070
     0
1002
}
1002
{
1000
OTHER
1070
     0
1002
}
1002
{
1000
REACTOR
1002
}
  0
LINE
  5
106C
330
762
100
AcDbEntity
  8
245
100
AcDbLine
 10
-20.0
 20
-1.47171409
 30
0.0
 11
-20.0
 21
-5.23048457
 31
0.0
  0
ELLIPSE
  5
106D
330
762
100
AcDbEntity
  8
241
100
AcDbEllipse
 10
-20.0
 20
-3.35109933
 30
0.0
 11
-1.999999999999971
 21
0.0
 31
0.0
210
0.0
220
0.0
230
1.0
 40
0.93969262
 41
0.0
 42
6.283185307179584
  0
LINE
  5
106E
330
762
100
AcDbEntity
  8
241
100
AcDbLine
 10
-25.5
 20
-9.0
 30
0.0
 11
-25.5
 21
0.0
 31
0.0
  0
LINE
  5
106F
330
762
100
AcDbEntity
  8
241
100
AcDbLine
 10
-23.5
 20
-9.0
 30
0.0
 11
-23.5
 21
0.0
 31
0.0
  0
LINE
  5
1070
330
762
100
AcDbEntity
  8
241
100
AcDbLine
 10
-16.5
 20
-9.0
 30
0.0
 11
-16.5
 21
0.0
 31
0.0
  0
LINE
  5
1071
330
762
100
AcDbEntity
  8
241
100
AcDbLine
 10
-14.5
 20
-9.0
 30
0.0
 11
-14.5
 21
0.0
 31
0.0
  0
LINE
  5
1072
330
762
100
AcDbEntity
  8
241
100
AcDbLine
 10
-11.5
 20
-10.0
 30
0.0
 11
-11.5
 21
0.0
 31
0.0
  0
LINE
  5
1073
330
762
100
AcDbEntity
  8
241
  6
CONTINUOUS
100
AcDbLine
 10
-6.5
 20
-13.0
 30
0.0
 11
-6.5
 21
0.0
 31
0.0
  0
LINE
  5
1074
330
762
100
AcDbEntity
  8
241
100
AcDbLine
 10
-5.12626129
 20
-13.5
 30
0.0
 11
-5.12626129
 21
0.0
 31
0.0
  0
LINE
  5
1075
330
762
100
AcDbEntity
  8
241
100
AcDbLine
 10
-4.0
 20
-12.5
 30
0.0
 11
-4.0
 21
0.0
 31
0.0
  0
LINE
  5
1076
330
762
100
AcDbEntity
  8
241
100
AcDbLine
 10
-2.0
 20
-12.5
 30
0.0
 11
-2.0
 21
0.0
 31
0.0
  0
LINE
  5
1077
330
762
100
AcDbEntity
  8
241
100
AcDbLine
 10
0.93782217
 20
-10.35874398
 30
0.0
 11
0.93782217
 21
0.0
 31
0.0
  0
LINE
  5
1078
330
762
100
AcDbEntity
  8
241
100
AcDbLine
 10
0.0
 20
-13.14125603
 30
0.0
 11
0.0
 21
0.0
 31
0.0
  0
ARC
  5
1079
330
762
100
AcDbEntity
  8
240
100
AcDbCircle
 10
-0.76732699
 20
-12.5
 30
0.0
 40
1.0
100
AcDbArc
 50
285.0
 51
345.0
1001
GENIUS_GENODEF_13
1002
{
1000
HIER
1070
     0
1002
}
1002
{
1000
MANEDIT
1070
     0
1002
}
1002
{
1000
NOSEL
1070
     0
1002
}
1002
{
1000
BEHIND
1070
     0
1002
}
1002
{
1000
OTHER
1070
     0
1002
}
1002
{
1000
REACTOR
1002
}
1001
GENIUS_GENOBJ-N-FIL_13
1002
{
1000
OWNER
1000
GEN
1002
}
  0
LINE
  5
107A
330
762
100
AcDbEntity
  8
240
100
AcDbLine
 10
-23.5
 20
-10.0
 30
0.0
 11
-16.5
 21
-10.0
 31
0.0
  0
LINE
  5
107B
330
762
100
AcDbEntity
  8
240
100
AcDbLine
 10
-29.5
 20
-8.0
 30
0.0
 11
-27.5
 21
-10.0
 31
0.0
  0
LINE
  5
107C
330
762
100
AcDbEntity
  8
240
100
AcDbLine
 10
-35.0
 20
-8.0
 30
0.0
 11
-29.5
 21
-8.0
 31
0.0
  0
ARC
  5
107D
330
762
100
AcDbEntity
  8
240
100
AcDbCircle
 10
-24.5
 20
-9.0
 30
0.0
 40
0.9999999999999495
100
AcDbArc
 50
180.0
 51
0.0
  0
LINE
  5
107E
330
762
100
AcDbEntity
  8
240
100
AcDbLine
 10
-25.5
 20
-9.0
 30
0.0
 11
-25.5
 21
-10.0
 31
0.0
  0
LINE
  5
107F
330
762
100
AcDbEntity
  8
240
100
AcDbLine
 10
-23.5
 20
-9.0
 30
0.0
 11
-23.5
 21
-10.0
 31
0.0
  0
LINE
  5
1080
330
762
100
AcDbEntity
  8
240
100
AcDbLine
 10
-27.5
 20
-10.0
 30
0.0
 11
-25.5
 21
-10.0
 31
0.0
  0
LINE
  5
1081
330
762
100
AcDbEntity
  8
241
  6
CONTINUOUS
100
AcDbLine
 10
-6.5
 20
-10.2
 30
0.0
 11
-10.0
 21
-10.2
 31
0.0
  0
LINE
  5
1082
330
762
100
AcDbEntity
  8
240
100
AcDbLine
 10
-6.50000001
 20
-13.0
 30
0.0
 11
-10.5
 21
-13.0
 31
0.0
  0
ARC
  5
1083
330
762
100
AcDbEntity
  8
240
100
AcDbCircle
 10
-15.5
 20
-9.0
 30
0.0
 40
1.0
100
AcDbArc
 50
180.0
 51
0.0
  0
LINE
  5
1084
330
762
100
AcDbEntity
  8
240
100
AcDbLine
 10
-11.2
 20
-9.7
 30
0.0
 11
-11.5
 21
-10.0
 31
0.0
  0
LINE
  5
1085
330
762
100
AcDbEntity
  8
240
100
AcDbLine
 10
-16.5
 20
-9.0
 30
0.0
 11
-16.5
 21
-10.0
 31
0.0
  0
LINE
  5
1086
330
762
100
AcDbEntity
  8
240
100
AcDbLine
 10
-14.5
 20
-9.0
 30
0.0
 11
-14.5
 21
-10.0
 31
0.0
  0
LINE
  5
1087
330
762
100
AcDbEntity
  8
240
100
AcDbLine
 10
-10.0
 20
-10.5
 30
0.0
 11
-10.0
 21
-9.7
 31
0.0
  0
LINE
  5
1088
330
762
100
AcDbEntity
  8
240
100
AcDbLine
 10
-14.5
 20
-10.0
 30
0.0
 11
-11.5
 21
-10.0
 31
0.0
  0
LINE
  5
1089
330
762
100
AcDbEntity
  8
240
100
AcDbLine
 10
-10.0
 20
-10.5
 30
0.0
 11
-10.5
 21
-11.0
 31
0.0
  0
LINE
  5
108A
330
762
100
AcDbEntity
  8
240
100
AcDbLine
 10
-10.5
 20
-13.0
 30
0.0
 11
-10.5
 21
-11.0
 31
0.0
  0
LINE
  5
108B
330
762
100
AcDbEntity
  8
240
100
AcDbLine
 10
-11.2
 20
-9.7
 30
0.0
 11
-10.0
 21
-9.7
 31
0.0
  0
LINE
  5
108C
330
762
100
AcDbEntity
  8
240
100
AcDbLine
 10
-4.0
 20
-13.5
 30
0.0
 11
-5.12626128
 21
-13.5
 31
0.0
  0
LINE
  5
108D
330
762
100
AcDbEntity
  8
240
100
AcDbLine
 10
-6.50000001
 20
-13.0
 30
0.0
 11
-5.12626128
 21
-13.5
 31
0.0
  0
ARC
  5
108E
330
762
100
AcDbEntity
  8
240
100
AcDbCircle
 10
-3.0
 20
-12.5
 30
0.0
 40
1.000000000000227
100
AcDbArc
 50
180.0
 51
0.0
  0
LINE
  5
108F
330
762
100
AcDbEntity
  8
240
100
AcDbLine
 10
-0.50850794
 20
-13.46592583
 30
0.0
 11
-0.63567449
 21
-13.5
 31
0.0
  0
LINE
  5
1090
330
762
100
AcDbEntity
  8
240
100
AcDbLine
 10
-4.0
 20
-12.5
 30
0.0
 11
-4.0
 21
-13.5
 31
0.0
  0
LINE
  5
1091
330
762
100
AcDbEntity
  8
240
100
AcDbLine
 10
-2.0
 20
-12.5
 30
0.0
 11
-2.0
 21
-13.5
 31
0.0
  0
LINE
  5
1092
330
762
100
AcDbEntity
  8
240
100
AcDbLine
 10
-0.63567449
 20
-13.5
 30
0.0
 11
-2.0
 21
-13.5
 31
0.0
  0
ARC
  5
1093
330
762
100
AcDbEntity
  8
240
100
AcDbCircle
 10
1.70514916
 20
-11.0
 30
0.0
 40
1.0
100
AcDbArc
 50
90.0
 51
165.00000022
  0
LINE
  5
1094
330
762
100
AcDbEntity
  8
240
100
AcDbLine
 10
0.19859884
 20
-12.75881905
 30
0.0
 11
0.73922333
 21
-10.74118096
 31
0.0
  0
ARC
  5
1095
330
762
100
AcDbEntity
  8
240
100
AcDbCircle
 10
-0.76732699
 20
12.5
 30
0.0
 40
1.0
100
AcDbArc
 50
15.0
 51
75.0
1001
GENIUS_GENODEF_13
1002
{
1000
HIER
1070
     0
1002
}
1002
{
1000
MANEDIT
1070
     0
1002
}
1002
{
1000
NOSEL
1070
     0
1002
}
1002
{
1000
BEHIND
1070
     0
1002
}
1002
{
1000
OTHER
1070
     0
1002
}
1002
{
1000
REACTOR
1002
}
1001
GENIUS_GENOBJ-N-FIL_13
1002
{
1000
OWNER
1000
GEN
1002
}
  0
LINE
  5
1096
330
762
100
AcDbEntity
  8
245
100
AcDbLine
 10
-21.99864763
 20
-3.42020133
 30
0.0
 11
-18.00135237
 21
-3.42020133
 31
0.0
  0
LINE
  5
1097
330
762
100
AcDbEntity
  8
240
100
AcDbLine
 10
-23.5
 20
10.0
 30
0.0
 11
-16.5
 21
10.0
 31
0.0
  0
LINE
  5
1098
330
762
100
AcDbEntity
  8
240
100
AcDbLine
 10
-29.5
 20
8.0
 30
0.0
 11
-27.5
 21
10.0
 31
0.0
  0
LINE
  5
1099
330
762
100
AcDbEntity
  8
241
100
AcDbLine
 10
-23.5
 20
9.0
 30
0.0
 11
-23.5
 21
0.0
 31
0.0
  0
LINE
  5
109A
330
762
100
AcDbEntity
  8
241
100
AcDbLine
 10
-25.5
 20
9.0
 30
0.0
 11
-25.5
 21
0.0
 31
0.0
  0
LINE
  5
109B
330
762
100
AcDbEntity
  8
240
100
AcDbLine
 10
-35.0
 20
8.0
 30
0.0
 11
-29.5
 21
8.0
 31
0.0
  0
LINE
  5
109C
330
762
100
AcDbEntity
  8
240
100
AcDbLine
 10
-23.5
 20
9.0
 30
0.0
 11
-23.5
 21
10.0
 31
0.0
  0
LINE
  5
109D
330
762
100
AcDbEntity
  8
240
100
AcDbLine
 10
-25.5
 20
9.0
 30
0.0
 11
-25.5
 21
10.0
 31
0.0
  0
ARC
  5
109E
330
762
100
AcDbEntity
  8
240
100
AcDbCircle
 10
-24.5
 20
9.0
 30
0.0
 40
0.9999999999999495
100
AcDbArc
 50
0.0
 51
180.0
  0
LINE
  5
109F
330
762
100
AcDbEntity
  8
240
100
AcDbLine
 10
-27.5
 20
10.0
 30
0.0
 11
-25.5
 21
10.0
 31
0.0
  0
LINE
  5
10A0
330
762
100
AcDbEntity
  8
241
100
AcDbLine
 10
-2.0
 20
12.5
 30
0.0
 11
-2.0
 21
0.0
 31
0.0
  0
LINE
  5
10A1
330
762
100
AcDbEntity
  8
241
100
AcDbLine
 10
-4.0
 20
12.5
 30
0.0
 11
-4.0
 21
0.0
 31
0.0
  0
LINE
  5
10A2
330
762
100
AcDbEntity
  8
241
100
AcDbLine
 10
-5.12626129
 20
13.5
 30
0.0
 11
-5.12626129
 21
0.0
 31
0.0
  0
LINE
  5
10A3
330
762
100
AcDbEntity
  8
241
  6
CONTINUOUS
100
AcDbLine
 10
-6.5
 20
13.0
 30
0.0
 11
-6.5
 21
0.0
 31
0.0
  0
LINE
  5
10A4
330
762
100
AcDbEntity
  8
241
100
AcDbLine
 10
-11.5
 20
10.0
 30
0.0
 11
-11.5
 21
0.0
 31
0.0
  0
LINE
  5
10A5
330
762
100
AcDbEntity
  8
241
100
AcDbLine
 10
-14.5
 20
9.0
 30
0.0
 11
-14.5
 21
0.0
 31
0.0
  0
LINE
  5
10A6
330
762
100
AcDbEntity
  8
241
100
AcDbLine
 10
-16.5
 20
9.0
 30
0.0
 11
-16.5
 21
0.0
 31
0.0
  0
LINE
  5
10A7
330
762
100
AcDbEntity
  8
240
100
AcDbLine
 10
-6.50000001
 20
13.0
 30
0.0
 11
-10.5
 21
13.0
 31
0.0
  0
LINE
  5
10A8
330
762
100
AcDbEntity
  8
241
  6
CONTINUOUS
100
AcDbLine
 10
-6.5
 20
10.2
 30
0.0
 11
-10.0
 21
10.2
 31
0.0
  0
LINE
  5
10A9
330
762
100
AcDbEntity
  8
240
100
AcDbLine
 10
-14.5
 20
10.0
 30
0.0
 11
-11.5
 21
10.0
 31
0.0
  0
LINE
  5
10AA
330
762
100
AcDbEntity
  8
240
100
AcDbLine
 10
-14.5
 20
9.0
 30
0.0
 11
-14.5
 21
10.0
 31
0.0
  0
LINE
  5
10AB
330
762
100
AcDbEntity
  8
240
100
AcDbLine
 10
-16.5
 20
9.0
 30
0.0
 11
-16.5
 21
10.0
 31
0.0
  0
ARC
  5
10AC
330
762
100
AcDbEntity
  8
240
100
AcDbCircle
 10
-15.5
 20
9.0
 30
0.0
 40
1.0
100
AcDbArc
 50
0.0
 51
180.0
  0
LINE
  5
10AD
330
762
100
AcDbEntity
  8
240
100
AcDbLine
 10
-10.0
 20
10.5
 30
0.0
 11
-10.0
 21
9.7
 31
0.0
  0
LINE
  5
10AE
330
762
100
AcDbEntity
  8
240
100
AcDbLine
 10
-11.2
 20
9.7
 30
0.0
 11
-11.5
 21
10.0
 31
0.0
  0
LINE
  5
10AF
330
762
100
AcDbEntity
  8
240
100
AcDbLine
 10
-10.5
 20
13.0
 30
0.0
 11
-10.5
 21
11.0
 31
0.0
  0
LINE
  5
10B0
330
762
100
AcDbEntity
  8
240
100
AcDbLine
 10
-10.0
 20
10.5
 30
0.0
 11
-10.5
 21
11.0
 31
0.0
  0
LINE
  5
10B1
330
762
100
AcDbEntity
  8
240
100
AcDbLine
 10
-11.2
 20
9.7
 30
0.0
 11
-10.0
 21
9.7
 31
0.0
  0
LINE
  5
10B2
330
762
100
AcDbEntity
  8
240
100
AcDbLine
 10
-4.0
 20
13.5
 30
0.0
 11
-5.12626128
 21
13.5
 31
0.0
  0
LINE
  5
10B3
330
762
100
AcDbEntity
  8
240
100
AcDbLine
 10
-6.50000001
 20
13.0
 30
0.0
 11
-5.12626128
 21
13.5
 31
0.0
  0
LINE
  5
10B4
330
762
100
AcDbEntity
  8
240
100
AcDbLine
 10
-0.63567449
 20
13.5
 30
0.0
 11
-2.0
 21
13.5
 31
0.0
  0
LINE
  5
10B5
330
762
100
AcDbEntity
  8
240
100
AcDbLine
 10
-2.0
 20
12.5
 30
0.0
 11
-2.0
 21
13.5
 31
0.0
  0
LINE
  5
10B6
330
762
100
AcDbEntity
  8
240
100
AcDbLine
 10
-4.0
 20
12.5
 30
0.0
 11
-4.0
 21
13.5
 31
0.0
  0
LINE
  5
10B7
330
762
100
AcDbEntity
  8
240
100
AcDbLine
 10
-0.50850794
 20
13.46592583
 30
0.0
 11
-0.63567449
 21
13.5
 31
0.0
  0
ARC
  5
10B8
330
762
100
AcDbEntity
  8
240
100
AcDbCircle
 10
-3.0
 20
12.5
 30
0.0
 40
1.000000000000227
100
AcDbArc
 50
0.0
 51
180.0
  0
LINE
  5
10B9
330
762
100
AcDbEntity
  8
241
100
AcDbLine
 10
0.0
 20
13.14125603
 30
0.0
 11
0.0
 21
0.0
 31
0.0
  0
LINE
  5
10BA
330
762
100
AcDbEntity
  8
241
100
AcDbLine
 10
0.93782217
 20
10.35874398
 30
0.0
 11
0.93782217
 21
0.0
 31
0.0
  0
LINE
  5
10BB
330
762
100
AcDbEntity
  8
0
100
AcDbLine
 10
8.80244202
 20
4.36858683
 30
0.0
 11
9.09283791
 21
4.65898272
 31
0.0
  0
LINE
  5
10BC
330
762
100
AcDbEntity
  8
0
100
AcDbLine
 10
8.78170586
 20
4.38932165
 30
0.0
 11
8.96341305
 21
4.20762615
 31
0.0
  0
LINE
  5
10BD
330
762
100
AcDbEntity
  8
0
100
AcDbLine
 10
8.44819735
 20
4.70259128
 30
0.0
 11
9.36953179
 21
5.62392574
 31
0.0
  0
LINE
  5
10BE
330
762
100
AcDbEntity
  8
0
100
AcDbLine
 10
8.51412686
 20
5.78739625
 30
0.0
 11
9.41640636
 21
5.78739625
 31
0.0
  0
LINE
  5
10BF
330
762
100
AcDbEntity
  8
0
100
AcDbLine
 10
8.60429407
 20
5.20281257
 30
0.0
 11
9.18887775
 21
5.78739625
 31
0.0
  0
LINE
  5
10C0
330
762
100
AcDbEntity
  8
0
100
AcDbLine
 10
8.30205416
 20
4.21232354
 30
0.0
 11
9.23118485
 21
5.14145424
 31
0.0
  0
ARC
  5
10C1
330
762
100
AcDbEntity
  8
0
100
AcDbCircle
 10
8.42685174
 20
5.9887383
 30
0.0
 40
1.006711733671874
100
AcDbArc
 50
53.4440122
 51
164.00018439
  0
ARC
  5
10C2
330
762
100
AcDbEntity
  8
0
100
AcDbCircle
 10
8.58900595
 20
6.3294656
 30
0.0
 40
0.325248479934082
100
AcDbArc
 50
1.71012138
 51
163.99839835
  0
ARC
  5
10C3
330
762
100
AcDbEntity
  8
0
100
AcDbCircle
 10
9.80421524
 20
5.36921709
 30
0.0
 40
1.316470876874995
100
AcDbArc
 50
270.0
 51
104.1274365
  0
LINE
  5
10C4
330
762
100
AcDbEntity
  8
0
100
AcDbLine
 10
8.66956326
 20
6.64458001
 30
0.0
 11
8.90150989
 21
6.87652665
 31
0.0
  0
LINE
  5
10C5
330
762
100
AcDbEntity
  8
0
100
AcDbLine
 10
8.53499257
 20
5.47763563
 30
0.0
 11
8.84475317
 21
5.78739625
 31
0.0
  0
LINE
  5
10C6
330
762
100
AcDbEntity
  8
0
100
AcDbLine
 10
3.51611471
 20
3.74298525
 30
0.0
 11
9.80421524
 21
3.74298525
 31
0.0
  0
LINE
  5
10C7
330
762
100
AcDbEntity
  8
0
100
AcDbLine
 10
3.51611471
 20
4.05274585
 30
0.0
 11
9.80421524
 21
4.05274585
 31
0.0
  0
ARC
  5
10C8
330
762
100
AcDbEntity
  8
0
100
AcDbCircle
 10
9.80421524
 20
5.36921709
 30
0.0
 40
1.626231481874998
100
AcDbArc
 50
270.0
 51
104.77079397
  0
LINE
  5
10C9
330
762
100
AcDbEntity
  8
0
100
AcDbLine
 10
4.31692212
 20
6.99544857
 30
0.0
 11
4.22810335
 21
6.68568797
 31
0.0
  0
LINE
  5
10CA
330
762
100
AcDbEntity
  8
0
100
AcDbLine
 10
4.22810335
 20
6.68568797
 30
0.0
 11
4.38922844
 21
6.68568797
 31
0.0
  0
LINE
  5
10CB
330
762
100
AcDbEntity
  8
0
100
AcDbLine
 10
4.04734567
 20
3.74298525
 30
0.0
 11
4.35710626
 21
4.05274585
 31
0.0
  0
LINE
  5
10CC
330
762
100
AcDbEntity
  8
0
100
AcDbLine
 10
3.82373744
 20
4.20762615
 30
0.0
 11
4.70462256
 21
5.08851127
 31
0.0
  0
LINE
  5
10CD
330
762
100
AcDbEntity
  8
0
100
AcDbLine
 10
4.167862
 20
4.20762615
 30
0.0
 11
4.56628318
 21
4.60604731
 31
0.0
  0
LINE
  5
10CE
330
762
100
AcDbEntity
  8
0
100
AcDbLine
 10
3.75867458
 20
4.48668785
 30
0.0
 11
5.06930416
 21
5.79731744
 31
0.0
  0
LINE
  5
10CF
330
762
100
AcDbEntity
  8
0
100
AcDbLine
 10
3.89702109
 20
4.96915892
 30
0.0
 11
4.98131641
 21
6.05345424
 31
0.0
  0
LINE
  5
10D0
330
762
100
AcDbEntity
  8
0
100
AcDbLine
 10
4.17371413
 20
5.9341011
 30
0.0
 11
5.23506161
 21
6.99544857
 31
0.0
  0
LINE
  5
10D1
330
762
100
AcDbEntity
  8
0
100
AcDbLine
 10
4.03536761
 20
5.45163001
 30
0.0
 11
5.11965835
 21
6.53592076
 31
0.0
  0
LINE
  5
10D2
330
762
100
AcDbEntity
  8
0
100
AcDbLine
 10
3.67865483
 20
4.20762615
 30
0.0
 11
4.96410053
 21
4.20762615
 31
0.0
  0
LINE
  5
10D3
330
762
100
AcDbEntity
  8
0
100
AcDbLine
 10
3.67865483
 20
4.20762615
 30
0.0
 11
4.38922844
 21
6.68568797
 31
0.0
  0
LINE
  5
10D4
330
762
100
AcDbEntity
  8
0
100
AcDbLine
 10
2.24738223
 20
4.35189376
 30
0.0
 11
2.46805112
 21
4.57256265
 31
0.0
  0
LINE
  5
10D5
330
762
100
AcDbEntity
  8
0
100
AcDbLine
 10
2.41348792
 20
4.17387488
 30
0.0
 11
2.63274195
 21
4.39312891
 31
0.0
  0
ARC
  5
10D6
330
762
100
AcDbEntity
  8
0
100
AcDbCircle
 10
3.51611471
 20
5.36921709
 30
0.0
 40
1.316470876874995
100
AcDbArc
 50
90.0
 51
270.0
  0
LINE
  5
10D7
330
762
100
AcDbEntity
  8
0
100
AcDbLine
 10
3.89292731
 20
6.68568797
 30
0.0
 11
4.13696325
 21
6.9297239
 31
0.0
  0
LINE
  5
10D8
330
762
100
AcDbEntity
  8
0
100
AcDbLine
 10
4.15580872
 20
6.99544857
 30
0.0
 11
4.06698994
 21
6.68568797
 31
0.0
  0
LINE
  5
10D9
330
762
100
AcDbEntity
  8
0
100
AcDbLine
 10
3.15385465
 20
6.63486444
 30
0.0
 11
3.51443792
 21
6.9954477
 31
0.0
  0
LINE
  5
10DA
330
762
100
AcDbEntity
  8
0
100
AcDbLine
 10
3.36603674
 20
3.74992544
 30
0.0
 11
3.66885713
 21
4.05274585
 31
0.0
  0
LINE
  5
10DB
330
762
100
AcDbEntity
  8
0
100
AcDbLine
 10
2.6055497
 20
4.0218121
 30
0.0
 11
2.82963664
 21
4.24589904
 31
0.0
  0
LINE
  5
10DC
330
762
100
AcDbEntity
  8
0
100
AcDbLine
 10
2.82500648
 20
3.89714432
 30
0.0
 11
3.06156953
 21
4.13370737
 31
0.0
  0
LINE
  5
10DD
330
762
100
AcDbEntity
  8
0
100
AcDbLine
 10
3.07573452
 20
3.80374779
 30
0.0
 11
3.33697778
 21
4.06499106
 31
0.0
  0
LINE
  5
10DE
330
762
100
AcDbEntity
  8
0
100
AcDbLine
 10
3.54880275
 20
6.68568797
 30
0.0
 11
3.85856335
 21
6.99544857
 31
0.0
  0
LINE
  5
10DF
330
762
100
AcDbEntity
  8
0
100
AcDbLine
 10
3.51611471
 20
6.68568797
 30
0.0
 11
4.06698994
 21
6.68568797
 31
0.0
  0
LINE
  5
10E0
330
762
100
AcDbEntity
  8
0
100
AcDbLine
 10
3.51611471
 20
6.99544857
 30
0.0
 11
4.15580872
 21
6.99544857
 31
0.0
  0
LINE
  5
10E1
330
762
100
AcDbEntity
  8
0
100
AcDbLine
 10
3.7032211
 20
3.74298525
 30
0.0
 11
4.01298171
 21
4.05274585
 31
0.0
  0
LINE
  5
10E2
330
762
100
AcDbEntity
  8
0
100
AcDbLine
 10
1.93841731
 20
5.76355166
 30
0.0
 11
3.12178013
 21
6.94691448
 31
0.0
  0
ARC
  5
10E3
330
762
100
AcDbEntity
  8
0
100
AcDbCircle
 10
3.51611471
 20
5.36921709
 30
0.0
 40
1.626231481874998
100
AcDbArc
 50
90.0
 51
270.0
  0
LINE
  5
10E4
330
762
100
AcDbEntity
  8
0
100
AcDbLine
 10
1.88988409
 20
5.37089387
 30
0.0
 11
2.25046736
 21
5.73147714
 31
0.0
  0
LINE
  5
10E5
330
762
100
AcDbEntity
  8
0
100
AcDbLine
 10
1.92013219
 20
5.05701741
 30
0.0
 11
2.20003995
 21
5.33692517
 31
0.0
  0
LINE
  5
10E6
330
762
100
AcDbEntity
  8
0
100
AcDbLine
 10
1.99672614
 20
4.7894868
 30
0.0
 11
2.24266355
 21
5.0354242
 31
0.0
  0
LINE
  5
10E7
330
762
100
AcDbEntity
  8
0
100
AcDbLine
 10
2.10765019
 20
4.55628628
 30
0.0
 11
2.33637128
 21
4.78500737
 31
0.0
  0
LINE
  5
10E8
330
762
100
AcDbEntity
  8
0
100
AcDbLine
 10
7.4885913
 20
3.74298525
 30
0.0
 11
7.79835191
 21
4.05274585
 31
0.0
  0
LINE
  5
10E9
330
762
100
AcDbEntity
  8
0
100
AcDbLine
 10
7.83271588
 20
3.74298525
 30
0.0
 11
8.14247647
 21
4.05274585
 31
0.0
  0
LINE
  5
10EA
330
762
100
AcDbEntity
  8
0
100
AcDbLine
 10
8.17684043
 20
3.74298525
 30
0.0
 11
8.48660104
 21
4.05274585
 31
0.0
  0
LINE
  5
10EB
330
762
100
AcDbEntity
  8
0
100
AcDbLine
 10
8.520965
 20
3.74298525
 30
0.0
 11
8.83072559
 21
4.05274585
 31
0.0
  0
LINE
  5
10EC
330
762
100
AcDbEntity
  8
0
100
AcDbLine
 10
7.19888919
 20
5.17390595
 30
0.0
 11
8.20891566
 21
6.18393242
 31
0.0
  0
LINE
  5
10ED
330
762
100
AcDbEntity
  8
0
100
AcDbLine
 10
7.25363426
 20
4.88452646
 30
0.0
 11
8.07056825
 21
5.70146044
 31
0.0
  0
ARC
  5
10EE
330
762
100
AcDbEntity
  8
0
100
AcDbCircle
 10
9.85073545
 20
5.16140804
 30
0.0
 40
2.634462022499998
100
AcDbArc
 50
155.20517737
 51
172.79482596
  0
LINE
  5
10EF
330
762
100
AcDbEntity
  8
0
100
AcDbLine
 10
7.36795023
 20
4.65471787
 30
0.0
 11
7.93222083
 21
5.21898846
 31
0.0
  0
LINE
  5
10F0
330
762
100
AcDbEntity
  8
0
100
AcDbLine
 10
7.52717262
 20
4.46981569
 30
0.0
 11
7.85523215
 21
4.79787522
 31
0.0
  0
LINE
  5
10F1
330
762
100
AcDbEntity
  8
0
100
AcDbLine
 10
7.72875866
 20
4.32727717
 30
0.0
 11
7.99923406
 21
4.59775256
 31
0.0
  0
LINE
  5
10F2
330
762
100
AcDbEntity
  8
0
100
AcDbLine
 10
7.97889432
 20
4.23328826
 30
0.0
 11
8.34255834
 21
4.59695227
 31
0.0
  0
LINE
  5
10F3
330
762
100
AcDbEntity
  8
0
100
AcDbLine
 10
7.85889104
 20
4.96325855
 30
0.0
 11
8.27635684
 21
6.41912639
 31
0.0
  0
LINE
  5
10F4
330
762
100
AcDbEntity
  8
0
100
AcDbLine
 10
8.42530809
 20
5.47763563
 30
0.0
 11
8.51412686
 21
5.78739625
 31
0.0
  0
LINE
  5
10F5
330
762
100
AcDbEntity
  8
0
100
AcDbLine
 10
8.42530809
 20
5.47763563
 30
0.0
 11
8.68309888
 21
5.47763563
 31
0.0
  0
LINE
  5
10F6
330
762
100
AcDbEntity
  8
0
100
AcDbLine
 10
8.48418927
 20
4.78396039
 30
0.0
 11
8.68309888
 21
5.47763563
 31
0.0
  0
ARC
  5
10F7
330
762
100
AcDbEntity
  8
0
100
AcDbCircle
 10
8.17154014
 20
4.87360948
 30
0.0
 40
0.3252482515283204
100
AcDbArc
 50
164.00027306
 51
344.00027306
  0
LINE
  5
10F8
330
762
100
AcDbEntity
  8
0
100
AcDbLine
 10
7.14446675
 20
3.74298525
 30
0.0
 11
7.45422734
 21
4.05274585
 31
0.0
  0
LINE
  5
10F9
330
762
100
AcDbEntity
  8
0
100
AcDbLine
 10
7.36189674
 20
6.02516263
 30
0.0
 11
8.32724427
 21
6.99051016
 31
0.0
  0
LINE
  5
10FA
330
762
100
AcDbEntity
  8
0
100
AcDbLine
 10
7.24764986
 20
5.56679117
 30
0.0
 11
8.65103076
 21
6.97017208
 31
0.0
  0
LINE
  5
10FB
330
762
100
AcDbEntity
  8
0
100
AcDbLine
 10
6.80034218
 20
3.74298525
 30
0.0
 11
7.11010277
 21
4.05274585
 31
0.0
  0
ARC
  5
10FC
330
762
100
AcDbEntity
  8
0
100
AcDbCircle
 10
8.20479895
 20
5.21433679
 30
0.0
 40
1.006721966249999
100
AcDbArc
 50
163.9997507
 51
304.96387329
  0
LINE
  5
10FD
330
762
100
AcDbEntity
  8
0
100
AcDbLine
 10
5.38881236
 20
6.4609502
 30
0.0
 11
5.77506095
 21
6.84719879
 31
0.0
  0
LINE
  5
10FE
330
762
100
AcDbEntity
  8
0
100
AcDbLine
 10
5.42384392
 20
3.74298525
 30
0.0
 11
5.73360452
 21
4.05274585
 31
0.0
  0
LINE
  5
10FF
330
762
100
AcDbEntity
  8
0
100
AcDbLine
 10
4.95232137
 20
5.33621007
 30
0.0
 11
6.06079309
 21
6.44468181
 31
0.0
  0
LINE
  5
1100
330
762
100
AcDbEntity
  8
0
100
AcDbLine
 10
4.85611113
 20
4.20762615
 30
0.0
 11
5.73183205
 21
5.08334705
 31
0.0
  0
LINE
  5
1101
330
762
100
AcDbEntity
  8
0
100
AcDbLine
 10
5.0724451
 20
5.11220925
 30
0.0
 11
6.08816319
 21
6.12792734
 31
0.0
  0
ARC
  5
1102
330
762
100
AcDbEntity
  8
0
100
AcDbCircle
 10
4.96410053
 20
4.98201633
 30
0.0
 40
0.7743898181249992
100
AcDbArc
 50
270.0
 51
40.32984065
  0
ARC
  5
1103
330
762
100
AcDbEntity
  8
0
100
AcDbCircle
 10
5.31938734
 20
6.22105875
 30
0.0
 40
0.774396396210936
100
AcDbArc
 50
287.66957755
 51
90.23615984
  0
LINE
  5
1104
330
762
100
AcDbEntity
  8
0
100
AcDbLine
 10
5.42851487
 20
6.15652815
 30
0.0
 11
5.94686935
 21
6.67488262
 31
0.0
  0
LINE
  5
1105
330
762
100
AcDbEntity
  8
0
100
AcDbLine
 10
5.22599445
 20
6.64225685
 30
0.0
 11
5.54545912
 21
6.96172152
 31
0.0
  0
LINE
  5
1106
330
762
100
AcDbEntity
  8
0
100
AcDbLine
 10
4.23705187
 20
6.68568797
 30
0.0
 11
4.54681248
 21
6.99544857
 31
0.0
  0
LINE
  5
1107
330
762
100
AcDbEntity
  8
0
100
AcDbLine
 10
4.31692212
 20
6.99544857
 30
0.0
 11
5.31619546
 21
6.99544857
 31
0.0
  0
LINE
  5
1108
330
762
100
AcDbEntity
  8
0
100
AcDbLine
 10
5.25829585
 20
4.2656863
 30
0.0
 11
5.68043055
 21
4.68782101
 31
0.0
  0
LINE
  5
1109
330
762
100
AcDbEntity
  8
0
100
AcDbLine
 10
4.39147023
 20
3.74298525
 30
0.0
 11
4.70123083
 21
4.05274585
 31
0.0
  0
LINE
  5
110A
330
762
100
AcDbEntity
  8
0
100
AcDbLine
 10
4.7355948
 20
3.74298525
 30
0.0
 11
5.04535539
 21
4.05274585
 31
0.0
  0
LINE
  5
110B
330
762
100
AcDbEntity
  8
0
100
AcDbLine
 10
4.80499779
 20
5.43857377
 30
0.0
 11
4.55114829
 21
4.55326381
 31
0.0
  0
LINE
  5
110C
330
762
100
AcDbEntity
  8
0
100
AcDbLine
 10
5.07971936
 20
3.74298525
 30
0.0
 11
5.38947996
 21
4.05274585
 31
0.0
  0
LINE
  5
110D
330
762
100
AcDbEntity
  8
0
100
AcDbLine
 10
4.51198656
 20
4.20762615
 30
0.0
 11
5.64856865
 21
5.34420823
 31
0.0
  0
ARC
  5
110E
330
762
100
AcDbEntity
  8
0
100
AcDbCircle
 10
4.61852005
 20
5.01299473
 30
0.0
 40
0.4646412272680664
100
AcDbArc
 50
261.66285421
 51
66.33819216
  0
LINE
  5
110F
330
762
100
AcDbEntity
  8
0
100
AcDbLine
 10
4.31206065
 20
6.41657217
 30
0.0
 11
4.89093704
 21
6.99544857
 31
0.0
  0
ARC
  5
1110
330
762
100
AcDbEntity
  8
0
100
AcDbCircle
 10
4.97380686
 20
6.25202546
 30
0.0
 40
0.4646279340527346
100
AcDbArc
 50
261.66260169
 51
66.3381551
  0
LINE
  5
1111
330
762
100
AcDbEntity
  8
0
100
AcDbLine
 10
5.16028091
 20
6.6775916
 30
0.0
 11
4.90643557
 21
5.79230791
 31
0.0
  0
LINE
  5
1112
330
762
100
AcDbEntity
  8
0
100
AcDbLine
 10
6.58872989
 20
6.99544857
 30
0.0
 11
6.49102338
 21
6.65472126
 31
0.0
  0
LINE
  5
1113
330
762
100
AcDbEntity
  8
0
100
AcDbLine
 10
6.58872989
 20
6.99544857
 30
0.0
 11
6.49102338
 21
6.65472126
 31
0.0
1001
HATCH_DISTANCE
1040
1.0
1001
HATCH_DISPLAY
1070
     0
1001
HATCH_TYPE
1070
     7
  0
LINE
  5
1114
330
762
100
AcDbEntity
  8
0
100
AcDbLine
 10
6.49102338
 20
6.65472126
 30
0.0
 11
6.58872989
 21
6.99544857
 31
0.0
  0
LINE
  5
1115
330
762
100
AcDbEntity
  8
0
100
AcDbLine
 10
6.49102338
 20
6.65472126
 30
0.0
 11
6.60381562
 21
6.65472126
 31
0.0
  0
LINE
  5
1116
330
762
100
AcDbEntity
  8
0
100
AcDbLine
 10
6.49102338
 20
6.65472126
 30
0.0
 11
6.60381562
 21
6.65472126
 31
0.0
1001
HATCH_DISTANCE
1040
1.0
1001
HATCH_DISPLAY
1070
     0
1001
HATCH_TYPE
1070
     7
  0
LINE
  5
1117
330
762
100
AcDbEntity
  8
0
100
AcDbLine
 10
6.49102338
 20
6.65472126
 30
0.0
 11
6.60381562
 21
6.65472126
 31
0.0
  0
LINE
  5
1118
330
762
100
AcDbEntity
  8
0
100
AcDbLine
 10
6.57955109
 20
6.9634398
 30
0.0
 11
6.61155986
 21
6.99544857
 31
0.0
  0
LINE
  5
1119
330
762
100
AcDbEntity
  8
0
100
AcDbLine
 10
5.76796848
 20
3.74298525
 30
0.0
 11
6.07772909
 21
4.05274585
 31
0.0
  0
LINE
  5
111A
330
762
100
AcDbEntity
  8
0
100
AcDbLine
 10
6.11209305
 20
3.74298525
 30
0.0
 11
6.42185365
 21
4.05274585
 31
0.0
  0
LINE
  5
111B
330
762
100
AcDbEntity
  8
0
100
AcDbLine
 10
6.45621762
 20
3.74298525
 30
0.0
 11
6.76597821
 21
4.05274585
 31
0.0
  0
LINE
  5
111C
330
762
100
AcDbEntity
  8
0
100
AcDbLine
 10
6.23260939
 20
4.20762615
 30
0.0
 11
6.74060427
 21
4.71562102
 31
0.0
  0
LINE
  5
111D
330
762
100
AcDbEntity
  8
0
100
AcDbLine
 10
6.57673395
 20
4.20762615
 30
0.0
 11
6.60225866
 21
4.23315086
 31
0.0
  0
LINE
  5
111E
330
762
100
AcDbEntity
  8
0
100
AcDbLine
 10
5.90211804
 20
4.20762615
 30
0.0
 11
6.59493959
 21
4.20762615
 31
0.0
  0
LINE
  5
111F
330
762
100
AcDbEntity
  8
0
100
AcDbLine
 10
5.90211804
 20
4.20762615
 30
0.0
 11
6.59493959
 21
4.20762615
 31
0.0
1001
HATCH_DISTANCE
1040
1.0
1001
HATCH_DISPLAY
1070
     0
1001
HATCH_TYPE
1070
     7
  0
LINE
  5
1120
330
762
100
AcDbEntity
  8
0
100
AcDbLine
 10
5.90211804
 20
4.20762615
 30
0.0
 11
6.59493959
 21
4.20762615
 31
0.0
  0
LINE
  5
1121
330
762
100
AcDbEntity
  8
0
100
AcDbLine
 10
6.60381562
 20
6.65472126
 30
0.0
 11
5.90211804
 21
4.20762615
 31
0.0
  0
LINE
  5
1122
330
762
100
AcDbEntity
  8
0
100
AcDbLine
 10
6.60381562
 20
6.65472126
 30
0.0
 11
5.90211804
 21
4.20762615
 31
0.0
1001
HATCH_DISTANCE
1040
1.0
1001
HATCH_DISPLAY
1070
     0
1001
HATCH_TYPE
1070
     7
  0
LINE
  5
1123
330
762
100
AcDbEntity
  8
0
100
AcDbLine
 10
5.90211804
 20
4.20762615
 30
0.0
 11
6.60381562
 21
6.65472126
 31
0.0
  0
LINE
  5
1124
330
762
100
AcDbEntity
  8
0
100
AcDbLine
 10
6.59933644
 20
6.63910058
 30
0.0
 11
6.95568443
 21
6.99544857
 31
0.0
  0
LINE
  5
1125
330
762
100
AcDbEntity
  8
0
100
AcDbLine
 10
5.90759897
 20
4.22674029
 30
0.0
 11
6.87894988
 21
5.1980912
 31
0.0
  0
LINE
  5
1126
330
762
100
AcDbEntity
  8
0
100
AcDbLine
 10
7.39433199
 20
6.99544857
 30
0.0
 11
6.58872989
 21
6.99544857
 31
0.0
  0
LINE
  5
1127
330
762
100
AcDbEntity
  8
0
100
AcDbLine
 10
7.39433199
 20
6.99544857
 30
0.0
 11
6.58872989
 21
6.99544857
 31
0.0
1001
HATCH_DISTANCE
1040
1.0
1001
HATCH_DISPLAY
1070
     0
1001
HATCH_TYPE
1070
     7
  0
LINE
  5
1128
330
762
100
AcDbEntity
  8
0
100
AcDbLine
 10
6.58872989
 20
6.99544857
 30
0.0
 11
7.39433199
 21
6.99544857
 31
0.0
  0
LINE
  5
1129
330
762
100
AcDbEntity
  8
0
100
AcDbLine
 10
6.04594646
 20
4.70921236
 30
0.0
 11
7.01729549
 21
5.68056137
 31
0.0
  0
LINE
  5
112A
330
762
100
AcDbEntity
  8
0
100
AcDbLine
 10
6.18429396
 20
5.19168441
 30
0.0
 11
7.15564109
 21
6.16303154
 31
0.0
  0
LINE
  5
112B
330
762
100
AcDbEntity
  8
0
100
AcDbLine
 10
6.59493959
 20
4.20762615
 30
0.0
 11
7.39433199
 21
6.99544857
 31
0.0
  0
LINE
  5
112C
330
762
100
AcDbEntity
  8
0
100
AcDbLine
 10
6.59493959
 20
4.20762615
 30
0.0
 11
7.39433199
 21
6.99544857
 31
0.0
1001
HATCH_DISTANCE
1040
1.0
1001
HATCH_DISPLAY
1070
     0
1001
HATCH_TYPE
1070
     7
  0
LINE
  5
112D
330
762
100
AcDbEntity
  8
0
100
AcDbLine
 10
6.59493959
 20
4.20762615
 30
0.0
 11
7.39433199
 21
6.99544857
 31
0.0
  0
LINE
  5
112E
330
762
100
AcDbEntity
  8
0
100
AcDbLine
 10
6.46098895
 20
6.15662853
 30
0.0
 11
7.29980899
 21
6.99544857
 31
0.0
  0
LINE
  5
112F
330
762
100
AcDbEntity
  8
0
100
AcDbLine
 10
6.32264146
 20
5.67415647
 30
0.0
 11
7.29398669
 21
6.64550171
 31
0.0
  0
LINE
  5
1130
330
762
100
AcDbEntity
  8
0
100
AcDbLine
 10
8.86715492
 20
6.49804712
 30
0.0
 11
9.24724951
 21
6.87814172
 31
0.0
  0
LINE
  5
1131
330
762
100
AcDbEntity
  8
0
100
AcDbLine
 10
8.86508956
 20
3.74298525
 30
0.0
 11
9.17485017
 21
4.05274585
 31
0.0
  0
ARC
  5
1132
330
762
100
AcDbEntity
  8
0
100
AcDbCircle
 10
9.80421524
 20
5.36921709
 30
0.0
 40
1.316474531367183
100
AcDbArc
 50
110.8721834
 51
132.54194894
  0
LINE
  5
1133
330
762
100
AcDbEntity
  8
0
100
AcDbLine
 10
10.32423442
 20
6.57862836
 30
0.0
 11
10.55656024
 21
6.81095418
 31
0.0
  0
LINE
  5
1134
330
762
100
AcDbEntity
  8
0
100
AcDbLine
 10
10.54631934
 20
6.45658871
 30
0.0
 11
10.76846845
 21
6.67873782
 31
0.0
  0
LINE
  5
1135
330
762
100
AcDbEntity
  8
0
100
AcDbLine
 10
10.89065887
 20
6.11267911
 30
0.0
 11
11.11276598
 21
6.33478624
 31
0.0
  0
LINE
  5
1136
330
762
100
AcDbEntity
  8
0
100
AcDbLine
 10
10.32837721
 20
3.82977464
 30
0.0
 11
11.34365768
 21
4.8450551
 31
0.0
  0
LINE
  5
1137
330
762
100
AcDbEntity
  8
0
100
AcDbLine
 10
11.01293828
 20
5.89083396
 30
0.0
 11
11.24516783
 21
6.12306351
 31
0.0
  0
LINE
  5
1138
330
762
100
AcDbEntity
  8
0
100
AcDbLine
 10
11.09487161
 20
5.62864274
 30
0.0
 11
11.34767066
 21
5.88144179
 31
0.0
  0
LINE
  5
1139
330
762
100
AcDbEntity
  8
0
100
AcDbLine
 10
10.73452906
 20
6.30067387
 30
0.0
 11
10.95356293
 21
6.51970773
 31
0.0
  0
LINE
  5
113A
330
762
100
AcDbEntity
  8
0
100
AcDbLine
 10
9.45321519
 20
6.73998282
 30
0.0
 11
9.70569385
 21
6.99246148
 31
0.0
  0
LINE
  5
113B
330
762
100
AcDbEntity
  8
0
100
AcDbLine
 10
9.74155272
 20
6.68419579
 30
0.0
 11
10.03617722
 21
6.97882029
 31
0.0
  0
LINE
  5
113C
330
762
100
AcDbEntity
  8
0
100
AcDbLine
 10
9.38960286
 20
6.94171292
 30
0.0
 11
9.4828889
 21
6.64588031
 31
0.0
  0
LINE
  5
113D
330
762
100
AcDbEntity
  8
0
100
AcDbLine
 10
9.4828889
 20
6.64588031
 30
0.0
 11
9.38960286
 21
6.94171292
 31
0.0
  0
LINE
  5
113E
330
762
100
AcDbEntity
  8
0
100
AcDbLine
 10
9.38960286
 20
6.94171292
 30
0.0
 11
9.4828889
 21
6.64588031
 31
0.0
1001
HATCH_DISTANCE
1040
1.0
1001
HATCH_DISPLAY
1070
     0
1001
HATCH_TYPE
1070
     7
  0
LINE
  5
113F
330
762
100
AcDbEntity
  8
0
100
AcDbLine
 10
9.4828889
 20
6.64588031
 30
0.0
 11
9.38960286
 21
6.94171292
 31
0.0
1001
HATCH_DISTANCE
1040
1.0
1001
HATCH_DISPLAY
1070
     0
1001
HATCH_TYPE
1070
     7
  0
LINE
  5
1140
330
762
100
AcDbEntity
  8
0
100
AcDbLine
 10
9.38960286
 20
6.94171292
 30
0.0
 11
9.4828889
 21
6.64588031
 31
0.0
  0
LINE
  5
1141
330
762
100
AcDbEntity
  8
0
100
AcDbLine
 10
9.4828889
 20
6.64588031
 30
0.0
 11
9.38960286
 21
6.94171292
 31
0.0
  0
LINE
  5
1142
330
762
100
AcDbEntity
  8
0
100
AcDbLine
 10
9.38960286
 20
6.94171292
 30
0.0
 11
9.4828889
 21
6.64588031
 31
0.0
1001
HATCH_DISTANCE
1040
1.0
1001
HATCH_DISPLAY
1070
     0
1001
HATCH_TYPE
1070
     7
  0
LINE
  5
1143
330
762
100
AcDbEntity
  8
0
100
AcDbLine
 10
9.4828889
 20
6.64588031
 30
0.0
 11
9.38960286
 21
6.94171292
 31
0.0
1001
HATCH_DISTANCE
1040
1.0
1001
HATCH_DISPLAY
1070
     0
1001
HATCH_TYPE
1070
     7
  0
LINE
  5
1144
330
762
100
AcDbEntity
  8
0
100
AcDbLine
 10
9.4828889
 20
6.64588031
 30
0.0
 11
9.38960286
 21
6.94171292
 31
0.0
  0
LINE
  5
1145
330
762
100
AcDbEntity
  8
0
100
AcDbLine
 10
9.33517723
 20
6.59930162
 30
0.0
 11
9.24189121
 21
6.89513422
 31
0.0
  0
LINE
  5
1146
330
762
100
AcDbEntity
  8
0
100
AcDbLine
 10
9.29749791
 20
6.58426554
 30
0.0
 11
9.32974882
 21
6.61651645
 31
0.0
  0
LINE
  5
1147
330
762
100
AcDbEntity
  8
0
100
AcDbLine
 10
9.4828889
 20
6.64588031
 30
0.0
 11
9.4828889
 21
6.64588031
 31
0.0
  0
LINE
  5
1148
330
762
100
AcDbEntity
  8
0
100
AcDbLine
 10
9.4828889
 20
6.64588031
 30
0.0
 11
9.4828889
 21
6.64588031
 31
0.0
1001
HATCH_DISTANCE
1040
1.0
1001
HATCH_DISPLAY
1070
     0
1001
HATCH_TYPE
1070
     7
  0
LINE
  5
1149
330
762
100
AcDbEntity
  8
0
100
AcDbLine
 10
9.4828889
 20
6.64588031
 30
0.0
 11
9.4828889
 21
6.64588031
 31
0.0
  0
LINE
  5
114A
330
762
100
AcDbEntity
  8
0
100
AcDbLine
 10
9.4828889
 20
6.64588031
 30
0.0
 11
9.4828889
 21
6.64588031
 31
0.0
1001
HATCH_DISTANCE
1040
1.0
1001
HATCH_DISPLAY
1070
     0
1001
HATCH_TYPE
1070
     7
  0
LINE
  5
114B
330
762
100
AcDbEntity
  8
0
100
AcDbLine
 10
9.38960286
 20
6.94171292
 30
0.0
 11
9.38960286
 21
6.94171292
 31
0.0
  0
LINE
  5
114C
330
762
100
AcDbEntity
  8
0
100
AcDbLine
 10
9.38960286
 20
6.94171292
 30
0.0
 11
9.38960286
 21
6.94171292
 31
0.0
1001
HATCH_DISTANCE
1040
1.0
1001
HATCH_DISPLAY
1070
     0
1001
HATCH_TYPE
1070
     7
  0
LINE
  5
114D
330
762
100
AcDbEntity
  8
0
100
AcDbLine
 10
9.38960286
 20
6.94171292
 30
0.0
 11
9.38960286
 21
6.94171292
 31
0.0
  0
LINE
  5
114E
330
762
100
AcDbEntity
  8
0
100
AcDbLine
 10
9.38960286
 20
6.94171292
 30
0.0
 11
9.38960286
 21
6.94171292
 31
0.0
1001
HATCH_DISTANCE
1040
1.0
1001
HATCH_DISPLAY
1070
     0
1001
HATCH_TYPE
1070
     7
  0
ARC
  5
114F
330
762
100
AcDbEntity
  8
0
100
AcDbCircle
 10
9.80421524
 20
5.36921709
 30
0.0
 40
1.626232212773433
100
AcDbArc
 50
110.22964506
 51
118.57168892
  0
LINE
  5
1150
330
762
100
AcDbEntity
  8
0
100
AcDbLine
 10
9.20921412
 20
3.74298525
 30
0.0
 11
9.51897472
 21
4.05274585
 31
0.0
  0
LINE
  5
1151
330
762
100
AcDbEntity
  8
0
100
AcDbLine
 10
9.5533387
 20
3.74298525
 30
0.0
 11
9.86447975
 21
4.0541263
 31
0.0
  0
LINE
  5
1152
330
762
100
AcDbEntity
  8
0
100
AcDbLine
 10
8.96341305
 20
4.20762615
 30
0.0
 11
9.41640636
 21
5.78739625
 31
0.0
  0
LINE
  5
1153
330
762
100
AcDbEntity
  8
0
100
AcDbLine
 10
10.06173633
 20
6.66025483
 30
0.0
 11
10.31472282
 21
6.91324132
 31
0.0
  0
LINE
  5
1154
330
762
100
AcDbEntity
  8
0
100
AcDbLine
 10
9.90030494
 20
3.74582693
 30
0.0
 11
10.30703075
 21
4.15255275
 31
0.0
  0
LINE
  5
1155
330
762
100
AcDbEntity
  8
0
100
AcDbLine
 10
11.11930601
 20
5.30895257
 30
0.0
 11
11.41352939
 21
5.60317595
 31
0.0
  0
LINE
  5
1156
330
762
100
AcDbEntity
  8
0
100
AcDbLine
 10
11.02087957
 20
4.86640156
 30
0.0
 11
11.42760539
 21
5.27312739
 31
0.0
  0
ARC
  5
1157
330
762
100
AcDbEntity
  8
240
100
AcDbCircle
 10
1.70514916
 20
11.0
 30
0.0
 40
1.0
100
AcDbArc
 50
194.99999978
 51
270.0
  0
LINE
  5
1158
330
762
100
AcDbEntity
  8
240
100
AcDbLine
 10
0.19859884
 20
12.75881905
 30
0.0
 11
0.73922333
 21
10.74118096
 31
0.0
  0
LINE
  5
1159
330
762
100
AcDbEntity
  8
240
100
AcDbLine
 10
70.0
 20
-9.0
 30
0.0
 11
70.0
 21
0.0
 31
0.0
  0
LINE
  5
115A
330
762
100
AcDbEntity
  8
241
100
AcDbLine
 10
48.0
 20
-8.2
 30
0.0
 11
48.0
 21
0.0
 31
0.0
  0
LINE
  5
115B
330
762
100
AcDbEntity
  8
241
100
AcDbLine
 10
52.2
 20
-10.0
 30
0.0
 11
52.2
 21
0.0
 31
0.0
  0
LINE
  5
115C
330
762
100
AcDbEntity
  8
241
100
AcDbLine
 10
51.0
 20
-10.15
 30
0.0
 11
51.0
 21
0.0
 31
0.0
  0
LINE
  5
115D
330
762
100
AcDbEntity
  8
241
100
AcDbLine
 10
49.0
 20
-8.2
 30
0.0
 11
49.0
 21
0.0
 31
0.0
  0
LINE
  5
115E
330
762
100
AcDbEntity
  8
240
100
AcDbLine
 10
51.25980762
 20
-10.0
 30
0.0
 11
69.0
 21
-10.0
 31
0.0
  0
LINE
  5
115F
330
762
100
AcDbEntity
  8
240
100
AcDbLine
 10
49.0
 20
-8.2
 30
0.0
 11
49.0
 21
-10.15
 31
0.0
  0
LINE
  5
1160
330
762
100
AcDbEntity
  8
240
100
AcDbLine
 10
48.0
 20
-8.2
 30
0.0
 11
48.0
 21
-10.0
 31
0.0
  0
LINE
  5
1161
330
762
100
AcDbEntity
  8
240
100
AcDbLine
 10
49.0
 20
-10.15
 30
0.0
 11
51.0
 21
-10.15
 31
0.0
  0
LINE
  5
1162
330
762
100
AcDbEntity
  8
240
100
AcDbLine
 10
51.25980762
 20
-10.0
 30
0.0
 11
51.0
 21
-10.15
 31
0.0
  0
LINE
  5
1163
330
762
100
AcDbEntity
  8
240
100
AcDbLine
 10
49.0
 20
-8.2
 30
0.0
 11
48.0
 21
-8.2
 31
0.0
  0
ARC
  5
1164
330
762
100
AcDbEntity
  8
240
100
AcDbCircle
 10
69.0
 20
-9.0
 30
0.0
 40
1.0
100
AcDbArc
 50
270.0
 51
0.0
1001
GENIUS_GENOBJ-N-FIL_13
1002
{
1000
OWNER
1000
GEN
1002
}
1001
GENIUS_GENODEF_13
1002
{
1000
HIER
1070
     0
1002
}
1002
{
1000
MANEDIT
1070
     0
1002
}
1002
{
1000
NOSEL
1070
     0
1002
}
1002
{
1000
BEHIND
1070
     0
1002
}
1002
{
1000
OTHER
1070
     0
1002
}
1002
{
1000
REACTOR
1002
}
  0
LINE
  5
1165
330
762
100
AcDbEntity
  8
240
100
AcDbLine
 10
51.25980762
 20
10.0
 30
0.0
 11
69.0
 21
10.0
 31
0.0
  0
LINE
  5
1166
330
762
100
AcDbEntity
  8
241
  6
HIDDEN2
100
AcDbLine
 10
50.0
 20
4.75
 30
0.0
 11
55.0
 21
4.75
 31
0.0
  0
LINE
  5
1167
330
762
100
AcDbEntity
  8
240
100
AcDbLine
 10
48.0
 20
8.2
 30
0.0
 11
48.0
 21
10.0
 31
0.0
  0
LINE
  5
1168
330
762
100
AcDbEntity
  8
240
100
AcDbLine
 10
49.0
 20
8.2
 30
0.0
 11
49.0
 21
10.15
 31
0.0
  0
LINE
  5
1169
330
762
100
AcDbEntity
  8
241
100
AcDbLine
 10
51.0
 20
10.15
 30
0.0
 11
51.0
 21
0.0
 31
0.0
  0
LINE
  5
116A
330
762
100
AcDbEntity
  8
241
100
AcDbLine
 10
52.2
 20
10.0
 30
0.0
 11
52.2
 21
0.0
 31
0.0
  0
LINE
  5
116B
330
762
100
AcDbEntity
  8
242
  6
HIDDEN2
100
AcDbLine
 10
50.0
 20
4.66690476
 30
0.0
 11
44.0
 21
0.0
 31
0.0
  0
LINE
  5
116C
330
762
100
AcDbEntity
  8
242
  6
HIDDEN2
100
AcDbLine
 10
44.0
 20
4.66690476
 30
0.0
 11
50.0
 21
0.0
 31
0.0
  0
LINE
  5
116D
330
762
100
AcDbEntity
  8
241
  6
HIDDEN2
100
AcDbLine
 10
44.0
 20
4.66690476
 30
0.0
 11
50.0
 21
4.66690476
 31
0.0
  0
LINE
  5
116E
330
762
100
AcDbEntity
  8
241
  6
HIDDEN2
100
AcDbLine
 10
44.0
 20
4.66690476
 30
0.0
 11
44.0
 21
0.0
 31
0.0
  0
LINE
  5
116F
330
762
100
AcDbEntity
  8
241
100
AcDbLine
 10
49.0
 20
8.2
 30
0.0
 11
49.0
 21
0.0
 31
0.0
  0
LINE
  5
1170
330
762
100
AcDbEntity
  8
241
100
AcDbLine
 10
48.0
 20
8.2
 30
0.0
 11
48.0
 21
0.0
 31
0.0
  0
LINE
  5
1171
330
762
100
AcDbEntity
  8
241
  6
HIDDEN2
100
AcDbLine
 10
50.0
 20
4.75
 30
0.0
 11
50.0
 21
0.0
 31
0.0
  0
LINE
  5
1172
330
762
100
AcDbEntity
  8
240
100
AcDbLine
 10
49.0
 20
8.2
 30
0.0
 11
48.0
 21
8.2
 31
0.0
  0
LINE
  5
1173
330
762
100
AcDbEntity
  8
240
100
AcDbLine
 10
49.0
 20
10.15
 30
0.0
 11
51.0
 21
10.15
 31
0.0
  0
LINE
  5
1174
330
762
100
AcDbEntity
  8
240
100
AcDbLine
 10
51.25980762
 20
10.0
 30
0.0
 11
51.0
 21
10.15
 31
0.0
  0
LINE
  5
1175
330
762
100
AcDbEntity
  8
240
100
AcDbLine
 10
70.0
 20
9.0
 30
0.0
 11
70.0
 21
0.0
 31
0.0
  0
LINE
  5
1176
330
762
100
AcDbEntity
  8
241
  6
HIDDEN2
100
AcDbLine
 10
55.0
 20
4.25
 30
0.0
 11
70.0
 21
4.25
 31
0.0
  0
LINE
  5
1177
330
762
100
AcDbEntity
  8
241
  6
HIDDEN2
100
AcDbLine
 10
55.0
 20
4.75
 30
0.0
 11
55.0
 21
0.0
 31
0.0
  0
ARC
  5
1178
330
762
100
AcDbEntity
  8
240
100
AcDbCircle
 10
69.0
 20
9.0
 30
0.0
 40
1.0
100
AcDbArc
 50
0.0
 51
90.0
1001
GENIUS_GENOBJ-N-FIL_13
1002
{
1000
OWNER
1000
GEN
1002
}
1001
GENIUS_GENODEF_13
1002
{
1000
HIER
1070
     0
1002
}
1002
{
1000
MANEDIT
1070
     0
1002
}
1002
{
1000
NOSEL
1070
     0
1002
}
1002
{
1000
BEHIND
1070
     0
1002
}
1002
{
1000
OTHER
1070
     0
1002
}
1002
{
1000
REACTOR
1002
}
  0
ENDBLK
  5
8A2
330
762
100
AcDbEntity
  8
0
100
AcDbBlockEnd
  0
BLOCK
  5
1003
330
FFA
100
AcDbEntity
  8
0
100
AcDbBlockBegin
  2
*D10
 70
     1
 10
0.0
 20
0.0
 30
0.0
  3
*D10
  1

  0
LINE
  5
1053
330
FFA
100
AcDbEntity
  8
250
  6
CONTINUOUS
100
AcDbLine
 10
70.5
 20
4.25
 30
0.0
 11
81.0
 21
4.25
 31
0.0
  0
LINE
  5
1054
330
FFA
100
AcDbEntity
  8
250
  6
CONTINUOUS
100
AcDbLine
 10
80.0
 20
-2.02
 30
0.0
 11
80.0
 21
2.02
 31
0.0
  0
INSERT
  5
1055
330
FFA
100
AcDbEntity
  8
250
  6
CONTINUOUS
100
AcDbBlockReference
  2
矢印なし
 10
80.0
 20
-4.25
 30
0.0
 41
2.23
 42
2.23
 43
2.23
 50
270.0
  0
INSERT
  5
1056
330
FFA
100
AcDbEntity
  8
250
  6
CONTINUOUS
100
AcDbBlockReference
  2
_OPEN
 10
80.0
 20
4.25
 30
0.0
 41
2.23
 42
2.23
 43
2.23
 50
90.0
  0
MTEXT
  5
1057
330
FFA
100
AcDbEntity
  8
250
  6
CONTINUOUS
 62
    40
100
AcDbMText
 10
77.6
 20
-1.31545661
 30
0.0
 40
2.8
 41
0.0
 71
     5
 72
     1
  1
\A1;{\H2.8;\U+2205}8.5
 11
0.0
 21
1.0
 31
0.0
1001
ACAD
1000
MTEXTBEGIN
1070
    73
1070
     1
1070
    44
1040
1.0
1070
    74
1070
     0
1000
MTEXTEND
  0
POINT
  5
1058
330
FFA
100
AcDbEntity
  8
DEFPOINTS
  6
CONTINUOUS
 62
     0
100
AcDbPoint
 10
70.0
 20
-4.25
 30
0.0
  0
POINT
  5
1059
330
FFA
100
AcDbEntity
  8
DEFPOINTS
  6
CONTINUOUS
 62
     0
100
AcDbPoint
 10
70.0
 20
4.25
 30
0.0
  0
POINT
  5
105A
330
FFA
100
AcDbEntity
  8
DEFPOINTS
  6
CONTINUOUS
 62
     0
100
AcDbPoint
 10
80.0
 20
4.25
 30
0.0
  0
ENDBLK
  5
1004
330
FFA
100
AcDbEntity
  8
0
100
AcDbBlockEnd
  0
BLOCK
  5
100F
330
1005
100
AcDbEntity
  8
0
100
AcDbBlockBegin
  2
*D11
 70
     1
 10
0.0
 20
0.0
 30
0.0
  3
*D11
  1

  0
LINE
  5
104A
330
1005
100
AcDbEntity
  8
250
  6
CONTINUOUS
100
AcDbLine
 10
69.6316525
 20
-10.0
 30
0.0
 11
88.0
 21
-10.0
 31
0.0
  0
LINE
  5
104B
330
1005
100
AcDbEntity
  8
250
  6
CONTINUOUS
100
AcDbLine
 10
69.6316525
 20
10.0
 30
0.0
 11
88.0
 21
10.0
 31
0.0
  0
LINE
  5
104C
330
1005
100
AcDbEntity
  8
250
  6
CONTINUOUS
100
AcDbLine
 10
87.0
 20
-7.77
 30
0.0
 11
87.0
 21
7.77
 31
0.0
  0
INSERT
  5
104D
330
1005
100
AcDbEntity
  8
250
  6
CONTINUOUS
100
AcDbBlockReference
  2
_OPEN
 10
87.0
 20
-10.0
 30
0.0
 41
2.23
 42
2.23
 43
2.23
 50
270.0
  0
INSERT
  5
104E
330
1005
100
AcDbEntity
  8
250
  6
CONTINUOUS
100
AcDbBlockReference
  2
_OPEN
 10
87.0
 20
10.0
 30
0.0
 41
2.23
 42
2.23
 43
2.23
 50
90.0
  0
MTEXT
  5
104F
330
1005
100
AcDbEntity
  8
250
  6
CONTINUOUS
 62
    40
100
AcDbMText
 10
84.6
 20
0.0
 30
0.0
 40
2.8
 41
0.0
 71
     5
 72
     1
  1
\A1;{\H2.8;%%C}20
 11
0.0
 21
1.0
 31
0.0
1001
ACAD
1000
MTEXTBEGIN
1070
    73
1070
     1
1070
    44
1040
1.0
1070
    74
1070
     0
1000
MTEXTEND
  0
POINT
  5
1050
330
1005
100
AcDbEntity
  8
DEFPOINTS
  6
CONTINUOUS
 62
     0
100
AcDbPoint
 10
69.1316525
 20
-10.0
 30
0.0
  0
POINT
  5
1051
330
1005
100
AcDbEntity
  8
DEFPOINTS
  6
CONTINUOUS
 62
     0
100
AcDbPoint
 10
69.1316525
 20
10.0
 30
0.0
  0
POINT
  5
1052
330
1005
100
AcDbEntity
  8
DEFPOINTS
  6
CONTINUOUS
 62
     0
100
AcDbPoint
 10
87.0
 20
10.0
 30
0.0
  0
ENDBLK
  5
1010
330
1005
100
AcDbEntity
  8
0
100
AcDbBlockEnd
  0
BLOCK
  5
101B
330
1011
100
AcDbEntity
  8
0
100
AcDbBlockBegin
  2
*D12
 70
     1
 10
0.0
 20
0.0
 30
0.0
  3
*D12
  1

  0
LINE
  5
1041
330
1011
100
AcDbEntity
  8
250
  6
CONTINUOUS
100
AcDbLine
 10
0.0
 20
13.64125603
 30
0.0
 11
0.0
 21
29.0
 31
0.0
  0
LINE
  5
1042
330
1011
100
AcDbEntity
  8
250
  6
CONTINUOUS
100
AcDbLine
 10
70.0
 20
9.5
 30
0.0
 11
70.0
 21
29.0
 31
0.0
  0
LINE
  5
1043
330
1011
100
AcDbEntity
  8
250
  6
CONTINUOUS
100
AcDbLine
 10
2.23
 20
28.0
 30
0.0
 11
67.77
 21
28.0
 31
0.0
  0
INSERT
  5
1044
330
1011
100
AcDbEntity
  8
250
  6
CONTINUOUS
100
AcDbBlockReference
  2
_OPEN
 10
0.0
 20
28.0
 30
0.0
 41
2.23
 42
2.23
 43
2.23
 50
180.0
  0
INSERT
  5
1045
330
1011
100
AcDbEntity
  8
250
  6
CONTINUOUS
100
AcDbBlockReference
  2
_OPEN
 10
70.0
 20
28.0
 30
0.0
 41
2.23
 42
2.23
 43
2.23
  0
MTEXT
  5
1046
330
1011
100
AcDbEntity
  8
250
  6
CONTINUOUS
 62
    40
100
AcDbMText
 10
35.0
 20
30.4
 30
0.0
 40
2.8
 41
0.0
 71
     5
 72
     1
  1
\A1;70
1001
ACAD
1000
MTEXTBEGIN
1070
    73
1070
     1
1070
    44
1040
1.0
1070
    74
1070
     0
1000
MTEXTEND
  0
POINT
  5
1047
330
1011
100
AcDbEntity
  8
DEFPOINTS
  6
CONTINUOUS
 62
     0
100
AcDbPoint
 10
0.0
 20
13.14125603
 30
0.0
  0
POINT
  5
1048
330
1011
100
AcDbEntity
  8
DEFPOINTS
  6
CONTINUOUS
 62
     0
100
AcDbPoint
 10
70.0
 20
9.0
 30
0.0
  0
POINT
  5
1049
330
1011
100
AcDbEntity
  8
DEFPOINTS
  6
CONTINUOUS
 62
     0
100
AcDbPoint
 10
70.0
 20
28.0
 30
0.0
  0
ENDBLK
  5
101C
330
1011
100
AcDbEntity
  8
0
100
AcDbBlockEnd
  0
ENDSEC
  0
SECTION
  2
ENTITIES
  0
INSERT
  5
6E6
330
1A
100
AcDbEntity
  8
245
100
AcDbBlockReference
  2
矢印なし
 10
175.62382697
 20
90.55123572
 30
0.0
  0
INSERT
  5
8DB
330
1A
100
AcDbEntity
  8
245
100
AcDbBlockReference
  2
矢印なし
 10
336.62382697
 20
230.55123572
 30
0.0
  0
INSERT
  5
8DC
330
1A
100
AcDbEntity
  8
245
100
AcDbBlockReference
  2
矢印なし
 10
511.62382697
 20
377.55123572
 30
0.0
  0
INSERT
  5
8DD
330
1A
100
AcDbEntity
  8
245
100
AcDbBlockReference
  2
矢印なし
 10
665.62382697
 20
517.55123572
 30
0.0
  0
TEXT
  5
8DE
330
1A
100
AcDbEntity
  8
241
100
AcDbText
 10
-51.0
 20
42.0
 30
0.0
 40
5.0
  1
MGT12-M12-70
  7
YOKO
 11
-51.0
 21
42.0
 31
0.0
100
AcDbText
 73
     1
  0
LINE
  5
EDA
330
1A
100
AcDbEntity
  8
250
  6
CONTINUOUS
100
AcDbLine
 10
52.0
 20
21.0
 30
0.0
 11
66.85333333
 21
21.0
 31
0.0
1001
ITEMNAME
1000
LNSP2
  0
DIMENSION
  5
EDB
330
1A
100
AcDbEntity
  8
250
  6
CONTINUOUS
100
AcDbDimension
  2
*D12
 10
70.0
 20
28.0
 30
0.0
 11
35.0
 21
30.4
 31
0.0
 70
    32
  3
BIGT
100
AcDbAlignedDimension
 13
0.0
 23
13.14125603
 33
0.0
 14
70.0
 24
9.0
 34
0.0
100
AcDbRotatedDimension
  0
LEADER
  5
FE2
330
1A
100
AcDbEntity
  8
250
  6
CONTINUOUS
100
AcDbLeader
  3
BIGT
 76
     2
 10
45.95047062
 20
4.66690476
 30
0.0
 10
52.0
 20
21.0
 30
0.0
1001
ACAD
1000
DSTYLE
1002
{
1070
     6
1000
OPEN
1070
    41
1040
2.0
1070
    42
1040
2.0
1070
    44
1040
2.0
1070
   140
1040
4.0
1070
   343
1005
594
1002
}
  0
DIMENSION
  5
FF1
330
1A
100
AcDbEntity
  8
250
  6
CONTINUOUS
100
AcDbDimension
  2
*D10
 10
80.0
 20
4.25
 30
0.0
 11
80.0
 21
-1.31545661
 31
0.0
 70
   160
  1
{\H2.8;\U+2205}<>
  3
BIGT
100
AcDbAlignedDimension
 13
70.0
 23
-4.25
 33
0.0
 14
70.0
 24
4.25
 34
0.0
 50
90.0
100
AcDbRotatedDimension
1001
ACAD
1000
DSTYLE
1002
{
1070
   287
1070
     3
1070
   287
1070
     3
1070
   287
1070
     3
1070
    75
1070
     1
1070
    77
1070
     3
1070
   145
1040
1.0
1070
   279
1070
     0
1070
   289
1070
     3
1070
     6
1000
矢印なし
1002
}
  0
DIMENSION
  5
FF3
330
1A
100
AcDbEntity
  8
250
  6
CONTINUOUS
100
AcDbDimension
  2
*D11
 10
87.0
 20
10.0
 30
0.0
 11
87.0
 21
0.0
 31
0.0
 70
   160
  1
{\H2.8;%%C}<>
  3
BIGT
100
AcDbAlignedDimension
 13
69.1316525
 23
-10.0
 33
0.0
 14
69.1316525
 24
10.0
 34
0.0
 50
90.0
100
AcDbRotatedDimension
  0
MTEXT
  5
FF9
330
1A
100
AcDbEntity
  8
251
  6
CONTINUOUS
100
AcDbMText
 10
54.8
 20
22.0
 30
0.0
 40
2.8
 41
0.0
 71
     7
 72
     1
  1
□6.5
  7
YOKO
1001
ITEMNAME
1000
LNSP3
1001
ACAD
1000
MTEXTBEGIN
1070
    73
1070
     1
1070
    44
1040
1.0
1070
    74
1070
     0
1000
MTEXTEND
1000
MTEXTBEGIN
1070
    73
1070
     1
1070
    44
1040
1.0
1070
    74
1070
     0
1000
MTEXTEND
1000
MTEXTBEGIN
1070
    73
1070
     1
1070
    44
1040
1.0
1070
    74
1070
     0
1000
MTEXTEND
1000
MTEXTBEGIN
1070
    73
1070
     1
1070
    44
1040
1.0
1070
    74
1070
     0
1000
MTEXTEND
1000
MTEXTBEGIN
1070
    73
1070
     1
1070
    44
1040
1.0
1070
    74
1070
     0
1000
MTEXTEND
  0
INSERT
  5
1179
330
1A
100
AcDbEntity
  8
245
100
AcDbBlockReference
  2
1
 10
0.0
 20
0.0
 30
0.0
  0
VIEWPORT
  5
22
330
17
100
AcDbEntity
 67
     1
  8
0
100
AcDbViewport
 10
261.51769912
 20
148.5
 30
0.0
 40
523.03539823
 41
297.0
 68
     1
 69
     1
1001
ACAD
1000
MVIEW
1002
{
1070
    16
1010
0.0
1020
0.0
1030
0.0
1010
0.0
1020
0.0
1030
1.0
1040
0.0
1040
297.0
1040
261.51769912
1040
148.5
1040
50.0
1040
0.0
1040
0.0
1070
     0
1070
   100
1070
     1
1070
     1
1070
     0
1070
     0
1070
     0
1070
     0
1040
0.0
1040
0.0
1040
0.0
1040
1.0
1040
1.0
1040
10.0
1040
10.0
1070
     0
1002
{
1002
}
1002
}
  0
ENDSEC
  0
SECTION
  2
OBJECTS
  0
DICTIONARY
  5
C
330
0
100
AcDbDictionary
  3
ACAD_GROUP
350
D
  3
ACAD_LAYOUT
350
565
  3
ACAD_MLINESTYLE
350
E
  3
ACAD_PLOTSETTINGS
350
566
  3
ACAD_PLOTSTYLENAME
350
563
  3
ACDBHEADERROUNDTRIPXREC
350
117B
  3
GRADE_DWG
350
540
  0
DICTIONARY
  5
D75
330
1A
100
AcDbDictionary
280
     1
  3
ACAD_LAYOUTSELFREF
360
119D
  0
DICTIONARY
  5
D73
330
17
100
AcDbDictionary
280
     1
  3
ACAD_LAYOUTSELFREF
360
119C
  0
DICTIONARY
  5
D
102
{ACAD_REACTORS
330
C
102
}
330
C
100
AcDbDictionary
  3
*A1
350
6C7
  3
*A2
350
6C8
  3
*A3
350
6D4
  3
*A4
350
6D5
  3
DREC-1
350
5FC
  3
DREC-2
350
654
  3
DREC-3
350
673
  0
DICTIONARY
  5
565
102
{ACAD_REACTORS
330
C
102
}
330
C
100
AcDbDictionary
  0
DICTIONARY
  5
E
102
{ACAD_REACTORS
330
C
102
}
330
C
100
AcDbDictionary
  3
STANDARD
350
13
  0
DICTIONARY
  5
566
102
{ACAD_REACTORS
330
C
102
}
330
C
100
AcDbDictionary
  3
A3_0_5倍_
350
758
  3
A3_1倍_
350
757
  3
A3_1倍__2000_
350
707
  3
A3_2倍_
350
759
  3
A4_0_5倍_
350
755
  3
A4_1倍_
350
754
  3
A4_1倍__2000_
350
708
  3
A4_2倍_
350
756
  0
ACDBDICTIONARYWDFLT
  5
563
102
{ACAD_REACTORS
330
C
102
}
330
C
100
AcDbDictionary
281
     1
  3
Normal
350
564
100
AcDbDictionaryWithDefault
340
564
  0
DICTIONARY
  5
117B
102
{ACAD_REACTORS
330
C
102
}
330
C
100
AcDbDictionary
  3
CEPSNTYPE
350
1185
  3
DIMSTYLEDATA
350
1189
  3
FINGERPRINTGUID
350
1186
  3
HYPERLINKBASE
350
117E
  3
INSUNITS
350
1184
  3
LAYOUTDICT
350
1180
  3
LWETCUNION
350
1183
  3
PLOTSETDICT
350
1181
  3
PLOTSTYLNAMDICT
350
1182
  3
PSVPSCALE
350
1188
  3
PUCSBASE
350
118C
  3
PUCSORGBACK
350
1192
  3
PUCSORGBOTTOM
350
118E
  3
PUCSORGFRONT
350
1191
  3
PUCSORGLEFT
350
118F
  3
PUCSORGRIGHT
350
1190
  3
PUCSORGTOP
350
118D
  3
PUCSORTHOREF
350
118A
  3
PUCSORTHOVIEW
350
118B
  3
STYLESHEET
350
117F
  3
TSTACKALIGN
350
117C
  3
TSTACKSIZE
350
117D
  3
UCSBASE
350
1195
  3
UCSORGBACK
350
119B
  3
UCSORGBOTTOM
350
1197
  3
UCSORGFRONT
350
119A
  3
UCSORGLEFT
350
1198
  3
UCSORGRIGHT
350
1199
  3
UCSORGTOP
350
1196
  3
UCSORTHOREF
350
1193
  3
UCSORTHOVIEW
350
1194
  3
VERSIONGUID
350
1187
  0
DICTIONARY
  5
540
102
{ACAD_REACTORS
330
C
102
}
330
C
100
AcDbDictionary
  3
VERSION
350
560
  0
XRECORD
  5
119D
102
{ACAD_REACTORS
330
D75
102
}
330
D75
100
AcDbXrecord
340
1A
  0
XRECORD
  5
119C
102
{ACAD_REACTORS
330
D73
102
}
330
D73
100
AcDbXrecord
340
17
  0
GROUP
  5
6C7
102
{ACAD_REACTORS
330
D
102
}
330
D
100
AcDbGroup
300

 70
     0
 71
     1
1001
GRPNAME
1000
DMA00
  0
GROUP
  5
6C8
102
{ACAD_REACTORS
330
D
102
}
330
D
100
AcDbGroup
300

 70
     0
 71
     1
1001
GRPNAME
1000
DMA00
  0
GROUP
  5
6D4
102
{ACAD_REACTORS
330
D
102
}
330
D
100
AcDbGroup
300

 70
     0
 71
     1
1001
GRPNAME
1000
DMA00
  0
GROUP
  5
6D5
102
{ACAD_REACTORS
330
D
102
}
330
D
100
AcDbGroup
300

 70
     0
 71
     1
1001
GRPNAME
1000
DMA00
  0
GROUP
  5
5FC
102
{ACAD_REACTORS
330
D
102
}
330
D
100
AcDbGroup
300

 70
     0
 71
     1
1001
GRPNAME
1000
DREC-
1001
GPARA
1000
xsiz
1000
44.182
1000
ysiz
1000
40.677
1000
angl
1000
0
1000
ctyp
1000
0
1000
csiz
1000
5
1000
lfnt
1000
cont
1000
hcnt
1000
hoff
1000
vcnt
1000
voff
1000
opnt
1000
4
1000
dxpt
1000
0
1000
dypt
1000
0
  0
GROUP
  5
654
102
{ACAD_REACTORS
330
D
102
}
330
D
100
AcDbGroup
300

 70
     0
 71
     1
1001
GRPNAME
1000
DREC-
1001
GPARA
1000
xsiz
1000
54.592
1000
ysiz
1000
53.036
1000
angl
1000
0
1000
ctyp
1000
0
1000
csiz
1000
5
1000
lfnt
1000
cont
1000
hcnt
1000
hoff
1000
vcnt
1000
voff
1000
opnt
1000
4
1000
dxpt
1000
0
1000
dypt
1000
0
  0
GROUP
  5
673
102
{ACAD_REACTORS
330
D
102
}
330
D
100
AcDbGroup
300

 70
     0
 71
     1
1001
GRPNAME
1000
DREC-
1001
GPARA
1000
xsiz
1000
30.363
1000
ysiz
1000
36.175
1000
angl
1000
0
1000
ctyp
1000
0
1000
csiz
1000
5
1000
lfnt
1000
cont
1000
hcnt
1000
hoff
1000
vcnt
1000
voff
1000
opnt
1000
4
1000
dxpt
1000
0
1000
dypt
1000
0
  0
MLINESTYLE
  5
13
102
{ACAD_REACTORS
330
E
102
}
330
E
100
AcDbMlineStyle
  2
STANDARD
 70
     0
  3

 62
     0
 51
90.0
 52
90.0
 71
     2
 49
0.5
 62
   256
  6
BYLAYER
 49
-0.5
 62
   256
  6
BYLAYER
  0
PLOTSETTINGS
  5
758
102
{ACAD_REACTORS
330
566
102
}
330
566
100
AcDbPlotSettings
  1
A3(0.5倍)
  2
\\AWTECPC05\HP DeskJet 1120C
  4
A3
  6

 40
5.95841646
 41
13.49375153
 42
6.04309082
 43
3.67242432
 44
296.92599487
 45
419.94665527
 46
89.96
 47
127.14
 48
0.0
 49
0.0
140
0.0
141
0.0
142
1.0
143
2.0
 70
  1716
 72
     1
 73
     1
 74
     2
  7
big.ctb
 75
    17
147
0.5
148
0.0
149
0.0
  0
PLOTSETTINGS
  5
757
102
{ACAD_REACTORS
330
566
102
}
330
566
100
AcDbPlotSettings
  1
A3(1倍)
  2
\\AWTECPC05\HP DeskJet 1120C
  4
A3
  6

 40
5.95841646
 41
13.49375153
 42
6.04309082
 43
3.67242432
 44
296.92599487
 45
419.94665527
 46
37.46
 47
52.89
 48
0.0
 49
0.0
140
0.0
141
0.0
142
1.0
143
1.0
 70
  1716
 72
     1
 73
     1
 74
     2
  7
big.ctb
 75
    16
147
1.0
148
0.0
149
0.0
  0
PLOTSETTINGS
  5
707
102
{ACAD_REACTORS
330
566
102
}
330
566
100
AcDbPlotSettings
  1
A3(1倍)(2000)
  2
SII LS-1300 (D-SCAN)
  4
User258
  6

 40
3.17499995
 41
3.17499995
 42
3.17498779
 43
3.17498779
 44
419.98898315
 45
296.98950195
 46
58.32
 47
40.32
 48
0.0
 49
0.0
140
0.0
141
0.0
142
1.0
143
1.0
 70
  1716
 72
     1
 73
     0
 74
     2
  7
big.ctb
 75
    16
147
1.0
148
0.0
149
0.0
  0
PLOTSETTINGS
  5
759
102
{ACAD_REACTORS
330
566
102
}
330
566
100
AcDbPlotSettings
  1
A3(2倍)
  2
\\AWTECPC05\HP DeskJet 1120C
  4
A3
  6

 40
5.95841646
 41
13.49375153
 42
6.04309082
 43
3.67242432
 44
296.92599487
 45
419.94665527
 46
-67.54
 47
-95.61
 48
0.0
 49
0.0
140
0.0
141
0.0
142
1.0
143
0.5
 70
  1716
 72
     1
 73
     1
 74
     2
  7
big.ctb
 75
    27
147
2.0
148
0.0
149
0.0
  0
PLOTSETTINGS
  5
755
102
{ACAD_REACTORS
330
566
102
}
330
566
100
AcDbPlotSettings
  1
A4(0.5倍)
  2
\\AWTECPC05\HP DeskJet 1120C
  4
A4
  6

 40
4.18041658
 41
13.49374962
 42
4.18040466
 43
3.92642212
 44
209.97332764
 45
296.92599487
 46
48.31
 47
65.5
 48
0.0
 49
0.0
140
0.0
141
0.0
142
1.0
143
2.0
 70
  1716
 72
     1
 73
     1
 74
     2
  7
big.ctb
 75
    17
147
0.5
148
0.0
149
0.0
  0
PLOTSETTINGS
  5
754
102
{ACAD_REACTORS
330
566
102
}
330
566
100
AcDbPlotSettings
  1
A4(1倍)
  2
\\AWTECPC05\HP DeskJet 1120C
  4
A4
  6

 40
4.18041658
 41
13.49374962
 42
4.18040466
 43
3.92642212
 44
209.97332764
 45
296.92599487
 46
-4.19
 47
-8.75
 48
0.0
 49
0.0
140
0.0
141
0.0
142
1.0
143
1.0
 70
  1716
 72
     1
 73
     1
 74
     2
  7
big.ctb
 75
    16
147
1.0
148
0.0
149
0.0
  0
PLOTSETTINGS
  5
708
102
{ACAD_REACTORS
330
566
102
}
330
566
100
AcDbPlotSettings
  1
A4(1倍)(2000)
  2
SII LS-1300 (D-SCAN)
  4
User259
  6

 40
3.17499995
 41
3.17499995
 42
3.17498779
 43
3.17500305
 44
296.98950195
 45
209.99449158
 46
-3.18
 47
-3.18
 48
0.0
 49
0.0
140
0.0
141
0.0
142
1.0
143
1.0
 70
  1716
 72
     1
 73
     0
 74
     2
  7
big.ctb
 75
    16
147
1.0
148
0.0
149
0.0
  0
PLOTSETTINGS
  5
756
102
{ACAD_REACTORS
330
566
102
}
330
566
100
AcDbPlotSettings
  1
A4(2倍)
  2
\\AWTECPC05\HP DeskJet 1120C
  4
A4
  6

 40
4.18041658
 41
13.49374962
 42
4.18040466
 43
3.92642212
 44
209.97332764
 45
296.92599487
 46
-109.19
 47
-157.25
 48
0.0
 49
0.0
140
0.0
141
0.0
142
1.0
143
0.5
 70
  1716
 72
     1
 73
     1
 74
     2
  7
big.ctb
 75
    27
147
2.0
148
0.0
149
0.0
  0
ACDBPLACEHOLDER
  5
564
102
{ACAD_REACTORS
330
563
102
}
330
563
100
AcDbPlaceHolder
280
     0
  0
XRECORD
  5
1185
102
{ACAD_REACTORS
330
117B
102
}
330
117B
100
AcDbXrecord
 90
        0
  0
XRECORD
  5
1189
102
{ACAD_REACTORS
330
117B
102
}
330
117B
100
AcDbXrecord
1000
DSTYLE
1002
{
1070
    79
 70
     2
1070
   179
 70
     3
1070
   341
340
594
1070
   343
340
594
1070
   344
340
594
1070
   371
 70
    -1
1070
   372
 70
    -1
1002
}
  0
XRECORD
  5
1186
102
{ACAD_REACTORS
330
117B
102
}
330
117B
100
AcDbXrecord
  1
{51294030-9CB4-11D3-8E18-00A0C925D94D}
  0
XRECORD
  5
117E
102
{ACAD_REACTORS
330
117B
102
}
330
117B
100
AcDbXrecord
  1

  0
XRECORD
  5
1184
102
{ACAD_REACTORS
330
117B
102
}
330
117B
100
AcDbXrecord
 90
        0
  0
XRECORD
  5
1180
102
{ACAD_REACTORS
330
117B
102
}
330
117B
100
AcDbXrecord
340
565
  0
XRECORD
  5
1183
102
{ACAD_REACTORS
330
117B
102
}
330
117B
100
AcDbXrecord
 90
    10781
  0
XRECORD
  5
1181
102
{ACAD_REACTORS
330
117B
102
}
330
117B
100
AcDbXrecord
340
566
  0
XRECORD
  5
1182
102
{ACAD_REACTORS
330
117B
102
}
330
117B
100
AcDbXrecord
340
563
  0
XRECORD
  5
1188
102
{ACAD_REACTORS
330
117B
102
}
330
117B
100
AcDbXrecord
 40
0.0
  0
XRECORD
  5
118C
102
{ACAD_REACTORS
330
117B
102
}
330
117B
100
AcDbXrecord
340
0
  0
XRECORD
  5
1192
102
{ACAD_REACTORS
330
117B
102
}
330
117B
100
AcDbXrecord
 10
0.0
 20
0.0
 30
0.0
  0
XRECORD
  5
118E
102
{ACAD_REACTORS
330
117B
102
}
330
117B
100
AcDbXrecord
 10
0.0
 20
0.0
 30
0.0
  0
XRECORD
  5
1191
102
{ACAD_REACTORS
330
117B
102
}
330
117B
100
AcDbXrecord
 10
0.0
 20
0.0
 30
0.0
  0
XRECORD
  5
118F
102
{ACAD_REACTORS
330
117B
102
}
330
117B
100
AcDbXrecord
 10
0.0
 20
0.0
 30
0.0
  0
XRECORD
  5
1190
102
{ACAD_REACTORS
330
117B
102
}
330
117B
100
AcDbXrecord
 10
0.0
 20
0.0
 30
0.0
  0
XRECORD
  5
118D
102
{ACAD_REACTORS
330
117B
102
}
330
117B
100
AcDbXrecord
 10
0.0
 20
0.0
 30
0.0
  0
XRECORD
  5
118A
102
{ACAD_REACTORS
330
117B
102
}
330
117B
100
AcDbXrecord
340
0
  0
XRECORD
  5
118B
102
{ACAD_REACTORS
330
117B
102
}
330
117B
100
AcDbXrecord
 70
     0
  0
XRECORD
  5
117F
102
{ACAD_REACTORS
330
117B
102
}
330
117B
100
AcDbXrecord
  1
big.ctb
  0
XRECORD
  5
117C
102
{ACAD_REACTORS
330
117B
102
}
330
117B
100
AcDbXrecord
 90
        1
  0
XRECORD
  5
117D
102
{ACAD_REACTORS
330
117B
102
}
330
117B
100
AcDbXrecord
 90
       70
  0
XRECORD
  5
1195
102
{ACAD_REACTORS
330
117B
102
}
330
117B
100
AcDbXrecord
340
0
  0
XRECORD
  5
119B
102
{ACAD_REACTORS
330
117B
102
}
330
117B
100
AcDbXrecord
 10
0.0
 20
0.0
 30
0.0
  0
XRECORD
  5
1197
102
{ACAD_REACTORS
330
117B
102
}
330
117B
100
AcDbXrecord
 10
0.0
 20
0.0
 30
0.0
  0
XRECORD
  5
119A
102
{ACAD_REACTORS
330
117B
102
}
330
117B
100
AcDbXrecord
 10
0.0
 20
0.0
 30
0.0
  0
XRECORD
  5
1198
102
{ACAD_REACTORS
330
117B
102
}
330
117B
100
AcDbXrecord
 10
0.0
 20
0.0
 30
0.0
  0
XRECORD
  5
1199
102
{ACAD_REACTORS
330
117B
102
}
330
117B
100
AcDbXrecord
 10
0.0
 20
0.0
 30
0.0
  0
XRECORD
  5
1196
102
{ACAD_REACTORS
330
117B
102
}
330
117B
100
AcDbXrecord
 10
0.0
 20
0.0
 30
0.0
  0
XRECORD
  5
1193
102
{ACAD_REACTORS
330
117B
102
}
330
117B
100
AcDbXrecord
340
0
  0
XRECORD
  5
1194
102
{ACAD_REACTORS
330
117B
102
}
330
117B
100
AcDbXrecord
 70
     0
  0
XRECORD
  5
1187
102
{ACAD_REACTORS
330
117B
102
}
330
117B
100
AcDbXrecord
  1
{680AD1A6-C507-4371-B61A-7923D3D472A0}
  0
XRECORD
  5
560
102
{ACAD_REACTORS
330
540
102
}
330
540
100
AcDbXrecord
  1
2.0.0
  0
ENDSEC
  0
EOF
