  0
SECTION
  2
HEADER
  9
$ACADVER
  1
AC1014
  9
$ACADMAINTVER
 70
     9
  9
$DWGCODEPAGE
  3
ANSI_932
  9
$INSBASE
 10
0.0
 20
0.0
 30
0.0
  9
$EXTMIN
 10
-52.0144032
 20
-13.57013701
 30
-0.00152582
  9
$EXTMAX
 10
168.01123127
 20
47.01515995
 30
0.00000003
  9
$LIMMIN
 10
0.0
 20
0.0
  9
$LIMMAX
 10
420.0
 20
297.0
  9
$ORTHOMODE
 70
     1
  9
$REGENMODE
 70
     1
  9
$FILLMODE
 70
     1
  9
$QTEXTMODE
 70
     0
  9
$MIRRTEXT
 70
     1
  9
$DRAGMODE
 70
     2
  9
$LTSCALE
 40
10.0
  9
$OSMODE
 70
   549
  9
$ATTMODE
 70
     1
  9
$TEXTSIZE
 40
3.0
  9
$TRACEWID
 40
1.0
  9
$TEXTSTYLE
  7
YOKO
  9
$CLAYER
  8
245
  9
$CELTYPE
  6
BYLAYER
  9
$CECOLOR
 62
   256
  9
$CELTSCALE
 40
1.0
  9
$DELOBJ
 70
     1
  9
$DISPSILH
 70
     0
  9
$DIMSCALE
 40
1.0
  9
$DIMASZ
 40
2.0
  9
$DIMEXO
 40
2.0
  9
$DIMDLI
 40
2.5
  9
$DIMRND
 40
0.0
  9
$DIMDLE
 40
0.0
  9
$DIMEXE
 40
2.0
  9
$DIMTP
 40
0.0
  9
$DIMTM
 40
0.0
  9
$DIMTXT
 40
4.0
  9
$DIMCEN
 40
0.0
  9
$DIMTSZ
 40
0.0
  9
$DIMTOL
 70
     0
  9
$DIMLIM
 70
     0
  9
$DIMTIH
 70
     0
  9
$DIMTOH
 70
     0
  9
$DIMSE1
 70
     0
  9
$DIMSE2
 70
     0
  9
$DIMTAD
 70
     3
  9
$DIMZIN
 70
     8
  9
$DIMBLK
  1

  9
$DIMASO
 70
     1
  9
$DIMSHO
 70
     1
  9
$DIMPOST
  1

  9
$DIMAPOST
  1

  9
$DIMALT
 70
     0
  9
$DIMALTD
 70
     2
  9
$DIMALTF
 40
25.4
  9
$DIMLFAC
 40
1.0
  9
$DIMTOFL
 70
     1
  9
$DIMTVP
 40
0.0
  9
$DIMTIX
 70
     1
  9
$DIMSOXD
 70
     0
  9
$DIMSAH
 70
     1
  9
$DIMBLK1
  1
OPEN
  9
$DIMBLK2
  1
OPEN
  9
$DIMSTYLE
  2
BIGT
  9
$DIMCLRD
 70
   256
  9
$DIMCLRE
 70
   256
  9
$DIMCLRT
 70
    40
  9
$DIMTFAC
 40
1.0
  9
$DIMGAP
 40
1.0
  9
$DIMJUST
 70
     0
  9
$DIMSD1
 70
     0
  9
$DIMSD2
 70
     0
  9
$DIMTOLJ
 70
     1
  9
$DIMTZIN
 70
     8
  9
$DIMALTZ
 70
     0
  9
$DIMALTTZ
 70
     0
  9
$DIMFIT
 70
     3
  9
$DIMUPT
 70
     0
  9
$DIMUNIT
 70
     2
  9
$DIMDEC
 70
     3
  9
$DIMTDEC
 70
     3
  9
$DIMALTU
 70
     2
  9
$DIMALTTD
 70
     2
  9
$DIMTXSTY
  7
STANDARD
  9
$DIMAUNIT
 70
     0
  9
$LUNITS
 70
     2
  9
$LUPREC
 70
     3
  9
$SKETCHINC
 40
1.0
  9
$FILLETRAD
 40
0.0
  9
$AUNITS
 70
     0
  9
$AUPREC
 70
     3
  9
$MENU
  1
.
  9
$ELEVATION
 40
0.0
  9
$PELEVATION
 40
0.0
  9
$THICKNESS
 40
0.0
  9
$LIMCHECK
 70
     0
  9
$BLIPMODE
 70
     0
  9
$CHAMFERA
 40
10.0
  9
$CHAMFERB
 40
10.0
  9
$CHAMFERC
 40
0.0
  9
$CHAMFERD
 40
0.0
  9
$SKPOLY
 70
     0
  9
$TDCREATE
 40
2455128.573928853
  9
$TDUPDATE
 40
2455316.583306921
  9
$TDINDWG
 40
0.0224012384
  9
$TDUSRTIMER
 40
0.0224012384
  9
$USRTIMER
 70
     1
  9
$ANGBASE
 50
0.0
  9
$ANGDIR
 70
     0
  9
$PDMODE
 70
     1
  9
$PDSIZE
 40
-5.0
  9
$PLINEWID
 40
0.0
  9
$COORDS
 70
     2
  9
$SPLFRAME
 70
     0
  9
$SPLINETYPE
 70
     6
  9
$SPLINESEGS
 70
     8
  9
$ATTDIA
 70
     0
  9
$ATTREQ
 70
     1
  9
$HANDLING
 70
-16383
  9
$HANDSEED
  5
12F1
  9
$SURFTAB1
 70
     6
  9
$SURFTAB2
 70
     6
  9
$SURFTYPE
 70
     6
  9
$SURFU
 70
     6
  9
$SURFV
 70
     6
  9
$UCSNAME
  2

  9
$UCSORG
 10
0.0
 20
0.0
 30
0.0
  9
$UCSXDIR
 10
1.0
 20
0.0
 30
0.0
  9
$UCSYDIR
 10
0.0
 20
1.0
 30
0.0
  9
$PUCSNAME
  2

  9
$PUCSORG
 10
0.0
 20
0.0
 30
0.0
  9
$PUCSXDIR
 10
1.0
 20
0.0
 30
0.0
  9
$PUCSYDIR
 10
0.0
 20
1.0
 30
0.0
  9
$USERI1
 70
     1
  9
$USERI2
 70
     0
  9
$USERI3
 70
     0
  9
$USERI4
 70
     0
  9
$USERI5
 70
     0
  9
$USERR1
 40
0.0
  9
$USERR2
 40
0.0
  9
$USERR3
 40
0.0
  9
$USERR4
 40
0.0
  9
$USERR5
 40
0.0
  9
$WORLDVIEW
 70
     1
  9
$SHADEDGE
 70
     3
  9
$SHADEDIF
 70
    70
  9
$TILEMODE
 70
     1
  9
$MAXACTVP
 70
    16
  9
$PINSBASE
 10
0.0
 20
0.0
 30
0.0
  9
$PLIMCHECK
 70
     0
  9
$PEXTMIN
 10
1.00000000E+20
 20
1.00000000E+20
 30
1.00000000E+20
  9
$PEXTMAX
 10
-1.00000000E+20
 20
-1.00000000E+20
 30
-1.00000000E+20
  9
$PLIMMIN
 10
0.0
 20
0.0
  9
$PLIMMAX
 10
420.0
 20
297.0
  9
$UNITMODE
 70
     0
  9
$VISRETAIN
 70
     0
  9
$PLINEGEN
 70
     0
  9
$PSLTSCALE
 70
     1
  9
$TREEDEPTH
 70
  3020
  9
$PICKSTYLE
 70
     0
  9
$CMLSTYLE
  2
STANDARD
  9
$CMLJUST
 70
     0
  9
$CMLSCALE
 40
1.0
  9
$PROXYGRAPHICS
 70
     1
  9
$MEASUREMENT
 70
     1
  0
ENDSEC
  0
SECTION
  2
CLASSES
  0
CLASS
  1
XRECORD
  2
AcDbXrecord
  3
AutoCAD 2000
 90
        0
280
     0
281
     0
  0
CLASS
  1
ACDBDICTIONARYWDFLT
  2
AcDbDictionaryWithDefault
  3
AutoCAD 2000
 90
        0
280
     0
281
     0
  0
CLASS
  1
ACDBPLACEHOLDER
  2
AcDbPlaceHolder
  3
AutoCAD 2000
 90
        0
280
     0
281
     0
  0
CLASS
  1
LAYOUT
  2
AcDbLayout
  3
AutoCAD 2000
 90
        0
280
     0
281
     0
  0
CLASS
  1
PLOTSETTINGS
  2
AcDbPlotSettings
  3
AutoCAD 2000
 90
        0
280
     0
281
     0
  0
CLASS
  1
LONG_TRANSACTION
  2
AcDbLongTransaction
  3
AutoCAD 2000
 90
        0
280
     0
281
     0
  0
CLASS
  1
LWPOLYLINE
  2
AcDbPolyline
  3
AutoCAD 2000
 90
        0
280
     0
281
     1
  0
CLASS
  1
HATCH
  2
AcDbHatch
  3
AutoCAD 2000
 90
        0
280
     0
281
     1
  0
CLASS
  1
XRECORD
  2
AcDbXrecord
  3
AutoCAD 2000
 90
        0
280
     0
281
     0
  0
CLASS
  1
LONG_TRANSACTION
  2
AcDbLongTransaction
  3
AutoCAD 2000
 90
        0
280
     0
281
     0
  0
CLASS
  1
LWPOLYLINE
  2
AcDbPolyline
  3
AutoCAD 2000
 90
        0
280
     0
281
     1
  0
CLASS
  1
HATCH
  2
AcDbHatch
  3
AutoCAD 2000
 90
        0
280
     0
281
     1
  0
CLASS
  1
XRECORD
  2
AcDbXrecord
  3
AutoCAD 2000
 90
        0
280
     0
281
     0
  0
CLASS
  1
LONG_TRANSACTION
  2
AcDbLongTransaction
  3
AutoCAD 2000
 90
        0
280
     0
281
     0
  0
CLASS
  1
LWPOLYLINE
  2
AcDbPolyline
  3
AutoCAD 2000
 90
        0
280
     0
281
     1
  0
CLASS
  1
HATCH
  2
AcDbHatch
  3
AutoCAD 2000
 90
        0
280
     0
281
     1
  0
CLASS
  1
XRECORD
  2
AcDbXrecord
  3
AutoCAD 2000
 90
        0
280
     0
281
     0
  0
ENDSEC
  0
SECTION
  2
TABLES
  0
TABLE
  2
VPORT
  5
8
330
0
100
AcDbSymbolTable
 70
     4
  0
VPORT
  5
12CC
330
8
100
AcDbSymbolTableRecord
100
AcDbViewportTableRecord
  2
*ACTIVE
 70
     0
 10
0.0
 20
0.0
 11
1.0
 21
1.0
 12
57.99841404
 22
16.72251147
 13
0.0
 23
0.0
 14
7.0
 24
7.0
 15
7.0
 25
7.0
 16
0.0
 26
0.0
 36
1.0
 17
0.0
 27
0.0
 37
0.0
 40
154.48482525
 41
1.43184713
 42
50.0
 43
0.0
 44
0.0
 50
0.0
 51
0.0
 71
     0
 72
  2000
 73
     1
 74
     0
 75
     0
 76
     0
 77
     0
 78
     0
  0
ENDTAB
  0
TABLE
  2
LTYPE
  5
5
330
0
100
AcDbSymbolTable
 70
     3
  0
LTYPE
  5
14
330
5
100
AcDbSymbolTableRecord
100
AcDbLinetypeTableRecord
  2
BYBLOCK
 70
     0
  3

 72
    65
 73
     0
 40
0.0
  0
LTYPE
  5
15
330
5
100
AcDbSymbolTableRecord
100
AcDbLinetypeTableRecord
  2
BYLAYER
 70
     0
  3

 72
    65
 73
     0
 40
0.0
  0
LTYPE
  5
16
330
5
100
AcDbSymbolTableRecord
100
AcDbLinetypeTableRecord
  2
CONTINUOUS
 70
     0
  3
Solid line
 72
    65
 73
     0
 40
0.0
  0
LTYPE
  5
258
330
5
100
AcDbSymbolTableRecord
100
AcDbLinetypeTableRecord
  2
CENTER2
 70
     0
  3
___ _ ___ _ ___ _ ___ _ ___ _ ___ _ ___ _ ___ _
 72
    65
 73
     4
 40
1.125
 49
0.75
 74
     0
 49
-0.125
 74
     0
 49
0.125
 74
     0
 49
-0.125
 74
     0
  0
LTYPE
  5
25C
330
5
100
AcDbSymbolTableRecord
100
AcDbLinetypeTableRecord
  2
HIDDEN2
 70
     0
  3
_ _ _ _ _ _ _ _ _ _ _ _ _ _ _ _ _ _ _ _ _ _ _ _
 72
    65
 73
     2
 40
0.1875
 49
0.125
 74
     0
 49
-0.0625
 74
     0
  0
ENDTAB
  0
TABLE
  2
LAYER
  5
2
330
0
100
AcDbSymbolTable
 70
    10
  0
LAYER
  5
F
330
2
100
AcDbSymbolTableRecord
100
AcDbLayerTableRecord
  2
0
 70
     0
 62
     7
  6
CONTINUOUS
  0
LAYER
  5
1AA
330
2
100
AcDbSymbolTableRecord
100
AcDbLayerTableRecord
  2
240
 70
     0
 62
     4
  6
CONTINUOUS
  0
LAYER
  5
1AB
330
2
100
AcDbSymbolTableRecord
100
AcDbLayerTableRecord
  2
241
 70
     0
 62
   211
  6
CONTINUOUS
  0
LAYER
  5
1AC
330
2
100
AcDbSymbolTableRecord
100
AcDbLayerTableRecord
  2
242
 70
     0
 62
     3
  6
CONTINUOUS
  0
LAYER
  5
1AD
330
2
100
AcDbSymbolTableRecord
100
AcDbLayerTableRecord
  2
243
 70
     0
 62
   211
  6
HIDDEN2
  0
LAYER
  5
1AF
330
2
100
AcDbSymbolTableRecord
100
AcDbLayerTableRecord
  2
245
 70
     0
 62
     2
  6
CENTER2
  0
LAYER
  5
21E
330
2
100
AcDbSymbolTableRecord
100
AcDbLayerTableRecord
  2
250
 70
     0
 62
     3
  6
CONTINUOUS
  0
LAYER
  5
21F
330
2
100
AcDbSymbolTableRecord
100
AcDbLayerTableRecord
  2
251
 70
     0
 62
    40
  6
CONTINUOUS
  0
LAYER
  5
5C4
330
2
100
AcDbSymbolTableRecord
100
AcDbLayerTableRecord
  2
DEFPOINTS
 70
     0
 62
     7
  6
CONTINUOUS
  0
ENDTAB
  0
TABLE
  2
STYLE
  5
3
330
0
100
AcDbSymbolTable
 70
     2
  0
STYLE
  5
10
330
3
100
AcDbSymbolTableRecord
100
AcDbTextStyleTableRecord
  2
STANDARD
 70
     0
 40
0.0
 41
1.0
 50
0.0
 71
     0
 42
3.0
  3
romans.shx
  4
BIGFONT.SHX
  0
STYLE
  5
339
330
3
100
AcDbSymbolTableRecord
100
AcDbTextStyleTableRecord
  2
YOKO
 70
     0
 40
0.0
 41
1.0
 50
0.0
 71
     0
 42
3.0
  3
romans.shx
  4
extfont.shx
  0
ENDTAB
  0
TABLE
  2
VIEW
  5
6
330
0
100
AcDbSymbolTable
 70
     1
  0
VIEW
  5
12CA
330
6
100
AcDbSymbolTableRecord
100
AcDbViewTableRecord
  2
OLE1
 70
     0
 40
154.48482525
 10
57.99841404
 20
16.72251147
 41
221.19865424
 11
0.0
 21
0.0
 31
1.0
 12
0.0
 22
0.0
 32
0.0
 42
50.0
 43
0.0
 44
0.0
 50
0.0
 71
     0
  0
ENDTAB
  0
TABLE
  2
UCS
  5
7
330
0
100
AcDbSymbolTable
 70
     0
  0
ENDTAB
  0
TABLE
  2
APPID
  5
9
330
0
100
AcDbSymbolTable
 70
    15
  0
APPID
  5
11
330
9
100
AcDbSymbolTableRecord
100
AcDbRegAppTableRecord
  2
ACAD
 70
     0
  0
APPID
  5
1B1
330
9
100
AcDbSymbolTableRecord
100
AcDbRegAppTableRecord
  2
GLOBAL
 70
     0
  0
APPID
  5
2A4
330
9
100
AcDbSymbolTableRecord
100
AcDbRegAppTableRecord
  2
DETAIL
 70
     0
  0
APPID
  5
5FD
330
9
100
AcDbSymbolTableRecord
100
AcDbRegAppTableRecord
  2
GRPNAME
 70
     0
  0
APPID
  5
5FE
330
9
100
AcDbSymbolTableRecord
100
AcDbRegAppTableRecord
  2
GPARA
 70
     0
  0
APPID
  5
6C4
330
9
100
AcDbSymbolTableRecord
100
AcDbRegAppTableRecord
  2
DCO15
 70
     0
  0
APPID
  5
6C5
330
9
100
AcDbSymbolTableRecord
100
AcDbRegAppTableRecord
  2
ITEMNAME
 70
     0
  0
APPID
  5
6C6
330
9
100
AcDbSymbolTableRecord
100
AcDbRegAppTableRecord
  2
GRADE_0
 70
     0
  0
APPID
  5
8C6
330
9
100
AcDbSymbolTableRecord
100
AcDbRegAppTableRecord
  2
GENIUS_GENODEF_13
 70
     0
  0
APPID
  5
8C7
330
9
100
AcDbSymbolTableRecord
100
AcDbRegAppTableRecord
  2
GENIUS_GENOBJ-N-FIL_13
 70
     0
  0
APPID
  5
8C8
330
9
100
AcDbSymbolTableRecord
100
AcDbRegAppTableRecord
  2
GENIUS_GENOBJ-N-CEN_13
 70
     0
  0
APPID
  5
8C9
330
9
100
AcDbSymbolTableRecord
100
AcDbRegAppTableRecord
  2
HATCH_TYPE
 70
     0
  0
APPID
  5
8CA
330
9
100
AcDbSymbolTableRecord
100
AcDbRegAppTableRecord
  2
HATCH_DISPLAY
 70
     0
  0
APPID
  5
8CB
330
9
100
AcDbSymbolTableRecord
100
AcDbRegAppTableRecord
  2
HATCH_DISTANCE
 70
     0
  0
APPID
  5
C35
330
9
100
AcDbSymbolTableRecord
100
AcDbRegAppTableRecord
  2
CONTENTBLOCKICON
 70
     0
  0
ENDTAB
  0
TABLE
  2
DIMSTYLE
  5
A
330
0
100
AcDbSymbolTable
 70
     1
  0
DIMSTYLE
105
725
102
{ACAD_REACTORS
330
D99
330
EAF
330
EB1
102
}
330
A
100
AcDbSymbolTableRecord
100
AcDbDimStyleTableRecord
  2
BIGT
 70
     0
  3

  4

  5

  6
OPEN
  7
OPEN
 40
1.0
 41
2.23
 42
0.5
 43
2.5
 44
1.0
 45
0.0
 46
0.0
 47
0.0
 48
0.0
140
2.8
141
0.0
142
0.0
143
25.4
144
1.0
145
0.0
146
1.0
147
1.0
 71
     0
 72
     0
 73
     0
 74
     0
 75
     0
 76
     0
 77
     3
 78
     8
170
     0
171
     2
172
     1
173
     1
174
     1
175
     0
176
   256
177
   256
178
    40
270
     2
271
     3
272
     3
273
     2
274
     2
340
10
275
     0
280
     0
281
     0
282
     0
283
     1
284
     8
285
     0
286
     0
287
     3
288
     0
  0
ENDTAB
  0
TABLE
  2
BLOCK_RECORD
  5
1
330
0
100
AcDbSymbolTable
 70
     6
  0
BLOCK_RECORD
  5
1A
102
{ACAD_XDICTIONARY
360
C33
102
}
330
1
100
AcDbSymbolTableRecord
100
AcDbBlockTableRecord
  2
*MODEL_SPACE
  0
BLOCK_RECORD
  5
17
102
{ACAD_XDICTIONARY
360
C31
102
}
330
1
100
AcDbSymbolTableRecord
100
AcDbBlockTableRecord
  2
*PAPER_SPACE
  0
BLOCK_RECORD
  5
594
330
1
100
AcDbSymbolTableRecord
100
AcDbBlockTableRecord
  2
_OPEN
  0
BLOCK_RECORD
  5
6E3
330
1
100
AcDbSymbolTableRecord
100
AcDbBlockTableRecord
  2
矢印なし
  0
BLOCK_RECORD
  5
762
330
1
100
AcDbSymbolTableRecord
100
AcDbBlockTableRecord
  2
1
1001
CONTENTBLOCKICON
1071
        0
1004
2800000020000000200000000100080000000000000400000000000000000000000000000000000000000000000080000080000000808000800000008000800080800000C0C0C000C0DCC000F0CAA6000020400000206000002080000020A0000020C0000020E00000400000004020000040400000406000004080000040A0
1004
000040C0000040E00000600000006020000060400000606000006080000060A0000060C0000060E00000800000008020000080400000806000008080000080A0000080C0000080E00000A0000000A0200000A0400000A0600000A0800000A0A00000A0C00000A0E00000C0000000C0200000C0400000C0600000C0800000C0
1004
A00000C0C00000C0E00000E0000000E0200000E0400000E0600000E0800000E0A00000E0C00000E0E00040000000400020004000400040006000400080004000A0004000C0004000E00040200000402020004020400040206000402080004020A0004020C0004020E000404000004040200040404000404060004040800040
1004
40A0004040C0004040E00040600000406020004060400040606000406080004060A0004060C0004060E00040800000408020004080400040806000408080004080A0004080C0004080E00040A0000040A0200040A0400040A0600040A0800040A0A00040A0C00040A0E00040C0000040C0200040C0400040C0600040C08000
1004
40C0A00040C0C00040C0E00040E0000040E0200040E0400040E0600040E0800040E0A00040E0C00040E0E00080000000800020008000400080006000800080008000A0008000C0008000E00080200000802020008020400080206000802080008020A0008020C0008020E00080400000804020008040400080406000804080
1004
008040A0008040C0008040E00080600000806020008060400080606000806080008060A0008060C0008060E00080800000808020008080400080806000808080008080A0008080C0008080E00080A0000080A0200080A0400080A0600080A0800080A0A00080A0C00080A0E00080C0000080C0200080C0400080C0600080C0
1004
800080C0A00080C0C00080C0E00080E0000080E0200080E0400080E0600080E0800080E0A00080E0C00080E0E000C0000000C0002000C0004000C0006000C0008000C000A000C000C000C000E000C0200000C0202000C0204000C0206000C0208000C020A000C020C000C020E000C0400000C0402000C0404000C0406000C0
1004
408000C040A000C040C000C040E000C0600000C0602000C0604000C0606000C0608000C060A000C060C000C060E000C0800000C0802000C0804000C0806000C0808000C080A000C080C000C080E000C0A00000C0A02000C0A04000C0A06000C0A08000C0A0A000C0A0C000C0A0E000C0C00000C0C02000C0C04000C0C06000
1004
C0C08000C0C0A000F0FBFF00A4A0A000808080000000FF0000FF000000FFFF00FF000000FF00FF00FFFF0000FFFFFF0000000000000000000000000000000000000000000000000000000000000000000000000000000000000000000000000000000000000000000000000000000000000000000000000000000000000000
1004
00000000000000000000000000000000000000000000000000000000000000000000000000000000000000000000000000000000000000000000000000000000000000000000000000000000000000000000000000000000000000000000000000000000000000000000000000000000000000000000000000000000000000
1004
00000000000000000000000000000000000000000000000000000000000000000000000000000000000000000000000000000000000000000000000000000000000000000000000000000000000000000000000000000000000000000000000000000000000000000000000000000000000000000000000000000000000000
1004
000000000000000000000000000000000000000000000000000000000000000000000000000000000000000000000000000000000000000000000000000000000000000000000000000000000000000000000000000000000000000000000000000000000000000000000000000000000000000000FEFEFEFEFEFEFEFEFEFE
1004
FEFEFEFEFEFEFEFEFEFEFEFEFEFEFEFEFEFE00000000FEE7E7E7FBE7E7E700000000000000000000000000000000E7E700FE000000FBFEE7E7E7E7E7E7E7FBFBFBFFFFFFFFFFFFFFFFFFFBFBFBFBE7E7E7FEFB000000FEFEFEFEFEFEFEFEFEFEFEFFFFFFFEFEFEFEFEFEFEFEFEFEE7FEFEFE00000000000000000000000000
1004
00000000000000000000000000000000000000000000000000000000000000000000000000000000000000000000000000000000000000000000000000000000000000000000000000000000000000000000000000000000000000000000000000000000000000000000000000000000000000000000000000000000000000
1004
00000000000000000000000000000000000000000000000000000000000000000000000000000000000000000000000000000000000000000000000000000000000000000000000000000000000000000000000000000000000000000000000000000000000000000000000000000000000000000000000000000000000000
1004
00000000000000000000000000000000000000000000000000000000000000000000000000000000000000000000000000000000000000000000000000000000000000000000000000000000000000000000000000000000000000000000000000000000000000000000000000000000000000000000000000000000000000
1004
0000000000000000000000000000000000000000000000000000000000000000000000000000000000000000000000000000000000000000
  0
BLOCK_RECORD
  5
EB8
330
1
100
AcDbSymbolTableRecord
100
AcDbBlockTableRecord
  2
*D3
  0
BLOCK_RECORD
  5
EC4
330
1
100
AcDbSymbolTableRecord
100
AcDbBlockTableRecord
  2
*D4
  0
BLOCK_RECORD
  5
ECF
330
1
100
AcDbSymbolTableRecord
100
AcDbBlockTableRecord
  2
*D5
  0
ENDTAB
  0
ENDSEC
  0
SECTION
  2
BLOCKS
  0
BLOCK
  5
1B
330
1A
100
AcDbEntity
  8
0
100
AcDbBlockBegin
  2
*MODEL_SPACE
 70
     0
 10
0.0
 20
0.0
 30
0.0
  3
*MODEL_SPACE
  1

  0
ENDBLK
  5
1C
330
1A
100
AcDbEntity
  8
0
100
AcDbBlockEnd
  0
BLOCK
  5
18
330
17
100
AcDbEntity
 67
     1
  8
0
100
AcDbBlockBegin
  2
*PAPER_SPACE
 70
     0
 10
0.0
 20
0.0
 30
0.0
  3
*PAPER_SPACE
  1

  0
ENDBLK
  5
19
330
17
100
AcDbEntity
 67
     1
  8
0
100
AcDbBlockEnd
  0
BLOCK
  5
598
330
594
100
AcDbEntity
  8
0
100
AcDbBlockBegin
  2
_OPEN
 70
     0
 10
0.0
 20
0.0
 30
0.0
  3
_OPEN
  1

  0
LINE
  5
595
330
594
100
AcDbEntity
  8
0
  6
BYBLOCK
 62
     0
100
AcDbLine
 10
-1.0
 20
0.16666667
 30
0.0
 11
0.0
 21
0.0
 31
0.0
  0
LINE
  5
596
330
594
100
AcDbEntity
  8
0
  6
BYBLOCK
 62
     0
100
AcDbLine
 10
-1.0
 20
-0.16666667
 30
0.0
 11
0.0
 21
0.0
 31
0.0
  0
LINE
  5
597
330
594
100
AcDbEntity
  8
0
  6
BYBLOCK
 62
     0
100
AcDbLine
 10
0.0
 20
0.0
 30
0.0
 11
-1.0
 21
0.0
 31
0.0
  0
ENDBLK
  5
599
330
594
100
AcDbEntity
  8
0
100
AcDbBlockEnd
  0
BLOCK
  5
6E4
330
6E3
100
AcDbEntity
  8
0
100
AcDbBlockBegin
  2
矢印なし
 70
     0
 10
0.0
 20
0.0
 30
0.0
  3
矢印なし
  1

  0
ENDBLK
  5
6E5
330
6E3
100
AcDbEntity
  8
0
100
AcDbBlockEnd
  0
BLOCK
  5
8A1
330
762
100
AcDbEntity
  8
0
100
AcDbBlockBegin
  2
1
 70
     0
 10
0.0
 20
0.0
 30
0.0
  3
1
  1

  0
LINE
  5
1186
330
762
100
AcDbEntity
  8
245
100
AcDbLine
 10
-52.0
 20
0.0
 30
0.0
 11
151.0
 21
0.0
 31
0.0
  0
LINE
  5
1187
330
762
100
AcDbEntity
  8
240
100
AcDbLine
 10
128.0
 20
-10.0
 30
0.0
 11
1.70514916
 21
-10.0
 31
0.0
  0
LINE
  5
1188
330
762
100
AcDbEntity
  8
240
100
AcDbLine
 10
128.0
 20
10.0
 30
0.0
 11
1.70514916
 21
10.0
 31
0.0
  0
LINE
  5
1189
330
762
100
AcDbEntity
  8
0
100
AcDbLine
 10
34.32666671
 20
3.13984218
 30
0.0
 11
43.30966747
 21
3.13984218
 31
0.0
  0
LINE
  5
118A
330
762
100
AcDbEntity
  8
0
100
AcDbLine
 10
34.32666671
 20
2.69732704
 30
0.0
 11
43.30966747
 21
2.69732704
 31
0.0
  0
LINE
  5
118B
330
762
100
AcDbEntity
  8
0
100
AcDbLine
 10
36.67547557
 20
6.88962183
 30
0.0
 11
36.31283938
 21
5.62493084
 31
0.0
  0
LINE
  5
118C
330
762
100
AcDbEntity
  8
0
100
AcDbLine
 10
35.06845657
 20
5.13824813
 30
0.0
 11
36.61744335
 21
6.68723491
 31
0.0
  0
ARC
  5
118D
330
762
100
AcDbEntity
  8
0
100
AcDbCircle
 10
36.40908407
 20
6.2816702
 30
0.0
 40
0.6637541915039066
100
AcDbArc
 50
261.66260169
 51
66.3381551
  0
LINE
  5
118E
330
762
100
AcDbEntity
  8
0
100
AcDbLine
 10
35.26609446
 20
5.82749254
 30
0.0
 11
36.78230514
 21
7.34370322
 31
0.0
  0
ARC
  5
118F
330
762
100
AcDbEntity
  8
0
100
AcDbCircle
 10
35.90153149
 20
4.5116263
 30
0.0
 40
0.6637731818115235
100
AcDbArc
 50
261.66285421
 51
66.33819216
  0
ARC
  5
1190
330
762
100
AcDbEntity
  8
0
100
AcDbCircle
 10
36.39521789
 20
4.46737144
 30
0.0
 40
1.106271168749997
100
AcDbArc
 50
270.0
 51
40.32984065
  0
LINE
  5
1191
330
762
100
AcDbEntity
  8
0
100
AcDbLine
 10
35.74934079
 20
3.36109976
 30
0.0
 11
37.37302949
 21
4.98478845
 31
0.0
  0
LINE
  5
1192
330
762
100
AcDbEntity
  8
0
100
AcDbLine
 10
36.24094732
 20
3.36109976
 30
0.0
 11
37.4919772
 21
4.61212962
 31
0.0
  0
LINE
  5
1193
330
762
100
AcDbEntity
  8
0
100
AcDbLine
 10
36.37839051
 20
4.9733625
 30
0.0
 11
37.96192155
 21
6.55689356
 31
0.0
  0
LINE
  5
1194
330
762
100
AcDbEntity
  8
0
100
AcDbLine
 10
34.67318081
 20
3.75975933
 30
0.0
 11
36.54550879
 21
5.63208731
 31
0.0
  0
LINE
  5
1195
330
762
100
AcDbEntity
  8
0
100
AcDbLine
 10
36.06878113
 20
2.69732704
 30
0.0
 11
36.51129626
 21
3.13984218
 31
0.0
  0
LINE
  5
1196
330
762
100
AcDbEntity
  8
0
100
AcDbLine
 10
35.4706773
 20
7.34370322
 30
0.0
 11
36.89821065
 21
7.34370322
 31
0.0
  0
LINE
  5
1197
330
762
100
AcDbEntity
  8
240
100
AcDbLine
 10
-40.5
 20
-8.0
 30
0.0
 11
-35.0
 21
-8.0
 31
0.0
  0
LINE
  5
1198
330
762
100
AcDbEntity
  8
240
100
AcDbLine
 10
-40.5
 20
8.0
 30
0.0
 11
-35.0
 21
8.0
 31
0.0
  0
LINE
  5
1199
330
762
100
AcDbEntity
  8
240
100
AcDbLine
 10
-51.0
 20
-9.0
 30
0.0
 11
-51.0
 21
0.0
 31
0.0
  0
LINE
  5
119A
330
762
100
AcDbEntity
  8
243
100
AcDbLine
 10
-38.0
 20
8.0
 30
0.0
 11
-38.0
 21
-8.0
 31
0.0
  0
LINE
  5
119B
330
762
100
AcDbEntity
  8
240
100
AcDbLine
 10
-50.0
 20
-10.0
 30
0.0
 11
-42.5
 21
-10.0
 31
0.0
  0
ARC
  5
119C
330
762
100
AcDbEntity
  8
240
100
AcDbCircle
 10
-50.0
 20
-9.0
 30
0.0
 40
1.0
100
AcDbArc
 50
180.0
 51
270.0
  0
LINE
  5
119D
330
762
100
AcDbEntity
  8
240
100
AcDbLine
 10
-40.5
 20
-8.0
 30
0.0
 11
-42.5
 21
-10.0
 31
0.0
  0
LINE
  5
119E
330
762
100
AcDbEntity
  8
240
100
AcDbLine
 10
-51.0
 20
9.0
 30
0.0
 11
-51.0
 21
0.0
 31
0.0
  0
LINE
  5
119F
330
762
100
AcDbEntity
  8
240
100
AcDbLine
 10
-40.5
 20
8.0
 30
0.0
 11
-42.5
 21
10.0
 31
0.0
  0
LINE
  5
11A0
330
762
100
AcDbEntity
  8
240
100
AcDbLine
 10
-50.0
 20
10.0
 30
0.0
 11
-42.5
 21
10.0
 31
0.0
  0
ARC
  5
11A1
330
762
100
AcDbEntity
  8
240
100
AcDbCircle
 10
-50.0
 20
9.0
 30
0.0
 40
1.0
100
AcDbArc
 50
90.0
 51
180.0
  0
LINE
  5
11A2
330
762
100
AcDbEntity
  8
241
100
AcDbLine
 10
-23.5
 20
-9.0
 30
0.0
 11
-23.5
 21
0.0
 31
0.0
  0
LINE
  5
11A3
330
762
100
AcDbEntity
  8
241
100
AcDbLine
 10
-25.5
 20
-9.0
 30
0.0
 11
-25.5
 21
0.0
 31
0.0
  0
ELLIPSE
  5
11A4
330
762
100
AcDbEntity
  8
241
100
AcDbEllipse
 10
-20.0
 20
-3.35109933
 30
0.0
 11
-1.999999999999971
 21
0.0
 31
0.0
210
0.0
220
0.0
230
1.0
 40
0.93969262
 41
0.0
 42
6.283185307179584
  0
LINE
  5
11A5
330
762
100
AcDbEntity
  8
245
100
AcDbLine
 10
-20.0
 20
-1.47171409
 30
0.0
 11
-20.0
 21
-5.23048457
 31
0.0
  0
LINE
  5
11A6
330
762
100
AcDbEntity
  8
245
100
AcDbLine
 10
-35.0
 20
10.0
 30
0.0
 11
-35.0
 21
-10.0
 31
0.0
1001
GENIUS_GENOBJ-N-CEN_13
1002
{
1000
OWNER
1000
GEN
1002
}
1001
GENIUS_GENODEF_13
1002
{
1000
HIER
1070
     0
1002
}
1002
{
1000
MANEDIT
1070
     0
1002
}
1002
{
1000
NOSEL
1070
     0
1002
}
1002
{
1000
BEHIND
1070
     0
1002
}
1002
{
1000
OTHER
1070
     0
1002
}
1002
{
1000
REACTOR
1002
}
  0
LINE
  5
11A7
330
762
100
AcDbEntity
  8
243
100
AcDbLine
 10
-32.0
 20
8.0
 30
0.0
 11
-32.0
 21
-8.0
 31
0.0
  0
LINE
  5
11A8
330
762
100
AcDbEntity
  8
241
100
AcDbLine
 10
0.0
 20
-13.14125603
 30
0.0
 11
0.0
 21
0.0
 31
0.0
  0
LINE
  5
11A9
330
762
100
AcDbEntity
  8
241
100
AcDbLine
 10
0.93782217
 20
-10.35874398
 30
0.0
 11
0.93782217
 21
0.0
 31
0.0
  0
LINE
  5
11AA
330
762
100
AcDbEntity
  8
241
100
AcDbLine
 10
-2.0
 20
-12.5
 30
0.0
 11
-2.0
 21
0.0
 31
0.0
  0
LINE
  5
11AB
330
762
100
AcDbEntity
  8
241
100
AcDbLine
 10
-4.0
 20
-12.5
 30
0.0
 11
-4.0
 21
0.0
 31
0.0
  0
LINE
  5
11AC
330
762
100
AcDbEntity
  8
241
100
AcDbLine
 10
-5.12626129
 20
-13.5
 30
0.0
 11
-5.12626129
 21
0.0
 31
0.0
  0
LINE
  5
11AD
330
762
100
AcDbEntity
  8
241
  6
CONTINUOUS
100
AcDbLine
 10
-6.5
 20
-13.0
 30
0.0
 11
-6.5
 21
0.0
 31
0.0
  0
LINE
  5
11AE
330
762
100
AcDbEntity
  8
241
100
AcDbLine
 10
-11.5
 20
-10.0
 30
0.0
 11
-11.5
 21
0.0
 31
0.0
  0
LINE
  5
11AF
330
762
100
AcDbEntity
  8
241
100
AcDbLine
 10
-14.5
 20
-9.0
 30
0.0
 11
-14.5
 21
0.0
 31
0.0
  0
LINE
  5
11B0
330
762
100
AcDbEntity
  8
241
100
AcDbLine
 10
-16.5
 20
-9.0
 30
0.0
 11
-16.5
 21
0.0
 31
0.0
  0
ARC
  5
11B1
330
762
100
AcDbEntity
  8
240
100
AcDbCircle
 10
-0.76732699
 20
-12.5
 30
0.0
 40
1.0
100
AcDbArc
 50
285.0
 51
345.0
1001
GENIUS_GENODEF_13
1002
{
1000
HIER
1070
     0
1002
}
1002
{
1000
MANEDIT
1070
     0
1002
}
1002
{
1000
NOSEL
1070
     0
1002
}
1002
{
1000
BEHIND
1070
     0
1002
}
1002
{
1000
OTHER
1070
     0
1002
}
1002
{
1000
REACTOR
1002
}
1001
GENIUS_GENOBJ-N-FIL_13
1002
{
1000
OWNER
1000
GEN
1002
}
  0
LINE
  5
11B2
330
762
100
AcDbEntity
  8
240
100
AcDbLine
 10
-23.5
 20
-10.0
 30
0.0
 11
-16.5
 21
-10.0
 31
0.0
  0
LINE
  5
11B3
330
762
100
AcDbEntity
  8
240
100
AcDbLine
 10
-29.5
 20
-8.0
 30
0.0
 11
-27.5
 21
-10.0
 31
0.0
  0
LINE
  5
11B4
330
762
100
AcDbEntity
  8
240
100
AcDbLine
 10
-35.0
 20
-8.0
 30
0.0
 11
-29.5
 21
-8.0
 31
0.0
  0
LINE
  5
11B5
330
762
100
AcDbEntity
  8
240
100
AcDbLine
 10
-23.5
 20
-9.0
 30
0.0
 11
-23.5
 21
-10.0
 31
0.0
  0
LINE
  5
11B6
330
762
100
AcDbEntity
  8
240
100
AcDbLine
 10
-25.5
 20
-9.0
 30
0.0
 11
-25.5
 21
-10.0
 31
0.0
  0
ARC
  5
11B7
330
762
100
AcDbEntity
  8
240
100
AcDbCircle
 10
-24.5
 20
-9.0
 30
0.0
 40
0.9999999999999495
100
AcDbArc
 50
180.0
 51
0.0
  0
LINE
  5
11B8
330
762
100
AcDbEntity
  8
240
100
AcDbLine
 10
-27.5
 20
-10.0
 30
0.0
 11
-25.5
 21
-10.0
 31
0.0
  0
LINE
  5
11B9
330
762
100
AcDbEntity
  8
240
100
AcDbLine
 10
-6.50000001
 20
-13.0
 30
0.0
 11
-10.5
 21
-13.0
 31
0.0
  0
LINE
  5
11BA
330
762
100
AcDbEntity
  8
241
  6
CONTINUOUS
100
AcDbLine
 10
-6.5
 20
-10.2
 30
0.0
 11
-10.0
 21
-10.2
 31
0.0
  0
LINE
  5
11BB
330
762
100
AcDbEntity
  8
240
100
AcDbLine
 10
-10.0
 20
-10.5
 30
0.0
 11
-10.0
 21
-9.7
 31
0.0
  0
LINE
  5
11BC
330
762
100
AcDbEntity
  8
240
100
AcDbLine
 10
-14.5
 20
-9.0
 30
0.0
 11
-14.5
 21
-10.0
 31
0.0
  0
LINE
  5
11BD
330
762
100
AcDbEntity
  8
240
100
AcDbLine
 10
-16.5
 20
-9.0
 30
0.0
 11
-16.5
 21
-10.0
 31
0.0
  0
LINE
  5
11BE
330
762
100
AcDbEntity
  8
240
100
AcDbLine
 10
-11.2
 20
-9.7
 30
0.0
 11
-11.5
 21
-10.0
 31
0.0
  0
ARC
  5
11BF
330
762
100
AcDbEntity
  8
240
100
AcDbCircle
 10
-15.5
 20
-9.0
 30
0.0
 40
1.0
100
AcDbArc
 50
180.0
 51
0.0
  0
LINE
  5
11C0
330
762
100
AcDbEntity
  8
240
100
AcDbLine
 10
-14.5
 20
-10.0
 30
0.0
 11
-11.5
 21
-10.0
 31
0.0
  0
LINE
  5
11C1
330
762
100
AcDbEntity
  8
240
100
AcDbLine
 10
-10.5
 20
-13.0
 30
0.0
 11
-10.5
 21
-11.0
 31
0.0
  0
LINE
  5
11C2
330
762
100
AcDbEntity
  8
240
100
AcDbLine
 10
-10.0
 20
-10.5
 30
0.0
 11
-10.5
 21
-11.0
 31
0.0
  0
LINE
  5
11C3
330
762
100
AcDbEntity
  8
240
100
AcDbLine
 10
-11.2
 20
-9.7
 30
0.0
 11
-10.0
 21
-9.7
 31
0.0
  0
LINE
  5
11C4
330
762
100
AcDbEntity
  8
240
100
AcDbLine
 10
-4.0
 20
-13.5
 30
0.0
 11
-5.12626128
 21
-13.5
 31
0.0
  0
LINE
  5
11C5
330
762
100
AcDbEntity
  8
240
100
AcDbLine
 10
-6.50000001
 20
-13.0
 30
0.0
 11
-5.12626128
 21
-13.5
 31
0.0
  0
LINE
  5
11C6
330
762
100
AcDbEntity
  8
240
100
AcDbLine
 10
-0.63567449
 20
-13.5
 30
0.0
 11
-2.0
 21
-13.5
 31
0.0
  0
LINE
  5
11C7
330
762
100
AcDbEntity
  8
240
100
AcDbLine
 10
-2.0
 20
-12.5
 30
0.0
 11
-2.0
 21
-13.5
 31
0.0
  0
LINE
  5
11C8
330
762
100
AcDbEntity
  8
240
100
AcDbLine
 10
-4.0
 20
-12.5
 30
0.0
 11
-4.0
 21
-13.5
 31
0.0
  0
LINE
  5
11C9
330
762
100
AcDbEntity
  8
240
100
AcDbLine
 10
-0.50850794
 20
-13.46592583
 30
0.0
 11
-0.63567449
 21
-13.5
 31
0.0
  0
ARC
  5
11CA
330
762
100
AcDbEntity
  8
240
100
AcDbCircle
 10
-3.0
 20
-12.5
 30
0.0
 40
1.000000000000227
100
AcDbArc
 50
180.0
 51
0.0
  0
ARC
  5
11CB
330
762
100
AcDbEntity
  8
240
100
AcDbCircle
 10
1.70514916
 20
-11.0
 30
0.0
 40
1.0
100
AcDbArc
 50
90.0
 51
165.00000022
  0
LINE
  5
11CC
330
762
100
AcDbEntity
  8
240
100
AcDbLine
 10
0.19859884
 20
-12.75881905
 30
0.0
 11
0.73922333
 21
-10.74118096
 31
0.0
  0
ARC
  5
11CD
330
762
100
AcDbEntity
  8
240
100
AcDbCircle
 10
-0.76732699
 20
12.5
 30
0.0
 40
1.0
100
AcDbArc
 50
15.0
 51
75.0
1001
GENIUS_GENODEF_13
1002
{
1000
HIER
1070
     0
1002
}
1002
{
1000
MANEDIT
1070
     0
1002
}
1002
{
1000
NOSEL
1070
     0
1002
}
1002
{
1000
BEHIND
1070
     0
1002
}
1002
{
1000
OTHER
1070
     0
1002
}
1002
{
1000
REACTOR
1002
}
1001
GENIUS_GENOBJ-N-FIL_13
1002
{
1000
OWNER
1000
GEN
1002
}
  0
LINE
  5
11CE
330
762
100
AcDbEntity
  8
240
100
AcDbLine
 10
-23.5
 20
10.0
 30
0.0
 11
-16.5
 21
10.0
 31
0.0
  0
LINE
  5
11CF
330
762
100
AcDbEntity
  8
245
100
AcDbLine
 10
-21.99864763
 20
-3.42020133
 30
0.0
 11
-18.00135237
 21
-3.42020133
 31
0.0
  0
LINE
  5
11D0
330
762
100
AcDbEntity
  8
241
100
AcDbLine
 10
-25.5
 20
9.0
 30
0.0
 11
-25.5
 21
0.0
 31
0.0
  0
LINE
  5
11D1
330
762
100
AcDbEntity
  8
241
100
AcDbLine
 10
-23.5
 20
9.0
 30
0.0
 11
-23.5
 21
0.0
 31
0.0
  0
LINE
  5
11D2
330
762
100
AcDbEntity
  8
240
100
AcDbLine
 10
-29.5
 20
8.0
 30
0.0
 11
-27.5
 21
10.0
 31
0.0
  0
LINE
  5
11D3
330
762
100
AcDbEntity
  8
240
100
AcDbLine
 10
-35.0
 20
8.0
 30
0.0
 11
-29.5
 21
8.0
 31
0.0
  0
LINE
  5
11D4
330
762
100
AcDbEntity
  8
240
100
AcDbLine
 10
-27.5
 20
10.0
 30
0.0
 11
-25.5
 21
10.0
 31
0.0
  0
ARC
  5
11D5
330
762
100
AcDbEntity
  8
240
100
AcDbCircle
 10
-24.5
 20
9.0
 30
0.0
 40
0.9999999999999495
100
AcDbArc
 50
0.0
 51
180.0
  0
LINE
  5
11D6
330
762
100
AcDbEntity
  8
240
100
AcDbLine
 10
-25.5
 20
9.0
 30
0.0
 11
-25.5
 21
10.0
 31
0.0
  0
LINE
  5
11D7
330
762
100
AcDbEntity
  8
240
100
AcDbLine
 10
-23.5
 20
9.0
 30
0.0
 11
-23.5
 21
10.0
 31
0.0
  0
LINE
  5
11D8
330
762
100
AcDbEntity
  8
241
100
AcDbLine
 10
-16.5
 20
9.0
 30
0.0
 11
-16.5
 21
0.0
 31
0.0
  0
LINE
  5
11D9
330
762
100
AcDbEntity
  8
241
100
AcDbLine
 10
-14.5
 20
9.0
 30
0.0
 11
-14.5
 21
0.0
 31
0.0
  0
LINE
  5
11DA
330
762
100
AcDbEntity
  8
241
100
AcDbLine
 10
-11.5
 20
10.0
 30
0.0
 11
-11.5
 21
0.0
 31
0.0
  0
LINE
  5
11DB
330
762
100
AcDbEntity
  8
241
  6
CONTINUOUS
100
AcDbLine
 10
-6.5
 20
13.0
 30
0.0
 11
-6.5
 21
0.0
 31
0.0
  0
LINE
  5
11DC
330
762
100
AcDbEntity
  8
241
100
AcDbLine
 10
-5.12626129
 20
13.5
 30
0.0
 11
-5.12626129
 21
0.0
 31
0.0
  0
LINE
  5
11DD
330
762
100
AcDbEntity
  8
241
100
AcDbLine
 10
-4.0
 20
12.5
 30
0.0
 11
-4.0
 21
0.0
 31
0.0
  0
LINE
  5
11DE
330
762
100
AcDbEntity
  8
241
100
AcDbLine
 10
-2.0
 20
12.5
 30
0.0
 11
-2.0
 21
0.0
 31
0.0
  0
LINE
  5
11DF
330
762
100
AcDbEntity
  8
241
  6
CONTINUOUS
100
AcDbLine
 10
-6.5
 20
10.2
 30
0.0
 11
-10.0
 21
10.2
 31
0.0
  0
LINE
  5
11E0
330
762
100
AcDbEntity
  8
240
100
AcDbLine
 10
-6.50000001
 20
13.0
 30
0.0
 11
-10.5
 21
13.0
 31
0.0
  0
LINE
  5
11E1
330
762
100
AcDbEntity
  8
240
100
AcDbLine
 10
-14.5
 20
10.0
 30
0.0
 11
-11.5
 21
10.0
 31
0.0
  0
ARC
  5
11E2
330
762
100
AcDbEntity
  8
240
100
AcDbCircle
 10
-15.5
 20
9.0
 30
0.0
 40
1.0
100
AcDbArc
 50
0.0
 51
180.0
  0
LINE
  5
11E3
330
762
100
AcDbEntity
  8
240
100
AcDbLine
 10
-16.5
 20
9.0
 30
0.0
 11
-16.5
 21
10.0
 31
0.0
  0
LINE
  5
11E4
330
762
100
AcDbEntity
  8
240
100
AcDbLine
 10
-14.5
 20
9.0
 30
0.0
 11
-14.5
 21
10.0
 31
0.0
  0
LINE
  5
11E5
330
762
100
AcDbEntity
  8
240
100
AcDbLine
 10
-11.2
 20
9.7
 30
0.0
 11
-10.0
 21
9.7
 31
0.0
  0
LINE
  5
11E6
330
762
100
AcDbEntity
  8
240
100
AcDbLine
 10
-10.0
 20
10.5
 30
0.0
 11
-10.5
 21
11.0
 31
0.0
  0
LINE
  5
11E7
330
762
100
AcDbEntity
  8
240
100
AcDbLine
 10
-10.5
 20
13.0
 30
0.0
 11
-10.5
 21
11.0
 31
0.0
  0
LINE
  5
11E8
330
762
100
AcDbEntity
  8
240
100
AcDbLine
 10
-11.2
 20
9.7
 30
0.0
 11
-11.5
 21
10.0
 31
0.0
  0
LINE
  5
11E9
330
762
100
AcDbEntity
  8
240
100
AcDbLine
 10
-10.0
 20
10.5
 30
0.0
 11
-10.0
 21
9.7
 31
0.0
  0
LINE
  5
11EA
330
762
100
AcDbEntity
  8
240
100
AcDbLine
 10
-4.0
 20
13.5
 30
0.0
 11
-5.12626128
 21
13.5
 31
0.0
  0
LINE
  5
11EB
330
762
100
AcDbEntity
  8
240
100
AcDbLine
 10
-6.50000001
 20
13.0
 30
0.0
 11
-5.12626128
 21
13.5
 31
0.0
  0
ARC
  5
11EC
330
762
100
AcDbEntity
  8
240
100
AcDbCircle
 10
-3.0
 20
12.5
 30
0.0
 40
1.000000000000227
100
AcDbArc
 50
0.0
 51
180.0
  0
LINE
  5
11ED
330
762
100
AcDbEntity
  8
240
100
AcDbLine
 10
-0.50850794
 20
13.46592583
 30
0.0
 11
-0.63567449
 21
13.5
 31
0.0
  0
LINE
  5
11EE
330
762
100
AcDbEntity
  8
240
100
AcDbLine
 10
-4.0
 20
12.5
 30
0.0
 11
-4.0
 21
13.5
 31
0.0
  0
LINE
  5
11EF
330
762
100
AcDbEntity
  8
240
100
AcDbLine
 10
-2.0
 20
12.5
 30
0.0
 11
-2.0
 21
13.5
 31
0.0
  0
LINE
  5
11F0
330
762
100
AcDbEntity
  8
240
100
AcDbLine
 10
-0.63567449
 20
13.5
 30
0.0
 11
-2.0
 21
13.5
 31
0.0
  0
LINE
  5
11F1
330
762
100
AcDbEntity
  8
241
100
AcDbLine
 10
0.93782217
 20
10.35874398
 30
0.0
 11
0.93782217
 21
0.0
 31
0.0
  0
LINE
  5
11F2
330
762
100
AcDbEntity
  8
241
100
AcDbLine
 10
0.0
 20
13.14125603
 30
0.0
 11
0.0
 21
0.0
 31
0.0
  0
LINE
  5
11F3
330
762
100
AcDbEntity
  8
240
100
AcDbLine
 10
0.19859884
 20
12.75881905
 30
0.0
 11
0.73922333
 21
10.74118096
 31
0.0
  0
ARC
  5
11F4
330
762
100
AcDbEntity
  8
240
100
AcDbCircle
 10
1.70514916
 20
11.0
 30
0.0
 40
1.0
100
AcDbArc
 50
194.99999978
 51
270.0
  0
LINE
  5
11F5
330
762
100
AcDbEntity
  8
0
100
AcDbLine
 10
34.86497043
 20
6.90118807
 30
0.0
 11
35.2135932
 21
7.24981083
 31
0.0
  0
LINE
  5
11F6
330
762
100
AcDbEntity
  8
0
100
AcDbLine
 10
34.55886689
 20
3.36109976
 30
0.0
 11
35.57397205
 21
6.90118807
 31
0.0
  0
LINE
  5
11F7
330
762
100
AcDbEntity
  8
0
100
AcDbLine
 10
34.55886689
 20
3.36109976
 30
0.0
 11
36.39521789
 21
3.36109976
 31
0.0
  0
LINE
  5
11F8
330
762
100
AcDbEntity
  8
0
100
AcDbLine
 10
34.59396156
 20
2.69732704
 30
0.0
 11
35.03647671
 21
3.13984218
 31
0.0
  0
LINE
  5
11F9
330
762
100
AcDbEntity
  8
0
100
AcDbLine
 10
34.32666671
 20
7.34370322
 30
0.0
 11
35.2405153
 21
7.34370322
 31
0.0
  0
LINE
  5
11FA
330
762
100
AcDbEntity
  8
0
100
AcDbLine
 10
34.32666671
 20
6.90118807
 30
0.0
 11
35.11363133
 21
6.90118807
 31
0.0
  0
LINE
  5
11FB
330
762
100
AcDbEntity
  8
0
100
AcDbLine
 10
34.37336391
 20
6.90118807
 30
0.0
 11
34.81587906
 21
7.34370322
 31
0.0
  0
ARC
  5
11FC
330
762
100
AcDbEntity
  8
0
100
AcDbCircle
 10
34.32666671
 20
5.02051538
 30
0.0
 40
1.880672681249994
100
AcDbArc
 50
90.0
 51
270.0
  0
ARC
  5
11FD
330
762
100
AcDbEntity
  8
0
100
AcDbCircle
 10
34.32666671
 20
5.02051538
 30
0.0
 40
2.323187831249998
100
AcDbArc
 50
90.0
 51
270.0
  0
LINE
  5
11FE
330
762
100
AcDbEntity
  8
0
100
AcDbLine
 10
32.07281329
 20
5.58385049
 30
0.0
 11
33.7633316
 21
7.2743688
 31
0.0
  0
LINE
  5
11FF
330
762
100
AcDbEntity
  8
0
100
AcDbLine
 10
33.69755216
 20
2.78413067
 30
0.0
 11
34.07075682
 21
3.15733535
 31
0.0
  0
LINE
  5
1200
330
762
100
AcDbEntity
  8
0
100
AcDbLine
 10
32.75148559
 20
3.31288366
 30
0.0
 11
33.06470563
 21
3.6261037
 31
0.0
  0
LINE
  5
1201
330
762
100
AcDbEntity
  8
0
100
AcDbLine
 10
32.51419175
 20
3.56719635
 30
0.0
 11
32.82943302
 21
3.88243762
 31
0.0
  0
LINE
  5
1202
330
762
100
AcDbEntity
  8
0
100
AcDbLine
 10
32.31457454
 20
3.85918566
 30
0.0
 11
32.64131896
 21
4.18593007
 31
0.0
  0
LINE
  5
1203
330
762
100
AcDbEntity
  8
0
100
AcDbLine
 10
32.15611161
 20
4.19232926
 30
0.0
 11
32.50745077
 21
4.5436684
 31
0.0
  0
LINE
  5
1204
330
762
100
AcDbEntity
  8
0
100
AcDbLine
 10
32.04669169
 20
4.57451585
 30
0.0
 11
32.44655991
 21
4.97438407
 31
0.0
  0
LINE
  5
1205
330
762
100
AcDbEntity
  8
0
100
AcDbLine
 10
32.00348012
 20
5.02291079
 30
0.0
 11
32.51859908
 21
5.53802975
 31
0.0
  0
LINE
  5
1206
330
762
100
AcDbEntity
  8
0
100
AcDbLine
 10
33.33936924
 20
2.91755428
 30
0.0
 11
33.67731646
 21
3.2555015
 31
0.0
  0
LINE
  5
1207
330
762
100
AcDbEntity
  8
0
100
AcDbLine
 10
33.02585956
 20
3.09565112
 30
0.0
 11
33.34598376
 21
3.41577532
 31
0.0
  0
LINE
  5
1208
330
762
100
AcDbEntity
  8
0
100
AcDbLine
 10
34.11226961
 20
2.7072416
 30
0.0
 11
34.54487018
 21
3.13984218
 31
0.0
  0
LINE
  5
1209
330
762
100
AcDbEntity
  8
0
100
AcDbLine
 10
33.80915235
 20
6.82858303
 30
0.0
 11
34.3242713
 21
7.34370197
 31
0.0
  0
LINE
  5
120A
330
762
100
AcDbEntity
  8
0
100
AcDbLine
 10
35.46373234
 20
6.51673693
 30
0.0
 11
36.29069861
 21
7.34370322
 31
0.0
  0
LINE
  5
120B
330
762
100
AcDbEntity
  8
0
100
AcDbLine
 10
36.16792826
 20
5.11959636
 30
0.0
 11
35.80528612
 21
3.85486785
 31
0.0
  0
LINE
  5
120C
330
762
100
AcDbEntity
  8
0
100
AcDbLine
 10
34.87081869
 20
4.44900372
 30
0.0
 11
36.419812
 21
5.99799703
 31
0.0
  0
LINE
  5
120D
330
762
100
AcDbEntity
  8
0
100
AcDbLine
 10
35.25773428
 20
3.36109976
 30
0.0
 11
35.82690739
 21
3.93027285
 31
0.0
  0
LINE
  5
120E
330
762
100
AcDbEntity
  8
0
100
AcDbLine
 10
34.76612776
 20
3.36109976
 30
0.0
 11
36.02453508
 21
4.61950707
 31
0.0
  0
LINE
  5
120F
330
762
100
AcDbEntity
  8
0
100
AcDbLine
 10
35.5771746
 20
2.69732704
 30
0.0
 11
36.01968975
 21
3.13984218
 31
0.0
  0
LINE
  5
1210
330
762
100
AcDbEntity
  8
0
100
AcDbLine
 10
35.08556809
 20
2.69732704
 30
0.0
 11
35.52808322
 21
3.13984218
 31
0.0
  0
LINE
  5
1211
330
762
100
AcDbEntity
  8
0
100
AcDbLine
 10
35.34379334
 20
6.90118807
 30
0.0
 11
35.57397205
 21
6.90118807
 31
0.0
  0
LINE
  5
1212
330
762
100
AcDbEntity
  8
0
100
AcDbLine
 10
35.2405153
 20
7.34370322
 30
0.0
 11
35.11363133
 21
6.90118807
 31
0.0
  0
LINE
  5
1213
330
762
100
AcDbEntity
  8
0
100
AcDbLine
 10
35.4706773
 20
7.34370322
 30
0.0
 11
35.34379334
 21
6.90118807
 31
0.0
  0
LINE
  5
1214
330
762
100
AcDbEntity
  8
0
100
AcDbLine
 10
35.35657695
 20
6.90118807
 30
0.0
 11
35.7990921
 21
7.34370322
 31
0.0
  0
TEXT
  5
1215
330
762
100
AcDbEntity
  8
0
100
AcDbText
 10
46.78029071
 20
3.31972087
 30
0.0
 40
3.5
  1
MGT12-M12-150
  7
YOKO
100
AcDbText
  0
ARC
  5
1216
330
762
100
AcDbEntity
  8
0
100
AcDbCircle
 10
41.02478706
 20
4.79925781
 30
0.0
 40
1.438174237499999
100
AcDbArc
 50
163.9997507
 51
304.96387329
  0
ARC
  5
1217
330
762
100
AcDbEntity
  8
0
100
AcDbCircle
 10
43.30966747
 20
5.02051538
 30
0.0
 40
2.323187831249998
100
AcDbArc
 50
270.0
 51
104.77079397
  0
ARC
  5
1218
330
762
100
AcDbEntity
  8
0
100
AcDbCircle
 10
41.34200533
 20
5.90554569
 30
0.0
 40
1.438159619531249
100
AcDbArc
 50
53.4440122
 51
164.00018439
  0
LINE
  5
1219
330
762
100
AcDbEntity
  8
0
100
AcDbLine
 10
39.65743121
 20
5.30276407
 30
0.0
 11
41.66226108
 21
7.30759395
 31
0.0
  0
LINE
  5
121A
330
762
100
AcDbEntity
  8
0
100
AcDbLine
 10
39.82064104
 20
5.95758044
 30
0.0
 11
41.19970894
 21
7.33664834
 31
0.0
  0
ARC
  5
121B
330
762
100
AcDbEntity
  8
0
100
AcDbCircle
 10
40.97727448
 20
4.31250451
 30
0.0
 40
0.464640359326172
100
AcDbArc
 50
164.00027306
 51
344.00027306
  0
LINE
  5
121C
330
762
100
AcDbEntity
  8
0
100
AcDbLine
 10
40.5306329
 20
4.44057462
 30
0.0
 11
41.12701261
 21
6.52038581
 31
0.0
  0
LINE
  5
121D
330
762
100
AcDbEntity
  8
0
100
AcDbLine
 10
40.70206616
 20
3.39775992
 30
0.0
 11
41.22158619
 21
3.91727993
 31
0.0
  0
LINE
  5
121E
330
762
100
AcDbEntity
  8
0
100
AcDbLine
 10
40.98484632
 20
2.69732704
 30
0.0
 11
41.42736147
 21
3.13984218
 31
0.0
  0
LINE
  5
121F
330
762
100
AcDbEntity
  8
0
100
AcDbLine
 10
38.33599064
 20
5.45614307
 30
0.0
 11
39.72362669
 21
6.84377913
 31
0.0
  0
LINE
  5
1220
330
762
100
AcDbEntity
  8
0
100
AcDbLine
 10
38.53362991
 20
6.14538887
 30
0.0
 11
39.73194426
 21
7.34370322
 31
0.0
  0
LINE
  5
1221
330
762
100
AcDbEntity
  8
0
100
AcDbLine
 10
38.72498798
 20
3.36109976
 30
0.0
 11
39.86697711
 21
7.34370322
 31
0.0
  0
LINE
  5
1222
330
762
100
AcDbEntity
  8
0
100
AcDbLine
 10
38.72498798
 20
3.36109976
 30
0.0
 11
39.86697711
 21
7.34370322
 31
0.0
1001
HATCH_DISTANCE
1040
1.0
1001
HATCH_DISPLAY
1070
     0
1001
HATCH_TYPE
1070
     7
  0
LINE
  5
1223
330
762
100
AcDbEntity
  8
0
100
AcDbLine
 10
38.72498798
 20
3.36109976
 30
0.0
 11
39.86697711
 21
7.34370322
 31
0.0
  0
LINE
  5
1224
330
762
100
AcDbEntity
  8
0
100
AcDbLine
 10
38.13835136
 20
4.76689727
 30
0.0
 11
39.52599012
 21
6.15453603
 31
0.0
  0
LINE
  5
1225
330
762
100
AcDbEntity
  8
0
100
AcDbLine
 10
37.94071208
 20
4.07765148
 30
0.0
 11
39.32835354
 21
5.46529293
 31
0.0
  0
LINE
  5
1226
330
762
100
AcDbEntity
  8
0
100
AcDbLine
 10
39.01842024
 20
2.69732704
 30
0.0
 11
39.46093538
 21
3.13984218
 31
0.0
  0
LINE
  5
1227
330
762
100
AcDbEntity
  8
0
100
AcDbLine
 10
38.71611697
 20
7.34370322
 30
0.0
 11
39.86697711
 21
7.34370322
 31
0.0
  0
LINE
  5
1228
330
762
100
AcDbEntity
  8
0
100
AcDbLine
 10
39.86697711
 20
7.34370322
 30
0.0
 11
38.71611697
 21
7.34370322
 31
0.0
1001
HATCH_DISTANCE
1040
1.0
1001
HATCH_DISPLAY
1070
     0
1001
HATCH_TYPE
1070
     7
  0
LINE
  5
1229
330
762
100
AcDbEntity
  8
0
100
AcDbLine
 10
39.86697711
 20
7.34370322
 30
0.0
 11
38.71611697
 21
7.34370322
 31
0.0
  0
LINE
  5
122A
330
762
100
AcDbEntity
  8
0
100
AcDbLine
 10
37.7352429
 20
3.36109976
 30
0.0
 11
38.73766802
 21
6.85694991
 31
0.0
  0
LINE
  5
122B
330
762
100
AcDbEntity
  8
0
100
AcDbLine
 10
37.05866695
 20
6.14524547
 30
0.0
 11
37.79917334
 21
6.88575186
 31
0.0
  0
LINE
  5
122C
330
762
100
AcDbEntity
  8
0
100
AcDbLine
 10
38.73766802
 20
6.85694991
 30
0.0
 11
37.7352429
 21
3.36109976
 31
0.0
1001
HATCH_DISTANCE
1040
1.0
1001
HATCH_DISPLAY
1070
     0
1001
HATCH_TYPE
1070
     7
  0
LINE
  5
122D
330
762
100
AcDbEntity
  8
0
100
AcDbLine
 10
38.73766802
 20
6.85694991
 30
0.0
 11
37.7352429
 21
3.36109976
 31
0.0
  0
ARC
  5
122E
330
762
100
AcDbEntity
  8
0
100
AcDbCircle
 10
36.90277047
 20
6.23743204
 30
0.0
 40
1.106280566015622
100
AcDbArc
 50
287.66957755
 51
90.23615984
  0
LINE
  5
122F
330
762
100
AcDbEntity
  8
0
100
AcDbLine
 10
36.54999585
 20
4.65336133
 30
0.0
 11
38.00102169
 21
6.10438717
 31
0.0
  0
LINE
  5
1230
330
762
100
AcDbEntity
  8
0
100
AcDbLine
 10
36.56038764
 20
2.69732704
 30
0.0
 11
37.00290279
 21
3.13984218
 31
0.0
  0
LINE
  5
1231
330
762
100
AcDbEntity
  8
0
100
AcDbLine
 10
37.7352429
 20
3.36109976
 30
0.0
 11
38.72498798
 21
3.36109976
 31
0.0
  0
LINE
  5
1232
330
762
100
AcDbEntity
  8
0
100
AcDbLine
 10
37.7352429
 20
3.36109976
 30
0.0
 11
38.72498798
 21
3.36109976
 31
0.0
1001
HATCH_DISTANCE
1040
1.0
1001
HATCH_DISPLAY
1070
     0
1001
HATCH_TYPE
1070
     7
  0
LINE
  5
1233
330
762
100
AcDbEntity
  8
0
100
AcDbLine
 10
37.7352429
 20
3.36109976
 30
0.0
 11
38.72498798
 21
3.36109976
 31
0.0
  0
LINE
  5
1234
330
762
100
AcDbEntity
  8
0
100
AcDbLine
 10
38.69897992
 20
3.36109976
 30
0.0
 11
38.73544379
 21
3.39756363
 31
0.0
  0
LINE
  5
1235
330
762
100
AcDbEntity
  8
0
100
AcDbLine
 10
38.2073734
 20
3.36109976
 30
0.0
 11
38.93308037
 21
4.08680672
 31
0.0
  0
LINE
  5
1236
330
762
100
AcDbEntity
  8
0
100
AcDbLine
 10
37.7430728
 20
3.38840567
 30
0.0
 11
39.13071696
 21
4.77604983
 31
0.0
  0
LINE
  5
1237
330
762
100
AcDbEntity
  8
0
100
AcDbLine
 10
38.52681373
 20
2.69732704
 30
0.0
 11
38.96932886
 21
3.13984218
 31
0.0
  0
LINE
  5
1238
330
762
100
AcDbEntity
  8
0
100
AcDbLine
 10
38.0352072
 20
2.69732704
 30
0.0
 11
38.47772234
 21
3.13984218
 31
0.0
  0
LINE
  5
1239
330
762
100
AcDbEntity
  8
0
100
AcDbLine
 10
37.54360068
 20
2.69732704
 30
0.0
 11
37.98611583
 21
3.13984218
 31
0.0
  0
LINE
  5
123A
330
762
100
AcDbEntity
  8
0
100
AcDbLine
 10
37.05199416
 20
2.69732704
 30
0.0
 11
37.4945093
 21
3.13984218
 31
0.0
  0
LINE
  5
123B
330
762
100
AcDbEntity
  8
0
100
AcDbLine
 10
36.81549692
 20
3.44404283
 30
0.0
 11
37.41854649
 21
4.04709241
 31
0.0
  0
LINE
  5
123C
330
762
100
AcDbEntity
  8
0
100
AcDbLine
 10
38.7030044
 20
7.2979764
 30
0.0
 11
38.74873122
 21
7.34370322
 31
0.0
  0
LINE
  5
123D
330
762
100
AcDbEntity
  8
0
100
AcDbLine
 10
37.00194908
 20
6.58013411
 30
0.0
 11
37.55373277
 21
7.13191781
 31
0.0
  0
LINE
  5
123E
330
762
100
AcDbEntity
  8
0
100
AcDbLine
 10
38.57653625
 20
6.85694991
 30
0.0
 11
38.73766802
 21
6.85694991
 31
0.0
  0
LINE
  5
123F
330
762
100
AcDbEntity
  8
0
100
AcDbLine
 10
38.57653625
 20
6.85694991
 30
0.0
 11
38.73766802
 21
6.85694991
 31
0.0
1001
HATCH_DISTANCE
1040
1.0
1001
HATCH_DISPLAY
1070
     0
1001
HATCH_TYPE
1070
     7
  0
LINE
  5
1240
330
762
100
AcDbEntity
  8
0
100
AcDbLine
 10
38.57653625
 20
6.85694991
 30
0.0
 11
38.73766802
 21
6.85694991
 31
0.0
  0
LINE
  5
1241
330
762
100
AcDbEntity
  8
0
100
AcDbLine
 10
36.76935206
 20
6.83914361
 30
0.0
 11
37.22573016
 21
7.29552171
 31
0.0
  0
LINE
  5
1242
330
762
100
AcDbEntity
  8
0
100
AcDbLine
 10
38.57653625
 20
6.85694991
 30
0.0
 11
38.71611697
 21
7.34370322
 31
0.0
  0
LINE
  5
1243
330
762
100
AcDbEntity
  8
0
100
AcDbLine
 10
38.71611697
 20
7.34370322
 30
0.0
 11
38.57653625
 21
6.85694991
 31
0.0
1001
HATCH_DISTANCE
1040
1.0
1001
HATCH_DISPLAY
1070
     0
1001
HATCH_TYPE
1070
     7
  0
LINE
  5
1244
330
762
100
AcDbEntity
  8
0
100
AcDbLine
 10
38.71611697
 20
7.34370322
 30
0.0
 11
38.57653625
 21
6.85694991
 31
0.0
  0
LINE
  5
1245
330
762
100
AcDbEntity
  8
0
100
AcDbLine
 10
38.73126919
 20
6.83463466
 30
0.0
 11
39.24033774
 21
7.34370322
 31
0.0
  0
LINE
  5
1246
330
762
100
AcDbEntity
  8
0
100
AcDbLine
 10
39.51002677
 20
2.69732704
 30
0.0
 11
39.9525419
 21
3.13984218
 31
0.0
  0
LINE
  5
1247
330
762
100
AcDbEntity
  8
0
100
AcDbLine
 10
40.3447295
 20
3.53202979
 30
0.0
 11
40.73112293
 21
3.9184232
 31
0.0
  0
LINE
  5
1248
330
762
100
AcDbEntity
  8
0
100
AcDbLine
 10
40.05674944
 20
3.73565624
 30
0.0
 11
40.52540591
 21
4.20431271
 31
0.0
  0
LINE
  5
1249
330
762
100
AcDbEntity
  8
0
100
AcDbLine
 10
39.82928889
 20
3.99980221
 30
0.0
 11
40.63538975
 21
4.80590306
 31
0.0
  0
ARC
  5
124A
330
762
100
AcDbEntity
  8
0
100
AcDbCircle
 10
43.37612492
 20
4.72364532
 30
0.0
 40
3.763517174999998
100
AcDbArc
 50
155.20517737
 51
172.79482596
  0
LINE
  5
124B
330
762
100
AcDbEntity
  8
0
100
AcDbLine
 10
39.66598036
 20
4.3281002
 30
0.0
 11
40.83302891
 21
5.49514875
 31
0.0
  0
LINE
  5
124C
330
762
100
AcDbEntity
  8
0
100
AcDbLine
 10
39.58777311
 20
4.74149947
 30
0.0
 11
41.03066807
 21
6.18439443
 31
0.0
  0
LINE
  5
124D
330
762
100
AcDbEntity
  8
0
100
AcDbLine
 10
40.49323981
 20
2.69732704
 30
0.0
 11
40.93575494
 21
3.13984218
 31
0.0
  0
LINE
  5
124E
330
762
100
AcDbEntity
  8
0
100
AcDbLine
 10
40.00163328
 20
2.69732704
 30
0.0
 11
40.44414843
 21
3.13984218
 31
0.0
  0
LINE
  5
124F
330
762
100
AcDbEntity
  8
0
100
AcDbLine
 10
42.85062984
 20
6.84431999
 30
0.0
 11
42.71736408
 21
7.266938
 31
0.0
1001
HATCH_DISTANCE
1040
1.0
1001
HATCH_DISPLAY
1070
     0
1001
HATCH_TYPE
1070
     7
  0
LINE
  5
1250
330
762
100
AcDbEntity
  8
0
100
AcDbLine
 10
42.71736408
 20
7.266938
 30
0.0
 11
42.85062984
 21
6.84431999
 31
0.0
1001
HATCH_DISTANCE
1040
1.0
1001
HATCH_DISPLAY
1070
     0
1001
HATCH_TYPE
1070
     7
  0
LINE
  5
1251
330
762
100
AcDbEntity
  8
0
100
AcDbLine
 10
42.85062984
 20
6.84431999
 30
0.0
 11
42.71736408
 21
7.266938
 31
0.0
  0
LINE
  5
1252
330
762
100
AcDbEntity
  8
0
100
AcDbLine
 10
42.71736408
 20
7.266938
 30
0.0
 11
42.85062984
 21
6.84431999
 31
0.0
  0
LINE
  5
1253
330
762
100
AcDbEntity
  8
0
100
AcDbLine
 10
43.22014959
 20
6.89905638
 30
0.0
 11
43.64104173
 21
7.31994853
 31
0.0
  0
LINE
  5
1254
330
762
100
AcDbEntity
  8
0
100
AcDbLine
 10
42.80823883
 20
6.97875214
 30
0.0
 11
43.16892263
 21
7.33943594
 31
0.0
  0
LINE
  5
1255
330
762
100
AcDbEntity
  8
0
100
AcDbLine
 10
44.63868721
 20
6.35116793
 30
0.0
 11
44.95159274
 21
6.66407344
 31
0.0
  0
LINE
  5
1256
330
762
100
AcDbEntity
  8
0
100
AcDbLine
 10
45.15346229
 20
5.39112346
 30
0.0
 11
45.51460379
 21
5.75226496
 31
0.0
  0
LINE
  5
1257
330
762
100
AcDbEntity
  8
0
100
AcDbLine
 10
45.03641467
 20
5.76568234
 30
0.0
 11
45.36817117
 21
6.09743885
 31
0.0
  0
LINE
  5
1258
330
762
100
AcDbEntity
  8
0
100
AcDbLine
 10
45.04775938
 20
4.30220749
 30
0.0
 11
45.62879626
 21
4.88324438
 31
0.0
  0
LINE
  5
1259
330
762
100
AcDbEntity
  8
0
100
AcDbLine
 10
45.18836857
 20
4.93442321
 30
0.0
 11
45.60868769
 21
5.35474233
 31
0.0
  0
LINE
  5
125A
330
762
100
AcDbEntity
  8
0
100
AcDbLine
 10
44.05847029
 20
2.82131188
 30
0.0
 11
45.50887096
 21
4.27171255
 31
0.0
  0
LINE
  5
125B
330
762
100
AcDbEntity
  8
0
100
AcDbLine
 10
44.8617298
 20
6.08260399
 30
0.0
 11
45.17902567
 21
6.39989988
 31
0.0
  0
LINE
  5
125C
330
762
100
AcDbEntity
  8
0
100
AcDbLine
 10
44.36981619
 20
6.57390342
 30
0.0
 11
44.68717206
 21
6.89125929
 31
0.0
  0
LINE
  5
125D
330
762
100
AcDbEntity
  8
0
100
AcDbLine
 10
44.05255201
 20
6.74824577
 30
0.0
 11
44.38444604
 21
7.0801398
 31
0.0
  0
ARC
  5
125E
330
762
100
AcDbEntity
  8
0
100
AcDbCircle
 10
43.30966747
 20
5.02051538
 30
0.0
 40
1.880672681249994
100
AcDbArc
 50
270.0
 51
104.1274365
  0
LINE
  5
125F
330
762
100
AcDbEntity
  8
0
100
AcDbLine
 10
43.44693847
 20
2.70138658
 30
0.0
 11
44.02797535
 21
3.28242347
 31
0.0
  0
LINE
  5
1260
330
762
100
AcDbEntity
  8
0
100
AcDbLine
 10
43.67755474
 20
6.86485501
 30
0.0
 11
44.03896401
 21
7.22626429
 31
0.0
  0
ARC
  5
1261
330
762
100
AcDbEntity
  8
0
100
AcDbCircle
 10
41.5736542
 20
6.39229897
 30
0.0
 40
0.4646406856201171
100
AcDbArc
 50
1.71012138
 51
163.99839835
  0
ARC
  5
1262
330
762
100
AcDbEntity
  8
0
100
AcDbCircle
 10
43.30966747
 20
5.02051538
 30
0.0
 40
1.88067790195312
100
AcDbArc
 50
110.8721834
 51
132.54194894
  0
LINE
  5
1263
330
762
100
AcDbEntity
  8
0
100
AcDbLine
 10
41.16372307
 20
3.36781032
 30
0.0
 11
42.49105263
 21
4.69513988
 31
0.0
  0
LINE
  5
1264
330
762
100
AcDbEntity
  8
0
100
AcDbLine
 10
41.59549438
 20
4.78279465
 30
0.0
 11
42.43061391
 21
5.61791418
 31
0.0
  0
LINE
  5
1265
330
762
100
AcDbEntity
  8
0
100
AcDbLine
 10
42.10852149
 20
3.36109976
 30
0.0
 11
42.75565479
 21
5.61791418
 31
0.0
  0
LINE
  5
1266
330
762
100
AcDbEntity
  8
0
100
AcDbLine
 10
41.46668408
 20
5.61791418
 30
0.0
 11
42.75565479
 21
5.61791418
 31
0.0
  0
LINE
  5
1267
330
762
100
AcDbEntity
  8
0
100
AcDbLine
 10
41.37249906
 20
4.0681928
 30
0.0
 11
42.68869112
 21
5.38438488
 31
0.0
  0
LINE
  5
1268
330
762
100
AcDbEntity
  8
0
100
AcDbLine
 10
41.42391609
 20
4.18443439
 30
0.0
 11
41.70807268
 21
5.17539902
 31
0.0
  0
LINE
  5
1269
330
762
100
AcDbEntity
  8
0
100
AcDbLine
 10
41.33980011
 20
5.17539902
 30
0.0
 11
41.70807268
 21
5.17539902
 31
0.0
  0
LINE
  5
126A
330
762
100
AcDbEntity
  8
0
100
AcDbLine
 10
41.33980011
 20
5.17539902
 30
0.0
 11
41.46668408
 21
5.61791418
 31
0.0
  0
LINE
  5
126B
330
762
100
AcDbEntity
  8
0
100
AcDbLine
 10
41.84893979
 20
3.62066476
 30
0.0
 11
42.10852149
 21
3.36109976
 31
0.0
  0
LINE
  5
126C
330
762
100
AcDbEntity
  8
0
100
AcDbLine
 10
41.87856287
 20
3.59104359
 30
0.0
 11
42.29341414
 21
4.00589486
 31
0.0
  0
LINE
  5
126D
330
762
100
AcDbEntity
  8
0
100
AcDbLine
 10
41.49649223
 20
5.17539902
 30
0.0
 11
41.93900738
 21
5.61791418
 31
0.0
  0
LINE
  5
126E
330
762
100
AcDbEntity
  8
0
100
AcDbLine
 10
41.96805936
 20
2.69732704
 30
0.0
 11
42.41057451
 21
3.13984218
 31
0.0
  0
LINE
  5
126F
330
762
100
AcDbEntity
  8
0
100
AcDbLine
 10
41.47645285
 20
2.69732704
 30
0.0
 11
41.91896798
 21
3.13984218
 31
0.0
  0
LINE
  5
1270
330
762
100
AcDbEntity
  8
0
100
AcDbLine
 10
42.95127241
 20
2.69732704
 30
0.0
 11
43.39575963
 21
3.14181426
 31
0.0
  0
LINE
  5
1271
330
762
100
AcDbEntity
  8
0
100
AcDbLine
 10
42.45966588
 20
2.69732704
 30
0.0
 11
42.90218102
 21
3.13984218
 31
0.0
  0
ARC
  5
1272
330
762
100
AcDbEntity
  8
0
100
AcDbCircle
 10
43.30966747
 20
5.02051538
 30
0.0
 40
2.32318887539062
100
AcDbArc
 50
110.22964506
 51
118.57168892
  0
LINE
  5
1273
330
762
100
AcDbEntity
  8
0
100
AcDbLine
 10
41.97100987
 20
6.63312971
 30
0.0
 11
42.51400215
 21
7.176122
 31
0.0
  0
LINE
  5
1274
330
762
100
AcDbEntity
  8
0
100
AcDbLine
 10
41.68873607
 20
6.84246242
 30
0.0
 11
42.0200884
 21
7.17381476
 31
0.0
  0
LINE
  5
1275
330
762
100
AcDbEntity
  8
0
100
AcDbLine
 10
42.71736408
 20
7.266938
 30
0.0
 11
42.71736408
 21
7.266938
 31
0.0
1001
HATCH_DISTANCE
1040
1.0
1001
HATCH_DISPLAY
1070
     0
1001
HATCH_TYPE
1070
     7
  0
LINE
  5
1276
330
762
100
AcDbEntity
  8
0
100
AcDbLine
 10
42.71736408
 20
7.266938
 30
0.0
 11
42.71736408
 21
7.266938
 31
0.0
  0
LINE
  5
1277
330
762
100
AcDbEntity
  8
0
100
AcDbLine
 10
42.71736408
 20
7.266938
 30
0.0
 11
42.71736408
 21
7.266938
 31
0.0
1001
HATCH_DISTANCE
1040
1.0
1001
HATCH_DISPLAY
1070
     0
1001
HATCH_TYPE
1070
     7
  0
LINE
  5
1278
330
762
100
AcDbEntity
  8
0
100
AcDbLine
 10
42.71736408
 20
7.266938
 30
0.0
 11
42.71736408
 21
7.266938
 31
0.0
  0
LINE
  5
1279
330
762
100
AcDbEntity
  8
0
100
AcDbLine
 10
42.85062984
 20
6.84431999
 30
0.0
 11
42.85062984
 21
6.84431999
 31
0.0
1001
HATCH_DISTANCE
1040
1.0
1001
HATCH_DISPLAY
1070
     0
1001
HATCH_TYPE
1070
     7
  0
LINE
  5
127A
330
762
100
AcDbEntity
  8
0
100
AcDbLine
 10
42.85062984
 20
6.84431999
 30
0.0
 11
42.85062984
 21
6.84431999
 31
0.0
  0
LINE
  5
127B
330
762
100
AcDbEntity
  8
0
100
AcDbLine
 10
42.85062984
 20
6.84431999
 30
0.0
 11
42.85062984
 21
6.84431999
 31
0.0
1001
HATCH_DISTANCE
1040
1.0
1001
HATCH_DISPLAY
1070
     0
1001
HATCH_TYPE
1070
     7
  0
LINE
  5
127C
330
762
100
AcDbEntity
  8
0
100
AcDbLine
 10
42.85062984
 20
6.84431999
 30
0.0
 11
42.85062984
 21
6.84431999
 31
0.0
  0
LINE
  5
127D
330
762
100
AcDbEntity
  8
0
100
AcDbLine
 10
42.58578558
 20
6.75629889
 30
0.0
 11
42.6318583
 21
6.80237161
 31
0.0
  0
LINE
  5
127E
330
762
100
AcDbEntity
  8
0
100
AcDbLine
 10
42.63961318
 20
6.777779
 30
0.0
 11
42.50634743
 21
7.200397
 31
0.0
  0
LINE
  5
127F
330
762
100
AcDbEntity
  8
0
100
AcDbLine
 10
42.85062984
 20
6.84431999
 30
0.0
 11
42.71736408
 21
7.266938
 31
0.0
  0
LINE
  5
1280
330
762
100
AcDbEntity
  8
0
100
AcDbLine
 10
42.85062984
 20
6.84431999
 30
0.0
 11
42.71736408
 21
7.266938
 31
0.0
1001
HATCH_DISTANCE
1040
1.0
1001
HATCH_DISPLAY
1070
     0
1001
HATCH_TYPE
1070
     7
  0
LINE
  5
1281
330
762
100
AcDbEntity
  8
0
100
AcDbLine
 10
42.71736408
 20
7.266938
 30
0.0
 11
42.85062984
 21
6.84431999
 31
0.0
1001
HATCH_DISTANCE
1040
1.0
1001
HATCH_DISPLAY
1070
     0
1001
HATCH_TYPE
1070
     7
  0
LINE
  5
1282
330
762
100
AcDbEntity
  8
0
100
AcDbLine
 10
42.85062984
 20
6.84431999
 30
0.0
 11
42.71736408
 21
7.266938
 31
0.0
  0
LINE
  5
1283
330
762
100
AcDbEntity
  8
0
100
AcDbLine
 10
42.71736408
 20
7.266938
 30
0.0
 11
42.85062984
 21
6.84431999
 31
0.0
  0
LINE
  5
1284
330
762
100
AcDbEntity
  8
241
100
AcDbLine
 10
129.0
 20
-8.2
 30
0.0
 11
129.0
 21
0.0
 31
0.0
  0
LINE
  5
1285
330
762
100
AcDbEntity
  8
241
100
AcDbLine
 10
131.0
 20
-10.15
 30
0.0
 11
131.0
 21
0.0
 31
0.0
  0
LINE
  5
1286
330
762
100
AcDbEntity
  8
241
100
AcDbLine
 10
132.2
 20
-10.0
 30
0.0
 11
132.2
 21
0.0
 31
0.0
  0
LINE
  5
1287
330
762
100
AcDbEntity
  8
241
100
AcDbLine
 10
128.0
 20
-8.2
 30
0.0
 11
128.0
 21
0.0
 31
0.0
  0
LINE
  5
1288
330
762
100
AcDbEntity
  8
240
100
AcDbLine
 10
150.0
 20
-9.0
 30
0.0
 11
150.0
 21
0.0
 31
0.0
  0
LINE
  5
1289
330
762
100
AcDbEntity
  8
240
100
AcDbLine
 10
131.25980762
 20
-10.0
 30
0.0
 11
149.0
 21
-10.0
 31
0.0
  0
LINE
  5
128A
330
762
100
AcDbEntity
  8
240
100
AcDbLine
 10
129.0
 20
-8.2
 30
0.0
 11
128.0
 21
-8.2
 31
0.0
  0
LINE
  5
128B
330
762
100
AcDbEntity
  8
240
100
AcDbLine
 10
128.0
 20
-8.2
 30
0.0
 11
128.0
 21
-10.0
 31
0.0
  0
LINE
  5
128C
330
762
100
AcDbEntity
  8
240
100
AcDbLine
 10
129.0
 20
-8.2
 30
0.0
 11
129.0
 21
-10.15
 31
0.0
  0
LINE
  5
128D
330
762
100
AcDbEntity
  8
240
100
AcDbLine
 10
129.0
 20
-10.15
 30
0.0
 11
131.0
 21
-10.15
 31
0.0
  0
LINE
  5
128E
330
762
100
AcDbEntity
  8
240
100
AcDbLine
 10
131.25980762
 20
-10.0
 30
0.0
 11
131.0
 21
-10.15
 31
0.0
  0
ARC
  5
128F
330
762
100
AcDbEntity
  8
240
100
AcDbCircle
 10
149.0
 20
-9.0
 30
0.0
 40
1.0
100
AcDbArc
 50
270.0
 51
0.0
1001
GENIUS_GENOBJ-N-FIL_13
1002
{
1000
OWNER
1000
GEN
1002
}
1001
GENIUS_GENODEF_13
1002
{
1000
HIER
1070
     0
1002
}
1002
{
1000
MANEDIT
1070
     0
1002
}
1002
{
1000
NOSEL
1070
     0
1002
}
1002
{
1000
BEHIND
1070
     0
1002
}
1002
{
1000
OTHER
1070
     0
1002
}
1002
{
1000
REACTOR
1002
}
  0
LINE
  5
1290
330
762
100
AcDbEntity
  8
240
100
AcDbLine
 10
131.25980762
 20
10.0
 30
0.0
 11
149.0
 21
10.0
 31
0.0
  0
LINE
  5
1291
330
762
100
AcDbEntity
  8
241
  6
HIDDEN2
100
AcDbLine
 10
135.0
 20
4.25
 30
0.0
 11
150.0
 21
4.25
 31
0.0
  0
LINE
  5
1292
330
762
100
AcDbEntity
  8
241
  6
HIDDEN2
100
AcDbLine
 10
124.0
 20
4.66690476
 30
0.0
 11
130.0
 21
4.66690476
 31
0.0
  0
LINE
  5
1293
330
762
100
AcDbEntity
  8
242
  6
HIDDEN2
100
AcDbLine
 10
124.0
 20
4.66690476
 30
0.0
 11
130.0
 21
0.0
 31
0.0
  0
LINE
  5
1294
330
762
100
AcDbEntity
  8
242
  6
HIDDEN2
100
AcDbLine
 10
130.0
 20
4.66690476
 30
0.0
 11
124.0
 21
0.0
 31
0.0
  0
LINE
  5
1295
330
762
100
AcDbEntity
  8
240
100
AcDbLine
 10
129.0
 20
8.2
 30
0.0
 11
128.0
 21
8.2
 31
0.0
  0
LINE
  5
1296
330
762
100
AcDbEntity
  8
240
100
AcDbLine
 10
128.0
 20
8.2
 30
0.0
 11
128.0
 21
10.0
 31
0.0
  0
LINE
  5
1297
330
762
100
AcDbEntity
  8
241
  6
HIDDEN2
100
AcDbLine
 10
124.0
 20
4.66690476
 30
0.0
 11
124.0
 21
0.0
 31
0.0
  0
LINE
  5
1298
330
762
100
AcDbEntity
  8
241
100
AcDbLine
 10
128.0
 20
8.2
 30
0.0
 11
128.0
 21
0.0
 31
0.0
  0
LINE
  5
1299
330
762
100
AcDbEntity
  8
241
100
AcDbLine
 10
132.2
 20
10.0
 30
0.0
 11
132.2
 21
0.0
 31
0.0
  0
LINE
  5
129A
330
762
100
AcDbEntity
  8
241
100
AcDbLine
 10
131.0
 20
10.15
 30
0.0
 11
131.0
 21
0.0
 31
0.0
  0
LINE
  5
129B
330
762
100
AcDbEntity
  8
240
100
AcDbLine
 10
129.0
 20
8.2
 30
0.0
 11
129.0
 21
10.15
 31
0.0
  0
LINE
  5
129C
330
762
100
AcDbEntity
  8
241
  6
HIDDEN2
100
AcDbLine
 10
130.0
 20
4.75
 30
0.0
 11
130.0
 21
0.0
 31
0.0
  0
LINE
  5
129D
330
762
100
AcDbEntity
  8
241
100
AcDbLine
 10
129.0
 20
8.2
 30
0.0
 11
129.0
 21
0.0
 31
0.0
  0
LINE
  5
129E
330
762
100
AcDbEntity
  8
241
  6
HIDDEN2
100
AcDbLine
 10
135.0
 20
4.75
 30
0.0
 11
135.0
 21
0.0
 31
0.0
  0
LINE
  5
129F
330
762
100
AcDbEntity
  8
241
  6
HIDDEN2
100
AcDbLine
 10
130.0
 20
4.75
 30
0.0
 11
135.0
 21
4.75
 31
0.0
  0
LINE
  5
12A0
330
762
100
AcDbEntity
  8
240
100
AcDbLine
 10
129.0
 20
10.15
 30
0.0
 11
131.0
 21
10.15
 31
0.0
  0
LINE
  5
12A1
330
762
100
AcDbEntity
  8
240
100
AcDbLine
 10
131.25980762
 20
10.0
 30
0.0
 11
131.0
 21
10.15
 31
0.0
  0
LINE
  5
12A2
330
762
100
AcDbEntity
  8
240
100
AcDbLine
 10
150.0
 20
9.0
 30
0.0
 11
150.0
 21
0.0
 31
0.0
  0
ARC
  5
12A3
330
762
100
AcDbEntity
  8
240
100
AcDbCircle
 10
149.0
 20
9.0
 30
0.0
 40
1.0
100
AcDbArc
 50
0.0
 51
90.0
1001
GENIUS_GENOBJ-N-FIL_13
1002
{
1000
OWNER
1000
GEN
1002
}
1001
GENIUS_GENODEF_13
1002
{
1000
HIER
1070
     0
1002
}
1002
{
1000
MANEDIT
1070
     0
1002
}
1002
{
1000
NOSEL
1070
     0
1002
}
1002
{
1000
BEHIND
1070
     0
1002
}
1002
{
1000
OTHER
1070
     0
1002
}
1002
{
1000
REACTOR
1002
}
  0
ENDBLK
  5
8A2
330
762
100
AcDbEntity
  8
0
100
AcDbBlockEnd
  0
BLOCK
  5
EC2
330
EB8
100
AcDbEntity
  8
0
100
AcDbBlockBegin
  2
*D3
 70
     1
 10
0.0
 20
0.0
 30
0.0
  3
*D3
  1

  0
LINE
  5
EFF
330
EB8
100
AcDbEntity
  8
250
  6
CONTINUOUS
100
AcDbLine
 10
0.0
 20
13.64125603
 30
0.0
 11
0.0
 21
29.0
 31
0.0
  0
LINE
  5
F00
330
EB8
100
AcDbEntity
  8
250
  6
CONTINUOUS
100
AcDbLine
 10
150.0
 20
9.5
 30
0.0
 11
150.0
 21
29.0
 31
0.0
  0
LINE
  5
F01
330
EB8
100
AcDbEntity
  8
250
  6
CONTINUOUS
100
AcDbLine
 10
2.23
 20
28.0
 30
0.0
 11
147.77
 21
28.0
 31
0.0
  0
INSERT
  5
F02
330
EB8
100
AcDbEntity
  8
250
  6
CONTINUOUS
100
AcDbBlockReference
  2
_OPEN
 10
0.0
 20
28.0
 30
0.0
 41
2.23
 42
2.23
 43
2.23
 50
180.0
  0
INSERT
  5
F03
330
EB8
100
AcDbEntity
  8
250
  6
CONTINUOUS
100
AcDbBlockReference
  2
_OPEN
 10
150.0
 20
28.0
 30
0.0
 41
2.23
 42
2.23
 43
2.23
  0
MTEXT
  5
F04
330
EB8
100
AcDbEntity
  8
250
  6
CONTINUOUS
 62
    40
100
AcDbMText
 10
75.0
 20
30.4
 30
0.0
 40
2.8
 41
0.0
 71
     5
 72
     1
  1
\A1;150
1001
ACAD
1000
MTEXTBEGIN
1070
    73
1070
     1
1070
    44
1040
1.0
1070
    74
1070
     0
1000
MTEXTEND
1000
MTEXTBEGIN
1070
    73
1070
     1
1070
    44
1040
1.0
1070
    74
1070
     0
1000
MTEXTEND
  0
POINT
  5
F05
330
EB8
100
AcDbEntity
  8
DEFPOINTS
  6
CONTINUOUS
 62
     0
100
AcDbPoint
 10
0.0
 20
13.14125603
 30
0.0
  0
POINT
  5
F06
330
EB8
100
AcDbEntity
  8
DEFPOINTS
  6
CONTINUOUS
 62
     0
100
AcDbPoint
 10
150.0
 20
9.0
 30
0.0
  0
POINT
  5
F07
330
EB8
100
AcDbEntity
  8
DEFPOINTS
  6
CONTINUOUS
 62
     0
100
AcDbPoint
 10
150.0
 20
28.0
 30
0.0
  0
ENDBLK
  5
EC3
330
EB8
100
AcDbEntity
  8
0
100
AcDbBlockEnd
  0
BLOCK
  5
ECD
330
EC4
100
AcDbEntity
  8
0
100
AcDbBlockBegin
  2
*D4
 70
     1
 10
0.0
 20
0.0
 30
0.0
  3
*D4
  1

  0
LINE
  5
F11
330
EC4
100
AcDbEntity
  8
250
  6
CONTINUOUS
100
AcDbLine
 10
150.5
 20
4.25
 30
0.0
 11
161.0
 21
4.25
 31
0.0
  0
LINE
  5
F12
330
EC4
100
AcDbEntity
  8
250
  6
CONTINUOUS
100
AcDbLine
 10
160.0
 20
-2.02
 30
0.0
 11
160.0
 21
2.02
 31
0.0
  0
INSERT
  5
F13
330
EC4
100
AcDbEntity
  8
250
  6
CONTINUOUS
100
AcDbBlockReference
  2
矢印なし
 10
160.0
 20
-4.25
 30
0.0
 41
2.23
 42
2.23
 43
2.23
 50
270.0
  0
INSERT
  5
F14
330
EC4
100
AcDbEntity
  8
250
  6
CONTINUOUS
100
AcDbBlockReference
  2
_OPEN
 10
160.0
 20
4.25
 30
0.0
 41
2.23
 42
2.23
 43
2.23
 50
90.0
  0
MTEXT
  5
F15
330
EC4
100
AcDbEntity
  8
250
  6
CONTINUOUS
 62
    40
100
AcDbMText
 10
157.6
 20
-1.31545661
 30
0.0
 40
2.8
 41
0.0
 71
     5
 72
     1
  1
\A1;{\H2.8;\U+2205}8.5
 11
0.0
 21
1.0
 31
0.0
1001
ACAD
1000
MTEXTBEGIN
1070
    73
1070
     1
1070
    44
1040
1.0
1070
    74
1070
     0
1000
MTEXTEND
1000
MTEXTBEGIN
1070
    73
1070
     1
1070
    44
1040
1.0
1070
    74
1070
     0
1000
MTEXTEND
  0
POINT
  5
F16
330
EC4
100
AcDbEntity
  8
DEFPOINTS
  6
CONTINUOUS
 62
     0
100
AcDbPoint
 10
150.0
 20
-4.25
 30
0.0
  0
POINT
  5
F17
330
EC4
100
AcDbEntity
  8
DEFPOINTS
  6
CONTINUOUS
 62
     0
100
AcDbPoint
 10
150.0
 20
4.25
 30
0.0
  0
POINT
  5
F18
330
EC4
100
AcDbEntity
  8
DEFPOINTS
  6
CONTINUOUS
 62
     0
100
AcDbPoint
 10
160.0
 20
4.25
 30
0.0
  0
ENDBLK
  5
ECE
330
EC4
100
AcDbEntity
  8
0
100
AcDbBlockEnd
  0
BLOCK
  5
ED9
330
ECF
100
AcDbEntity
  8
0
100
AcDbBlockBegin
  2
*D5
 70
     1
 10
0.0
 20
0.0
 30
0.0
  3
*D5
  1

  0
LINE
  5
F08
330
ECF
100
AcDbEntity
  8
250
  6
CONTINUOUS
100
AcDbLine
 10
149.6316525
 20
-10.0
 30
0.0
 11
168.0
 21
-10.0
 31
0.0
  0
LINE
  5
F09
330
ECF
100
AcDbEntity
  8
250
  6
CONTINUOUS
100
AcDbLine
 10
149.6316525
 20
10.0
 30
0.0
 11
168.0
 21
10.0
 31
0.0
  0
LINE
  5
F0A
330
ECF
100
AcDbEntity
  8
250
  6
CONTINUOUS
100
AcDbLine
 10
167.0
 20
-7.77
 30
0.0
 11
167.0
 21
7.77
 31
0.0
  0
INSERT
  5
F0B
330
ECF
100
AcDbEntity
  8
250
  6
CONTINUOUS
100
AcDbBlockReference
  2
_OPEN
 10
167.0
 20
-10.0
 30
0.0
 41
2.23
 42
2.23
 43
2.23
 50
270.0
  0
INSERT
  5
F0C
330
ECF
100
AcDbEntity
  8
250
  6
CONTINUOUS
100
AcDbBlockReference
  2
_OPEN
 10
167.0
 20
10.0
 30
0.0
 41
2.23
 42
2.23
 43
2.23
 50
90.0
  0
MTEXT
  5
F0D
330
ECF
100
AcDbEntity
  8
250
  6
CONTINUOUS
 62
    40
100
AcDbMText
 10
164.6
 20
0.0
 30
0.0
 40
2.8
 41
0.0
 71
     5
 72
     1
  1
\A1;{\H2.8;%%C}20
 11
0.0
 21
1.0
 31
0.0
1001
ACAD
1000
MTEXTBEGIN
1070
    73
1070
     1
1070
    44
1040
1.0
1070
    74
1070
     0
1000
MTEXTEND
1000
MTEXTBEGIN
1070
    73
1070
     1
1070
    44
1040
1.0
1070
    74
1070
     0
1000
MTEXTEND
  0
POINT
  5
F0E
330
ECF
100
AcDbEntity
  8
DEFPOINTS
  6
CONTINUOUS
 62
     0
100
AcDbPoint
 10
149.1316525
 20
-10.0
 30
0.0
  0
POINT
  5
F0F
330
ECF
100
AcDbEntity
  8
DEFPOINTS
  6
CONTINUOUS
 62
     0
100
AcDbPoint
 10
149.1316525
 20
10.0
 30
0.0
  0
POINT
  5
F10
330
ECF
100
AcDbEntity
  8
DEFPOINTS
  6
CONTINUOUS
 62
     0
100
AcDbPoint
 10
167.0
 20
10.0
 30
0.0
  0
ENDBLK
  5
EDA
330
ECF
100
AcDbEntity
  8
0
100
AcDbBlockEnd
  0
ENDSEC
  0
SECTION
  2
ENTITIES
  0
INSERT
  5
6E6
330
1A
100
AcDbEntity
  8
245
100
AcDbBlockReference
  2
矢印なし
 10
175.62382697
 20
90.55123572
 30
0.0
  0
INSERT
  5
8D9
330
1A
100
AcDbEntity
  8
245
100
AcDbBlockReference
  2
矢印なし
 10
329.62382697
 20
230.55123572
 30
0.0
  0
TEXT
  5
8DA
330
1A
100
AcDbEntity
  8
241
100
AcDbText
 10
-51.0
 20
42.0
 30
0.0
 40
5.0
  1
MGT12-M12-150
  7
YOKO
 11
-51.0
 21
42.0
 31
0.0
100
AcDbText
 73
     1
  0
LINE
  5
D98
330
1A
100
AcDbEntity
  8
250
  6
CONTINUOUS
100
AcDbLine
 10
132.0
 20
21.0
 30
0.0
 11
146.85333333
 21
21.0
 31
0.0
1001
ITEMNAME
1000
LNSP2
  0
DIMENSION
  5
D99
330
1A
100
AcDbEntity
  8
250
  6
CONTINUOUS
100
AcDbDimension
  2
*D3
 10
150.0
 20
28.0
 30
0.0
 11
75.0
 21
30.4
 31
0.0
 70
    32
  3
BIGT
100
AcDbAlignedDimension
 13
0.0
 23
13.14125603
 33
0.0
 14
150.0
 24
9.0
 34
0.0
100
AcDbRotatedDimension
  0
LEADER
  5
EA0
330
1A
100
AcDbEntity
  8
250
  6
CONTINUOUS
100
AcDbLeader
  3
BIGT
 76
     2
 10
125.95047062
 20
4.66690476
 30
0.0
 10
132.0
 20
21.0
 30
0.0
1001
ACAD
1000
DSTYLE
1002
{
1070
     6
1000
OPEN
1070
    41
1040
2.0
1070
    42
1040
2.0
1070
    44
1040
2.0
1070
   140
1040
4.0
1070
   343
1005
594
1002
}
  0
DIMENSION
  5
EAF
330
1A
100
AcDbEntity
  8
250
  6
CONTINUOUS
100
AcDbDimension
  2
*D4
 10
160.0
 20
4.25
 30
0.0
 11
160.0
 21
-1.31545661
 31
0.0
 70
   160
  1
{\H2.8;\U+2205}<>
  3
BIGT
100
AcDbAlignedDimension
 13
150.0
 23
-4.25
 33
0.0
 14
150.0
 24
4.25
 34
0.0
 50
90.0
100
AcDbRotatedDimension
1001
ACAD
1000
DSTYLE
1002
{
1070
   287
1070
     3
1070
   287
1070
     3
1070
   287
1070
     3
1070
    75
1070
     1
1070
    77
1070
     3
1070
   145
1040
1.0
1070
   279
1070
     0
1070
   289
1070
     3
1070
     6
1000
矢印なし
1002
}
  0
DIMENSION
  5
EB1
330
1A
100
AcDbEntity
  8
250
  6
CONTINUOUS
100
AcDbDimension
  2
*D5
 10
167.0
 20
10.0
 30
0.0
 11
167.0
 21
0.0
 31
0.0
 70
   160
  1
{\H2.8;%%C}<>
  3
BIGT
100
AcDbAlignedDimension
 13
149.1316525
 23
-10.0
 33
0.0
 14
149.1316525
 24
10.0
 34
0.0
 50
90.0
100
AcDbRotatedDimension
  0
MTEXT
  5
EB7
330
1A
100
AcDbEntity
  8
251
  6
CONTINUOUS
100
AcDbMText
 10
134.8
 20
22.0
 30
0.0
 40
2.8
 41
0.0
 71
     7
 72
     1
  1
□6.5
  7
YOKO
1001
ITEMNAME
1000
LNSP3
1001
ACAD
1000
MTEXTBEGIN
1070
    73
1070
     1
1070
    44
1040
1.0
1070
    74
1070
     0
1000
MTEXTEND
1000
MTEXTBEGIN
1070
    73
1070
     1
1070
    44
1040
1.0
1070
    74
1070
     0
1000
MTEXTEND
1000
MTEXTBEGIN
1070
    73
1070
     1
1070
    44
1040
1.0
1070
    74
1070
     0
1000
MTEXTEND
1000
MTEXTBEGIN
1070
    73
1070
     1
1070
    44
1040
1.0
1070
    74
1070
     0
1000
MTEXTEND
1000
MTEXTBEGIN
1070
    73
1070
     1
1070
    44
1040
1.0
1070
    74
1070
     0
1000
MTEXTEND
1000
MTEXTBEGIN
1070
    73
1070
     1
1070
    44
1040
1.0
1070
    74
1070
     0
1000
MTEXTEND
  0
INSERT
  5
12A4
330
1A
100
AcDbEntity
  8
245
100
AcDbBlockReference
  2
1
 10
0.0
 20
0.0
 30
0.0
  0
VIEWPORT
  5
22
330
17
100
AcDbEntity
 67
     1
  8
0
100
AcDbViewport
 10
261.51769912
 20
148.5
 30
0.0
 40
523.03539823
 41
297.0
 68
     1
 69
     1
1001
ACAD
1000
MVIEW
1002
{
1070
    16
1010
0.0
1020
0.0
1030
0.0
1010
0.0
1020
0.0
1030
1.0
1040
0.0
1040
297.0
1040
261.51769912
1040
148.5
1040
50.0
1040
0.0
1040
0.0
1070
     0
1070
   100
1070
     1
1070
     1
1070
     0
1070
     0
1070
     0
1070
     0
1040
0.0
1040
0.0
1040
0.0
1040
1.0
1040
1.0
1040
10.0
1040
10.0
1070
     0
1002
{
1002
}
1002
}
  0
ENDSEC
  0
SECTION
  2
OBJECTS
  0
DICTIONARY
  5
C
330
0
100
AcDbDictionary
  3
ACAD_GROUP
350
D
  3
ACAD_LAYOUT
350
565
  3
ACAD_MLINESTYLE
350
E
  3
ACAD_PLOTSETTINGS
350
566
  3
ACAD_PLOTSTYLENAME
350
563
  3
ACDBHEADERROUNDTRIPXREC
350
12CD
  3
GRADE_DWG
350
540
  0
DICTIONARY
  5
C33
330
1A
100
AcDbDictionary
280
     1
  3
ACAD_LAYOUTSELFREF
360
12EF
  0
DICTIONARY
  5
C31
330
17
100
AcDbDictionary
280
     1
  3
ACAD_LAYOUTSELFREF
360
12EE
  0
DICTIONARY
  5
D
102
{ACAD_REACTORS
330
C
102
}
330
C
100
AcDbDictionary
  3
*A1
350
6C7
  3
*A2
350
6C8
  3
*A3
350
6D4
  3
*A4
350
6D5
  3
DREC-1
350
5FC
  3
DREC-2
350
654
  3
DREC-3
350
673
  0
DICTIONARY
  5
565
102
{ACAD_REACTORS
330
C
102
}
330
C
100
AcDbDictionary
  0
DICTIONARY
  5
E
102
{ACAD_REACTORS
330
C
102
}
330
C
100
AcDbDictionary
  3
STANDARD
350
13
  0
DICTIONARY
  5
566
102
{ACAD_REACTORS
330
C
102
}
330
C
100
AcDbDictionary
  3
A3_0_5倍_
350
758
  3
A3_1倍_
350
757
  3
A3_1倍__2000_
350
707
  3
A3_2倍_
350
759
  3
A4_0_5倍_
350
755
  3
A4_1倍_
350
754
  3
A4_1倍__2000_
350
708
  3
A4_2倍_
350
756
  0
ACDBDICTIONARYWDFLT
  5
563
102
{ACAD_REACTORS
330
C
102
}
330
C
100
AcDbDictionary
281
     1
  3
Normal
350
564
100
AcDbDictionaryWithDefault
340
564
  0
DICTIONARY
  5
12CD
102
{ACAD_REACTORS
330
C
102
}
330
C
100
AcDbDictionary
  3
CEPSNTYPE
350
12D7
  3
DIMSTYLEDATA
350
12DB
  3
FINGERPRINTGUID
350
12D8
  3
HYPERLINKBASE
350
12D0
  3
INSUNITS
350
12D6
  3
LAYOUTDICT
350
12D2
  3
LWETCUNION
350
12D5
  3
PLOTSETDICT
350
12D3
  3
PLOTSTYLNAMDICT
350
12D4
  3
PSVPSCALE
350
12DA
  3
PUCSBASE
350
12DE
  3
PUCSORGBACK
350
12E4
  3
PUCSORGBOTTOM
350
12E0
  3
PUCSORGFRONT
350
12E3
  3
PUCSORGLEFT
350
12E1
  3
PUCSORGRIGHT
350
12E2
  3
PUCSORGTOP
350
12DF
  3
PUCSORTHOREF
350
12DC
  3
PUCSORTHOVIEW
350
12DD
  3
STYLESHEET
350
12D1
  3
TSTACKALIGN
350
12CE
  3
TSTACKSIZE
350
12CF
  3
UCSBASE
350
12E7
  3
UCSORGBACK
350
12ED
  3
UCSORGBOTTOM
350
12E9
  3
UCSORGFRONT
350
12EC
  3
UCSORGLEFT
350
12EA
  3
UCSORGRIGHT
350
12EB
  3
UCSORGTOP
350
12E8
  3
UCSORTHOREF
350
12E5
  3
UCSORTHOVIEW
350
12E6
  3
VERSIONGUID
350
12D9
  0
DICTIONARY
  5
540
102
{ACAD_REACTORS
330
C
102
}
330
C
100
AcDbDictionary
  3
VERSION
350
560
  0
XRECORD
  5
12EF
102
{ACAD_REACTORS
330
C33
102
}
330
C33
100
AcDbXrecord
340
1A
  0
XRECORD
  5
12EE
102
{ACAD_REACTORS
330
C31
102
}
330
C31
100
AcDbXrecord
340
17
  0
GROUP
  5
6C7
102
{ACAD_REACTORS
330
D
102
}
330
D
100
AcDbGroup
300

 70
     0
 71
     1
1001
GRPNAME
1000
DMA00
  0
GROUP
  5
6C8
102
{ACAD_REACTORS
330
D
102
}
330
D
100
AcDbGroup
300

 70
     0
 71
     1
1001
GRPNAME
1000
DMA00
  0
GROUP
  5
6D4
102
{ACAD_REACTORS
330
D
102
}
330
D
100
AcDbGroup
300

 70
     0
 71
     1
1001
GRPNAME
1000
DMA00
  0
GROUP
  5
6D5
102
{ACAD_REACTORS
330
D
102
}
330
D
100
AcDbGroup
300

 70
     0
 71
     1
1001
GRPNAME
1000
DMA00
  0
GROUP
  5
5FC
102
{ACAD_REACTORS
330
D
102
}
330
D
100
AcDbGroup
300

 70
     0
 71
     1
1001
GRPNAME
1000
DREC-
1001
GPARA
1000
xsiz
1000
44.182
1000
ysiz
1000
40.677
1000
angl
1000
0
1000
ctyp
1000
0
1000
csiz
1000
5
1000
lfnt
1000
cont
1000
hcnt
1000
hoff
1000
vcnt
1000
voff
1000
opnt
1000
4
1000
dxpt
1000
0
1000
dypt
1000
0
  0
GROUP
  5
654
102
{ACAD_REACTORS
330
D
102
}
330
D
100
AcDbGroup
300

 70
     0
 71
     1
1001
GRPNAME
1000
DREC-
1001
GPARA
1000
xsiz
1000
54.592
1000
ysiz
1000
53.036
1000
angl
1000
0
1000
ctyp
1000
0
1000
csiz
1000
5
1000
lfnt
1000
cont
1000
hcnt
1000
hoff
1000
vcnt
1000
voff
1000
opnt
1000
4
1000
dxpt
1000
0
1000
dypt
1000
0
  0
GROUP
  5
673
102
{ACAD_REACTORS
330
D
102
}
330
D
100
AcDbGroup
300

 70
     0
 71
     1
1001
GRPNAME
1000
DREC-
1001
GPARA
1000
xsiz
1000
30.363
1000
ysiz
1000
36.175
1000
angl
1000
0
1000
ctyp
1000
0
1000
csiz
1000
5
1000
lfnt
1000
cont
1000
hcnt
1000
hoff
1000
vcnt
1000
voff
1000
opnt
1000
4
1000
dxpt
1000
0
1000
dypt
1000
0
  0
MLINESTYLE
  5
13
102
{ACAD_REACTORS
330
E
102
}
330
E
100
AcDbMlineStyle
  2
STANDARD
 70
     0
  3

 62
     0
 51
90.0
 52
90.0
 71
     2
 49
0.5
 62
   256
  6
BYLAYER
 49
-0.5
 62
   256
  6
BYLAYER
  0
PLOTSETTINGS
  5
758
102
{ACAD_REACTORS
330
566
102
}
330
566
100
AcDbPlotSettings
  1
A3(0.5倍)
  2
\\AWTECPC05\HP DeskJet 1120C
  4
A3
  6

 40
5.95841646
 41
13.49375153
 42
6.04309082
 43
3.67242432
 44
296.92599487
 45
419.94665527
 46
89.96
 47
127.14
 48
0.0
 49
0.0
140
0.0
141
0.0
142
1.0
143
2.0
 70
  1716
 72
     1
 73
     1
 74
     2
  7
big.ctb
 75
    17
147
0.5
148
0.0
149
0.0
  0
PLOTSETTINGS
  5
757
102
{ACAD_REACTORS
330
566
102
}
330
566
100
AcDbPlotSettings
  1
A3(1倍)
  2
\\AWTECPC05\HP DeskJet 1120C
  4
A3
  6

 40
5.95841646
 41
13.49375153
 42
6.04309082
 43
3.67242432
 44
296.92599487
 45
419.94665527
 46
37.46
 47
52.89
 48
0.0
 49
0.0
140
0.0
141
0.0
142
1.0
143
1.0
 70
  1716
 72
     1
 73
     1
 74
     2
  7
big.ctb
 75
    16
147
1.0
148
0.0
149
0.0
  0
PLOTSETTINGS
  5
707
102
{ACAD_REACTORS
330
566
102
}
330
566
100
AcDbPlotSettings
  1
A3(1倍)(2000)
  2
SII LS-1300 (D-SCAN)
  4
User258
  6

 40
3.17499995
 41
3.17499995
 42
3.17498779
 43
3.17498779
 44
419.98898315
 45
296.98950195
 46
58.32
 47
40.32
 48
0.0
 49
0.0
140
0.0
141
0.0
142
1.0
143
1.0
 70
  1716
 72
     1
 73
     0
 74
     2
  7
big.ctb
 75
    16
147
1.0
148
0.0
149
0.0
  0
PLOTSETTINGS
  5
759
102
{ACAD_REACTORS
330
566
102
}
330
566
100
AcDbPlotSettings
  1
A3(2倍)
  2
\\AWTECPC05\HP DeskJet 1120C
  4
A3
  6

 40
5.95841646
 41
13.49375153
 42
6.04309082
 43
3.67242432
 44
296.92599487
 45
419.94665527
 46
-67.54
 47
-95.61
 48
0.0
 49
0.0
140
0.0
141
0.0
142
1.0
143
0.5
 70
  1716
 72
     1
 73
     1
 74
     2
  7
big.ctb
 75
    27
147
2.0
148
0.0
149
0.0
  0
PLOTSETTINGS
  5
755
102
{ACAD_REACTORS
330
566
102
}
330
566
100
AcDbPlotSettings
  1
A4(0.5倍)
  2
\\AWTECPC05\HP DeskJet 1120C
  4
A4
  6

 40
4.18041658
 41
13.49374962
 42
4.18040466
 43
3.92642212
 44
209.97332764
 45
296.92599487
 46
48.31
 47
65.5
 48
0.0
 49
0.0
140
0.0
141
0.0
142
1.0
143
2.0
 70
  1716
 72
     1
 73
     1
 74
     2
  7
big.ctb
 75
    17
147
0.5
148
0.0
149
0.0
  0
PLOTSETTINGS
  5
754
102
{ACAD_REACTORS
330
566
102
}
330
566
100
AcDbPlotSettings
  1
A4(1倍)
  2
\\AWTECPC05\HP DeskJet 1120C
  4
A4
  6

 40
4.18041658
 41
13.49374962
 42
4.18040466
 43
3.92642212
 44
209.97332764
 45
296.92599487
 46
-4.19
 47
-8.75
 48
0.0
 49
0.0
140
0.0
141
0.0
142
1.0
143
1.0
 70
  1716
 72
     1
 73
     1
 74
     2
  7
big.ctb
 75
    16
147
1.0
148
0.0
149
0.0
  0
PLOTSETTINGS
  5
708
102
{ACAD_REACTORS
330
566
102
}
330
566
100
AcDbPlotSettings
  1
A4(1倍)(2000)
  2
SII LS-1300 (D-SCAN)
  4
User259
  6

 40
3.17499995
 41
3.17499995
 42
3.17498779
 43
3.17500305
 44
296.98950195
 45
209.99449158
 46
-3.18
 47
-3.18
 48
0.0
 49
0.0
140
0.0
141
0.0
142
1.0
143
1.0
 70
  1716
 72
     1
 73
     0
 74
     2
  7
big.ctb
 75
    16
147
1.0
148
0.0
149
0.0
  0
PLOTSETTINGS
  5
756
102
{ACAD_REACTORS
330
566
102
}
330
566
100
AcDbPlotSettings
  1
A4(2倍)
  2
\\AWTECPC05\HP DeskJet 1120C
  4
A4
  6

 40
4.18041658
 41
13.49374962
 42
4.18040466
 43
3.92642212
 44
209.97332764
 45
296.92599487
 46
-109.19
 47
-157.25
 48
0.0
 49
0.0
140
0.0
141
0.0
142
1.0
143
0.5
 70
  1716
 72
     1
 73
     1
 74
     2
  7
big.ctb
 75
    27
147
2.0
148
0.0
149
0.0
  0
ACDBPLACEHOLDER
  5
564
102
{ACAD_REACTORS
330
563
102
}
330
563
100
AcDbPlaceHolder
280
     0
  0
XRECORD
  5
12D7
102
{ACAD_REACTORS
330
12CD
102
}
330
12CD
100
AcDbXrecord
 90
        0
  0
XRECORD
  5
12DB
102
{ACAD_REACTORS
330
12CD
102
}
330
12CD
100
AcDbXrecord
1000
DSTYLE
1002
{
1070
    79
 70
     2
1070
   179
 70
     3
1070
   341
340
594
1070
   343
340
594
1070
   344
340
594
1070
   371
 70
    -1
1070
   372
 70
    -1
1002
}
  0
XRECORD
  5
12D8
102
{ACAD_REACTORS
330
12CD
102
}
330
12CD
100
AcDbXrecord
  1
{51294030-9CB4-11D3-8E18-00A0C925D94D}
  0
XRECORD
  5
12D0
102
{ACAD_REACTORS
330
12CD
102
}
330
12CD
100
AcDbXrecord
  1

  0
XRECORD
  5
12D6
102
{ACAD_REACTORS
330
12CD
102
}
330
12CD
100
AcDbXrecord
 90
        0
  0
XRECORD
  5
12D2
102
{ACAD_REACTORS
330
12CD
102
}
330
12CD
100
AcDbXrecord
340
565
  0
XRECORD
  5
12D5
102
{ACAD_REACTORS
330
12CD
102
}
330
12CD
100
AcDbXrecord
 90
    10781
  0
XRECORD
  5
12D3
102
{ACAD_REACTORS
330
12CD
102
}
330
12CD
100
AcDbXrecord
340
566
  0
XRECORD
  5
12D4
102
{ACAD_REACTORS
330
12CD
102
}
330
12CD
100
AcDbXrecord
340
563
  0
XRECORD
  5
12DA
102
{ACAD_REACTORS
330
12CD
102
}
330
12CD
100
AcDbXrecord
 40
0.0
  0
XRECORD
  5
12DE
102
{ACAD_REACTORS
330
12CD
102
}
330
12CD
100
AcDbXrecord
340
0
  0
XRECORD
  5
12E4
102
{ACAD_REACTORS
330
12CD
102
}
330
12CD
100
AcDbXrecord
 10
0.0
 20
0.0
 30
0.0
  0
XRECORD
  5
12E0
102
{ACAD_REACTORS
330
12CD
102
}
330
12CD
100
AcDbXrecord
 10
0.0
 20
0.0
 30
0.0
  0
XRECORD
  5
12E3
102
{ACAD_REACTORS
330
12CD
102
}
330
12CD
100
AcDbXrecord
 10
0.0
 20
0.0
 30
0.0
  0
XRECORD
  5
12E1
102
{ACAD_REACTORS
330
12CD
102
}
330
12CD
100
AcDbXrecord
 10
0.0
 20
0.0
 30
0.0
  0
XRECORD
  5
12E2
102
{ACAD_REACTORS
330
12CD
102
}
330
12CD
100
AcDbXrecord
 10
0.0
 20
0.0
 30
0.0
  0
XRECORD
  5
12DF
102
{ACAD_REACTORS
330
12CD
102
}
330
12CD
100
AcDbXrecord
 10
0.0
 20
0.0
 30
0.0
  0
XRECORD
  5
12DC
102
{ACAD_REACTORS
330
12CD
102
}
330
12CD
100
AcDbXrecord
340
0
  0
XRECORD
  5
12DD
102
{ACAD_REACTORS
330
12CD
102
}
330
12CD
100
AcDbXrecord
 70
     0
  0
XRECORD
  5
12D1
102
{ACAD_REACTORS
330
12CD
102
}
330
12CD
100
AcDbXrecord
  1
big.ctb
  0
XRECORD
  5
12CE
102
{ACAD_REACTORS
330
12CD
102
}
330
12CD
100
AcDbXrecord
 90
        1
  0
XRECORD
  5
12CF
102
{ACAD_REACTORS
330
12CD
102
}
330
12CD
100
AcDbXrecord
 90
       70
  0
XRECORD
  5
12E7
102
{ACAD_REACTORS
330
12CD
102
}
330
12CD
100
AcDbXrecord
340
0
  0
XRECORD
  5
12ED
102
{ACAD_REACTORS
330
12CD
102
}
330
12CD
100
AcDbXrecord
 10
0.0
 20
0.0
 30
0.0
  0
XRECORD
  5
12E9
102
{ACAD_REACTORS
330
12CD
102
}
330
12CD
100
AcDbXrecord
 10
0.0
 20
0.0
 30
0.0
  0
XRECORD
  5
12EC
102
{ACAD_REACTORS
330
12CD
102
}
330
12CD
100
AcDbXrecord
 10
0.0
 20
0.0
 30
0.0
  0
XRECORD
  5
12EA
102
{ACAD_REACTORS
330
12CD
102
}
330
12CD
100
AcDbXrecord
 10
0.0
 20
0.0
 30
0.0
  0
XRECORD
  5
12EB
102
{ACAD_REACTORS
330
12CD
102
}
330
12CD
100
AcDbXrecord
 10
0.0
 20
0.0
 30
0.0
  0
XRECORD
  5
12E8
102
{ACAD_REACTORS
330
12CD
102
}
330
12CD
100
AcDbXrecord
 10
0.0
 20
0.0
 30
0.0
  0
XRECORD
  5
12E5
102
{ACAD_REACTORS
330
12CD
102
}
330
12CD
100
AcDbXrecord
340
0
  0
XRECORD
  5
12E6
102
{ACAD_REACTORS
330
12CD
102
}
330
12CD
100
AcDbXrecord
 70
     0
  0
XRECORD
  5
12D9
102
{ACAD_REACTORS
330
12CD
102
}
330
12CD
100
AcDbXrecord
  1
{A68785DE-BA6D-4E7E-8D92-3692C60D7F5E}
  0
XRECORD
  5
560
102
{ACAD_REACTORS
330
540
102
}
330
540
100
AcDbXrecord
  1
2.0.0
  0
ENDSEC
  0
EOF
