  0
SECTION
  2
HEADER
  9
$ACADVER
  1
AC1015
  9
$ACADMAINTVER
 70
    20
  9
$DWGCODEPAGE
  3
ANSI_932
  9
$INSBASE
 10
0.0
 20
0.0
 30
0.0
  9
$EXTMIN
 10
-54.01071085270553
 20
-13.50682015834997
 30
-0.0015258207003583
  9
$EXTMAX
 10
118.018707884261
 20
47.00965151470728
 30
0.0000000349246037
  9
$LIMMIN
 10
0.0
 20
0.0
  9
$LIMMAX
 10
297.0
 20
210.0
  9
$ORTHOMODE
 70
     0
  9
$REGENMODE
 70
     1
  9
$FILLMODE
 70
     1
  9
$QTEXTMODE
 70
     0
  9
$MIRRTEXT
 70
     1
  9
$LTSCALE
 40
10.0
  9
$ATTMODE
 70
     1
  9
$TEXTSIZE
 40
3.0
  9
$TRACEWID
 40
1.0
  9
$TEXTSTYLE
  7
YOKO
  9
$CLAYER
  8
245
  9
$CELTYPE
  6
BYLAYER
  9
$CECOLOR
 62
   256
  9
$CELTSCALE
 40
1.0
  9
$DISPSILH
 70
     0
  9
$DIMSCALE
 40
1.0
  9
$DIMASZ
 40
2.0
  9
$DIMEXO
 40
0.5
  9
$DIMDLI
 40
2.5
  9
$DIMRND
 40
0.0
  9
$DIMDLE
 40
0.0
  9
$DIMEXE
 40
1.0
  9
$DIMTP
 40
0.0
  9
$DIMTM
 40
0.0
  9
$DIMTXT
 40
2.799999999999999
  9
$DIMCEN
 40
0.0
  9
$DIMTSZ
 40
0.0
  9
$DIMTOL
 70
     0
  9
$DIMLIM
 70
     0
  9
$DIMTIH
 70
     0
  9
$DIMTOH
 70
     0
  9
$DIMSE1
 70
     0
  9
$DIMSE2
 70
     0
  9
$DIMTAD
 70
     3
  9
$DIMZIN
 70
     8
  9
$DIMBLK
  1

  9
$DIMASO
 70
     1
  9
$DIMSHO
 70
     1
  9
$DIMPOST
  1

  9
$DIMAPOST
  1

  9
$DIMALT
 70
     0
  9
$DIMALTD
 70
     2
  9
$DIMALTF
 40
25.4
  9
$DIMLFAC
 40
1.0
  9
$DIMTOFL
 70
     1
  9
$DIMTVP
 40
0.0
  9
$DIMTIX
 70
     1
  9
$DIMSOXD
 70
     0
  9
$DIMSAH
 70
     1
  9
$DIMBLK1
  1
Open
  9
$DIMBLK2
  1
Open
  9
$DIMSTYLE
  2
BIGT
  9
$DIMCLRD
 70
   256
  9
$DIMCLRE
 70
   256
  9
$DIMCLRT
 70
    40
  9
$DIMTFAC
 40
1.0
  9
$DIMGAP
 40
1.0
  9
$DIMJUST
 70
     0
  9
$DIMSD1
 70
     0
  9
$DIMSD2
 70
     0
  9
$DIMTOLJ
 70
     1
  9
$DIMTZIN
 70
     8
  9
$DIMALTZ
 70
     0
  9
$DIMALTTZ
 70
     0
  9
$DIMUPT
 70
     0
  9
$DIMDEC
 70
     3
  9
$DIMTDEC
 70
     3
  9
$DIMALTU
 70
     2
  9
$DIMALTTD
 70
     2
  9
$DIMTXSTY
  7
STANDARD
  9
$DIMAUNIT
 70
     0
  9
$DIMADEC
 70
     3
  9
$DIMALTRND
 40
0.0
  9
$DIMAZIN
 70
     2
  9
$DIMDSEP
 70
    46
  9
$DIMATFIT
 70
     2
  9
$DIMFRAC
 70
     0
  9
$DIMLDRBLK
  1
Open
  9
$DIMLUNIT
 70
     2
  9
$DIMLWD
 70
    -1
  9
$DIMLWE
 70
    -1
  9
$DIMTMOVE
 70
     0
  9
$LUNITS
 70
     2
  9
$LUPREC
 70
     3
  9
$SKETCHINC
 40
1.0
  9
$FILLETRAD
 40
0.0
  9
$AUNITS
 70
     0
  9
$AUPREC
 70
     3
  9
$MENU
  1
.
  9
$ELEVATION
 40
0.0
  9
$PELEVATION
 40
0.0
  9
$THICKNESS
 40
0.0
  9
$LIMCHECK
 70
     0
  9
$CHAMFERA
 40
10.0
  9
$CHAMFERB
 40
10.0
  9
$CHAMFERC
 40
0.0
  9
$CHAMFERD
 40
0.0
  9
$SKPOLY
 70
     0
  9
$TDCREATE
 40
2455554.449494352
  9
$TDUCREATE
 40
2455554.074494352
  9
$TDUPDATE
 40
2455554.658207466
  9
$TDUUPDATE
 40
2455554.283207466
  9
$TDINDWG
 40
0.2087141898
  9
$TDUSRTIMER
 40
0.2087141898
  9
$USRTIMER
 70
     1
  9
$ANGBASE
 50
0.0
  9
$ANGDIR
 70
     0
  9
$PDMODE
 70
     1
  9
$PDSIZE
 40
-5.0
  9
$PLINEWID
 40
0.0
  9
$SPLFRAME
 70
     0
  9
$SPLINETYPE
 70
     6
  9
$SPLINESEGS
 70
     8
  9
$HANDSEED
  5
D8B
  9
$SURFTAB1
 70
     6
  9
$SURFTAB2
 70
     6
  9
$SURFTYPE
 70
     6
  9
$SURFU
 70
     6
  9
$SURFV
 70
     6
  9
$UCSBASE
  2

  9
$UCSNAME
  2

  9
$UCSORG
 10
0.0
 20
0.0
 30
0.0
  9
$UCSXDIR
 10
1.0
 20
0.0
 30
0.0
  9
$UCSYDIR
 10
0.0
 20
1.0
 30
0.0
  9
$UCSORTHOREF
  2

  9
$UCSORTHOVIEW
 70
     0
  9
$UCSORGTOP
 10
0.0
 20
0.0
 30
0.0
  9
$UCSORGBOTTOM
 10
0.0
 20
0.0
 30
0.0
  9
$UCSORGLEFT
 10
0.0
 20
0.0
 30
0.0
  9
$UCSORGRIGHT
 10
0.0
 20
0.0
 30
0.0
  9
$UCSORGFRONT
 10
0.0
 20
0.0
 30
0.0
  9
$UCSORGBACK
 10
0.0
 20
0.0
 30
0.0
  9
$PUCSBASE
  2

  9
$PUCSNAME
  2

  9
$PUCSORG
 10
0.0
 20
0.0
 30
0.0
  9
$PUCSXDIR
 10
1.0
 20
0.0
 30
0.0
  9
$PUCSYDIR
 10
0.0
 20
1.0
 30
0.0
  9
$PUCSORTHOREF
  2

  9
$PUCSORTHOVIEW
 70
     0
  9
$PUCSORGTOP
 10
0.0
 20
0.0
 30
0.0
  9
$PUCSORGBOTTOM
 10
0.0
 20
0.0
 30
0.0
  9
$PUCSORGLEFT
 10
0.0
 20
0.0
 30
0.0
  9
$PUCSORGRIGHT
 10
0.0
 20
0.0
 30
0.0
  9
$PUCSORGFRONT
 10
0.0
 20
0.0
 30
0.0
  9
$PUCSORGBACK
 10
0.0
 20
0.0
 30
0.0
  9
$USERI1
 70
     1
  9
$USERI2
 70
     0
  9
$USERI3
 70
     0
  9
$USERI4
 70
     0
  9
$USERI5
 70
     0
  9
$USERR1
 40
0.0
  9
$USERR2
 40
0.0
  9
$USERR3
 40
0.0
  9
$USERR4
 40
0.0
  9
$USERR5
 40
0.0
  9
$WORLDVIEW
 70
     1
  9
$SHADEDGE
 70
     3
  9
$SHADEDIF
 70
    70
  9
$TILEMODE
 70
     1
  9
$MAXACTVP
 70
    16
  9
$PINSBASE
 10
0.0
 20
0.0
 30
0.0
  9
$PLIMCHECK
 70
     0
  9
$PEXTMIN
 10
1.000000000000000E+20
 20
1.000000000000000E+20
 30
1.000000000000000E+20
  9
$PEXTMAX
 10
-1.000000000000000E+20
 20
-1.000000000000000E+20
 30
-1.000000000000000E+20
  9
$PLIMMIN
 10
0.0
 20
0.0
  9
$PLIMMAX
 10
420.0
 20
297.0
  9
$UNITMODE
 70
     0
  9
$VISRETAIN
 70
     0
  9
$PLINEGEN
 70
     0
  9
$PSLTSCALE
 70
     1
  9
$TREEDEPTH
 70
  3020
  9
$CMLSTYLE
  2
STANDARD
  9
$CMLJUST
 70
     0
  9
$CMLSCALE
 40
1.0
  9
$PROXYGRAPHICS
 70
     1
  9
$MEASUREMENT
 70
     1
  9
$CELWEIGHT
370
    -1
  9
$ENDCAPS
280
     0
  9
$JOINSTYLE
280
     0
  9
$LWDISPLAY
290
     0
  9
$INSUNITS
 70
     0
  9
$HYPERLINKBASE
  1

  9
$STYLESHEET
  1
big.ctb
  9
$XEDIT
290
     1
  9
$CEPSNTYPE
380
     0
  9
$PSTYLEMODE
290
     1
  9
$FINGERPRINTGUID
  2
{4B17F27A-CD24-4740-AD0F-E8E65A571B63}
  9
$VERSIONGUID
  2
{33FB40D6-47E5-46AF-9435-DAF2067DB30A}
  9
$EXTNAMES
290
     1
  9
$PSVPSCALE
 40
0.0
  9
$OLESTARTUP
290
     0
  0
ENDSEC
  0
SECTION
  2
CLASSES
  0
CLASS
  1
ACDBDICTIONARYWDFLT
  2
AcDbDictionaryWithDefault
  3
ObjectDBX Classes
 90
        0
280
     0
281
     0
  0
CLASS
  1
ACDBPLACEHOLDER
  2
AcDbPlaceHolder
  3
ObjectDBX Classes
 90
        0
280
     0
281
     0
  0
CLASS
  1
LAYOUT
  2
AcDbLayout
  3
ObjectDBX Classes
 90
        0
280
     0
281
     0
  0
CLASS
  1
PLOTSETTINGS
  2
AcDbPlotSettings
  3
ObjectDBX Classes
 90
        0
280
     0
281
     0
  0
CLASS
  1
MATERIAL
  2
AcDbMaterial
  3
ObjectDBX Classes
 90
     1153
280
     0
281
     0
  0
CLASS
  1
VISUALSTYLE
  2
AcDbVisualStyle
  3
ObjectDBX Classes
 90
     4095
280
     0
281
     0
  0
CLASS
  1
TABLESTYLE
  2
AcDbTableStyle
  3
ObjectDBX Classes
 90
     4095
280
     0
281
     0
  0
CLASS
  1
SCALE
  2
AcDbScale
  3
ObjectDBX Classes
 90
     1153
280
     0
281
     0
  0
CLASS
  1
MLEADERSTYLE
  2
AcDbMLeaderStyle
  3
ACDB_MLEADERSTYLE_CLASS
 90
     4095
280
     0
281
     0
  0
CLASS
  1
SORTENTSTABLE
  2
AcDbSortentsTable
  3
ObjectDBX Classes
 90
        0
280
     0
281
     0
  0
CLASS
  1
CELLSTYLEMAP
  2
AcDbCellStyleMap
  3
ObjectDBX Classes
 90
     1152
280
     0
281
     0
  0
CLASS
  1
DICTIONARYVAR
  2
AcDbDictionaryVar
  3
ObjectDBX Classes
 90
        0
280
     0
281
     0
  0
ENDSEC
  0
SECTION
  2
TABLES
  0
TABLE
  2
VPORT
  5
8
330
0
100
AcDbSymbolTable
 70
     1
  0
VPORT
  5
77A
330
8
100
AcDbSymbolTableRecord
100
AcDbViewportTableRecord
  2
*Active
 70
     0
 10
0.0
 20
0.0
 11
1.0
 21
1.0
 12
32.00399851577778
 22
16.75141567817866
 13
0.0
 23
0.0
 14
7.0
 24
7.0
 15
7.0
 25
7.0
 16
0.0
 26
0.0
 36
1.0
 17
0.0
 27
0.0
 37
0.0
 40
107.2314643589932
 41
1.612676056338028
 42
50.0
 43
0.0
 44
0.0
 50
0.0
 51
0.0
 71
     0
 72
 20000
 73
     1
 74
     0
 75
     0
 76
     0
 77
     0
 78
     0
281
     0
 65
     1
110
0.0
120
0.0
130
0.0
111
1.0
121
0.0
131
0.0
112
0.0
122
1.0
132
0.0
 79
     0
146
0.0
  0
ENDTAB
  0
TABLE
  2
LTYPE
  5
5
330
0
100
AcDbSymbolTable
 70
    39
  0
LTYPE
  5
14
330
5
100
AcDbSymbolTableRecord
100
AcDbLinetypeTableRecord
  2
BYBLOCK
 70
     0
  3

 72
    65
 73
     0
 40
0.0
  0
LTYPE
  5
15
330
5
100
AcDbSymbolTableRecord
100
AcDbLinetypeTableRecord
  2
BYLAYER
 70
     0
  3

 72
    65
 73
     0
 40
0.0
  0
LTYPE
  5
16
330
5
100
AcDbSymbolTableRecord
100
AcDbLinetypeTableRecord
  2
CONTINUOUS
 70
     0
  3
Solid line
 72
    65
 73
     0
 40
0.0
  0
LTYPE
  5
258
330
5
100
AcDbSymbolTableRecord
100
AcDbLinetypeTableRecord
  2
CENTER2
 70
     0
  3
___ _ ___ _ ___ _ ___ _ ___ _ ___ _ ___ _ ___ _
 72
    65
 73
     4
 40
1.125
 49
0.75
 74
     0
 49
-0.125
 74
     0
 49
0.125
 74
     0
 49
-0.125
 74
     0
  0
LTYPE
  5
25C
330
5
100
AcDbSymbolTableRecord
100
AcDbLinetypeTableRecord
  2
HIDDEN2
 70
     0
  3
_ _ _ _ _ _ _ _ _ _ _ _ _ _ _ _ _ _ _ _ _ _ _ _
 72
    65
 73
     2
 40
0.1875
 49
0.125
 74
     0
 49
-0.0625
 74
     0
  0
ENDTAB
  0
TABLE
  2
LAYER
  5
2
330
0
100
AcDbSymbolTable
 70
    33
  0
LAYER
  5
F
102
{ACAD_XDICTIONARY
360
BAD
102
}
330
2
100
AcDbSymbolTableRecord
100
AcDbLayerTableRecord
  2
0
 70
     0
 62
     7
  6
CONTINUOUS
370
    -3
390
564
  0
LAYER
  5
1AA
102
{ACAD_XDICTIONARY
360
BBD
102
}
330
2
100
AcDbSymbolTableRecord
100
AcDbLayerTableRecord
  2
240
 70
     0
 62
     4
  6
CONTINUOUS
370
    -3
390
564
  0
LAYER
  5
1AB
102
{ACAD_XDICTIONARY
360
BBF
102
}
330
2
100
AcDbSymbolTableRecord
100
AcDbLayerTableRecord
  2
241
 70
     0
 62
   211
  6
CONTINUOUS
370
    -3
390
564
  0
LAYER
  5
1AC
102
{ACAD_XDICTIONARY
360
BC1
102
}
330
2
100
AcDbSymbolTableRecord
100
AcDbLayerTableRecord
  2
242
 70
     0
 62
     3
  6
CONTINUOUS
370
    -3
390
564
  0
LAYER
  5
1AF
102
{ACAD_XDICTIONARY
360
BC7
102
}
330
2
100
AcDbSymbolTableRecord
100
AcDbLayerTableRecord
  2
245
 70
     0
 62
     2
  6
CENTER2
370
    -3
390
564
  0
LAYER
  5
21E
102
{ACAD_XDICTIONARY
360
BCF
102
}
330
2
100
AcDbSymbolTableRecord
100
AcDbLayerTableRecord
  2
250
 70
     0
 62
     3
  6
CONTINUOUS
370
    -3
390
564
  0
LAYER
  5
21F
102
{ACAD_XDICTIONARY
360
BD1
102
}
330
2
100
AcDbSymbolTableRecord
100
AcDbLayerTableRecord
  2
251
 70
     0
 62
    40
  6
CONTINUOUS
370
    -3
390
564
  0
LAYER
  5
5C4
330
2
100
AcDbSymbolTableRecord
100
AcDbLayerTableRecord
  2
Defpoints
 70
     0
 62
     7
  6
CONTINUOUS
290
     0
370
    -3
390
564
  0
LAYER
  5
800
102
{ACAD_XDICTIONARY
360
801
102
}
330
2
100
AcDbSymbolTableRecord
100
AcDbLayerTableRecord
  2
AM_7
 70
     0
 62
     2
  6
CENTER2
370
    35
390
564
  0
ENDTAB
  0
TABLE
  2
STYLE
  5
3
330
0
100
AcDbSymbolTable
 70
     4
  0
STYLE
  5
10
330
3
100
AcDbSymbolTableRecord
100
AcDbTextStyleTableRecord
  2
STANDARD
 70
     0
 40
0.0
 41
1.0
 50
0.0
 71
     0
 42
3.0
  3
romans.shx
  4
BIGFONT.SHX
  0
STYLE
  5
339
330
3
100
AcDbSymbolTableRecord
100
AcDbTextStyleTableRecord
  2
YOKO
 70
     0
 40
0.0
 41
1.0
 50
0.0
 71
     0
 42
3.0
  3
romans.shx
  4
extfont.shx
  0
ENDTAB
  0
TABLE
  2
VIEW
  5
6
330
0
100
AcDbSymbolTable
 70
     0
  0
ENDTAB
  0
TABLE
  2
UCS
  5
7
330
0
100
AcDbSymbolTable
 70
     0
  0
ENDTAB
  0
TABLE
  2
APPID
  5
9
330
0
100
AcDbSymbolTable
 70
    16
  0
APPID
  5
11
330
9
100
AcDbSymbolTableRecord
100
AcDbRegAppTableRecord
  2
ACAD
 70
     0
  0
APPID
  5
1B1
330
9
100
AcDbSymbolTableRecord
100
AcDbRegAppTableRecord
  2
GLOBAL
 70
     0
  0
APPID
  5
2A4
330
9
100
AcDbSymbolTableRecord
100
AcDbRegAppTableRecord
  2
DETAIL
 70
     0
  0
APPID
  5
5FD
330
9
100
AcDbSymbolTableRecord
100
AcDbRegAppTableRecord
  2
GRPNAME
 70
     0
  0
APPID
  5
5FE
330
9
100
AcDbSymbolTableRecord
100
AcDbRegAppTableRecord
  2
GPARA
 70
     0
  0
APPID
  5
6C4
330
9
100
AcDbSymbolTableRecord
100
AcDbRegAppTableRecord
  2
DCO15
 70
     0
  0
APPID
  5
6C5
330
9
100
AcDbSymbolTableRecord
100
AcDbRegAppTableRecord
  2
ITEMNAME
 70
     0
  0
APPID
  5
6C6
330
9
100
AcDbSymbolTableRecord
100
AcDbRegAppTableRecord
  2
GRADE_0
 70
     0
  0
APPID
  5
7CD
330
9
100
AcDbSymbolTableRecord
100
AcDbRegAppTableRecord
  2
ACAD_MLEADERVER
 70
     0
  0
APPID
  5
806
330
9
100
AcDbSymbolTableRecord
100
AcDbRegAppTableRecord
  2
GENIUS_GENODEF_13
 70
     0
  0
APPID
  5
807
330
9
100
AcDbSymbolTableRecord
100
AcDbRegAppTableRecord
  2
GENIUS_GENOBJ-N-FIL_13
 70
     0
  0
APPID
  5
808
330
9
100
AcDbSymbolTableRecord
100
AcDbRegAppTableRecord
  2
HATCH_TYPE
 70
     0
  0
APPID
  5
809
330
9
100
AcDbSymbolTableRecord
100
AcDbRegAppTableRecord
  2
HATCH_DISPLAY
 70
     0
  0
APPID
  5
80A
330
9
100
AcDbSymbolTableRecord
100
AcDbRegAppTableRecord
  2
HATCH_DISTANCE
 70
     0
  0
APPID
  5
80B
330
9
100
AcDbSymbolTableRecord
100
AcDbRegAppTableRecord
  2
GENIUS_GENOBJ-N-CEN_13
 70
     0
  0
APPID
  5
C42
330
9
100
AcDbSymbolTableRecord
100
AcDbRegAppTableRecord
  2
ACAD_PSEXT
 70
     0
  0
ENDTAB
  0
TABLE
  2
DIMSTYLE
  5
A
330
0
100
AcDbSymbolTable
 70
    16
100
AcDbDimStyleTable
 71
     1
340
725
  0
DIMSTYLE
105
725
102
{ACAD_REACTORS
330
989
330
98B
102
}
330
A
100
AcDbSymbolTableRecord
100
AcDbDimStyleTableRecord
  2
BIGT
 70
     0
 41
2.229999999999999
 42
0.5
 43
2.5
 44
1.0
 73
     0
 74
     0
 77
     3
 78
     8
 79
     2
140
2.799999999999999
141
0.0
147
1.0
172
     1
173
     1
174
     1
176
   256
177
   256
178
    40
179
     3
271
     3
272
     3
284
     8
289
     2
340
10
341
594
343
594
344
594
371
    -1
372
    -1
  0
ENDTAB
  0
TABLE
  2
BLOCK_RECORD
  5
1
330
0
100
AcDbSymbolTable
 70
    21
  0
BLOCK_RECORD
  5
1A
330
1
100
AcDbSymbolTableRecord
100
AcDbBlockTableRecord
  2
*MODEL_SPACE
340
567
  0
BLOCK_RECORD
  5
17
330
1
100
AcDbSymbolTableRecord
100
AcDbBlockTableRecord
  2
*PAPER_SPACE
340
568
  0
BLOCK_RECORD
  5
594
330
1
100
AcDbSymbolTableRecord
100
AcDbBlockTableRecord
  2
_Open
340
0
102
{BLKREFS
331
7ED
331
7EE
331
7F9
331
7FA
331
86B
331
98F
331
A7D
331
A7E
331
A86
331
A87
102
}
  0
BLOCK_RECORD
  5
6E3
330
1
100
AcDbSymbolTableRecord
100
AcDbBlockTableRecord
  2
矢印なし
340
0
102
{BLKREFS
331
6E6
102
}
  0
BLOCK_RECORD
  5
A50
330
1
100
AcDbSymbolTableRecord
100
AcDbBlockTableRecord
  2
*D17
340
0
  0
BLOCK_RECORD
  5
A5C
330
1
100
AcDbSymbolTableRecord
100
AcDbBlockTableRecord
  2
*D18
340
0
  0
BLOCK_RECORD
  5
C4C
330
1
100
AcDbSymbolTableRecord
100
AcDbBlockTableRecord
  2
1
340
0
310
2800000020000000200000000100080000000000000400000000000000000000000000000000000000000000000080000080000000808000800000008000800080800000C0C0C000C0DCC000F0CAA6000020400000206000002080000020A0000020C0000020E00000400000004020000040400000406000004080000040A0
310
000040C0000040E00000600000006020000060400000606000006080000060A0000060C0000060E00000800000008020000080400000806000008080000080A0000080C0000080E00000A0000000A0200000A0400000A0600000A0800000A0A00000A0C00000A0E00000C0000000C0200000C0400000C0600000C0800000C0
310
A00000C0C00000C0E00000E0000000E0200000E0400000E0600000E0800000E0A00000E0C00000E0E00040000000400020004000400040006000400080004000A0004000C0004000E00040200000402020004020400040206000402080004020A0004020C0004020E000404000004040200040404000404060004040800040
310
40A0004040C0004040E00040600000406020004060400040606000406080004060A0004060C0004060E00040800000408020004080400040806000408080004080A0004080C0004080E00040A0000040A0200040A0400040A0600040A0800040A0A00040A0C00040A0E00040C0000040C0200040C0400040C0600040C08000
310
40C0A00040C0C00040C0E00040E0000040E0200040E0400040E0600040E0800040E0A00040E0C00040E0E00080000000800020008000400080006000800080008000A0008000C0008000E00080200000802020008020400080206000802080008020A0008020C0008020E00080400000804020008040400080406000804080
310
008040A0008040C0008040E00080600000806020008060400080606000806080008060A0008060C0008060E00080800000808020008080400080806000808080008080A0008080C0008080E00080A0000080A0200080A0400080A0600080A0800080A0A00080A0C00080A0E00080C0000080C0200080C0400080C0600080C0
310
800080C0A00080C0C00080C0E00080E0000080E0200080E0400080E0600080E0800080E0A00080E0C00080E0E000C0000000C0002000C0004000C0006000C0008000C000A000C000C000C000E000C0200000C0202000C0204000C0206000C0208000C020A000C020C000C020E000C0400000C0402000C0404000C0406000C0
310
408000C040A000C040C000C040E000C0600000C0602000C0604000C0606000C0608000C060A000C060C000C060E000C0800000C0802000C0804000C0806000C0808000C080A000C080C000C080E000C0A00000C0A02000C0A04000C0A06000C0A08000C0A0A000C0A0C000C0A0E000C0C00000C0C02000C0C04000C0C06000
310
C0C08000C0C0A000F0FBFF00A4A0A000808080000000FF0000FF000000FFFF00FF000000FF00FF00FFFF0000FFFFFF0000000000000000000000000000000000000000000000000000000000000000000000000000000000000000000000000000000000000000000000000000000000000000000000000000000000000000
310
00000000000000000000000000000000000000000000000000000000000000000000000000000000000000000000000000000000000000000000000000000000000000000000000000000000000000000000000000000000000000000000000000000000000000000000000000000000000000000000000000000000000000
310
00000000000000000000000000000000000000000000000000000000000000000000000000000000000000000000000000000000000000000000000000000000000000000000000000000000000000000000000000000000000000000000000000000000000000000000000000000000000000000000000000000000E7E700
310
000000000000000000000000000000000000000000FEFEFEFEFEFEFEFEFEE7FEFEFEFEFEFEFEFEFEFEFEFEFEFEFEFEFEFE000000FBE7E7E7E7E7FBFBFBFBFBFBFBFBFBFBFBFBFBFBFBFBFBFBFBFBFBFBFBFB000000E7E7E7FBE7E7E7E7E7E7FFFFFFFFFFFFFFFFFFFFFFFFFFFFE7E7E7E700000000E7E7FEFBFEFEFEFEFEE7
310
FEFEFEFEFEFEFEFEFEFEFEFEFEFEFEFEFEFE000000000000000000000000FEE70000000000000000000000000000000000000000000000000000000000000000000000000000000000000000000000000000000000000000000000000000000000000000000000000000000000000000000000000000000000000000000000
310
00000000000000000000000000000000000000000000000000000000000000000000000000000000000000000000000000000000000000E7E7E7E7E7E7E7E7E7E7E7E7E7E7E70000000000000000000000000000000000E7E7E7E7E700E7E7E7E7E700E7E7E700000000000000000000000000000000000000000000000000
310
00000000000000000000000000000000000000000000000000000000000000000000000000000000000000000000000000000000000000000000000000000000000000000000000000000000000000000000000000000000000000000000000000000000000000000000000000000000000000000000000000000000000000
310
00000000000000000000000000000000000000000000000000000000000000000000000000000000000000000000000000000000000000000000000000000000000000000000000000000000000000000000000000000000000000000000000000000000000000000000000000000000000000000000000000000000000000
310
0000000000000000000000000000000000000000000000000000000000000000000000000000000000000000000000000000000000000000
102
{BLKREFS
331
D61
102
}
  0
ENDTAB
  0
ENDSEC
  0
SECTION
  2
BLOCKS
  0
BLOCK
  5
1B
330
1A
100
AcDbEntity
  8
0
100
AcDbBlockBegin
  2
*MODEL_SPACE
 70
     0
 10
0.0
 20
0.0
 30
0.0
  3
*MODEL_SPACE
  1

  0
ENDBLK
  5
1C
330
1A
100
AcDbEntity
  8
0
100
AcDbBlockEnd
  0
BLOCK
  5
18
330
17
100
AcDbEntity
 67
     1
  8
0
100
AcDbBlockBegin
  2
*PAPER_SPACE
 70
     0
 10
0.0
 20
0.0
 30
0.0
  3
*PAPER_SPACE
  1

  0
ENDBLK
  5
19
330
17
100
AcDbEntity
 67
     1
  8
0
100
AcDbBlockEnd
  0
BLOCK
  5
598
330
594
100
AcDbEntity
  8
0
100
AcDbBlockBegin
  2
_Open
 70
     0
 10
0.0
 20
0.0
 30
0.0
  3
_Open
  1

  0
LINE
  5
595
330
594
100
AcDbEntity
  8
0
  6
ByBlock
 62
     0
370
    -2
100
AcDbLine
 10
-1.0
 20
0.1666666666666666
 30
0.0
 11
0.0
 21
0.0
 31
0.0
  0
LINE
  5
596
330
594
100
AcDbEntity
  8
0
  6
ByBlock
 62
     0
370
    -2
100
AcDbLine
 10
-1.0
 20
-0.1666666666666666
 30
0.0
 11
0.0
 21
0.0
 31
0.0
  0
LINE
  5
597
330
594
100
AcDbEntity
  8
0
  6
ByBlock
 62
     0
370
    -2
100
AcDbLine
 10
0.0
 20
0.0
 30
0.0
 11
-1.0
 21
0.0
 31
0.0
  0
ENDBLK
  5
599
330
594
100
AcDbEntity
  8
0
100
AcDbBlockEnd
  0
BLOCK
  5
6E4
330
6E3
100
AcDbEntity
  8
0
100
AcDbBlockBegin
  2
矢印なし
 70
     0
 10
0.0
 20
0.0
 30
0.0
  3
矢印なし
  1

  0
ENDBLK
  5
6E5
330
6E3
100
AcDbEntity
  8
0
100
AcDbBlockEnd
  0
BLOCK
  5
A51
330
A50
100
AcDbEntity
  8
0
100
AcDbBlockBegin
  2
*D17
 70
     1
 10
0.0
 20
0.0
 30
0.0
  3
*D17
  1

  0
LINE
  5
A7A
330
A50
100
AcDbEntity
  8
250
  6
Continuous
100
AcDbLine
 10
-0.0000000000065654
 20
13.64125602999995
 30
0.0
 11
-0.0000000000065644
 21
28.99999999999998
 31
0.0
  0
LINE
  5
A7B
330
A50
100
AcDbEntity
  8
250
  6
Continuous
100
AcDbLine
 10
99.99999999999344
 20
9.499999999999985
 30
0.0
 11
99.99999999999344
 21
28.99999999999998
 31
0.0
  0
LINE
  5
A7C
330
A50
100
AcDbEntity
  8
250
  6
Continuous
100
AcDbLine
 10
2.229999999993435
 20
27.99999999999999
 30
0.0
 11
97.76999999999343
 21
27.99999999999999
 31
0.0
  0
INSERT
  5
A7D
330
A50
100
AcDbEntity
  8
250
  6
Continuous
100
AcDbBlockReference
  2
_Open
 10
-0.0000000000065645
 20
27.99999999999999
 30
0.0
 41
2.229999999999999
 42
2.229999999999999
 43
2.229999999999999
 50
180.0
  0
INSERT
  5
A7E
330
A50
100
AcDbEntity
  8
250
  6
Continuous
100
AcDbBlockReference
  2
_Open
 10
99.99999999999344
 20
27.99999999999999
 30
0.0
 41
2.229999999999999
 42
2.229999999999999
 43
2.229999999999999
  0
MTEXT
  5
A7F
330
A50
100
AcDbEntity
  8
250
  6
Continuous
 62
    40
100
AcDbMText
 10
49.99999999999343
 20
30.39999999999999
 30
0.0
 40
2.799999999999999
 41
0.0
 71
     5
 72
     1
  1
\A1;100
 73
     1
 44
1.0
1001
ACAD
1000
MTEXTBEGIN
1070
    73
1070
     1
1070
    44
1040
1.0
1070
    74
1070
     0
1000
MTEXTEND
  0
POINT
  5
A80
330
A50
100
AcDbEntity
  8
Defpoints
  6
Continuous
 62
     0
100
AcDbPoint
 10
-0.0000000000065654
 20
13.14125602999995
 30
0.0
  0
POINT
  5
A81
330
A50
100
AcDbEntity
  8
Defpoints
  6
Continuous
 62
     0
100
AcDbPoint
 10
99.99999999999344
 20
8.999999999999985
 30
0.0
  0
POINT
  5
A82
330
A50
100
AcDbEntity
  8
Defpoints
  6
Continuous
 62
     0
100
AcDbPoint
 10
99.99999999999344
 20
27.99999999999999
 30
0.0
  0
ENDBLK
  5
A52
330
A50
100
AcDbEntity
  8
0
100
AcDbBlockEnd
  0
BLOCK
  5
A5D
330
A5C
100
AcDbEntity
  8
0
100
AcDbBlockBegin
  2
*D18
 70
     1
 10
0.0
 20
0.0
 30
0.0
  3
*D18
  1

  0
LINE
  5
A83
330
A5C
100
AcDbEntity
  8
250
  6
Continuous
100
AcDbLine
 10
99.63165249999342
 20
-10.00000000000004
 30
0.0
 11
117.9999999999934
 21
-10.00000000000005
 31
0.0
  0
LINE
  5
A84
330
A5C
100
AcDbEntity
  8
250
  6
Continuous
100
AcDbLine
 10
99.63165249999342
 20
9.999999999999985
 30
0.0
 11
117.9999999999934
 21
9.999999999999978
 31
0.0
  0
LINE
  5
A85
330
A5C
100
AcDbEntity
  8
250
  6
Continuous
100
AcDbLine
 10
116.9999999999934
 20
-7.770000000000048
 30
0.0
 11
116.9999999999934
 21
7.769999999999979
 31
0.0
  0
INSERT
  5
A86
330
A5C
100
AcDbEntity
  8
250
  6
Continuous
100
AcDbBlockReference
  2
_Open
 10
116.9999999999934
 20
-10.00000000000005
 30
0.0
 41
2.229999999999999
 42
2.229999999999999
 43
2.229999999999999
 50
270.0
  0
INSERT
  5
A87
330
A5C
100
AcDbEntity
  8
250
  6
Continuous
100
AcDbBlockReference
  2
_Open
 10
116.9999999999934
 20
9.999999999999978
 30
0.0
 41
2.229999999999999
 42
2.229999999999999
 43
2.229999999999999
 50
90.0
  0
MTEXT
  5
A88
330
A5C
100
AcDbEntity
  8
250
  6
Continuous
 62
    40
100
AcDbMText
 10
114.5999999999934
 20
-0.0000000000000423
 30
0.0
 40
2.799999999999999
 41
0.0
 71
     5
 72
     1
  1
\A1;{\H2.8;%%C}20
 11
0.0000000000000001
 21
1.0
 31
0.0
 73
     1
 44
1.0
1001
ACAD
1000
MTEXTBEGIN
1070
    73
1070
     1
1070
    44
1040
1.0
1070
    74
1070
     0
1000
MTEXTEND
  0
POINT
  5
A89
330
A5C
100
AcDbEntity
  8
Defpoints
  6
Continuous
 62
     0
100
AcDbPoint
 10
99.13165249999341
 20
-10.00000000000004
 30
0.0
  0
POINT
  5
A8A
330
A5C
100
AcDbEntity
  8
Defpoints
  6
Continuous
 62
     0
100
AcDbPoint
 10
99.13165249999341
 20
9.999999999999985
 30
0.0
  0
POINT
  5
A8B
330
A5C
100
AcDbEntity
  8
Defpoints
  6
Continuous
 62
     0
100
AcDbPoint
 10
116.9999999999934
 20
9.999999999999978
 30
0.0
  0
ENDBLK
  5
A5E
330
A5C
100
AcDbEntity
  8
0
100
AcDbBlockEnd
  0
BLOCK
  5
C4D
330
C4C
100
AcDbEntity
  8
0
100
AcDbBlockBegin
  2
1
 70
     0
 10
0.0
 20
0.0
 30
0.0
  3
1
  1

  0
LINE
  5
C4F
330
C4C
100
AcDbEntity
  8
241
 48
0.0
100
AcDbLine
 10
-42.39000000000703
 20
-1.479155164274558
 30
0.0
 11
-51.00000000000654
 21
-1.479155164274871
 31
0.0
  0
LINE
  5
C50
330
C4C
100
AcDbEntity
  8
240
100
AcDbLine
 10
-50.00000000000682
 20
-10.00000000000001
 30
0.0
 11
-6.500000000006735
 21
-10.00000000000015
 31
0.0
  0
ARC
  5
C51
330
C4C
100
AcDbEntity
  8
240
100
AcDbCircle
 10
-50.00000000000682
 20
-9.000000000000014
 30
0.0
 40
1.0
100
AcDbArc
 50
180.0
 51
270.0
  0
LINE
  5
C52
330
C4C
100
AcDbEntity
  8
240
100
AcDbLine
 10
-51.00000000000682
 20
-9.000000000000014
 30
0.0
 11
-51.00000000000682
 21
0.0000000000001847
 31
0.0
  0
LINE
  5
C53
330
C4C
100
AcDbEntity
  8
241
100
AcDbLine
 10
-49.20000000000638
 20
-10.0000000000001
 30
0.0
 11
-49.20000000000675
 21
-1.479155164274899
 31
0.0
  0
LINE
  5
C54
330
C4C
100
AcDbEntity
  8
241
100
AcDbLine
 10
-47.13890360638607
 20
-9.999999999999786
 30
0.0
 11
-47.13890360638607
 21
-1.479155164274558
 31
0.0
  0
CIRCLE
  5
C55
330
C4C
100
AcDbEntity
  8
241
100
AcDbCircle
 10
-35.00000000000546
 20
0.0000000000000142
 30
0.0
 40
5.0
  0
LINE
  5
C56
330
C4C
100
AcDbEntity
  8
241
100
AcDbLine
 10
-47.13890360638607
 20
9.999999999999758
 30
0.0
 11
-47.13890360638607
 21
1.47915516427453
 31
0.0
  0
LINE
  5
C57
330
C4C
100
AcDbEntity
  8
241
100
AcDbLine
 10
-49.20000000000704
 20
10.00000000000004
 30
0.0
 11
-49.20000000000687
 21
1.4791551642747
 31
0.0
  0
LINE
  5
C58
330
C4C
100
AcDbEntity
  8
240
100
AcDbLine
 10
-51.00000000000682
 20
8.999999999999985
 30
0.0
 11
-51.00000000000682
 21
-0.0000000000002132
 31
0.0
  0
ARC
  5
C59
330
C4C
100
AcDbEntity
  8
240
100
AcDbCircle
 10
-50.00000000000682
 20
8.999999999999985
 30
0.0
 40
1.0
100
AcDbArc
 50
90.0
 51
180.0
  0
LINE
  5
C5A
330
C4C
100
AcDbEntity
  8
AM_7
100
AcDbLine
 10
-35.00000000000546
 20
7.999999999999985
 30
0.0
 11
-35.00000000000546
 21
-7.999999999999985
 31
0.0
1001
GENIUS_GENOBJ-N-CEN_13
1002
{
1000
OWNER
1000
GEN
1002
}
1001
GENIUS_GENODEF_13
1002
{
1000
HIER
1070
     0
1002
}
1002
{
1000
MANEDIT
1070
     0
1002
}
1002
{
1000
NOSEL
1070
     0
1002
}
1002
{
1000
BEHIND
1070
     0
1002
}
1002
{
1000
OTHER
1070
     0
1002
}
1002
{
1000
REACTOR
1002
}
  0
LINE
  5
C5B
330
C4C
100
AcDbEntity
  8
AM_7
100
AcDbLine
 10
-54.00000000000682
 20
0.0000000000000142
 30
0.0
 11
100.856078038111
 21
-0.0000000000000426
 31
0.0
  0
LINE
  5
C5C
330
C4C
100
AcDbEntity
  8
240
100
AcDbLine
 10
-50.00000000000682
 20
9.999999999999985
 30
0.0
 11
-6.500000000006735
 21
9.999999999999985
 31
0.0
  0
LINE
  5
C5D
330
C4C
100
AcDbEntity
  8
AM_7
100
AcDbLine
 10
-20.00000000000893
 20
10.95297178812346
 30
0.0
 11
-20.00000000000889
 21
7.402310864198838
 31
0.0
  0
LINE
  5
C5E
330
C4C
100
AcDbEntity
  8
241
100
AcDbLine
 10
-29.50000000000546
 20
6.000000000000014
 30
0.0
 11
-29.50000000000546
 21
-5.999999999999985
 31
0.0
  0
ARC
  5
C5F
330
C4C
100
AcDbEntity
  8
241
100
AcDbCircle
 10
-37.50000000000364
 20
-0.0000000000002132
 30
0.0
 40
9.999999999998568
100
AcDbArc
 50
323.1301023541485
 51
36.86989764585152
  0
LINE
  5
C60
330
C4C
100
AcDbEntity
  8
241
100
AcDbLine
 10
-40.50000000000273
 20
6.000000000000014
 30
0.0
 11
-29.50000000000546
 21
6.000000000000014
 31
0.0
  0
LINE
  5
C61
330
C4C
100
AcDbEntity
  8
241
100
AcDbLine
 10
-40.50000000000273
 20
6.000000000000014
 30
0.0
 11
-40.50000000000273
 21
-5.999999999999985
 31
0.0
  0
ARC
  5
C62
330
C4C
100
AcDbEntity
  8
241
100
AcDbCircle
 10
-32.49999999999773
 20
-0.0000000000002132
 30
0.0
 40
10.00000000000389
100
AcDbArc
 50
143.1301023541765
 51
171.493853046525
  0
LINE
  5
C63
330
C4C
100
AcDbEntity
  8
241
100
AcDbLine
 10
-40.50000000000273
 20
-5.999999999999985
 30
0.0
 11
-29.50000000000546
 21
-5.999999999999985
 31
0.0
  0
LINE
  5
C64
330
C4C
100
AcDbEntity
  8
241
100
AcDbLine
 10
-11.50000000000682
 20
9.999999999999985
 30
0.0
 11
-11.50000000000725
 21
-10.00000000000021
 31
0.0
  0
LINE
  5
C65
330
C4C
100
AcDbEntity
  8
241
100
AcDbLine
 10
-25.50000000000987
 20
10.00000000000004
 30
0.0
 11
-25.49999999999739
 21
-10.00000000000018
 31
0.0
  0
LINE
  5
C66
330
C4C
100
AcDbEntity
  8
241
100
AcDbLine
 10
-23.50000000000881
 20
10.00000000000004
 30
0.0
 11
-23.50000000000912
 21
-10.00000000000018
 31
0.0
  0
LINE
  5
C67
330
C4C
100
AcDbEntity
  8
241
100
AcDbLine
 10
-16.5000000000083
 20
10.00000000000004
 30
0.0
 11
-16.50000000000864
 21
-10.00000000000021
 31
0.0
  0
LINE
  5
C68
330
C4C
100
AcDbEntity
  8
241
100
AcDbLine
 10
-14.50000000000887
 20
10.00000000000004
 30
0.0
 11
-14.50000000000813
 21
-10.00000000000021
 31
0.0
  0
POLYLINE
  5
C69
330
C4C
100
AcDbEntity
  8
241
 48
0.0
100
AcDb2dPolyline
 66
     1
 10
0.0
 20
0.0
 30
0.0
  0
VERTEX
  5
C6A
330
C69
100
AcDbEntity
  8
241
  6
Continuous
 48
0.0
370
    50
100
AcDbVertex
100
AcDb2dVertex
 10
-20.00000000000603
 20
8.523029685020432
 30
0.0
  0
VERTEX
  5
C6B
330
C69
100
AcDbEntity
  8
241
  6
Continuous
 48
0.0
370
    50
100
AcDbVertex
100
AcDb2dVertex
 10
-20.49358844757683
 20
8.556175231933579
 30
0.0
  0
VERTEX
  5
C6C
330
C69
100
AcDbEntity
  8
241
  6
Continuous
 48
0.0
370
    50
100
AcDbVertex
100
AcDb2dVertex
 10
-20.96745967865593
 20
8.653337359428391
 30
0.0
  0
VERTEX
  5
C6D
330
C69
100
AcDbEntity
  8
241
  6
Continuous
 48
0.0
370
    50
100
AcDbVertex
100
AcDb2dVertex
 10
-21.37075901032097
 20
8.798656463623032
 30
0.0
  0
VERTEX
  5
C6E
330
C69
100
AcDbEntity
  8
241
  6
Continuous
 48
0.0
370
    50
100
AcDbVertex
100
AcDb2dVertex
 10
-21.68490886688835
 20
8.97403240203856
 30
0.0
  0
VERTEX
  5
C6F
330
C69
100
AcDbEntity
  8
241
  6
Continuous
 48
0.0
370
    50
100
AcDbVertex
100
AcDb2dVertex
 10
-21.90246582031853
 20
9.168233275413498
 30
0.0
  0
VERTEX
  5
C70
330
C69
100
AcDbEntity
  8
241
  6
Continuous
 48
0.0
370
    50
100
AcDbVertex
100
AcDb2dVertex
 10
-21.99611663818962
 20
9.354455471038804
 30
0.0
  0
VERTEX
  5
C71
330
C69
100
AcDbEntity
  8
241
  6
Continuous
 48
0.0
370
    50
100
AcDbVertex
100
AcDb2dVertex
 10
-21.96497440338737
 20
9.516787528991685
 30
0.0
  0
VERTEX
  5
C72
330
C69
100
AcDbEntity
  8
241
  6
Continuous
 48
0.0
370
    50
100
AcDbVertex
100
AcDb2dVertex
 10
-21.80839538574821
 20
9.6546697616577
 30
0.0
  0
VERTEX
  5
C73
330
C69
100
AcDbEntity
  8
241
  6
Continuous
 48
0.0
370
    50
100
AcDbVertex
100
AcDb2dVertex
 10
-21.53732776642448
 20
9.757127165794358
 30
0.0
  0
VERTEX
  5
C74
330
C69
100
AcDbEntity
  8
241
  6
Continuous
 48
0.0
370
    50
100
AcDbVertex
100
AcDb2dVertex
 10
-21.18050098419792
 20
9.825674891471848
 30
0.0
  0
VERTEX
  5
C75
330
C69
100
AcDbEntity
  8
241
  6
Continuous
 48
0.0
370
    50
100
AcDbVertex
100
AcDb2dVertex
 10
-20.73663234711296
 20
9.869006276130662
 30
0.0
  0
VERTEX
  5
C76
330
C69
100
AcDbEntity
  8
241
  6
Continuous
 48
0.0
370
    50
100
AcDbVertex
100
AcDb2dVertex
 10
-20.24553775787956
 20
9.888818860054001
 30
0.0
  0
VERTEX
  5
C77
330
C69
100
AcDbEntity
  8
241
  6
Continuous
 48
0.0
370
    50
100
AcDbVertex
100
AcDb2dVertex
 10
-19.75445747376091
 20
9.888818860054001
 30
0.0
  0
VERTEX
  5
C78
330
C69
100
AcDbEntity
  8
241
  6
Continuous
 48
0.0
370
    50
100
AcDbVertex
100
AcDb2dVertex
 10
-19.26336288452751
 20
9.869006276130662
 30
0.0
  0
VERTEX
  5
C79
330
C69
100
AcDbEntity
  8
241
  6
Continuous
 48
0.0
370
    50
100
AcDbVertex
100
AcDb2dVertex
 10
-18.81949424744255
 20
9.825674891471848
 30
0.0
  0
VERTEX
  5
C7A
330
C69
100
AcDbEntity
  8
241
  6
Continuous
 48
0.0
370
    50
100
AcDbVertex
100
AcDb2dVertex
 10
-18.46266746521598
 20
9.757127165794358
 30
0.0
  0
VERTEX
  5
C7B
330
C69
100
AcDbEntity
  8
241
  6
Continuous
 48
0.0
370
    50
100
AcDbVertex
100
AcDb2dVertex
 10
-18.19159984589225
 20
9.6546697616577
 30
0.0
  0
VERTEX
  5
C7C
330
C69
100
AcDbEntity
  8
241
  6
Continuous
 48
0.0
370
    50
100
AcDbVertex
100
AcDb2dVertex
 10
-18.03502082825309
 20
9.516787528991685
 30
0.0
  0
VERTEX
  5
C7D
330
C69
100
AcDbEntity
  8
241
  6
Continuous
 48
0.0
370
    50
100
AcDbVertex
100
AcDb2dVertex
 10
-18.00387859345085
 20
9.354455471038804
 30
0.0
  0
VERTEX
  5
C7E
330
C69
100
AcDbEntity
  8
241
  6
Continuous
 48
0.0
370
    50
100
AcDbVertex
100
AcDb2dVertex
 10
-18.09752941132194
 20
9.168233275413498
 30
0.0
  0
VERTEX
  5
C7F
330
C69
100
AcDbEntity
  8
241
  6
Continuous
 48
0.0
370
    50
100
AcDbVertex
100
AcDb2dVertex
 10
-18.31508636475212
 20
8.97403240203856
 30
0.0
  0
VERTEX
  5
C80
330
C69
100
AcDbEntity
  8
241
  6
Continuous
 48
0.0
370
    50
100
AcDbVertex
100
AcDb2dVertex
 10
-18.6292362213195
 20
8.798656463623032
 30
0.0
  0
VERTEX
  5
C81
330
C69
100
AcDbEntity
  8
241
  6
Continuous
 48
0.0
370
    50
100
AcDbVertex
100
AcDb2dVertex
 10
-19.03253555298454
 20
8.653337359428391
 30
0.0
  0
VERTEX
  5
C82
330
C69
100
AcDbEntity
  8
241
  6
Continuous
 48
0.0
370
    50
100
AcDbVertex
100
AcDb2dVertex
 10
-19.50641155243522
 20
8.556175231933579
 30
0.0
  0
VERTEX
  5
C83
330
C69
100
AcDbEntity
  8
241
  6
Continuous
 48
0.0
370
    50
100
AcDbVertex
100
AcDb2dVertex
 10
-20.00000000000603
 20
8.523029685020432
 30
0.0
  0
SEQEND
  5
C84
330
C69
100
AcDbEntity
  8
241
  6
Continuous
 48
0.0
370
    50
  0
LINE
  5
C85
330
C4C
100
AcDbEntity
  8
AM_7
100
AcDbLine
 10
-22.92700509777882
 20
9.396926207859095
 30
0.0
 11
-17.12423044789926
 21
9.396926207859095
 31
0.0
  0
LINE
  5
C86
330
C4C
100
AcDbEntity
  8
241
 48
0.0
100
AcDbLine
 10
-42.39000000000703
 20
1.47915516427453
 30
0.0
 11
-51.00000000000654
 21
1.479155164274786
 31
0.0
  0
ARC
  5
C87
330
C4C
100
AcDbEntity
  8
241
 48
0.0
100
AcDbCircle
 10
-45.0000000000071
 20
0.0000000000000142
 30
0.0
 40
3.0
100
AcDbArc
 50
330.4586394998606
 51
29.54136050014156
  0
ARC
  5
C88
330
C4C
100
AcDbEntity
  8
241
100
AcDbCircle
 10
-32.49999999999773
 20
-0.0000000000002132
 30
0.0
 40
10.00000000000389
100
AcDbArc
 50
188.5061469534289
 51
216.8698976458235
  0
LINE
  5
C89
330
C4C
100
AcDbEntity
  8
241
100
AcDbLine
 10
-10.50000000000642
 20
3.90000000000721
 30
0.0
 11
-10.50000000000682
 21
-3.900000000005647
 31
0.0
  0
LINE
  5
C8A
330
C4C
100
AcDbEntity
  8
241
100
AcDbLine
 10
-10.50000000000642
 20
3.90000000000721
 30
0.0
 11
-6.500000000007702
 21
3.900000000005078
 31
0.0
  0
LINE
  5
C8B
330
C4C
100
AcDbEntity
  8
241
100
AcDbLine
 10
-10.00000000000409
 20
3.900000000006329
 30
0.0
 11
-10.00000000000074
 21
10.00000000000004
 31
0.0
  0
LINE
  5
C8C
330
C4C
100
AcDbEntity
  8
240
100
AcDbLine
 10
-6.500000000006821
 20
10.20000000000566
 30
0.0
 11
-6.500000000006821
 21
13.00313367013852
 31
0.0
  0
ARC
  5
C8D
330
C4C
100
AcDbEntity
  8
240
100
AcDbCircle
 10
-6.535265396149014
 20
13.20000000000475
 30
0.0
 40
0.2
100
AcDbArc
 50
280.155889434447
 51
289.9999999999965
1001
GENIUS_GENOBJ-N-FIL_13
1002
{
1000
OWNER
1000
GEN
1002
}
1001
GENIUS_GENODEF_13
1002
{
1000
HIER
1070
     0
1002
}
1002
{
1000
MANEDIT
1070
     0
1002
}
1002
{
1000
NOSEL
1070
     0
1002
}
1002
{
1000
BEHIND
1070
     0
1002
}
1002
{
1000
OTHER
1070
     0
1002
}
1002
{
1000
REACTOR
1002
}
  0
LINE
  5
C8E
330
C4C
100
AcDbEntity
  8
240
100
AcDbLine
 10
-6.466861367483943
 20
13.01206147584746
 30
0.0
 11
-5.126261290281092
 21
13.50000000000447
 31
0.0
  0
LINE
  5
C8F
330
C4C
100
AcDbEntity
  8
241
100
AcDbLine
 10
-5.126261290280467
 20
-13.49999999999936
 30
0.0
 11
-5.12626129028024
 21
13.50000000000356
 31
0.0
  0
LINE
  5
C90
330
C4C
100
AcDbEntity
  8
241
100
AcDbLine
 10
0.9646170927519506
 20
9.900000000004794
 30
0.0
 11
0.9646170927521495
 21
-10.00000000000487
 31
0.0
  0
LINE
  5
C91
330
C4C
100
AcDbEntity
  8
241
100
AcDbLine
 10
0.0
 20
13.14125602806113
 30
0.0
 11
0.0
 21
-13.14125602806085
 31
0.0
  0
LINE
  5
C92
330
C4C
100
AcDbEntity
  8
240
100
AcDbLine
 10
0.1985988383098629
 20
12.7588190451069
 30
0.0
 11
0.7392233351986875
 21
10.74118095490233
 31
0.0
  0
ARC
  5
C93
330
C4C
100
AcDbEntity
  8
240
100
AcDbCircle
 10
-0.7673269879791747
 20
12.5000000000043
 30
0.0
 40
1.0
100
AcDbArc
 50
15.0000000000063
 51
89.99999999998861
  0
LINE
  5
C94
330
C4C
100
AcDbEntity
  8
240
100
AcDbLine
 10
-0.7673269879789757
 20
13.5000000000043
 30
0.0
 11
-5.126261290281092
 21
13.50000000000447
 31
0.0
  0
LINE
  5
C95
330
C4C
100
AcDbEntity
  8
241
100
AcDbLine
 10
-6.500000000006821
 20
10.20000000000566
 30
0.0
 11
-6.500000000007133
 21
-0.0000000000000142
 31
0.0
  0
LINE
  5
C96
330
C4C
100
AcDbEntity
  8
241
100
AcDbLine
 10
-3.999999999998181
 20
-13.5000000000076
 30
0.0
 11
-3.999999999998436
 21
13.50000000000351
 31
0.0
  0
LINE
  5
C97
330
C4C
100
AcDbEntity
  8
241
100
AcDbLine
 10
-1.999999999998408
 20
-13.50000000000618
 30
0.0
 11
-1.999999999998351
 21
13.50000000000345
 31
0.0
  0
LINE
  5
C98
330
C4C
100
AcDbEntity
  8
241
100
AcDbLine
 10
-6.500000000006764
 20
-10.20000000000568
 30
0.0
 11
-6.500000000007503
 21
-0.0000000000000142
 31
0.0
  0
LINE
  5
C99
330
C4C
100
AcDbEntity
  8
240
100
AcDbLine
 10
0.1985988383099197
 20
-12.75881904510687
 30
0.0
 11
0.7392233351987159
 21
-10.74118095490239
 31
0.0
  0
ARC
  5
C9A
330
C4C
100
AcDbEntity
  8
240
100
AcDbCircle
 10
-0.7673269879791178
 20
-12.50000000000425
 30
0.0
 40
1.0
100
AcDbArc
 50
270.0000000000114
 51
344.9999999999937
  0
LINE
  5
C9B
330
C4C
100
AcDbEntity
  8
240
100
AcDbLine
 10
-6.500000000006764
 20
-10.20000000000568
 30
0.0
 11
-6.500000000006764
 21
-13.00313367013855
 31
0.0
  0
LINE
  5
C9C
330
C4C
100
AcDbEntity
  8
240
100
AcDbLine
 10
-0.7673269879789189
 20
-13.50000000000425
 30
0.0
 11
-5.126261290274072
 21
-13.50000000000732
 31
0.0
  0
LINE
  5
C9D
330
C4C
100
AcDbEntity
  8
240
100
AcDbLine
 10
-6.466861367483886
 20
-13.01206147584749
 30
0.0
 11
-5.126261290274072
 21
-13.50000000000732
 31
0.0
  0
ARC
  5
C9E
330
C4C
100
AcDbEntity
  8
240
100
AcDbCircle
 10
-6.535265396148957
 20
-13.20000000000478
 30
0.0
 40
0.2
100
AcDbArc
 50
70.00000000000354
 51
79.84411056555306
1001
GENIUS_GENOBJ-N-FIL_13
1002
{
1000
OWNER
1000
GEN
1002
}
1001
GENIUS_GENODEF_13
1002
{
1000
HIER
1070
     0
1002
}
1002
{
1000
MANEDIT
1070
     0
1002
}
1002
{
1000
NOSEL
1070
     0
1002
}
1002
{
1000
BEHIND
1070
     0
1002
}
1002
{
1000
OTHER
1070
     0
1002
}
1002
{
1000
REACTOR
1002
}
  0
LINE
  5
C9F
330
C4C
100
AcDbEntity
  8
241
100
AcDbLine
 10
-10.50000000000682
 20
-3.900000000005647
 30
0.0
 11
-6.500000000007133
 21
-3.900000000008375
 31
0.0
  0
LINE
  5
CA0
330
C4C
100
AcDbEntity
  8
241
100
AcDbLine
 10
-10.00000000000406
 20
-3.900000000006386
 30
0.0
 11
-10.00000000000023
 21
-10.00000000000024
 31
0.0
  0
LINE
  5
CA1
330
C4C
100
AcDbEntity
  8
240
100
AcDbLine
 10
77.99999999999184
 20
10.01312849571381
 30
0.0
 11
35.84898854504221
 21
10.01312849571359
 31
0.0
  0
LINE
  5
CA2
330
C4C
100
AcDbEntity
  8
240
100
AcDbLine
 10
35.84898854504221
 20
10.00000000000493
 30
0.0
 11
1.705149161487724
 21
10.00000000000493
 31
0.0
  0
ARC
  5
CA3
330
C4C
100
AcDbEntity
  8
240
100
AcDbCircle
 10
1.705149161487724
 20
11.00000000000493
 30
0.0
 40
1.0
100
AcDbArc
 50
195.0000000000063
 51
270.0
  0
LINE
  5
CA4
330
C4C
100
AcDbEntity
  8
240
100
AcDbLine
 10
77.99999999999184
 20
-9.98687150429636
 30
0.0
 11
37.86516703332225
 21
-9.986871504296871
 31
0.0
  0
LINE
  5
CA5
330
C4C
100
AcDbEntity
  8
240
100
AcDbLine
 10
37.86516703332225
 20
-10.0000000000049
 30
0.0
 11
1.705149161487753
 21
-10.00000000000501
 31
0.0
  0
ARC
  5
CA6
330
C4C
100
AcDbEntity
  8
240
100
AcDbCircle
 10
1.705149161487753
 20
-11.00000000000501
 30
0.0
 40
1.0
100
AcDbArc
 50
90.0
 51
164.9999999999937
  0
TEXT
  5
CA7
330
C4C
100
AcDbEntity
  8
0
100
AcDbText
 10
17.92009888999342
 20
3.319720869999954
 30
0.0
 40
3.5
  1
MGT12-060049-100
  7
YOKO
100
AcDbText
  0
ARC
  5
CA8
330
C4C
100
AcDbEntity
  8
0
100
AcDbCircle
 10
8.04257864999343
 20
6.237432039999944
 30
0.0
 40
1.106280566015622
100
AcDbArc
 50
287.6695775499992
 51
90.23615984000096
  0
LINE
  5
CA9
330
C4C
100
AcDbEntity
  8
0
100
AcDbLine
 10
8.198475129993454
 20
6.145245469999949
 30
0.0
 11
8.938981519993433
 21
6.885751859999956
 31
0.0
  0
LINE
  5
CAA
330
C4C
100
AcDbEntity
  8
0
100
AcDbLine
 10
8.68340885999342
 20
2.697327039999962
 30
0.0
 11
9.12592400999344
 21
3.139842179999945
 31
0.0
  0
ARC
  5
CAB
330
C4C
100
AcDbEntity
  8
0
100
AcDbCircle
 10
7.535026069993449
 20
4.467371439999951
 30
0.0
 40
1.106271168749997
100
AcDbArc
 50
270.0
 51
40.32984065000039
  0
LINE
  5
CAC
330
C4C
100
AcDbEntity
  8
0
100
AcDbLine
 10
7.518198689993454
 20
4.973362499999964
 30
0.0
 11
9.101729729993422
 21
6.556893559999949
 31
0.0
  0
LINE
  5
CAD
330
C4C
100
AcDbEntity
  8
0
100
AcDbLine
 10
7.689804029993439
 20
4.653361329999952
 30
0.0
 11
9.140829869993439
 21
6.104387169999952
 31
0.0
  0
LINE
  5
CAE
330
C4C
100
AcDbEntity
  8
0
100
AcDbLine
 10
5.466474889993435
 20
2.697327039999962
 30
0.0
 11
14.44947564999344
 21
2.697327039999962
 31
0.0
  0
LINE
  5
CAF
330
C4C
100
AcDbEntity
  8
0
100
AcDbLine
 10
5.466474889993435
 20
3.139842179999945
 30
0.0
 11
14.44947564999344
 21
3.139842179999945
 31
0.0
  0
LINE
  5
CB0
330
C4C
100
AcDbEntity
  8
0
100
AcDbLine
 10
3.212621469993422
 20
5.58385048999996
 30
0.0
 11
4.903139779993438
 21
7.274368799999948
 31
0.0
  0
ARC
  5
CB1
330
C4C
100
AcDbEntity
  8
0
100
AcDbCircle
 10
5.466474889993435
 20
5.020515379999963
 30
0.0
 40
2.323187831249998
100
AcDbArc
 50
90.0
 51
270.0
  0
ARC
  5
CB2
330
C4C
100
AcDbEntity
  8
0
100
AcDbCircle
 10
5.466474889993435
 20
5.020515379999963
 30
0.0
 40
1.880672681249994
100
AcDbArc
 50
90.0
 51
270.0
  0
LINE
  5
CB3
330
C4C
100
AcDbEntity
  8
0
100
AcDbLine
 10
4.165667739993438
 20
3.095651119999971
 30
0.0
 11
4.485791939993447
 21
3.415775319999951
 31
0.0
  0
LINE
  5
CB4
330
C4C
100
AcDbEntity
  8
0
100
AcDbLine
 10
3.653999929993432
 20
3.567196349999946
 30
0.0
 11
3.969241199993433
 21
3.882437619999947
 31
0.0
  0
LINE
  5
CB5
330
C4C
100
AcDbEntity
  8
0
100
AcDbLine
 10
3.143288299993429
 20
5.022910789999954
 30
0.0
 11
3.658407259993424
 21
5.53802974999995
 31
0.0
  0
LINE
  5
CB6
330
C4C
100
AcDbEntity
  8
0
100
AcDbLine
 10
3.18649986999344
 20
4.574515849999968
 30
0.0
 11
3.586368089993442
 21
4.97438406999997
 31
0.0
  0
LINE
  5
CB7
330
C4C
100
AcDbEntity
  8
0
100
AcDbLine
 10
3.295919789993433
 20
4.192329259999965
 30
0.0
 11
3.647258949993414
 21
4.543668399999958
 31
0.0
  0
LINE
  5
CB8
330
C4C
100
AcDbEntity
  8
0
100
AcDbLine
 10
3.454382719993446
 20
3.859185659999965
 30
0.0
 11
3.781127139993429
 21
4.185930069999969
 31
0.0
  0
LINE
  5
CB9
330
C4C
100
AcDbEntity
  8
0
100
AcDbLine
 10
3.891293769993438
 20
3.312883659999968
 30
0.0
 11
4.204513809993414
 21
3.626103699999944
 31
0.0
  0
LINE
  5
CBA
330
C4C
100
AcDbEntity
  8
0
100
AcDbLine
 10
6.405902639993428
 20
5.827492539999965
 30
0.0
 11
7.922113319993428
 21
7.343703219999966
 31
0.0
  0
LINE
  5
CBB
330
C4C
100
AcDbEntity
  8
0
100
AcDbLine
 10
6.60354051999343
 20
6.516736929999964
 30
0.0
 11
7.430506789993415
 21
7.343703219999966
 31
0.0
  0
LINE
  5
CBC
330
C4C
100
AcDbEntity
  8
0
100
AcDbLine
 10
6.208264749993446
 20
5.138248129999951
 30
0.0
 11
7.757251529993453
 21
6.687234909999958
 31
0.0
  0
ARC
  5
CBD
330
C4C
100
AcDbEntity
  8
0
100
AcDbCircle
 10
7.548892249993429
 20
6.281670199999965
 30
0.0
 40
0.6637541915039066
100
AcDbArc
 50
261.6626016899999
 51
66.3381551000008
  0
LINE
  5
CBE
330
C4C
100
AcDbEntity
  8
0
100
AcDbLine
 10
7.815283749993426
 20
6.889621829999967
 30
0.0
 11
7.452647559993437
 21
5.624930839999947
 31
0.0
  0
LINE
  5
CBF
330
C4C
100
AcDbEntity
  8
0
100
AcDbLine
 10
7.90916023999344
 20
6.839143609999965
 30
0.0
 11
8.365538339993435
 21
7.29552170999996
 31
0.0
  0
LINE
  5
CC0
330
C4C
100
AcDbEntity
  8
0
100
AcDbLine
 10
8.141757259993454
 20
6.580134109999946
 30
0.0
 11
8.693540949993433
 21
7.131917809999961
 31
0.0
  0
LINE
  5
CC1
330
C4C
100
AcDbEntity
  8
0
100
AcDbLine
 10
6.004778609993451
 20
6.901188069999946
 30
0.0
 11
6.353401379993414
 21
7.249810829999958
 31
0.0
  0
LINE
  5
CC2
330
C4C
100
AcDbEntity
  8
0
100
AcDbLine
 10
6.496385129993427
 20
6.901188069999946
 30
0.0
 11
6.938900279993418
 21
7.343703219999966
 31
0.0
  0
LINE
  5
CC3
330
C4C
100
AcDbEntity
  8
0
100
AcDbLine
 10
6.610485479993428
 20
7.343703219999966
 30
0.0
 11
6.483601519993413
 21
6.901188069999946
 31
0.0
  0
LINE
  5
CC4
330
C4C
100
AcDbEntity
  8
0
100
AcDbLine
 10
6.38032347999345
 20
7.343703219999966
 30
0.0
 11
6.253439509993427
 21
6.901188069999946
 31
0.0
  0
LINE
  5
CC5
330
C4C
100
AcDbEntity
  8
0
100
AcDbLine
 10
6.483601519993413
 20
6.901188069999946
 30
0.0
 11
6.713780229993432
 21
6.901188069999946
 31
0.0
  0
LINE
  5
CC6
330
C4C
100
AcDbEntity
  8
0
100
AcDbLine
 10
6.610485479993428
 20
7.343703219999966
 30
0.0
 11
8.038018829993433
 21
7.343703219999966
 31
0.0
  0
LINE
  5
CC7
330
C4C
100
AcDbEntity
  8
0
100
AcDbLine
 10
8.191802339993415
 20
2.697327039999962
 30
0.0
 11
8.634317479993427
 21
3.139842179999945
 31
0.0
  0
LINE
  5
CC8
330
C4C
100
AcDbEntity
  8
0
100
AcDbLine
 10
7.955305099993438
 20
3.444042829999958
 30
0.0
 11
8.558354669993434
 21
4.047092409999962
 31
0.0
  0
LINE
  5
CC9
330
C4C
100
AcDbEntity
  8
0
100
AcDbLine
 10
6.716982779993429
 20
2.697327039999962
 30
0.0
 11
7.15949792999342
 21
3.139842179999945
 31
0.0
  0
LINE
  5
CCA
330
C4C
100
AcDbEntity
  8
0
100
AcDbLine
 10
5.90593593999344
 20
3.361099759999959
 30
0.0
 11
7.164343259993444
 21
4.619507069999954
 31
0.0
  0
LINE
  5
CCB
330
C4C
100
AcDbEntity
  8
0
100
AcDbLine
 10
6.397542459993445
 20
3.361099759999959
 30
0.0
 11
6.966715569993453
 21
3.930272849999951
 31
0.0
  0
LINE
  5
CCC
330
C4C
100
AcDbEntity
  8
0
100
AcDbLine
 10
5.812988989993442
 20
3.759759329999965
 30
0.0
 11
7.685316969993436
 21
5.63208730999996
 31
0.0
  0
LINE
  5
CCD
330
C4C
100
AcDbEntity
  8
0
100
AcDbLine
 10
6.010626869993444
 20
4.449003719999964
 30
0.0
 11
7.55962017999343
 21
5.99799702999995
 31
0.0
  0
LINE
  5
CCE
330
C4C
100
AcDbEntity
  8
0
100
AcDbLine
 10
6.225376269993432
 20
2.697327039999962
 30
0.0
 11
6.667891399993436
 21
3.139842179999945
 31
0.0
  0
LINE
  5
CCF
330
C4C
100
AcDbEntity
  8
0
100
AcDbLine
 10
7.208589309993413
 20
2.697327039999962
 30
0.0
 11
7.651104439993417
 21
3.139842179999945
 31
0.0
  0
LINE
  5
CD0
330
C4C
100
AcDbEntity
  8
0
100
AcDbLine
 10
7.307736439993419
 20
5.11959635999996
 30
0.0
 11
6.945094299993428
 21
3.854867849999962
 31
0.0
  0
LINE
  5
CD1
330
C4C
100
AcDbEntity
  8
0
100
AcDbLine
 10
7.700195819993439
 20
2.697327039999962
 30
0.0
 11
8.14271096999343
 21
3.139842179999945
 31
0.0
  0
LINE
  5
CD2
330
C4C
100
AcDbEntity
  8
0
100
AcDbLine
 10
7.380755499993426
 20
3.361099759999959
 30
0.0
 11
8.631785379993431
 21
4.612129619999947
 31
0.0
  0
LINE
  5
CD3
330
C4C
100
AcDbEntity
  8
0
100
AcDbLine
 10
6.889148969993442
 20
3.361099759999959
 30
0.0
 11
8.512837669993444
 21
4.984788449999953
 31
0.0
  0
ARC
  5
CD4
330
C4C
100
AcDbEntity
  8
0
100
AcDbCircle
 10
7.041339669993448
 20
4.511626299999946
 30
0.0
 40
0.6637731818115235
100
AcDbArc
 50
261.6628542100001
 51
66.33819215999903
  0
LINE
  5
CD5
330
C4C
100
AcDbEntity
  8
0
100
AcDbLine
 10
4.948960529993428
 20
6.828583029999961
 30
0.0
 11
5.464079479993444
 21
7.343701969999969
 31
0.0
  0
LINE
  5
CD6
330
C4C
100
AcDbEntity
  8
0
100
AcDbLine
 10
5.252077789993421
 20
2.70724159999996
 30
0.0
 11
5.684678359993455
 21
3.139842179999945
 31
0.0
  0
LINE
  5
CD7
330
C4C
100
AcDbEntity
  8
0
100
AcDbLine
 10
4.479177419993419
 20
2.917554279999947
 30
0.0
 11
4.817124639993437
 21
3.255501499999965
 31
0.0
  0
LINE
  5
CD8
330
C4C
100
AcDbEntity
  8
0
100
AcDbLine
 10
4.837360339993438
 20
2.784130669999953
 30
0.0
 11
5.210564999993437
 21
3.157335349999968
 31
0.0
  0
LINE
  5
CD9
330
C4C
100
AcDbEntity
  8
0
100
AcDbLine
 10
5.698675069993441
 20
3.361099759999959
 30
0.0
 11
6.713780229993432
 21
6.901188069999946
 31
0.0
  0
LINE
  5
CDA
330
C4C
100
AcDbEntity
  8
0
100
AcDbLine
 10
5.513172089993446
 20
6.901188069999946
 30
0.0
 11
5.955687239993437
 21
7.343703219999966
 31
0.0
  0
LINE
  5
CDB
330
C4C
100
AcDbEntity
  8
0
100
AcDbLine
 10
5.466474889993435
 20
6.901188069999946
 30
0.0
 11
6.253439509993427
 21
6.901188069999946
 31
0.0
  0
LINE
  5
CDC
330
C4C
100
AcDbEntity
  8
0
100
AcDbLine
 10
5.466474889993435
 20
7.343703219999966
 30
0.0
 11
6.38032347999345
 21
7.343703219999966
 31
0.0
  0
LINE
  5
CDD
330
C4C
100
AcDbEntity
  8
0
100
AcDbLine
 10
5.698675069993441
 20
3.361099759999959
 30
0.0
 11
7.535026069993449
 21
3.361099759999959
 31
0.0
  0
LINE
  5
CDE
330
C4C
100
AcDbEntity
  8
0
100
AcDbLine
 10
5.733769739993448
 20
2.697327039999962
 30
0.0
 11
6.176284889993439
 21
3.139842179999945
 31
0.0
  0
LINE
  5
CDF
330
C4C
100
AcDbEntity
  8
0
100
AcDbLine
 10
13.24832966999344
 20
3.361099759999959
 30
0.0
 11
13.89546296999341
 21
5.617914179999942
 31
0.0
  0
LINE
  5
CE0
330
C4C
100
AcDbEntity
  8
0
100
AcDbLine
 10
12.73530255999341
 20
4.782794649999956
 30
0.0
 11
13.57042208999343
 21
5.617914179999942
 31
0.0
  0
ARC
  5
CE1
330
C4C
100
AcDbEntity
  8
0
100
AcDbCircle
 10
14.44947564999344
 20
5.020515379999963
 30
0.0
 40
1.88067790195312
100
AcDbArc
 50
110.8721833999998
 51
132.5419489400003
  0
LINE
  5
CE2
330
C4C
100
AcDbEntity
  8
0
100
AcDbLine
 10
13.11081804999344
 20
6.633129709999948
 30
0.0
 11
13.65381032999343
 21
7.176121999999949
 31
0.0
  0
ARC
  5
CE3
330
C4C
100
AcDbEntity
  8
0
100
AcDbCircle
 10
14.44947564999344
 20
5.020515379999963
 30
0.0
 40
2.32318887539062
100
AcDbArc
 50
110.2296450599983
 51
118.571688920001
  0
LINE
  5
CE4
330
C4C
100
AcDbEntity
  8
0
100
AcDbLine
 10
13.10786753999343
 20
2.697327039999962
 30
0.0
 11
13.55038268999342
 21
3.139842179999945
 31
0.0
  0
LINE
  5
CE5
330
C4C
100
AcDbEntity
  8
0
100
AcDbLine
 10
12.51230723999342
 20
4.068192799999948
 30
0.0
 11
13.82849929999344
 21
5.384384879999956
 31
0.0
  0
LINE
  5
CE6
330
C4C
100
AcDbEntity
  8
0
100
AcDbLine
 10
12.30353124999342
 20
3.367810319999946
 30
0.0
 11
13.63086080999343
 21
4.695139879999956
 31
0.0
  0
LINE
  5
CE7
330
C4C
100
AcDbEntity
  8
0
100
AcDbLine
 10
12.60649225999342
 20
5.617914179999942
 30
0.0
 11
13.89546296999341
 21
5.617914179999942
 31
0.0
  0
ARC
  5
CE8
330
C4C
100
AcDbEntity
  8
0
100
AcDbCircle
 10
14.44947564999344
 20
5.020515379999963
 30
0.0
 40
2.323187831249998
100
AcDbArc
 50
270.0
 51
104.7707939700012
  0
ARC
  5
CE9
330
C4C
100
AcDbEntity
  8
0
100
AcDbCircle
 10
14.44947564999344
 20
5.020515379999963
 30
0.0
 40
1.880672681249994
100
AcDbArc
 50
270.0
 51
104.1274364999987
  0
LINE
  5
CEA
330
C4C
100
AcDbEntity
  8
0
100
AcDbLine
 10
10.79723938999345
 20
5.302764069999952
 30
0.0
 11
12.80206925999343
 21
7.307593949999969
 31
0.0
  0
ARC
  5
CEB
330
C4C
100
AcDbEntity
  8
0
100
AcDbCircle
 10
12.48181350999343
 20
5.905545689999954
 30
0.0
 40
1.438159619531249
100
AcDbArc
 50
53.44401220000081
 51
164.0001843899997
  0
ARC
  5
CEC
330
C4C
100
AcDbEntity
  8
0
100
AcDbCircle
 10
12.71346237999344
 20
6.39229896999997
 30
0.0
 40
0.4646406856201171
100
AcDbArc
 50
1.710121380000218
 51
163.99839835
  0
LINE
  5
CED
330
C4C
100
AcDbEntity
  8
0
100
AcDbLine
 10
10.96044921999342
 20
5.957580439999944
 30
0.0
 11
12.33951711999341
 21
7.336648339999968
 31
0.0
  0
LINE
  5
CEE
330
C4C
100
AcDbEntity
  8
0
100
AcDbLine
 10
12.82854424999342
 20
6.842462419999961
 30
0.0
 11
13.15989657999344
 21
7.173814759999956
 31
0.0
  0
LINE
  5
CEF
330
C4C
100
AcDbEntity
  8
0
100
AcDbLine
 10
12.47960828999342
 20
5.175399019999971
 30
0.0
 11
12.60649225999342
 21
5.617914179999942
 31
0.0
  0
LINE
  5
CF0
330
C4C
100
AcDbEntity
  8
0
100
AcDbLine
 10
12.47960828999342
 20
5.175399019999971
 30
0.0
 11
12.84788085999344
 21
5.175399019999971
 31
0.0
  0
LINE
  5
CF1
330
C4C
100
AcDbEntity
  8
0
100
AcDbLine
 10
12.56372426999343
 20
4.184434389999964
 30
0.0
 11
12.84788085999344
 21
5.175399019999971
 31
0.0
  0
LINE
  5
CF2
330
C4C
100
AcDbEntity
  8
0
100
AcDbLine
 10
11.14144145999344
 20
2.697327039999962
 30
0.0
 11
11.58395660999343
 21
3.139842179999945
 31
0.0
  0
LINE
  5
CF3
330
C4C
100
AcDbEntity
  8
0
100
AcDbLine
 10
11.63304798999343
 20
2.697327039999962
 30
0.0
 11
12.07556311999343
 21
3.139842179999945
 31
0.0
  0
LINE
  5
CF4
330
C4C
100
AcDbEntity
  8
0
100
AcDbLine
 10
12.12465449999345
 20
2.697327039999962
 30
0.0
 11
12.56716964999341
 21
3.139842179999945
 31
0.0
  0
LINE
  5
CF5
330
C4C
100
AcDbEntity
  8
0
100
AcDbLine
 10
10.72758128999342
 20
4.741499469999965
 30
0.0
 11
12.17047624999344
 21
6.184394429999954
 31
0.0
  0
LINE
  5
CF6
330
C4C
100
AcDbEntity
  8
0
100
AcDbLine
 10
10.80578853999341
 20
4.328100199999951
 30
0.0
 11
11.97283708999342
 21
5.495148749999955
 31
0.0
  0
ARC
  5
CF7
330
C4C
100
AcDbEntity
  8
0
100
AcDbCircle
 10
14.51593309999342
 20
4.72364531999996
 30
0.0
 40
3.763517174999998
100
AcDbArc
 50
155.2051773700003
 51
172.7948259600005
  0
LINE
  5
CF8
330
C4C
100
AcDbEntity
  8
0
100
AcDbLine
 10
10.96909706999344
 20
3.99980220999997
 30
0.0
 11
11.77519792999342
 21
4.805903059999948
 31
0.0
  0
LINE
  5
CF9
330
C4C
100
AcDbEntity
  8
0
100
AcDbLine
 10
11.19655761999343
 20
3.735656239999954
 30
0.0
 11
11.66521408999344
 21
4.204312709999967
 31
0.0
  0
LINE
  5
CFA
330
C4C
100
AcDbEntity
  8
0
100
AcDbLine
 10
11.48453767999345
 20
3.532029789999953
 30
0.0
 11
11.87093110999345
 21
3.918423199999963
 31
0.0
  0
LINE
  5
CFB
330
C4C
100
AcDbEntity
  8
0
100
AcDbLine
 10
11.84187433999344
 20
3.397759919999955
 30
0.0
 11
12.36139436999343
 21
3.917279929999963
 31
0.0
  0
LINE
  5
CFC
330
C4C
100
AcDbEntity
  8
0
100
AcDbLine
 10
11.67044107999342
 20
4.440574619999964
 30
0.0
 11
12.26682078999343
 21
6.52038580999995
 31
0.0
  0
ARC
  5
CFD
330
C4C
100
AcDbEntity
  8
0
100
AcDbCircle
 10
12.11708265999343
 20
4.312504509999953
 30
0.0
 40
0.464640359326172
100
AcDbArc
 50
164.0002730599996
 51
344.0002730599996
  0
LINE
  5
CFE
330
C4C
100
AcDbEntity
  8
0
100
AcDbLine
 10
12.61626102999344
 20
2.697327039999962
 30
0.0
 11
13.05877615999344
 21
3.139842179999945
 31
0.0
  0
LINE
  5
CFF
330
C4C
100
AcDbEntity
  8
0
100
AcDbLine
 10
12.63630040999342
 20
5.175399019999971
 30
0.0
 11
13.07881555999344
 21
5.617914179999942
 31
0.0
  0
LINE
  5
D00
330
C4C
100
AcDbEntity
  8
0
100
AcDbLine
 10
13.01837104999342
 20
3.591043589999955
 30
0.0
 11
13.43322231999343
 21
4.005894859999969
 31
0.0
  0
LINE
  5
D01
330
C4C
100
AcDbEntity
  8
0
100
AcDbLine
 10
12.98874796999345
 20
3.620664759999968
 30
0.0
 11
13.24832966999344
 21
3.361099759999959
 31
0.0
  0
LINE
  5
D02
330
C4C
100
AcDbEntity
  8
0
100
AcDbLine
 10
10.64983494999345
 20
2.697327039999962
 30
0.0
 11
11.09235007999345
 21
3.139842179999945
 31
0.0
  0
LINE
  5
D03
330
C4C
100
AcDbEntity
  8
0
100
AcDbLine
 10
9.877476199993424
 20
6.856949909999954
 30
0.0
 11
8.875051079993426
 21
3.361099759999959
 31
0.0
  0
LINE
  5
D04
330
C4C
100
AcDbEntity
  8
0
100
AcDbLine
 10
9.877476199993424
 20
6.856949909999954
 30
0.0
 11
8.875051079993426
 21
3.361099759999959
 31
0.0
1001
HATCH_DISTANCE
1040
1.0
1001
HATCH_DISPLAY
1070
     0
1001
HATCH_TYPE
1070
     7
  0
LINE
  5
D05
330
C4C
100
AcDbEntity
  8
0
100
AcDbLine
 10
8.875051079993426
 20
3.361099759999959
 30
0.0
 11
9.877476199993424
 21
6.856949909999954
 31
0.0
  0
LINE
  5
D06
330
C4C
100
AcDbEntity
  8
0
100
AcDbLine
 10
9.855925149993453
 20
7.343703219999966
 30
0.0
 11
9.716344429993426
 21
6.856949909999954
 31
0.0
  0
LINE
  5
D07
330
C4C
100
AcDbEntity
  8
0
100
AcDbLine
 10
9.855925149993453
 20
7.343703219999966
 30
0.0
 11
9.716344429993426
 21
6.856949909999954
 31
0.0
1001
HATCH_DISTANCE
1040
1.0
1001
HATCH_DISPLAY
1070
     0
1001
HATCH_TYPE
1070
     7
  0
LINE
  5
D08
330
C4C
100
AcDbEntity
  8
0
100
AcDbLine
 10
9.716344429993426
 20
6.856949909999954
 30
0.0
 11
9.855925149993453
 21
7.343703219999966
 31
0.0
  0
LINE
  5
D09
330
C4C
100
AcDbEntity
  8
0
100
AcDbLine
 10
9.871077369993429
 20
6.834634659999963
 30
0.0
 11
10.38014591999345
 21
7.343703219999966
 31
0.0
  0
LINE
  5
D0A
330
C4C
100
AcDbEntity
  8
0
100
AcDbLine
 10
9.716344429993426
 20
6.856949909999954
 30
0.0
 11
9.877476199993424
 21
6.856949909999954
 31
0.0
  0
LINE
  5
D0B
330
C4C
100
AcDbEntity
  8
0
100
AcDbLine
 10
9.716344429993426
 20
6.856949909999954
 30
0.0
 11
9.877476199993424
 21
6.856949909999954
 31
0.0
1001
HATCH_DISTANCE
1040
1.0
1001
HATCH_DISPLAY
1070
     0
1001
HATCH_TYPE
1070
     7
  0
LINE
  5
D0C
330
C4C
100
AcDbEntity
  8
0
100
AcDbLine
 10
9.716344429993426
 20
6.856949909999954
 30
0.0
 11
9.877476199993424
 21
6.856949909999954
 31
0.0
  0
LINE
  5
D0D
330
C4C
100
AcDbEntity
  8
0
100
AcDbLine
 10
9.84281257999342
 20
7.297976399999967
 30
0.0
 11
9.888539399993447
 21
7.343703219999966
 31
0.0
  0
LINE
  5
D0E
330
C4C
100
AcDbEntity
  8
0
100
AcDbLine
 10
9.175015379993425
 20
2.697327039999962
 30
0.0
 11
9.617530519993437
 21
3.139842179999945
 31
0.0
  0
LINE
  5
D0F
330
C4C
100
AcDbEntity
  8
0
100
AcDbLine
 10
9.666621909993438
 20
2.697327039999962
 30
0.0
 11
10.10913703999344
 21
3.139842179999945
 31
0.0
  0
LINE
  5
D10
330
C4C
100
AcDbEntity
  8
0
100
AcDbLine
 10
8.882880979993416
 20
3.388405669999954
 30
0.0
 11
10.27052513999345
 21
4.776049829999962
 31
0.0
  0
LINE
  5
D11
330
C4C
100
AcDbEntity
  8
0
100
AcDbLine
 10
9.347181579993417
 20
3.361099759999959
 30
0.0
 11
10.07288854999345
 21
4.086806719999955
 31
0.0
  0
LINE
  5
D12
330
C4C
100
AcDbEntity
  8
0
100
AcDbLine
 10
8.875051079993426
 20
3.361099759999959
 30
0.0
 11
9.864796159993431
 21
3.361099759999959
 31
0.0
  0
LINE
  5
D13
330
C4C
100
AcDbEntity
  8
0
100
AcDbLine
 10
8.875051079993426
 20
3.361099759999959
 30
0.0
 11
9.864796159993431
 21
3.361099759999959
 31
0.0
1001
HATCH_DISTANCE
1040
1.0
1001
HATCH_DISPLAY
1070
     0
1001
HATCH_TYPE
1070
     7
  0
LINE
  5
D14
330
C4C
100
AcDbEntity
  8
0
100
AcDbLine
 10
8.875051079993426
 20
3.361099759999959
 30
0.0
 11
9.864796159993431
 21
3.361099759999959
 31
0.0
  0
LINE
  5
D15
330
C4C
100
AcDbEntity
  8
0
100
AcDbLine
 10
9.838788099993422
 20
3.361099759999959
 30
0.0
 11
9.875251969993428
 21
3.397563629999964
 31
0.0
  0
LINE
  5
D16
330
C4C
100
AcDbEntity
  8
0
100
AcDbLine
 10
9.864796159993431
 20
3.361099759999959
 30
0.0
 11
11.00678528999341
 21
7.343703219999966
 31
0.0
  0
LINE
  5
D17
330
C4C
100
AcDbEntity
  8
0
100
AcDbLine
 10
9.864796159993431
 20
3.361099759999959
 30
0.0
 11
11.00678528999341
 21
7.343703219999966
 31
0.0
1001
HATCH_DISTANCE
1040
1.0
1001
HATCH_DISPLAY
1070
     0
1001
HATCH_TYPE
1070
     7
  0
LINE
  5
D18
330
C4C
100
AcDbEntity
  8
0
100
AcDbLine
 10
9.864796159993431
 20
3.361099759999959
 30
0.0
 11
11.00678528999341
 21
7.343703219999966
 31
0.0
  0
LINE
  5
D19
330
C4C
100
AcDbEntity
  8
0
100
AcDbLine
 10
9.673438089993425
 20
6.145388869999962
 30
0.0
 11
10.87175243999343
 21
7.343703219999966
 31
0.0
  0
LINE
  5
D1A
330
C4C
100
AcDbEntity
  8
0
100
AcDbLine
 10
9.475798819993428
 20
5.456143069999953
 30
0.0
 11
10.86343486999342
 21
6.843779129999958
 31
0.0
  0
LINE
  5
D1B
330
C4C
100
AcDbEntity
  8
0
100
AcDbLine
 10
11.00678528999341
 20
7.343703219999966
 30
0.0
 11
9.855925149993453
 21
7.343703219999966
 31
0.0
  0
LINE
  5
D1C
330
C4C
100
AcDbEntity
  8
0
100
AcDbLine
 10
11.00678528999341
 20
7.343703219999966
 30
0.0
 11
9.855925149993453
 21
7.343703219999966
 31
0.0
1001
HATCH_DISTANCE
1040
1.0
1001
HATCH_DISPLAY
1070
     0
1001
HATCH_TYPE
1070
     7
  0
LINE
  5
D1D
330
C4C
100
AcDbEntity
  8
0
100
AcDbLine
 10
9.855925149993453
 20
7.343703219999966
 30
0.0
 11
11.00678528999341
 21
7.343703219999966
 31
0.0
  0
LINE
  5
D1E
330
C4C
100
AcDbEntity
  8
0
100
AcDbLine
 10
10.15822841999343
 20
2.697327039999962
 30
0.0
 11
10.60074355999344
 21
3.139842179999945
 31
0.0
  0
LINE
  5
D1F
330
C4C
100
AcDbEntity
  8
0
100
AcDbLine
 10
9.080520259993448
 20
4.077651479999971
 30
0.0
 11
10.46816171999344
 21
5.465292929999961
 31
0.0
  0
ARC
  5
D20
330
C4C
100
AcDbEntity
  8
0
100
AcDbCircle
 10
12.16459523999342
 20
4.799257809999957
 30
0.0
 40
1.438174237499999
100
AcDbArc
 50
163.9997506999995
 51
304.9638732900006
  0
LINE
  5
D21
330
C4C
100
AcDbEntity
  8
0
100
AcDbLine
 10
9.278159539993424
 20
4.766897269999944
 30
0.0
 11
10.66579829999344
 21
6.15453602999996
 31
0.0
  0
LINE
  5
D22
330
C4C
100
AcDbEntity
  8
0
100
AcDbLine
 10
15.19236018999342
 20
6.748245769999968
 30
0.0
 11
15.52425421999342
 21
7.080139799999969
 31
0.0
  0
LINE
  5
D23
330
C4C
100
AcDbEntity
  8
0
100
AcDbLine
 10
15.50962436999341
 20
6.57390341999995
 30
0.0
 11
15.82698023999344
 21
6.89125928999995
 31
0.0
  0
LINE
  5
D24
330
C4C
100
AcDbEntity
  8
0
100
AcDbLine
 10
15.77849538999342
 20
6.351167929999959
 30
0.0
 11
16.09140091999345
 21
6.664073439999967
 31
0.0
  0
LINE
  5
D25
330
C4C
100
AcDbEntity
  8
0
100
AcDbLine
 10
16.00153797999343
 20
6.082603989999952
 30
0.0
 11
16.31883384999344
 21
6.399899879999949
 31
0.0
  0
LINE
  5
D26
330
C4C
100
AcDbEntity
  8
0
100
AcDbLine
 10
15.19827846999342
 20
2.821311879999953
 30
0.0
 11
16.64867913999344
 21
4.271712549999946
 31
0.0
  0
LINE
  5
D27
330
C4C
100
AcDbEntity
  8
0
100
AcDbLine
 10
16.32817674999344
 20
4.934423209999962
 30
0.0
 11
16.74849586999343
 21
5.35474232999995
 31
0.0
  0
LINE
  5
D28
330
C4C
100
AcDbEntity
  8
0
100
AcDbLine
 10
16.18756755999342
 20
4.302207489999958
 30
0.0
 11
16.76860443999342
 21
4.883244379999965
 31
0.0
  0
LINE
  5
D29
330
C4C
100
AcDbEntity
  8
0
100
AcDbLine
 10
16.17622284999342
 20
5.765682339999969
 30
0.0
 11
16.50797934999343
 21
6.09743884999996
 31
0.0
  0
LINE
  5
D2A
330
C4C
100
AcDbEntity
  8
0
100
AcDbLine
 10
16.29327046999341
 20
5.391123459999946
 30
0.0
 11
16.65441196999345
 21
5.752264959999948
 31
0.0
  0
LINE
  5
D2B
330
C4C
100
AcDbEntity
  8
0
100
AcDbLine
 10
13.94804700999342
 20
6.978752139999969
 30
0.0
 11
14.30873080999342
 21
7.339435939999944
 31
0.0
  0
LINE
  5
D2C
330
C4C
100
AcDbEntity
  8
0
100
AcDbLine
 10
14.35995776999343
 20
6.899056379999947
 30
0.0
 11
14.78084990999343
 21
7.319948529999962
 31
0.0
  0
LINE
  5
D2D
330
C4C
100
AcDbEntity
  8
0
100
AcDbLine
 10
13.85717225999343
 20
7.266937999999967
 30
0.0
 11
13.99043801999343
 21
6.844319989999959
 31
0.0
  0
LINE
  5
D2E
330
C4C
100
AcDbEntity
  8
0
100
AcDbLine
 10
13.99043801999343
 20
6.844319989999959
 30
0.0
 11
13.85717225999343
 21
7.266937999999967
 31
0.0
  0
LINE
  5
D2F
330
C4C
100
AcDbEntity
  8
0
100
AcDbLine
 10
13.85717225999343
 20
7.266937999999967
 30
0.0
 11
13.99043801999343
 21
6.844319989999959
 31
0.0
1001
HATCH_DISTANCE
1040
1.0
1001
HATCH_DISPLAY
1070
     0
1001
HATCH_TYPE
1070
     7
  0
LINE
  5
D30
330
C4C
100
AcDbEntity
  8
0
100
AcDbLine
 10
13.99043801999343
 20
6.844319989999959
 30
0.0
 11
13.85717225999343
 21
7.266937999999967
 31
0.0
1001
HATCH_DISTANCE
1040
1.0
1001
HATCH_DISPLAY
1070
     0
1001
HATCH_TYPE
1070
     7
  0
LINE
  5
D31
330
C4C
100
AcDbEntity
  8
0
100
AcDbLine
 10
13.85717225999343
 20
7.266937999999967
 30
0.0
 11
13.99043801999343
 21
6.844319989999959
 31
0.0
  0
LINE
  5
D32
330
C4C
100
AcDbEntity
  8
0
100
AcDbLine
 10
13.99043801999343
 20
6.844319989999959
 30
0.0
 11
13.85717225999343
 21
7.266937999999967
 31
0.0
  0
LINE
  5
D33
330
C4C
100
AcDbEntity
  8
0
100
AcDbLine
 10
13.85717225999343
 20
7.266937999999967
 30
0.0
 11
13.99043801999343
 21
6.844319989999959
 31
0.0
1001
HATCH_DISTANCE
1040
1.0
1001
HATCH_DISPLAY
1070
     0
1001
HATCH_TYPE
1070
     7
  0
LINE
  5
D34
330
C4C
100
AcDbEntity
  8
0
100
AcDbLine
 10
13.99043801999343
 20
6.844319989999959
 30
0.0
 11
13.85717225999343
 21
7.266937999999967
 31
0.0
1001
HATCH_DISTANCE
1040
1.0
1001
HATCH_DISPLAY
1070
     0
1001
HATCH_TYPE
1070
     7
  0
LINE
  5
D35
330
C4C
100
AcDbEntity
  8
0
100
AcDbLine
 10
13.99043801999343
 20
6.844319989999959
 30
0.0
 11
13.85717225999343
 21
7.266937999999967
 31
0.0
  0
LINE
  5
D36
330
C4C
100
AcDbEntity
  8
0
100
AcDbLine
 10
13.77942135999345
 20
6.777778999999966
 30
0.0
 11
13.64615560999343
 21
7.200396999999966
 31
0.0
  0
LINE
  5
D37
330
C4C
100
AcDbEntity
  8
0
100
AcDbLine
 10
13.72559375999341
 20
6.756298889999968
 30
0.0
 11
13.77166647999343
 21
6.802371609999951
 31
0.0
  0
LINE
  5
D38
330
C4C
100
AcDbEntity
  8
0
100
AcDbLine
 10
13.99043801999343
 20
6.844319989999959
 30
0.0
 11
13.99043801999343
 21
6.844319989999959
 31
0.0
  0
LINE
  5
D39
330
C4C
100
AcDbEntity
  8
0
100
AcDbLine
 10
13.99043801999343
 20
6.844319989999959
 30
0.0
 11
13.99043801999343
 21
6.844319989999959
 31
0.0
1001
HATCH_DISTANCE
1040
1.0
1001
HATCH_DISPLAY
1070
     0
1001
HATCH_TYPE
1070
     7
  0
LINE
  5
D3A
330
C4C
100
AcDbEntity
  8
0
100
AcDbLine
 10
13.99043801999343
 20
6.844319989999959
 30
0.0
 11
13.99043801999343
 21
6.844319989999959
 31
0.0
  0
LINE
  5
D3B
330
C4C
100
AcDbEntity
  8
0
100
AcDbLine
 10
13.99043801999343
 20
6.844319989999959
 30
0.0
 11
13.99043801999343
 21
6.844319989999959
 31
0.0
1001
HATCH_DISTANCE
1040
1.0
1001
HATCH_DISPLAY
1070
     0
1001
HATCH_TYPE
1070
     7
  0
LINE
  5
D3C
330
C4C
100
AcDbEntity
  8
0
100
AcDbLine
 10
13.85717225999343
 20
7.266937999999967
 30
0.0
 11
13.85717225999343
 21
7.266937999999967
 31
0.0
  0
LINE
  5
D3D
330
C4C
100
AcDbEntity
  8
0
100
AcDbLine
 10
13.85717225999343
 20
7.266937999999967
 30
0.0
 11
13.85717225999343
 21
7.266937999999967
 31
0.0
1001
HATCH_DISTANCE
1040
1.0
1001
HATCH_DISPLAY
1070
     0
1001
HATCH_TYPE
1070
     7
  0
LINE
  5
D3E
330
C4C
100
AcDbEntity
  8
0
100
AcDbLine
 10
13.85717225999343
 20
7.266937999999967
 30
0.0
 11
13.85717225999343
 21
7.266937999999967
 31
0.0
  0
LINE
  5
D3F
330
C4C
100
AcDbEntity
  8
0
100
AcDbLine
 10
13.85717225999343
 20
7.266937999999967
 30
0.0
 11
13.85717225999343
 21
7.266937999999967
 31
0.0
1001
HATCH_DISTANCE
1040
1.0
1001
HATCH_DISPLAY
1070
     0
1001
HATCH_TYPE
1070
     7
  0
LINE
  5
D40
330
C4C
100
AcDbEntity
  8
0
100
AcDbLine
 10
13.59947405999344
 20
2.697327039999962
 30
0.0
 11
14.04198919999342
 21
3.139842179999945
 31
0.0
  0
LINE
  5
D41
330
C4C
100
AcDbEntity
  8
0
100
AcDbLine
 10
14.09108058999342
 20
2.697327039999962
 30
0.0
 11
14.53556780999344
 21
3.141814259999947
 31
0.0
  0
LINE
  5
D42
330
C4C
100
AcDbEntity
  8
0
100
AcDbLine
 10
14.81736291999343
 20
6.864855009999971
 30
0.0
 11
15.17877218999345
 21
7.226264289999946
 31
0.0
  0
LINE
  5
D43
330
C4C
100
AcDbEntity
  8
0
100
AcDbLine
 10
14.58674664999344
 20
2.701386579999947
 30
0.0
 11
15.16778352999344
 21
3.282423469999955
 31
0.0
  0
LINE
  5
D44
330
C4C
100
AcDbEntity
  8
240
100
AcDbLine
 10
99.99999999999344
 20
-9.000000000000042
 30
0.0
 11
99.99999999999344
 21
-0.0000000000000426
 31
0.0
  0
LINE
  5
D45
330
C4C
100
AcDbEntity
  8
240
100
AcDbLine
 10
81.25980761999343
 20
-10.00000000000004
 30
0.0
 11
98.99999999999344
 21
-10.00000000000004
 31
0.0
  0
LINE
  5
D46
330
C4C
100
AcDbEntity
  8
240
100
AcDbLine
 10
77.99999999999343
 20
-8.200000000000031
 30
0.0
 11
77.99999999999184
 21
-9.98687150429636
 31
0.0
  0
LINE
  5
D47
330
C4C
100
AcDbEntity
  8
240
100
AcDbLine
 10
78.99999999999343
 20
-8.200000000000031
 30
0.0
 11
78.99999999999343
 21
-10.15000000000005
 31
0.0
  0
LINE
  5
D48
330
C4C
100
AcDbEntity
  8
240
100
AcDbLine
 10
81.25980761999343
 20
-10.00000000000004
 30
0.0
 11
80.99999999999344
 21
-10.15000000000005
 31
0.0
  0
LINE
  5
D49
330
C4C
100
AcDbEntity
  8
240
100
AcDbLine
 10
78.99999999999343
 20
-10.15000000000005
 30
0.0
 11
80.99999999999344
 21
-10.15000000000005
 31
0.0
  0
LINE
  5
D4A
330
C4C
100
AcDbEntity
  8
240
100
AcDbLine
 10
78.99999999999343
 20
-8.200000000000031
 30
0.0
 11
77.99999999999343
 21
-8.200000000000031
 31
0.0
  0
ARC
  5
D4B
330
C4C
100
AcDbEntity
  8
240
100
AcDbCircle
 10
98.99999999999344
 20
-9.000000000000042
 30
0.0
 40
1.0
100
AcDbArc
 50
270.0
 51
0.0
1001
GENIUS_GENOBJ-N-FIL_13
1002
{
1000
OWNER
1000
GEN
1002
}
1001
GENIUS_GENODEF_13
1002
{
1000
HIER
1070
     0
1002
}
1002
{
1000
MANEDIT
1070
     0
1002
}
1002
{
1000
NOSEL
1070
     0
1002
}
1002
{
1000
BEHIND
1070
     0
1002
}
1002
{
1000
OTHER
1070
     0
1002
}
1002
{
1000
REACTOR
1002
}
  0
LINE
  5
D4C
330
C4C
100
AcDbEntity
  8
241
  6
HIDDEN2
100
AcDbLine
 10
84.99999999999344
 20
2.999999999999957
 30
0.0
 11
99.99999999999344
 21
2.999999999999957
 31
0.0
  0
LINE
  5
D4D
330
C4C
100
AcDbEntity
  8
240
100
AcDbLine
 10
81.25980761999343
 20
9.999999999999985
 30
0.0
 11
98.99999999999344
 21
9.999999999999985
 31
0.0
  0
LINE
  5
D4E
330
C4C
100
AcDbEntity
  8
240
100
AcDbLine
 10
77.99999999999343
 20
8.199999999999974
 30
0.0
 11
77.99999999999184
 21
10.01312849571381
 31
0.0
  0
LINE
  5
D4F
330
C4C
100
AcDbEntity
  8
240
100
AcDbLine
 10
78.99999999999343
 20
8.199999999999974
 30
0.0
 11
78.99999999999343
 21
10.14999999999996
 31
0.0
  0
LINE
  5
D50
330
C4C
100
AcDbEntity
  8
241
100
AcDbLine
 10
82.19999999999343
 20
9.999999999999985
 30
0.0
 11
82.19999999999343
 21
-10.00000000000004
 31
0.0
  0
LINE
  5
D51
330
C4C
100
AcDbEntity
  8
241
100
AcDbLine
 10
80.99999999999344
 20
10.14999999999996
 30
0.0
 11
80.99999999999344
 21
-10.15000000000003
 31
0.0
  0
LINE
  5
D52
330
C4C
100
AcDbEntity
  8
241
  6
HIDDEN2
100
AcDbLine
 10
79.99999999999343
 20
3.499999999999957
 30
0.0
 11
84.99999999999344
 21
3.499999999999957
 31
0.0
  0
LINE
  5
D53
330
C4C
100
AcDbEntity
  8
241
100
AcDbLine
 10
78.99999999999343
 20
8.199999999999974
 30
0.0
 11
78.99999999999343
 21
-8.200000000000045
 31
0.0
  0
LINE
  5
D54
330
C4C
100
AcDbEntity
  8
241
100
AcDbLine
 10
77.99999999999343
 20
8.199999999999974
 30
0.0
 11
77.99999999999343
 21
-8.200000000000045
 31
0.0
  0
LINE
  5
D55
330
C4C
100
AcDbEntity
  8
241
  6
HIDDEN2
100
AcDbLine
 10
79.99999999999343
 20
3.535533909999955
 30
0.0
 11
79.99999999999343
 21
-0.0000000000000426
 31
0.0
  0
LINE
  5
D56
330
C4C
100
AcDbEntity
  8
241
  6
HIDDEN2
100
AcDbLine
 10
74.99999999999343
 20
3.535533909999955
 30
0.0
 11
74.99999999999343
 21
-0.0000000000000426
 31
0.0
  0
LINE
  5
D57
330
C4C
100
AcDbEntity
  8
242
  6
HIDDEN2
100
AcDbLine
 10
74.99999999999343
 20
-0.0000000000000426
 30
0.0
 11
79.99999999999343
 21
3.535533909999955
 31
0.0
  0
LINE
  5
D58
330
C4C
100
AcDbEntity
  8
242
  6
HIDDEN2
100
AcDbLine
 10
79.99999999999343
 20
-0.0000000000000426
 30
0.0
 11
74.99999999999343
 21
3.535533909999955
 31
0.0
  0
LINE
  5
D59
330
C4C
100
AcDbEntity
  8
241
  6
HIDDEN2
100
AcDbLine
 10
74.99999999999343
 20
3.535533909999955
 30
0.0
 11
79.99999999999343
 21
3.535533909999955
 31
0.0
  0
LINE
  5
D5A
330
C4C
100
AcDbEntity
  8
240
100
AcDbLine
 10
78.99999999999343
 20
8.199999999999974
 30
0.0
 11
77.99999999999343
 21
8.199999999999974
 31
0.0
  0
LINE
  5
D5B
330
C4C
100
AcDbEntity
  8
241
  6
HIDDEN2
100
AcDbLine
 10
84.99999999999344
 20
3.499999999999957
 30
0.0
 11
84.99999999999344
 21
-0.0000000000000426
 31
0.0
  0
LINE
  5
D5C
330
C4C
100
AcDbEntity
  8
240
100
AcDbLine
 10
81.25980761999343
 20
9.999999999999985
 30
0.0
 11
80.99999999999344
 21
10.14999999999996
 31
0.0
  0
LINE
  5
D5D
330
C4C
100
AcDbEntity
  8
240
100
AcDbLine
 10
78.99999999999343
 20
10.14999999999996
 30
0.0
 11
80.99999999999344
 21
10.14999999999996
 31
0.0
  0
LINE
  5
D5E
330
C4C
100
AcDbEntity
  8
240
100
AcDbLine
 10
99.99999999999344
 20
8.999999999999985
 30
0.0
 11
99.99999999999344
 21
-0.0000000000000426
 31
0.0
  0
ARC
  5
D5F
330
C4C
100
AcDbEntity
  8
240
100
AcDbCircle
 10
98.99999999999344
 20
8.999999999999985
 30
0.0
 40
1.0
100
AcDbArc
 50
0.0
 51
90.0
1001
GENIUS_GENOBJ-N-FIL_13
1002
{
1000
OWNER
1000
GEN
1002
}
1001
GENIUS_GENODEF_13
1002
{
1000
HIER
1070
     0
1002
}
1002
{
1000
MANEDIT
1070
     0
1002
}
1002
{
1000
NOSEL
1070
     0
1002
}
1002
{
1000
BEHIND
1070
     0
1002
}
1002
{
1000
OTHER
1070
     0
1002
}
1002
{
1000
REACTOR
1002
}
  0
TEXT
  5
D60
330
C4C
100
AcDbEntity
  8
241
100
AcDbText
 10
-51.00000000000682
 20
41.99999999999976
 30
0.0
 40
5.0
  1
MGT12-060049-100
  7
YOKO
 11
-51.00000000000682
 21
41.99999999999976
 31
0.0
100
AcDbText
 73
     1
  0
ENDBLK
  5
C4E
330
C4C
100
AcDbEntity
  8
0
100
AcDbBlockEnd
  0
ENDSEC
  0
SECTION
  2
ENTITIES
  0
INSERT
  5
6E6
330
1A
100
AcDbEntity
  8
245
100
AcDbBlockReference
  2
矢印なし
 10
175.6238269664377
 20
90.55123571690598
 30
0.0
  0
DIMENSION
  5
989
330
1A
100
AcDbEntity
  8
250
  6
Continuous
100
AcDbDimension
  2
*D17
 10
99.99999999999344
 20
27.99999999999999
 30
0.0
 11
49.99999999999343
 21
30.39999999999999
 31
0.0
 70
    32
 71
     5
 42
100.0
  3
BIGT
100
AcDbAlignedDimension
 13
-0.0000000000065654
 23
13.14125602999995
 33
0.0
 14
99.99999999999344
 24
8.999999999999985
 34
0.0
100
AcDbRotatedDimension
  0
LEADER
  5
98A
330
1A
100
AcDbEntity
  8
250
  6
Continuous
100
AcDbLeader
  3
BIGT
 76
     2
 10
79.47263229999342
 20
3.548662399999969
 30
0.0
 10
85.87763365999345
 20
20.99999999999999
 30
0.0
1001
ACAD
1000
DSTYLE
1002
{
1070
     6
1000
OPEN
1070
   343
1005
594
1002
}
  0
DIMENSION
  5
98B
330
1A
100
AcDbEntity
  8
250
  6
Continuous
100
AcDbDimension
  2
*D18
 10
116.9999999999934
 20
9.999999999999978
 30
0.0
 11
116.9999999999934
 21
-0.0000000000000426
 31
0.0
 70
   160
  1
{\H2.8;%%C}<>
 71
     5
 42
20.00000000000003
  3
BIGT
100
AcDbAlignedDimension
 13
99.13165249999341
 23
-10.00000000000004
 33
0.0
 14
99.13165249999341
 24
9.999999999999985
 34
0.0
 50
90.0
100
AcDbRotatedDimension
  0
LINE
  5
98C
330
1A
100
AcDbEntity
  8
250
  6
Continuous
100
AcDbLine
 10
100.4999999999934
 20
2.999999999999957
 30
0.0
 11
110.9999999999934
 21
2.999999999999957
 31
0.0
  0
MTEXT
  5
98D
102
{ACAD_XDICTIONARY
360
D89
102
}
330
1A
100
AcDbEntity
  8
250
  6
Continuous
 62
    40
100
AcDbMText
 10
107.5999999999934
 20
-0.0000000000000426
 30
0.0
 40
2.799999999999999
 41
0.0
 71
     5
 72
     1
  1
\A1;{\H2.8;\U+2205}6
 11
0.0
 21
1.0
 31
0.0
 73
     1
 44
1.0
1001
ACAD
1000
MTEXTBEGIN
1070
    73
1070
     1
1070
    44
1040
1.0
1070
    74
1070
     0
1000
MTEXTEND
  0
LINE
  5
98E
330
1A
100
AcDbEntity
  8
250
  6
Continuous
100
AcDbLine
 10
109.9999999999934
 20
-3.000000000000042
 30
0.0
 11
109.9999999999934
 21
2.999999999999957
 31
0.0
  0
INSERT
  5
98F
330
1A
100
AcDbEntity
  8
250
  6
Continuous
100
AcDbBlockReference
  2
_Open
 10
109.9999999999934
 20
2.999999999999957
 30
0.0
 41
2.229999999999989
 42
2.229999999999989
 43
2.229999999999999
 50
90.0
  0
MTEXT
  5
990
330
1A
100
AcDbEntity
  8
251
  6
Continuous
100
AcDbMText
 10
86.57936791999341
 20
21.99999999999999
 30
0.0
 40
2.799999999999999
 41
0.0
 71
     7
 72
     1
  1
□4.9
  7
YOKO
 73
     1
 44
1.0
1001
ITEMNAME
1000
LNSP3
1001
ACAD
1000
MTEXTBEGIN
1070
    73
1070
     1
1070
    44
1040
1.0
1070
    74
1070
     0
1000
MTEXTEND
  0
LINE
  5
991
330
1A
100
AcDbEntity
  8
250
  6
Continuous
100
AcDbLine
 10
85.87763365999345
 20
20.99999999999999
 30
0.0
 11
96.73096698999344
 21
20.99999999999999
 31
0.0
1001
ITEMNAME
1000
LNSP2
  0
INSERT
  5
D61
330
1A
100
AcDbEntity
  8
245
100
AcDbBlockReference
  2
1
 10
0.0
 20
0.0
 30
0.0
  0
VIEWPORT
  5
22
102
{ACAD_XDICTIONARY
360
D6D
102
}
330
17
100
AcDbEntity
 67
     1
  8
0
100
AcDbViewport
 10
261.5176991150442
 20
148.5
 30
0.0
 40
523.0353982300885
 41
297.0
 68
     1
 69
     1
 12
261.5176991150442
 22
148.5
 13
0.0
 23
0.0
 14
1.0
 24
1.0
 15
10.0
 25
10.0
 16
0.0
 26
0.0
 36
1.0
 17
0.0
 27
0.0
 37
0.0
 42
50.0
 43
0.0
 44
0.0
 45
297.0
 50
0.0
 51
0.0
 72
   100
 90
    32800
  1

281
     0
 71
     1
 74
     0
110
0.0
120
0.0
130
0.0
111
1.0
121
0.0
131
0.0
112
0.0
122
1.0
132
0.0
 79
     0
146
0.0
  0
ENDSEC
  0
SECTION
  2
OBJECTS
  0
DICTIONARY
  5
C
330
0
100
AcDbDictionary
281
     1
  3
ACAD_COLOR
350
7A6
  3
ACAD_GROUP
350
D
  3
ACAD_LAYOUT
350
565
  3
ACAD_MATERIAL
350
77C
  3
ACAD_MLEADERSTYLE
350
7CB
  3
ACAD_MLINESTYLE
350
E
  3
ACAD_PLOTSETTINGS
350
566
  3
ACAD_PLOTSTYLENAME
350
563
  3
ACAD_SCALELIST
350
7A9
  3
ACAD_TABLESTYLE
350
7A7
  3
ACAD_VISUALSTYLE
350
795
  3
ACDB_RECOMPOSE_DATA
350
D6B
  3
AcDbVariableDictionary
350
D62
  3
DWGPROPS
350
D6C
  3
GRADE_DWG
350
540
  0
DICTIONARY
  5
BAD
330
F
100
AcDbDictionary
280
     1
281
     1
  3
ADSK_XREC_LAYER_RECONCILED
360
BAE
  0
DICTIONARY
  5
BBD
330
1AA
100
AcDbDictionary
280
     1
281
     1
  3
ADSK_XREC_LAYER_RECONCILED
360
BBE
  0
DICTIONARY
  5
BBF
330
1AB
100
AcDbDictionary
280
     1
281
     1
  3
ADSK_XREC_LAYER_RECONCILED
360
BC0
  0
DICTIONARY
  5
BC1
330
1AC
100
AcDbDictionary
280
     1
281
     1
  3
ADSK_XREC_LAYER_RECONCILED
360
BC2
  0
DICTIONARY
  5
BC7
330
1AF
100
AcDbDictionary
280
     1
281
     1
  3
ADSK_XREC_LAYER_RECONCILED
360
BC8
  0
DICTIONARY
  5
BCF
330
21E
100
AcDbDictionary
280
     1
281
     1
  3
ADSK_XREC_LAYER_RECONCILED
360
BD0
  0
DICTIONARY
  5
BD1
330
21F
100
AcDbDictionary
280
     1
281
     1
  3
ADSK_XREC_LAYER_RECONCILED
360
BD2
  0
DICTIONARY
  5
801
330
800
100
AcDbDictionary
280
     1
281
     1
  3
ADSK_XREC_LAYER_RECONCILED
360
BEB
  0
DICTIONARY
  5
D89
330
98D
100
AcDbDictionary
280
     1
281
     1
  3
ACAD_MTEXT_RT
360
D8A
  0
DICTIONARY
  5
D6D
330
22
100
AcDbDictionary
280
     1
281
     1
  3
ACAD_XREC_ROUNDTRIP
360
D6E
  0
DICTIONARY
  5
7A6
102
{ACAD_REACTORS
330
C
102
}
330
C
100
AcDbDictionary
281
     1
  0
DICTIONARY
  5
D
102
{ACAD_REACTORS
330
C
102
}
330
C
100
AcDbDictionary
281
     1
  3
*A1
350
6C7
  3
*A2
350
6C8
  3
*A3
350
6D4
  3
*A4
350
6D5
  3
DREC-1
350
5FC
  3
DREC-2
350
654
  3
DREC-3
350
673
  0
DICTIONARY
  5
565
102
{ACAD_REACTORS
330
C
102
}
330
C
100
AcDbDictionary
281
     1
  3
Model
350
567
  3
ﾚｲｱｳﾄ1
350
568
  0
DICTIONARY
  5
77C
102
{ACAD_REACTORS
330
C
102
}
330
C
100
AcDbDictionary
281
     1
  3
ByBlock
350
785
  3
ByLayer
350
77D
  3
Global
350
78D
  0
DICTIONARY
  5
7CB
102
{ACAD_REACTORS
330
C
102
}
330
C
100
AcDbDictionary
281
     1
  3
Standard
350
7CC
  0
DICTIONARY
  5
E
102
{ACAD_REACTORS
330
C
102
}
330
C
100
AcDbDictionary
281
     1
  3
STANDARD
350
13
  0
DICTIONARY
  5
566
102
{ACAD_REACTORS
330
C
102
}
330
C
100
AcDbDictionary
281
     1
  3
A3(0.5倍)
350
772
  3
A3(1倍)
350
773
  3
A3(1倍)(2000)
350
774
  3
A3(2倍)
350
775
  3
A4(0.5倍)
350
776
  3
A4(1倍)
350
777
  3
A4(1倍)(2000)
350
778
  3
A4(2倍)
350
779
  0
ACDBDICTIONARYWDFLT
  5
563
102
{ACAD_REACTORS
330
C
102
}
330
C
100
AcDbDictionary
281
     1
  3
Normal
350
564
100
AcDbDictionaryWithDefault
340
564
  0
DICTIONARY
  5
7A9
102
{ACAD_REACTORS
330
C
102
}
330
C
100
AcDbDictionary
281
     1
  3
A0
350
7AA
  3
A1
350
7AB
  3
A2
350
7AC
  3
A3
350
7AD
  3
A4
350
7AE
  3
A5
350
7AF
  3
A6
350
7B0
  3
A7
350
7B1
  3
A8
350
7B2
  3
A9
350
7B3
  3
B0
350
7B4
  3
B1
350
7B5
  3
B2
350
7B6
  3
B3
350
7B7
  3
B4
350
7B8
  3
B5
350
7B9
  3
B6
350
7BA
  3
B7
350
7BB
  3
B8
350
7BC
  3
B9
350
7BD
  3
C0
350
7BE
  3
C1
350
7BF
  3
C2
350
7C0
  3
C3
350
7C1
  3
C4
350
7C2
  3
C5
350
7C3
  3
C6
350
7C4
  3
C7
350
7C5
  3
C8
350
7C6
  3
C9
350
7C7
  3
D0
350
7C8
  3
D1
350
7C9
  3
D2
350
7CA
  0
DICTIONARY
  5
7A7
102
{ACAD_REACTORS
330
C
102
}
330
C
100
AcDbDictionary
281
     1
  3
Standard
350
7A8
  0
DICTIONARY
  5
795
102
{ACAD_REACTORS
330
C
102
}
330
C
100
AcDbDictionary
281
     1
  3
2dWireframe
350
79B
  3
3D Hidden
350
79D
  3
3dWireframe
350
79C
  3
Basic
350
79A
  3
Brighten
350
7A1
  3
ColorChange
350
7A5
  3
Conceptual
350
79E
  3
Dim
350
7A0
  3
Facepattern
350
7A4
  3
Flat
350
796
  3
FlatWithEdges
350
797
  3
Gouraud
350
798
  3
GouraudWithEdges
350
799
  3
Linepattern
350
7A3
  3
Realistic
350
79F
  3
Thicken
350
7A2
  0
XRECORD
  5
D6B
102
{ACAD_REACTORS
330
C
102
}
330
C
100
AcDbXrecord
280
     1
 90
        1
330
7A8
  0
DICTIONARY
  5
D62
102
{ACAD_REACTORS
330
C
102
}
330
C
100
AcDbDictionary
281
     1
  3
CANNOSCALE
350
D65
  3
CMLEADERSTYLE
350
D64
  3
CTABLESTYLE
350
D63
  3
DIMASSOC
350
D68
  3
INDEXCTL
350
D67
  3
SORTENTS
350
D66
  0
XRECORD
  5
D6C
102
{ACAD_REACTORS
330
C
102
}
330
C
100
AcDbXrecord
280
     1
  1
DWGPROPS COOKIE
  2

  3

  4

  6

  7

  8
AWTEC
  9

300
=
301
=
302
=
303
=
304
=
305
=
306
=
307
=
308
=
309
=
 40
0.2087138310185185
 41
2455554.449494352
 42
2455554.658207466
  1

 90
        0
  0
DICTIONARY
  5
540
102
{ACAD_REACTORS
330
C
102
}
330
C
100
AcDbDictionary
281
     1
  3
VERSION
350
560
  0
XRECORD
  5
BAE
102
{ACAD_REACTORS
330
BAD
102
}
330
BAD
100
AcDbXrecord
280
     1
290
     1
  0
XRECORD
  5
BBE
102
{ACAD_REACTORS
330
BBD
102
}
330
BBD
100
AcDbXrecord
280
     1
290
     1
  0
XRECORD
  5
BC0
102
{ACAD_REACTORS
330
BBF
102
}
330
BBF
100
AcDbXrecord
280
     1
290
     1
  0
XRECORD
  5
BC2
102
{ACAD_REACTORS
330
BC1
102
}
330
BC1
100
AcDbXrecord
280
     1
290
     1
  0
XRECORD
  5
BC8
102
{ACAD_REACTORS
330
BC7
102
}
330
BC7
100
AcDbXrecord
280
     1
290
     1
  0
XRECORD
  5
BD0
102
{ACAD_REACTORS
330
BCF
102
}
330
BCF
100
AcDbXrecord
280
     1
290
     1
  0
XRECORD
  5
BD2
102
{ACAD_REACTORS
330
BD1
102
}
330
BD1
100
AcDbXrecord
280
     1
290
     1
  0
XRECORD
  5
BEB
102
{ACAD_REACTORS
330
801
102
}
330
801
100
AcDbXrecord
280
     1
290
     1
  0
XRECORD
  5
D8A
102
{ACAD_REACTORS
330
D89
102
}
330
D89
100
AcDbXrecord
280
     1
 40
13885.0
  1
\A1;{\H2.8;\U+2205}6
  0
XRECORD
  5
D6E
102
{ACAD_REACTORS
330
D6D
102
}
330
D6D
100
AcDbXrecord
280
     1
102
SHADEPLOT
 70
     0
  0
GROUP
  5
6C7
102
{ACAD_REACTORS
330
D
102
}
330
D
100
AcDbGroup
300

 70
     0
 71
     1
1001
GRPNAME
1000
DMA00
  0
GROUP
  5
6C8
102
{ACAD_REACTORS
330
D
102
}
330
D
100
AcDbGroup
300

 70
     0
 71
     1
1001
GRPNAME
1000
DMA00
  0
GROUP
  5
6D4
102
{ACAD_REACTORS
330
D
102
}
330
D
100
AcDbGroup
300

 70
     0
 71
     1
1001
GRPNAME
1000
DMA00
  0
GROUP
  5
6D5
102
{ACAD_REACTORS
330
D
102
}
330
D
100
AcDbGroup
300

 70
     0
 71
     1
1001
GRPNAME
1000
DMA00
  0
GROUP
  5
5FC
102
{ACAD_REACTORS
330
D
102
}
330
D
100
AcDbGroup
300

 70
     0
 71
     1
1001
GRPNAME
1000
DREC-
1001
GPARA
1000
xsiz
1000
44.182
1000
ysiz
1000
40.677
1000
angl
1000
0
1000
ctyp
1000
0
1000
csiz
1000
5
1000
lfnt
1000
cont
1000
hcnt
1000
hoff
1000
vcnt
1000
voff
1000
opnt
1000
4
1000
dxpt
1000
0
1000
dypt
1000
0
  0
GROUP
  5
654
102
{ACAD_REACTORS
330
D
102
}
330
D
100
AcDbGroup
300

 70
     0
 71
     1
1001
GRPNAME
1000
DREC-
1001
GPARA
1000
xsiz
1000
54.592
1000
ysiz
1000
53.036
1000
angl
1000
0
1000
ctyp
1000
0
1000
csiz
1000
5
1000
lfnt
1000
cont
1000
hcnt
1000
hoff
1000
vcnt
1000
voff
1000
opnt
1000
4
1000
dxpt
1000
0
1000
dypt
1000
0
  0
GROUP
  5
673
102
{ACAD_REACTORS
330
D
102
}
330
D
100
AcDbGroup
300

 70
     0
 71
     1
1001
GRPNAME
1000
DREC-
1001
GPARA
1000
xsiz
1000
30.363
1000
ysiz
1000
36.175
1000
angl
1000
0
1000
ctyp
1000
0
1000
csiz
1000
5
1000
lfnt
1000
cont
1000
hcnt
1000
hoff
1000
vcnt
1000
voff
1000
opnt
1000
4
1000
dxpt
1000
0
1000
dypt
1000
0
  0
LAYOUT
  5
567
102
{ACAD_XDICTIONARY
360
D6F
102
}
102
{ACAD_REACTORS
330
565
102
}
330
565
100
AcDbPlotSettings
  1

  2
Canon LBP5600
  4
A4
  6

 40
5.873749732971191
 41
5.873747825622558
 42
5.873748779296875
 43
5.873748779296875
 44
209.9733276367187
 45
296.9259948730469
 46
10.69512688957448
 47
0.0
 48
0.0
 49
0.0
140
0.0
141
0.0
142
1.0
143
0.606390790708292
 70
 11956
 72
     1
 73
     1
 74
     0
  7
big.ctb
 75
     0
147
1.649101561770017
148
54.46080901312875
149
36.86431650131796
100
AcDbLayout
  1
Model
 70
     1
 71
     0
 10
0.0
 20
0.0
 11
12.0
 21
9.0
 12
0.0
 22
0.0
 32
0.0
 14
0.0
 24
0.0
 34
0.0
 15
0.0
 25
0.0
 35
0.0
146
0.0
 13
0.0
 23
0.0
 33
0.0
 16
1.0
 26
0.0
 36
0.0
 17
0.0
 27
1.0
 37
0.0
 76
     0
330
1A
331
77A
1001
ACAD_PSEXT
1000
Canon LBP5600
1000
Canon LBP5600
1000
192_168_120_150.
1000

1070
     0
  0
LAYOUT
  5
568
102
{ACAD_XDICTIONARY
360
D71
102
}
102
{ACAD_REACTORS
330
565
102
}
330
565
100
AcDbPlotSettings
  1

  2
\\ICHIRO\FX Able Model-PRII ART4-ADV
  4

  6

 40
0.0
 41
0.0
 42
0.0
 43
0.0
 44
0.0
 45
0.0
 46
0.0
 47
0.0
 48
0.0
 49
0.0
140
0.0
141
0.0
142
1.0
143
1.0
 70
   688
 72
     0
 73
     0
 74
     5
  7
big.ctb
 75
    16
147
1.0
148
0.0
149
0.0
100
AcDbLayout
  1
ﾚｲｱｳﾄ1
 70
     1
 71
     1
 10
0.0
 20
0.0
 11
420.0
 21
297.0
 12
0.0
 22
0.0
 32
0.0
 14
1.000000000000000E+20
 24
1.000000000000000E+20
 34
1.000000000000000E+20
 15
-1.000000000000000E+20
 25
-1.000000000000000E+20
 35
-1.000000000000000E+20
146
0.0
 13
0.0
 23
0.0
 33
0.0
 16
1.0
 26
0.0
 36
0.0
 17
0.0
 27
1.0
 37
0.0
 76
     0
330
17
331
22
  0
MATERIAL
  5
785
102
{ACAD_XDICTIONARY
360
786
102
}
102
{ACAD_REACTORS
330
77C
102
}
330
77C
100
AcDbMaterial
  1
ByBlock
 72
     0
 43
0.0208333333333333
 43
0.0
 43
0.0
 43
0.0
 43
0.0
 43
0.0208333333333333
 43
0.0
 43
0.0
 43
0.0
 43
0.0
 43
1.0
 43
0.0
 43
0.0
 43
0.0
 43
0.0
 43
1.0
 77
     0
 47
0.0208333333333333
 47
0.0
 47
0.0
 47
0.0
 47
0.0
 47
0.0208333333333333
 47
0.0
 47
0.0
 47
0.0
 47
0.0
 47
1.0
 47
0.0
 47
0.0
 47
0.0
 47
0.0
 47
1.0
171
     0
 49
0.0208333333333333
 49
0.0
 49
0.0
 49
0.0
 49
0.0
 49
0.0208333333333333
 49
0.0
 49
0.0
 49
0.0
 49
0.0
 49
1.0
 49
0.0
 49
0.0
 49
0.0
 49
0.0
 49
1.0
175
     0
142
0.0208333333333333
142
0.0
142
0.0
142
0.0
142
0.0
142
0.0208333333333333
142
0.0
142
0.0
142
0.0
142
0.0
142
1.0
142
0.0
142
0.0
142
0.0
142
0.0
142
1.0
179
     0
144
0.0208333333333333
144
0.0
144
0.0
144
0.0
144
0.0
144
0.0208333333333333
144
0.0
144
0.0
144
0.0
144
0.0
144
1.0
144
0.0
144
0.0
144
0.0
144
0.0
144
1.0
147
0.0208333333333333
147
0.0
147
0.0
147
0.0
147
0.0
147
0.0208333333333333
147
0.0
147
0.0
147
0.0
147
0.0
147
1.0
147
0.0
147
0.0
147
0.0
147
0.0
147
1.0
  0
MATERIAL
  5
77D
102
{ACAD_XDICTIONARY
360
77E
102
}
102
{ACAD_REACTORS
330
77C
102
}
330
77C
100
AcDbMaterial
  1
ByLayer
 72
     0
 43
0.0208333333333333
 43
0.0
 43
0.0
 43
0.0
 43
0.0
 43
0.0208333333333333
 43
0.0
 43
0.0
 43
0.0
 43
0.0
 43
1.0
 43
0.0
 43
0.0
 43
0.0
 43
0.0
 43
1.0
 77
     0
 47
0.0208333333333333
 47
0.0
 47
0.0
 47
0.0
 47
0.0
 47
0.0208333333333333
 47
0.0
 47
0.0
 47
0.0
 47
0.0
 47
1.0
 47
0.0
 47
0.0
 47
0.0
 47
0.0
 47
1.0
171
     0
 49
0.0208333333333333
 49
0.0
 49
0.0
 49
0.0
 49
0.0
 49
0.0208333333333333
 49
0.0
 49
0.0
 49
0.0
 49
0.0
 49
1.0
 49
0.0
 49
0.0
 49
0.0
 49
0.0
 49
1.0
175
     0
142
0.0208333333333333
142
0.0
142
0.0
142
0.0
142
0.0
142
0.0208333333333333
142
0.0
142
0.0
142
0.0
142
0.0
142
1.0
142
0.0
142
0.0
142
0.0
142
0.0
142
1.0
179
     0
144
0.0208333333333333
144
0.0
144
0.0
144
0.0
144
0.0
144
0.0208333333333333
144
0.0
144
0.0
144
0.0
144
0.0
144
1.0
144
0.0
144
0.0
144
0.0
144
0.0
144
1.0
147
0.0208333333333333
147
0.0
147
0.0
147
0.0
147
0.0
147
0.0208333333333333
147
0.0
147
0.0
147
0.0
147
0.0
147
1.0
147
0.0
147
0.0
147
0.0
147
0.0
147
1.0
  0
MATERIAL
  5
78D
102
{ACAD_XDICTIONARY
360
78E
102
}
102
{ACAD_REACTORS
330
77C
102
}
330
77C
100
AcDbMaterial
  1
Global
 72
     0
 43
0.0208333333333333
 43
0.0
 43
0.0
 43
0.0
 43
0.0
 43
0.0208333333333333
 43
0.0
 43
0.0
 43
0.0
 43
0.0
 43
1.0
 43
0.0
 43
0.0
 43
0.0
 43
0.0
 43
1.0
 77
     0
 47
0.0208333333333333
 47
0.0
 47
0.0
 47
0.0
 47
0.0
 47
0.0208333333333333
 47
0.0
 47
0.0
 47
0.0
 47
0.0
 47
1.0
 47
0.0
 47
0.0
 47
0.0
 47
0.0
 47
1.0
171
     0
 49
0.0208333333333333
 49
0.0
 49
0.0
 49
0.0
 49
0.0
 49
0.0208333333333333
 49
0.0
 49
0.0
 49
0.0
 49
0.0
 49
1.0
 49
0.0
 49
0.0
 49
0.0
 49
0.0
 49
1.0
175
     0
142
0.0208333333333333
142
0.0
142
0.0
142
0.0
142
0.0
142
0.0208333333333333
142
0.0
142
0.0
142
0.0
142
0.0
142
1.0
142
0.0
142
0.0
142
0.0
142
0.0
142
1.0
179
     0
144
0.0208333333333333
144
0.0
144
0.0
144
0.0
144
0.0
144
0.0208333333333333
144
0.0
144
0.0
144
0.0
144
0.0
144
1.0
144
0.0
144
0.0
144
0.0
144
0.0
144
1.0
147
0.0208333333333333
147
0.0
147
0.0
147
0.0
147
0.0
147
0.0208333333333333
147
0.0
147
0.0
147
0.0
147
0.0
147
1.0
147
0.0
147
0.0
147
0.0
147
0.0
147
1.0
  0
MLEADERSTYLE
  5
7CC
102
{ACAD_REACTORS
330
7CB
102
}
330
7CB
100
AcDbMLeaderStyle
170
     2
171
     1
172
     0
 90
        2
 40
0.0
 41
0.0
173
     1
 91
-1056964608
340
14
 92
       -2
290
     1
 42
2.0
291
     1
 43
0.36
  3
Standard
 44
4.0
300

342
10
174
     1
178
     6
175
     1
176
     0
 93
-1056964608
 45
4.0
292
     0
297
     0
 46
4.0
 94
-1056964608
 47
1.0
 49
1.0
140
1.0
293
     1
141
0.0
294
     1
177
     0
142
1.0
295
     0
296
     0
143
0.125
1001
ACAD_MLEADERVER
1070
     2
  0
MLINESTYLE
  5
13
102
{ACAD_REACTORS
330
E
102
}
330
E
100
AcDbMlineStyle
  2
STANDARD
 70
     0
  3

 62
     0
 51
90.0
 52
90.0
 71
     2
 49
0.5
 62
   256
  6
BYLAYER
 49
-0.5
 62
   256
  6
BYLAYER
  0
PLOTSETTINGS
  5
772
102
{ACAD_XDICTIONARY
360
D73
102
}
102
{ACAD_REACTORS
330
566
102
}
330
566
100
AcDbPlotSettings
  1
A3(0.5倍)
  2
Canon LBP5600.pc3
  4
A3
  6

 40
5.873749732971191
 41
5.873747825622558
 42
5.873748779296875
 43
5.873748779296875
 44
296.9259948730469
 45
419.9466552734374
 46
90.09
 47
129.85
 48
0.0
 49
0.0
140
0.0
141
0.0
142
1.0
143
2.0
 70
  1716
 72
     1
 73
     1
 74
     2
  7
big.ctb
 75
    17
147
0.5
148
0.0
149
0.0
  0
PLOTSETTINGS
  5
773
102
{ACAD_XDICTIONARY
360
D75
102
}
102
{ACAD_REACTORS
330
566
102
}
330
566
100
AcDbPlotSettings
  1
A3(1倍)
  2
Canon LBP5600.pc3
  4
A3
  6

 40
5.873749732971191
 41
5.873747825622558
 42
5.873748779296875
 43
5.873748779296875
 44
296.9259948730469
 45
419.9466552734374
 46
37.59
 47
55.6
 48
0.0
 49
0.0
140
0.0
141
0.0
142
1.0
143
1.0
 70
  1716
 72
     1
 73
     1
 74
     2
  7
big.ctb
 75
    16
147
1.0
148
0.0
149
0.0
  0
PLOTSETTINGS
  5
774
102
{ACAD_XDICTIONARY
360
D77
102
}
102
{ACAD_REACTORS
330
566
102
}
330
566
100
AcDbPlotSettings
  1
A3(1倍)(2000)
  2
Canon LBP5600.pc3
  4
A3
  6

 40
5.873749732971191
 41
5.873747825622558
 42
5.873748779296875
 43
5.873748779296875
 44
296.9259948730469
 45
419.9466552734374
 46
37.59
 47
55.6
 48
0.0
 49
0.0
140
0.0
141
0.0
142
1.0
143
1.0
 70
  1716
 72
     1
 73
     1
 74
     2
  7
big.ctb
 75
    16
147
1.0
148
0.0
149
0.0
  0
PLOTSETTINGS
  5
775
102
{ACAD_XDICTIONARY
360
D79
102
}
102
{ACAD_REACTORS
330
566
102
}
330
566
100
AcDbPlotSettings
  1
A3(2倍)
  2
Canon LBP5600.pc3
  4
A3
  6

 40
5.873749732971191
 41
5.873747825622558
 42
5.873748779296875
 43
5.873748779296875
 44
296.9259948730469
 45
419.9466552734374
 46
-67.40999999999999
 47
-92.9
 48
0.0
 49
0.0
140
0.0
141
0.0
142
1.0
143
0.5
 70
  1716
 72
     1
 73
     1
 74
     2
  7
big.ctb
 75
    27
147
2.0
148
0.0
149
0.0
  0
PLOTSETTINGS
  5
776
102
{ACAD_XDICTIONARY
360
D7B
102
}
102
{ACAD_REACTORS
330
566
102
}
330
566
100
AcDbPlotSettings
  1
A4(0.5倍)
  2
Canon LBP5600.pc3
  4
A3
  6

 40
5.873749732971191
 41
5.873747825622558
 42
5.873748779296875
 43
5.873748779296875
 44
296.9259948730469
 45
419.9466552734374
 46
90.09
 47
129.85
 48
0.0
 49
0.0
140
0.0
141
0.0
142
1.0
143
2.0
 70
  1716
 72
     1
 73
     1
 74
     2
  7
big.ctb
 75
    17
147
0.5
148
0.0
149
0.0
  0
PLOTSETTINGS
  5
777
102
{ACAD_XDICTIONARY
360
D7D
102
}
102
{ACAD_REACTORS
330
566
102
}
330
566
100
AcDbPlotSettings
  1
A4(1倍)
  2
Canon LBP5600.pc3
  4
A3
  6

 40
5.873749732971191
 41
5.873747825622558
 42
5.873748779296875
 43
5.873748779296875
 44
296.9259948730469
 45
419.9466552734374
 46
37.59
 47
55.6
 48
0.0
 49
0.0
140
0.0
141
0.0
142
1.0
143
1.0
 70
  1716
 72
     1
 73
     1
 74
     2
  7
big.ctb
 75
    16
147
1.0
148
0.0
149
0.0
  0
PLOTSETTINGS
  5
778
102
{ACAD_XDICTIONARY
360
D7F
102
}
102
{ACAD_REACTORS
330
566
102
}
330
566
100
AcDbPlotSettings
  1
A4(1倍)(2000)
  2
Canon LBP5600.pc3
  4
A3
  6

 40
5.873749732971191
 41
5.873747825622558
 42
5.873748779296875
 43
5.873748779296875
 44
296.9259948730469
 45
419.9466552734374
 46
37.59
 47
55.6
 48
0.0
 49
0.0
140
0.0
141
0.0
142
1.0
143
1.0
 70
  1716
 72
     1
 73
     1
 74
     2
  7
big.ctb
 75
    16
147
1.0
148
0.0
149
0.0
  0
PLOTSETTINGS
  5
779
102
{ACAD_XDICTIONARY
360
D81
102
}
102
{ACAD_REACTORS
330
566
102
}
330
566
100
AcDbPlotSettings
  1
A4(2倍)
  2
Canon LBP5600.pc3
  4
A3
  6

 40
5.873749732971191
 41
5.873747825622558
 42
5.873748779296875
 43
5.873748779296875
 44
296.9259948730469
 45
419.9466552734374
 46
-67.40999999999999
 47
-92.9
 48
0.0
 49
0.0
140
0.0
141
0.0
142
1.0
143
0.5
 70
  1716
 72
     1
 73
     1
 74
     2
  7
big.ctb
 75
    27
147
2.0
148
0.0
149
0.0
  0
ACDBPLACEHOLDER
  5
564
102
{ACAD_REACTORS
330
563
102
}
330
563
  0
SCALE
  5
7AA
102
{ACAD_REACTORS
330
7A9
102
}
330
7A9
100
AcDbScale
 70
     0
300
1:1
140
1.0
141
1.0
290
     1
  0
SCALE
  5
7AB
102
{ACAD_REACTORS
330
7A9
102
}
330
7A9
100
AcDbScale
 70
     0
300
1:2
140
1.0
141
2.0
290
     0
  0
SCALE
  5
7AC
102
{ACAD_REACTORS
330
7A9
102
}
330
7A9
100
AcDbScale
 70
     0
300
1:4
140
1.0
141
4.0
290
     0
  0
SCALE
  5
7AD
102
{ACAD_REACTORS
330
7A9
102
}
330
7A9
100
AcDbScale
 70
     0
300
1:5
140
1.0
141
5.0
290
     0
  0
SCALE
  5
7AE
102
{ACAD_REACTORS
330
7A9
102
}
330
7A9
100
AcDbScale
 70
     0
300
1:8
140
1.0
141
8.0
290
     0
  0
SCALE
  5
7AF
102
{ACAD_REACTORS
330
7A9
102
}
330
7A9
100
AcDbScale
 70
     0
300
1:10
140
1.0
141
10.0
290
     0
  0
SCALE
  5
7B0
102
{ACAD_REACTORS
330
7A9
102
}
330
7A9
100
AcDbScale
 70
     0
300
1:16
140
1.0
141
16.0
290
     0
  0
SCALE
  5
7B1
102
{ACAD_REACTORS
330
7A9
102
}
330
7A9
100
AcDbScale
 70
     0
300
1:20
140
1.0
141
20.0
290
     0
  0
SCALE
  5
7B2
102
{ACAD_REACTORS
330
7A9
102
}
330
7A9
100
AcDbScale
 70
     0
300
1:30
140
1.0
141
30.0
290
     0
  0
SCALE
  5
7B3
102
{ACAD_REACTORS
330
7A9
102
}
330
7A9
100
AcDbScale
 70
     0
300
1:40
140
1.0
141
40.0
290
     0
  0
SCALE
  5
7B4
102
{ACAD_REACTORS
330
7A9
102
}
330
7A9
100
AcDbScale
 70
     0
300
1:50
140
1.0
141
50.0
290
     0
  0
SCALE
  5
7B5
102
{ACAD_REACTORS
330
7A9
102
}
330
7A9
100
AcDbScale
 70
     0
300
1:100
140
1.0
141
100.0
290
     0
  0
SCALE
  5
7B6
102
{ACAD_REACTORS
330
7A9
102
}
330
7A9
100
AcDbScale
 70
     0
300
2:1
140
2.0
141
1.0
290
     0
  0
SCALE
  5
7B7
102
{ACAD_REACTORS
330
7A9
102
}
330
7A9
100
AcDbScale
 70
     0
300
4:1
140
4.0
141
1.0
290
     0
  0
SCALE
  5
7B8
102
{ACAD_REACTORS
330
7A9
102
}
330
7A9
100
AcDbScale
 70
     0
300
8:1
140
8.0
141
1.0
290
     0
  0
SCALE
  5
7B9
102
{ACAD_REACTORS
330
7A9
102
}
330
7A9
100
AcDbScale
 70
     0
300
10:1
140
10.0
141
1.0
290
     0
  0
SCALE
  5
7BA
102
{ACAD_REACTORS
330
7A9
102
}
330
7A9
100
AcDbScale
 70
     0
300
100:1
140
100.0
141
1.0
290
     0
  0
SCALE
  5
7BB
102
{ACAD_REACTORS
330
7A9
102
}
330
7A9
100
AcDbScale
 70
     0
300
1/128" = 1'-0"
140
0.0078125
141
12.0
290
     0
  0
SCALE
  5
7BC
102
{ACAD_REACTORS
330
7A9
102
}
330
7A9
100
AcDbScale
 70
     0
300
1/64" = 1'-0"
140
0.015625
141
12.0
290
     0
  0
SCALE
  5
7BD
102
{ACAD_REACTORS
330
7A9
102
}
330
7A9
100
AcDbScale
 70
     0
300
1/32" = 1'-0"
140
0.03125
141
12.0
290
     0
  0
SCALE
  5
7BE
102
{ACAD_REACTORS
330
7A9
102
}
330
7A9
100
AcDbScale
 70
     0
300
1/16" = 1'-0"
140
0.0625
141
12.0
290
     0
  0
SCALE
  5
7BF
102
{ACAD_REACTORS
330
7A9
102
}
330
7A9
100
AcDbScale
 70
     0
300
3/32" = 1'-0"
140
0.09375
141
12.0
290
     0
  0
SCALE
  5
7C0
102
{ACAD_REACTORS
330
7A9
102
}
330
7A9
100
AcDbScale
 70
     0
300
1/8" = 1'-0"
140
0.125
141
12.0
290
     0
  0
SCALE
  5
7C1
102
{ACAD_REACTORS
330
7A9
102
}
330
7A9
100
AcDbScale
 70
     0
300
3/16" = 1'-0"
140
0.1875
141
12.0
290
     0
  0
SCALE
  5
7C2
102
{ACAD_REACTORS
330
7A9
102
}
330
7A9
100
AcDbScale
 70
     0
300
1/4" = 1'-0"
140
0.25
141
12.0
290
     0
  0
SCALE
  5
7C3
102
{ACAD_REACTORS
330
7A9
102
}
330
7A9
100
AcDbScale
 70
     0
300
3/8" = 1'-0"
140
0.375
141
12.0
290
     0
  0
SCALE
  5
7C4
102
{ACAD_REACTORS
330
7A9
102
}
330
7A9
100
AcDbScale
 70
     0
300
1/2" = 1'-0"
140
0.5
141
12.0
290
     0
  0
SCALE
  5
7C5
102
{ACAD_REACTORS
330
7A9
102
}
330
7A9
100
AcDbScale
 70
     0
300
3/4" = 1'-0"
140
0.75
141
12.0
290
     0
  0
SCALE
  5
7C6
102
{ACAD_REACTORS
330
7A9
102
}
330
7A9
100
AcDbScale
 70
     0
300
1" = 1'-0"
140
1.0
141
12.0
290
     0
  0
SCALE
  5
7C7
102
{ACAD_REACTORS
330
7A9
102
}
330
7A9
100
AcDbScale
 70
     0
300
1-1/2" = 1'-0"
140
1.5
141
12.0
290
     0
  0
SCALE
  5
7C8
102
{ACAD_REACTORS
330
7A9
102
}
330
7A9
100
AcDbScale
 70
     0
300
3" = 1'-0"
140
3.0
141
12.0
290
     0
  0
SCALE
  5
7C9
102
{ACAD_REACTORS
330
7A9
102
}
330
7A9
100
AcDbScale
 70
     0
300
6" = 1'-0"
140
6.0
141
12.0
290
     0
  0
SCALE
  5
7CA
102
{ACAD_REACTORS
330
7A9
102
}
330
7A9
100
AcDbScale
 70
     0
300
1'-0" = 1'-0"
140
12.0
141
12.0
290
     0
  0
TABLESTYLE
  5
7A8
102
{ACAD_XDICTIONARY
360
D69
102
}
102
{ACAD_REACTORS
330
7A7
102
}
330
7A7
100
AcDbTableStyle
  3
Standard
 70
     0
 71
     0
 40
1.5
 41
1.5
280
     0
281
     0
  7
STANDARD
140
4.5
170
     2
 62
     0
 63
     7
283
     0
274
    -2
284
     1
 64
     0
275
    -2
285
     1
 65
     0
276
    -2
286
     1
 66
     0
277
    -2
287
     1
 67
     0
278
    -2
288
     1
 68
     0
279
    -2
289
     1
 69
     0
  7
STANDARD
140
6.0
170
     5
 62
     0
 63
     7
283
     0
274
    -2
284
     1
 64
     0
275
    -2
285
     1
 65
     0
276
    -2
286
     1
 66
     0
277
    -2
287
     1
 67
     0
278
    -2
288
     1
 68
     0
279
    -2
289
     1
 69
     0
  7
STANDARD
140
4.5
170
     5
 62
     0
 63
     7
283
     0
274
    -2
284
     1
 64
     0
275
    -2
285
     1
 65
     0
276
    -2
286
     1
 66
     0
277
    -2
287
     1
 67
     0
278
    -2
288
     1
 68
     0
279
    -2
289
     1
 69
     0
  0
VISUALSTYLE
  5
79B
102
{ACAD_REACTORS
330
795
102
}
330
795
100
AcDbVisualStyle
  2
2dWireframe
 70
     4
 71
     0
 72
     2
 73
     0
 90
        0
 40
-0.6
 41
-30.0
 62
     5
 63
     7
 74
     1
 91
        4
 64
     7
 65
   257
 75
     1
175
     1
 42
1.0
 92
        0
 66
   257
 43
1.0
 76
     1
 77
     6
 78
     2
 67
     7
 79
     5
170
     0
171
     0
290
     0
174
     0
 93
        1
 44
0.0
173
     0
291
     0
 45
0.0
1001
ACAD
1000
AcDbSavedByObjectVersion
1070
     0
  0
VISUALSTYLE
  5
79D
102
{ACAD_REACTORS
330
795
102
}
330
795
100
AcDbVisualStyle
  2
3D Hidden
 70
     6
 71
     1
 72
     2
 73
     2
 90
        0
 40
-0.6
 41
-30.0
 62
     5
 63
     7
 74
     2
 91
        2
 64
     7
 65
   257
 75
     2
175
     1
 42
40.0
 92
        0
 66
   257
 43
1.0
 76
     1
 77
     6
 78
     2
 67
     7
 79
     3
170
     0
171
     0
290
     0
174
     0
 93
        1
 44
0.0
173
     0
291
     0
 45
0.0
1001
ACAD
1000
AcDbSavedByObjectVersion
1070
     0
  0
VISUALSTYLE
  5
79C
102
{ACAD_REACTORS
330
795
102
}
330
795
100
AcDbVisualStyle
  2
3dWireframe
 70
     5
 71
     0
 72
     2
 73
     0
 90
        0
 40
-0.6
 41
-30.0
 62
     5
 63
     7
 74
     1
 91
        4
 64
     7
 65
   257
 75
     1
175
     1
 42
1.0
 92
        0
 66
   257
 43
1.0
 76
     1
 77
     6
 78
     2
 67
     7
 79
     5
170
     0
171
     0
290
     0
174
     0
 93
        1
 44
0.0
173
     0
291
     0
 45
0.0
1001
ACAD
1000
AcDbSavedByObjectVersion
1070
     0
  0
VISUALSTYLE
  5
79A
102
{ACAD_REACTORS
330
795
102
}
330
795
100
AcDbVisualStyle
  2
Basic
 70
     7
 71
     1
 72
     0
 73
     1
 90
        0
 40
-0.6
 41
-30.0
 62
     5
 63
     7
 74
     0
 91
        4
 64
     7
 65
   257
 75
     1
175
     1
 42
1.0
 92
        8
 66
     7
 43
1.0
 76
     1
 77
     6
 78
     2
 67
     7
 79
     5
170
     0
171
     0
290
     0
174
     0
 93
        1
 44
0.0
173
     0
291
     1
 45
0.0
1001
ACAD
1000
AcDbSavedByObjectVersion
1070
     0
  0
VISUALSTYLE
  5
7A1
102
{ACAD_REACTORS
330
795
102
}
330
795
100
AcDbVisualStyle
  2
Brighten
 70
    12
 71
     2
 72
     2
 73
     0
 90
        0
 40
-0.6
 41
-30.0
 62
     5
 63
     7
 74
     1
 91
        4
 64
     7
 65
   257
 75
     1
175
     1
 42
1.0
 92
        8
 66
     7
 43
1.0
 76
     1
 77
     6
 78
     2
 67
     7
 79
     5
170
     0
171
     0
290
     0
174
     0
 93
        1
 44
50.0
173
     0
291
     1
 45
0.0
1001
ACAD
1000
AcDbSavedByObjectVersion
1070
     0
  0
VISUALSTYLE
  5
7A5
102
{ACAD_REACTORS
330
795
102
}
330
795
100
AcDbVisualStyle
  2
ColorChange
 70
    16
 71
     2
 72
     2
 73
     3
 90
        0
 40
-0.6
 41
-30.0
 62
     5
 63
     8
 74
     1
 91
        4
 64
     7
 65
   257
 75
     1
175
     1
 42
1.0
 92
        8
 66
     8
 43
1.0
 76
     1
 77
     6
 78
     2
 67
     7
 79
     5
170
     0
171
     0
290
     0
174
     0
 93
        1
 44
0.0
173
     0
291
     1
 45
0.0
1001
ACAD
1000
AcDbSavedByObjectVersion
1070
     0
  0
VISUALSTYLE
  5
79E
102
{ACAD_REACTORS
330
795
102
}
330
795
100
AcDbVisualStyle
  2
Conceptual
 70
     9
 71
     3
 72
     2
 73
     0
 90
        0
 40
-0.6
 41
-30.0
 62
     5
 63
     7
 74
     2
 91
        2
 64
     7
 65
   257
 75
     1
175
     1
 42
40.0
 92
        8
 66
     7
 43
1.0
 76
     1
 77
     6
 78
     2
 67
     7
 79
     3
170
     0
171
     0
290
     0
174
     0
 93
        1
 44
0.0
173
     0
291
     0
 45
0.0
1001
ACAD
1000
AcDbSavedByObjectVersion
1070
     0
  0
VISUALSTYLE
  5
7A0
102
{ACAD_REACTORS
330
795
102
}
330
795
100
AcDbVisualStyle
  2
Dim
 70
    11
 71
     2
 72
     2
 73
     0
 90
        0
 40
-0.6
 41
-30.0
 62
     5
 63
     7
 74
     1
 91
        4
 64
     7
 65
   257
 75
     1
175
     1
 42
1.0
 92
        8
 66
     7
 43
1.0
 76
     1
 77
     6
 78
     2
 67
     7
 79
     5
170
     0
171
     0
290
     0
174
     0
 93
        1
 44
-50.0
173
     0
291
     1
 45
0.0
1001
ACAD
1000
AcDbSavedByObjectVersion
1070
     0
  0
VISUALSTYLE
  5
7A4
102
{ACAD_REACTORS
330
795
102
}
330
795
100
AcDbVisualStyle
  2
Facepattern
 70
    15
 71
     2
 72
     2
 73
     0
 90
        0
 40
-0.6
 41
-30.0
 62
     5
 63
     7
 74
     1
 91
        4
 64
     7
 65
   257
 75
     1
175
     1
 42
1.0
 92
        8
 66
     7
 43
1.0
 76
     1
 77
     6
 78
     2
 67
     7
 79
     5
170
     0
171
     0
290
     0
174
     0
 93
        1
 44
0.0
173
     0
291
     1
 45
0.0
1001
ACAD
1000
AcDbSavedByObjectVersion
1070
     0
  0
VISUALSTYLE
  5
796
102
{ACAD_REACTORS
330
795
102
}
330
795
100
AcDbVisualStyle
  2
Flat
 70
     0
 71
     2
 72
     1
 73
     1
 90
        2
 40
-0.6
 41
30.0
 62
     5
 63
     7
 74
     0
 91
        4
 64
     7
 65
   257
 75
     1
175
     1
 42
1.0
 92
        8
 66
     7
 43
1.0
 76
     1
 77
     6
 78
     2
 67
     7
 79
     5
170
     0
171
     0
290
     0
174
     0
 93
       13
 44
0.0
173
     0
291
     1
 45
0.0
1001
ACAD
1000
AcDbSavedByObjectVersion
1070
     0
  0
VISUALSTYLE
  5
797
102
{ACAD_REACTORS
330
795
102
}
330
795
100
AcDbVisualStyle
  2
FlatWithEdges
 70
     1
 71
     2
 72
     1
 73
     1
 90
        2
 40
-0.6
 41
30.0
 62
     5
 63
     7
 74
     1
 91
        4
 64
     7
 65
   257
 75
     1
175
     1
 42
1.0
 92
        0
 66
   257
 43
1.0
 76
     1
 77
     6
 78
     2
 67
     7
 79
     5
170
     0
171
     0
290
     0
174
     0
 93
       13
 44
0.0
173
     0
291
     1
 45
0.0
1001
ACAD
1000
AcDbSavedByObjectVersion
1070
     0
  0
VISUALSTYLE
  5
798
102
{ACAD_REACTORS
330
795
102
}
330
795
100
AcDbVisualStyle
  2
Gouraud
 70
     2
 71
     2
 72
     2
 73
     1
 90
        2
 40
-0.6
 41
30.0
 62
     5
 63
     7
 74
     0
 91
        4
 64
     7
 65
   257
 75
     1
175
     1
 42
1.0
 92
        0
 66
     7
 43
1.0
 76
     1
 77
     6
 78
     2
 67
     7
 79
     5
170
     0
171
     0
290
     0
174
     0
 93
       13
 44
0.0
173
     0
291
     1
 45
0.0
1001
ACAD
1000
AcDbSavedByObjectVersion
1070
     0
  0
VISUALSTYLE
  5
799
102
{ACAD_REACTORS
330
795
102
}
330
795
100
AcDbVisualStyle
  2
GouraudWithEdges
 70
     3
 71
     2
 72
     2
 73
     1
 90
        2
 40
-0.6
 41
30.0
 62
     5
 63
     7
 74
     1
 91
        4
 64
     7
 65
   257
 75
     1
175
     1
 42
1.0
 92
        0
 66
   257
 43
1.0
 76
     1
 77
     6
 78
     2
 67
     7
 79
     5
170
     0
171
     0
290
     0
174
     0
 93
       13
 44
0.0
173
     0
291
     1
 45
0.0
1001
ACAD
1000
AcDbSavedByObjectVersion
1070
     0
  0
VISUALSTYLE
  5
7A3
102
{ACAD_REACTORS
330
795
102
}
330
795
100
AcDbVisualStyle
  2
Linepattern
 70
    14
 71
     2
 72
     2
 73
     0
 90
        0
 40
-0.6
 41
-30.0
 62
     5
 63
     7
 74
     1
 91
        4
 64
     7
 65
   257
 75
     7
175
     7
 42
1.0
 92
        8
 66
     7
 43
1.0
 76
     1
 77
     6
 78
     2
 67
     7
 79
     5
170
     0
171
     0
290
     0
174
     0
 93
        1
 44
0.0
173
     0
291
     1
 45
0.0
1001
ACAD
1000
AcDbSavedByObjectVersion
1070
     0
  0
VISUALSTYLE
  5
79F
102
{ACAD_REACTORS
330
795
102
}
330
795
100
AcDbVisualStyle
  2
Realistic
 70
     8
 71
     2
 72
     2
 73
     0
 90
        0
 40
-0.6
 41
-30.0
 62
     5
 63
     7
 74
     1
 91
        0
 64
     7
 65
   257
 75
     1
175
     1
 42
1.0
 92
        8
 66
     8
 43
1.0
 76
     1
 77
     6
 78
     2
 67
     7
 79
     5
170
     0
171
     0
290
     0
174
     0
 93
       13
 44
0.0
173
     0
291
     0
 45
0.0
1001
ACAD
1000
AcDbSavedByObjectVersion
1070
     0
  0
VISUALSTYLE
  5
7A2
102
{ACAD_REACTORS
330
795
102
}
330
795
100
AcDbVisualStyle
  2
Thicken
 70
    13
 71
     2
 72
     2
 73
     0
 90
        0
 40
-0.6
 41
-30.0
 62
     5
 63
     7
 74
     1
 91
        4
 64
     7
 65
   257
 75
     1
175
     1
 42
1.0
 92
       12
 66
     7
 43
1.0
 76
     1
 77
     6
 78
     2
 67
     7
 79
     5
170
     0
171
     0
290
     0
174
     0
 93
        1
 44
0.0
173
     0
291
     1
 45
0.0
1001
ACAD
1000
AcDbSavedByObjectVersion
1070
     0
  0
DICTIONARYVAR
  5
D65
102
{ACAD_REACTORS
330
D62
102
}
330
D62
100
DictionaryVariables
280
     0
  1
1:1
  0
DICTIONARYVAR
  5
D64
102
{ACAD_REACTORS
330
D62
102
}
330
D62
100
DictionaryVariables
280
     0
  1
STANDARD
  0
DICTIONARYVAR
  5
D63
102
{ACAD_REACTORS
330
D62
102
}
330
D62
100
DictionaryVariables
280
     0
  1
STANDARD
  0
DICTIONARYVAR
  5
D68
102
{ACAD_REACTORS
330
D62
102
}
330
D62
100
DictionaryVariables
280
     0
  1
1
  0
DICTIONARYVAR
  5
D67
102
{ACAD_REACTORS
330
D62
102
}
330
D62
100
DictionaryVariables
280
     0
  1
0
  0
DICTIONARYVAR
  5
D66
102
{ACAD_REACTORS
330
D62
102
}
330
D62
100
DictionaryVariables
280
     0
  1
127
  0
XRECORD
  5
560
102
{ACAD_REACTORS
330
540
102
}
330
540
100
AcDbXrecord
280
     1
  1
2.0.0
  0
DICTIONARY
  5
D6F
330
567
100
AcDbDictionary
280
     1
281
     1
  3
ACAD_XREC_ROUNDTRIP
360
D70
  0
DICTIONARY
  5
D71
330
568
100
AcDbDictionary
280
     1
281
     1
  3
ACAD_XREC_ROUNDTRIP
360
D72
  0
DICTIONARY
  5
786
330
785
100
AcDbDictionary
280
     1
281
     1
  3
ACAD_XREC_ROUNDTRIP
360
D84
  3
BUMPTILE
360
788
  3
DIFFUSETILE
360
787
  3
OPACITYTILE
360
78B
  3
REFLECTIONTILE
360
78A
  3
REFRACTIONTILE
360
78C
  3
SPECULARTILE
360
789
  0
DICTIONARY
  5
77E
330
77D
100
AcDbDictionary
280
     1
281
     1
  3
ACAD_XREC_ROUNDTRIP
360
D83
  3
BUMPTILE
360
780
  3
DIFFUSETILE
360
77F
  3
OPACITYTILE
360
783
  3
REFLECTIONTILE
360
782
  3
REFRACTIONTILE
360
784
  3
SPECULARTILE
360
781
  0
DICTIONARY
  5
78E
330
78D
100
AcDbDictionary
280
     1
281
     1
  3
ACAD_XREC_ROUNDTRIP
360
D85
  3
BUMPTILE
360
790
  3
DIFFUSETILE
360
78F
  3
OPACITYTILE
360
793
  3
REFLECTIONTILE
360
792
  3
REFRACTIONTILE
360
794
  3
SPECULARTILE
360
791
  0
DICTIONARY
  5
D73
330
772
100
AcDbDictionary
280
     1
281
     1
  3
ACAD_XREC_ROUNDTRIP
360
D74
  0
DICTIONARY
  5
D75
330
773
100
AcDbDictionary
280
     1
281
     1
  3
ACAD_XREC_ROUNDTRIP
360
D76
  0
DICTIONARY
  5
D77
330
774
100
AcDbDictionary
280
     1
281
     1
  3
ACAD_XREC_ROUNDTRIP
360
D78
  0
DICTIONARY
  5
D79
330
775
100
AcDbDictionary
280
     1
281
     1
  3
ACAD_XREC_ROUNDTRIP
360
D7A
  0
DICTIONARY
  5
D7B
330
776
100
AcDbDictionary
280
     1
281
     1
  3
ACAD_XREC_ROUNDTRIP
360
D7C
  0
DICTIONARY
  5
D7D
330
777
100
AcDbDictionary
280
     1
281
     1
  3
ACAD_XREC_ROUNDTRIP
360
D7E
  0
DICTIONARY
  5
D7F
330
778
100
AcDbDictionary
280
     1
281
     1
  3
ACAD_XREC_ROUNDTRIP
360
D80
  0
DICTIONARY
  5
D81
330
779
100
AcDbDictionary
280
     1
281
     1
  3
ACAD_XREC_ROUNDTRIP
360
D82
  0
DICTIONARY
  5
D69
330
7A8
100
AcDbDictionary
280
     1
281
     1
  3
ACAD_ROUNDTRIP_2008_TABLESTYLE_CELLSTYLEMAP
360
D6A
  3
ACAD_XREC_ROUNDTRIP
360
D86
  0
XRECORD
  5
D70
102
{ACAD_REACTORS
330
D6F
102
}
330
D6F
100
AcDbXrecord
280
     1
102
SHADEPLOT
 70
     0
102
SHADEPLOTRESLEVEL
 70
     2
102
SHADEPLOTCUSTOMDPI
 70
   300
  0
XRECORD
  5
D72
102
{ACAD_REACTORS
330
D71
102
}
330
D71
100
AcDbXrecord
280
     1
102
SHADEPLOT
 70
     0
102
SHADEPLOTRESLEVEL
 70
     2
102
SHADEPLOTCUSTOMDPI
 70
   300
  0
XRECORD
  5
D84
102
{ACAD_REACTORS
330
786
102
}
330
786
100
AcDbXrecord
280
     1
102
MATERIAL
148
0.0
149
0.0
149
0.0
 93
        0
 94
      127
282
     0
 72
     0
 77
     0
171
     0
175
     0
179
     0
273
     0
  0
XRECORD
  5
788
102
{ACAD_REACTORS
330
786
102
}
330
786
100
AcDbXrecord
280
     1
270
     1
271
     1
  0
XRECORD
  5
787
102
{ACAD_REACTORS
330
786
102
}
330
786
100
AcDbXrecord
280
     1
270
     1
271
     1
  0
XRECORD
  5
78B
102
{ACAD_REACTORS
330
786
102
}
330
786
100
AcDbXrecord
280
     1
270
     1
271
     1
  0
XRECORD
  5
78A
102
{ACAD_REACTORS
330
786
102
}
330
786
100
AcDbXrecord
280
     1
270
     1
271
     1
  0
XRECORD
  5
78C
102
{ACAD_REACTORS
330
786
102
}
330
786
100
AcDbXrecord
280
     1
270
     1
271
     1
  0
XRECORD
  5
789
102
{ACAD_REACTORS
330
786
102
}
330
786
100
AcDbXrecord
280
     1
270
     1
271
     1
  0
XRECORD
  5
D83
102
{ACAD_REACTORS
330
77E
102
}
330
77E
100
AcDbXrecord
280
     1
102
MATERIAL
148
0.0
149
0.0
149
0.0
 93
        0
 94
      127
282
     0
 72
     0
 77
     0
171
     0
175
     0
179
     0
273
     0
  0
XRECORD
  5
780
102
{ACAD_REACTORS
330
77E
102
}
330
77E
100
AcDbXrecord
280
     1
270
     1
271
     1
  0
XRECORD
  5
77F
102
{ACAD_REACTORS
330
77E
102
}
330
77E
100
AcDbXrecord
280
     1
270
     1
271
     1
  0
XRECORD
  5
783
102
{ACAD_REACTORS
330
77E
102
}
330
77E
100
AcDbXrecord
280
     1
270
     1
271
     1
  0
XRECORD
  5
782
102
{ACAD_REACTORS
330
77E
102
}
330
77E
100
AcDbXrecord
280
     1
270
     1
271
     1
  0
XRECORD
  5
784
102
{ACAD_REACTORS
330
77E
102
}
330
77E
100
AcDbXrecord
280
     1
270
     1
271
     1
  0
XRECORD
  5
781
102
{ACAD_REACTORS
330
77E
102
}
330
77E
100
AcDbXrecord
280
     1
270
     1
271
     1
  0
XRECORD
  5
D85
102
{ACAD_REACTORS
330
78E
102
}
330
78E
100
AcDbXrecord
280
     1
102
MATERIAL
148
0.0
149
0.0
149
0.0
 93
        0
 94
      127
282
     0
 72
     0
 77
     0
171
     0
175
     0
179
     0
273
     0
  0
XRECORD
  5
790
102
{ACAD_REACTORS
330
78E
102
}
330
78E
100
AcDbXrecord
280
     1
270
     1
271
     1
  0
XRECORD
  5
78F
102
{ACAD_REACTORS
330
78E
102
}
330
78E
100
AcDbXrecord
280
     1
270
     1
271
     1
  0
XRECORD
  5
793
102
{ACAD_REACTORS
330
78E
102
}
330
78E
100
AcDbXrecord
280
     1
270
     1
271
     1
  0
XRECORD
  5
792
102
{ACAD_REACTORS
330
78E
102
}
330
78E
100
AcDbXrecord
280
     1
270
     1
271
     1
  0
XRECORD
  5
794
102
{ACAD_REACTORS
330
78E
102
}
330
78E
100
AcDbXrecord
280
     1
270
     1
271
     1
  0
XRECORD
  5
791
102
{ACAD_REACTORS
330
78E
102
}
330
78E
100
AcDbXrecord
280
     1
270
     1
271
     1
  0
XRECORD
  5
D74
102
{ACAD_REACTORS
330
D73
102
}
330
D73
100
AcDbXrecord
280
     1
102
SHADEPLOT
 70
     0
102
SHADEPLOTRESLEVEL
 70
     2
102
SHADEPLOTCUSTOMDPI
 70
   300
  0
XRECORD
  5
D76
102
{ACAD_REACTORS
330
D75
102
}
330
D75
100
AcDbXrecord
280
     1
102
SHADEPLOT
 70
     0
102
SHADEPLOTRESLEVEL
 70
     2
102
SHADEPLOTCUSTOMDPI
 70
   300
  0
XRECORD
  5
D78
102
{ACAD_REACTORS
330
D77
102
}
330
D77
100
AcDbXrecord
280
     1
102
SHADEPLOT
 70
     0
102
SHADEPLOTRESLEVEL
 70
     2
102
SHADEPLOTCUSTOMDPI
 70
   300
  0
XRECORD
  5
D7A
102
{ACAD_REACTORS
330
D79
102
}
330
D79
100
AcDbXrecord
280
     1
102
SHADEPLOT
 70
     0
102
SHADEPLOTRESLEVEL
 70
     2
102
SHADEPLOTCUSTOMDPI
 70
   300
  0
XRECORD
  5
D7C
102
{ACAD_REACTORS
330
D7B
102
}
330
D7B
100
AcDbXrecord
280
     1
102
SHADEPLOT
 70
     0
102
SHADEPLOTRESLEVEL
 70
     2
102
SHADEPLOTCUSTOMDPI
 70
   300
  0
XRECORD
  5
D7E
102
{ACAD_REACTORS
330
D7D
102
}
330
D7D
100
AcDbXrecord
280
     1
102
SHADEPLOT
 70
     0
102
SHADEPLOTRESLEVEL
 70
     2
102
SHADEPLOTCUSTOMDPI
 70
   300
  0
XRECORD
  5
D80
102
{ACAD_REACTORS
330
D7F
102
}
330
D7F
100
AcDbXrecord
280
     1
102
SHADEPLOT
 70
     0
102
SHADEPLOTRESLEVEL
 70
     2
102
SHADEPLOTCUSTOMDPI
 70
   300
  0
XRECORD
  5
D82
102
{ACAD_REACTORS
330
D81
102
}
330
D81
100
AcDbXrecord
280
     1
102
SHADEPLOT
 70
     0
102
SHADEPLOTRESLEVEL
 70
     2
102
SHADEPLOTCUSTOMDPI
 70
   300
  0
CELLSTYLEMAP
  5
D6A
102
{ACAD_REACTORS
330
D69
102
}
330
D69
100
AcDbCellStyleMap
 90
        3
300
CELLSTYLE
  1
TABLEFORMAT_BEGIN
 90
        5
170
     1
 91
        0
 92
    32768
 62
   257
 93
        1
300
CONTENTFORMAT
  1
CONTENTFORMAT_BEGIN
 90
        0
 91
        0
 92
      512
 93
        0
300

 40
0.0
140
1.0
 94
        5
 62
     0
340
10
144
6.0
309
CONTENTFORMAT_END
171
     1
301
MARGIN
  1
CELLMARGIN_BEGIN
 40
1.5
 40
1.5
 40
1.5
 40
1.5
 40
4.5
 40
4.5
309
CELLMARGIN_END
 94
        6
 95
        1
302
GRIDFORMAT
  1
GRIDFORMAT_BEGIN
 90
        0
 91
        1
 62
     0
 92
       -2
340
0
 93
        0
 40
1.125
309
GRIDFORMAT_END
 95
        2
302
GRIDFORMAT
  1
GRIDFORMAT_BEGIN
 90
        0
 91
        1
 62
     0
 92
       -2
340
0
 93
        0
 40
1.125
309
GRIDFORMAT_END
 95
        4
302
GRIDFORMAT
  1
GRIDFORMAT_BEGIN
 90
        0
 91
        1
 62
     0
 92
       -2
340
0
 93
        0
 40
1.125
309
GRIDFORMAT_END
 95
        8
302
GRIDFORMAT
  1
GRIDFORMAT_BEGIN
 90
        0
 91
        1
 62
     0
 92
       -2
340
0
 93
        0
 40
1.125
309
GRIDFORMAT_END
 95
       16
302
GRIDFORMAT
  1
GRIDFORMAT_BEGIN
 90
        0
 91
        1
 62
     0
 92
       -2
340
0
 93
        0
 40
1.125
309
GRIDFORMAT_END
 95
       32
302
GRIDFORMAT
  1
GRIDFORMAT_BEGIN
 90
        0
 91
        1
 62
     0
 92
       -2
340
0
 93
        0
 40
1.125
309
GRIDFORMAT_END
309
TABLEFORMAT_END
  1
CELLSTYLE_BEGIN
 90
        1
 91
        1
300
_TITLE
309
CELLSTYLE_END
300
CELLSTYLE
  1
TABLEFORMAT_BEGIN
 90
        5
170
     1
 91
        0
 92
        0
 62
   257
 93
        1
300
CONTENTFORMAT
  1
CONTENTFORMAT_BEGIN
 90
        0
 91
        0
 92
      512
 93
        0
300

 40
0.0
140
1.0
 94
        5
 62
     0
340
10
144
4.5
309
CONTENTFORMAT_END
171
     1
301
MARGIN
  1
CELLMARGIN_BEGIN
 40
1.5
 40
1.5
 40
1.5
 40
1.5
 40
4.5
 40
4.5
309
CELLMARGIN_END
 94
        6
 95
        1
302
GRIDFORMAT
  1
GRIDFORMAT_BEGIN
 90
        0
 91
        1
 62
     0
 92
       -2
340
0
 93
        0
 40
1.125
309
GRIDFORMAT_END
 95
        2
302
GRIDFORMAT
  1
GRIDFORMAT_BEGIN
 90
        0
 91
        1
 62
     0
 92
       -2
340
0
 93
        0
 40
1.125
309
GRIDFORMAT_END
 95
        4
302
GRIDFORMAT
  1
GRIDFORMAT_BEGIN
 90
        0
 91
        1
 62
     0
 92
       -2
340
0
 93
        0
 40
1.125
309
GRIDFORMAT_END
 95
        8
302
GRIDFORMAT
  1
GRIDFORMAT_BEGIN
 90
        0
 91
        1
 62
     0
 92
       -2
340
0
 93
        0
 40
1.125
309
GRIDFORMAT_END
 95
       16
302
GRIDFORMAT
  1
GRIDFORMAT_BEGIN
 90
        0
 91
        1
 62
     0
 92
       -2
340
0
 93
        0
 40
1.125
309
GRIDFORMAT_END
 95
       32
302
GRIDFORMAT
  1
GRIDFORMAT_BEGIN
 90
        0
 91
        1
 62
     0
 92
       -2
340
0
 93
        0
 40
1.125
309
GRIDFORMAT_END
309
TABLEFORMAT_END
  1
CELLSTYLE_BEGIN
 90
        2
 91
        1
300
_HEADER
309
CELLSTYLE_END
300
CELLSTYLE
  1
TABLEFORMAT_BEGIN
 90
        5
170
     1
 91
        0
 92
        0
 62
   257
 93
        1
300
CONTENTFORMAT
  1
CONTENTFORMAT_BEGIN
 90
        0
 91
        0
 92
      512
 93
        0
300

 40
0.0
140
1.0
 94
        2
 62
     0
340
10
144
4.5
309
CONTENTFORMAT_END
171
     1
301
MARGIN
  1
CELLMARGIN_BEGIN
 40
1.5
 40
1.5
 40
1.5
 40
1.5
 40
4.5
 40
4.5
309
CELLMARGIN_END
 94
        6
 95
        1
302
GRIDFORMAT
  1
GRIDFORMAT_BEGIN
 90
        0
 91
        1
 62
     0
 92
       -2
340
0
 93
        0
 40
1.125
309
GRIDFORMAT_END
 95
        2
302
GRIDFORMAT
  1
GRIDFORMAT_BEGIN
 90
        0
 91
        1
 62
     0
 92
       -2
340
0
 93
        0
 40
1.125
309
GRIDFORMAT_END
 95
        4
302
GRIDFORMAT
  1
GRIDFORMAT_BEGIN
 90
        0
 91
        1
 62
     0
 92
       -2
340
0
 93
        0
 40
1.125
309
GRIDFORMAT_END
 95
        8
302
GRIDFORMAT
  1
GRIDFORMAT_BEGIN
 90
        0
 91
        1
 62
     0
 92
       -2
340
0
 93
        0
 40
1.125
309
GRIDFORMAT_END
 95
       16
302
GRIDFORMAT
  1
GRIDFORMAT_BEGIN
 90
        0
 91
        1
 62
     0
 92
       -2
340
0
 93
        0
 40
1.125
309
GRIDFORMAT_END
 95
       32
302
GRIDFORMAT
  1
GRIDFORMAT_BEGIN
 90
        0
 91
        1
 62
     0
 92
       -2
340
0
 93
        0
 40
1.125
309
GRIDFORMAT_END
309
TABLEFORMAT_END
  1
CELLSTYLE_BEGIN
 90
        3
 91
        2
300
_DATA
309
CELLSTYLE_END
  0
XRECORD
  5
D86
102
{ACAD_REACTORS
330
D69
102
}
330
D69
100
AcDbXrecord
280
     1
102
ACAD_ROUNDTRIP_PRE2007_TABLESTYLE
 90
      512
 91
        0
  1

 92
      512
 93
        0
  2

 94
      512
 95
        0
  3

  0
ENDSEC
  0
EOF
