  0
SECTION
  2
HEADER
  9
$ACADVER
  1
AC1014
  9
$ACADMAINTVER
 70
     9
  9
$DWGCODEPAGE
  3
ANSI_932
  9
$INSBASE
 10
0.0
 20
0.0
 30
0.0
  9
$EXTMIN
 10
-42.74793845
 20
-52.02215847
 30
-0.00152582
  9
$EXTMAX
 10
232.01924965
 20
82.02049972
 30
0.00000003
  9
$LIMMIN
 10
0.0
 20
0.0
  9
$LIMMAX
 10
420.0
 20
297.0
  9
$ORTHOMODE
 70
     1
  9
$REGENMODE
 70
     1
  9
$FILLMODE
 70
     1
  9
$QTEXTMODE
 70
     0
  9
$MIRRTEXT
 70
     1
  9
$DRAGMODE
 70
     2
  9
$LTSCALE
 40
10.0
  9
$OSMODE
 70
   549
  9
$ATTMODE
 70
     1
  9
$TEXTSIZE
 40
3.0
  9
$TRACEWID
 40
1.0
  9
$TEXTSTYLE
  7
YOKO
  9
$CLAYER
  8
245
  9
$CELTYPE
  6
BYLAYER
  9
$CECOLOR
 62
   256
  9
$CELTSCALE
 40
1.0
  9
$DELOBJ
 70
     1
  9
$DISPSILH
 70
     0
  9
$DIMSCALE
 40
1.0
  9
$DIMASZ
 40
2.23
  9
$DIMEXO
 40
0.5
  9
$DIMDLI
 40
2.5
  9
$DIMRND
 40
0.0
  9
$DIMDLE
 40
0.0
  9
$DIMEXE
 40
1.0
  9
$DIMTP
 40
0.0
  9
$DIMTM
 40
0.0
  9
$DIMTXT
 40
2.8
  9
$DIMCEN
 40
0.0
  9
$DIMTSZ
 40
0.0
  9
$DIMTOL
 70
     0
  9
$DIMLIM
 70
     0
  9
$DIMTIH
 70
     0
  9
$DIMTOH
 70
     0
  9
$DIMSE1
 70
     0
  9
$DIMSE2
 70
     0
  9
$DIMTAD
 70
     3
  9
$DIMZIN
 70
     8
  9
$DIMBLK
  1

  9
$DIMASO
 70
     1
  9
$DIMSHO
 70
     1
  9
$DIMPOST
  1

  9
$DIMAPOST
  1

  9
$DIMALT
 70
     0
  9
$DIMALTD
 70
     2
  9
$DIMALTF
 40
25.4
  9
$DIMLFAC
 40
1.0
  9
$DIMTOFL
 70
     1
  9
$DIMTVP
 40
0.0
  9
$DIMTIX
 70
     1
  9
$DIMSOXD
 70
     0
  9
$DIMSAH
 70
     1
  9
$DIMBLK1
  1
OPEN
  9
$DIMBLK2
  1
OPEN
  9
$DIMSTYLE
  2
BIGT
  9
$DIMCLRD
 70
   256
  9
$DIMCLRE
 70
   256
  9
$DIMCLRT
 70
    40
  9
$DIMTFAC
 40
1.0
  9
$DIMGAP
 40
1.0
  9
$DIMJUST
 70
     0
  9
$DIMSD1
 70
     0
  9
$DIMSD2
 70
     0
  9
$DIMTOLJ
 70
     1
  9
$DIMTZIN
 70
     8
  9
$DIMALTZ
 70
     0
  9
$DIMALTTZ
 70
     0
  9
$DIMFIT
 70
     3
  9
$DIMUPT
 70
     0
  9
$DIMUNIT
 70
     2
  9
$DIMDEC
 70
     3
  9
$DIMTDEC
 70
     3
  9
$DIMALTU
 70
     2
  9
$DIMALTTD
 70
     2
  9
$DIMTXSTY
  7
STANDARD
  9
$DIMAUNIT
 70
     0
  9
$LUNITS
 70
     2
  9
$LUPREC
 70
     3
  9
$SKETCHINC
 40
1.0
  9
$FILLETRAD
 40
5.0
  9
$AUNITS
 70
     0
  9
$AUPREC
 70
     3
  9
$MENU
  1
.
  9
$ELEVATION
 40
0.0
  9
$PELEVATION
 40
0.0
  9
$THICKNESS
 40
0.0
  9
$LIMCHECK
 70
     0
  9
$BLIPMODE
 70
     0
  9
$CHAMFERA
 40
10.0
  9
$CHAMFERB
 40
10.0
  9
$CHAMFERC
 40
0.0
  9
$CHAMFERD
 40
0.0
  9
$SKPOLY
 70
     0
  9
$TDCREATE
 40
2455107.446757812
  9
$TDUPDATE
 40
2455392.456625428
  9
$TDINDWG
 40
0.0148327199
  9
$TDUSRTIMER
 40
0.0148327199
  9
$USRTIMER
 70
     1
  9
$ANGBASE
 50
0.0
  9
$ANGDIR
 70
     0
  9
$PDMODE
 70
     1
  9
$PDSIZE
 40
-5.0
  9
$PLINEWID
 40
0.0
  9
$COORDS
 70
     1
  9
$SPLFRAME
 70
     0
  9
$SPLINETYPE
 70
     6
  9
$SPLINESEGS
 70
     8
  9
$ATTDIA
 70
     0
  9
$ATTREQ
 70
     1
  9
$HANDLING
 70
-16383
  9
$HANDSEED
  5
CC5
  9
$SURFTAB1
 70
     6
  9
$SURFTAB2
 70
     6
  9
$SURFTYPE
 70
     6
  9
$SURFU
 70
     6
  9
$SURFV
 70
     6
  9
$UCSNAME
  2

  9
$UCSORG
 10
0.0
 20
0.0
 30
0.0
  9
$UCSXDIR
 10
1.0
 20
0.0
 30
0.0
  9
$UCSYDIR
 10
0.0
 20
1.0
 30
0.0
  9
$PUCSNAME
  2

  9
$PUCSORG
 10
0.0
 20
0.0
 30
0.0
  9
$PUCSXDIR
 10
1.0
 20
0.0
 30
0.0
  9
$PUCSYDIR
 10
0.0
 20
1.0
 30
0.0
  9
$USERI1
 70
     1
  9
$USERI2
 70
     0
  9
$USERI3
 70
     0
  9
$USERI4
 70
     0
  9
$USERI5
 70
     0
  9
$USERR1
 40
0.0
  9
$USERR2
 40
0.0
  9
$USERR3
 40
0.0
  9
$USERR4
 40
0.0
  9
$USERR5
 40
0.0
  9
$WORLDVIEW
 70
     1
  9
$SHADEDGE
 70
     3
  9
$SHADEDIF
 70
    70
  9
$TILEMODE
 70
     1
  9
$MAXACTVP
 70
    16
  9
$PINSBASE
 10
0.0
 20
0.0
 30
0.0
  9
$PLIMCHECK
 70
     0
  9
$PEXTMIN
 10
1.00000000E+20
 20
1.00000000E+20
 30
1.00000000E+20
  9
$PEXTMAX
 10
-1.00000000E+20
 20
-1.00000000E+20
 30
-1.00000000E+20
  9
$PLIMMIN
 10
0.0
 20
0.0
  9
$PLIMMAX
 10
420.0
 20
297.0
  9
$UNITMODE
 70
     0
  9
$VISRETAIN
 70
     0
  9
$PLINEGEN
 70
     0
  9
$PSLTSCALE
 70
     1
  9
$TREEDEPTH
 70
  3020
  9
$PICKSTYLE
 70
     0
  9
$CMLSTYLE
  2
STANDARD
  9
$CMLJUST
 70
     0
  9
$CMLSCALE
 40
1.0
  9
$PROXYGRAPHICS
 70
     1
  9
$MEASUREMENT
 70
     1
  0
ENDSEC
  0
SECTION
  2
CLASSES
  0
CLASS
  1
XRECORD
  2
AcDbXrecord
  3
AutoCAD 2000
 90
        0
280
     0
281
     0
  0
CLASS
  1
ACDBDICTIONARYWDFLT
  2
AcDbDictionaryWithDefault
  3
AutoCAD 2000
 90
        0
280
     0
281
     0
  0
CLASS
  1
ACDBPLACEHOLDER
  2
AcDbPlaceHolder
  3
AutoCAD 2000
 90
        0
280
     0
281
     0
  0
CLASS
  1
LAYOUT
  2
AcDbLayout
  3
AutoCAD 2000
 90
        0
280
     0
281
     0
  0
CLASS
  1
PLOTSETTINGS
  2
AcDbPlotSettings
  3
AutoCAD 2000
 90
        0
280
     0
281
     0
  0
CLASS
  1
LONG_TRANSACTION
  2
AcDbLongTransaction
  3
AutoCAD 2000
 90
        0
280
     0
281
     0
  0
CLASS
  1
LWPOLYLINE
  2
AcDbPolyline
  3
AutoCAD 2000
 90
        0
280
     0
281
     1
  0
CLASS
  1
HATCH
  2
AcDbHatch
  3
AutoCAD 2000
 90
        0
280
     0
281
     1
  0
CLASS
  1
XRECORD
  2
AcDbXrecord
  3
AutoCAD 2000
 90
        0
280
     0
281
     0
  0
CLASS
  1
LONG_TRANSACTION
  2
AcDbLongTransaction
  3
AutoCAD 2000
 90
        0
280
     0
281
     0
  0
CLASS
  1
LWPOLYLINE
  2
AcDbPolyline
  3
AutoCAD 2000
 90
        0
280
     0
281
     1
  0
CLASS
  1
HATCH
  2
AcDbHatch
  3
AutoCAD 2000
 90
        0
280
     0
281
     1
  0
CLASS
  1
XRECORD
  2
AcDbXrecord
  3
AutoCAD 2000
 90
        0
280
     0
281
     0
  0
ENDSEC
  0
SECTION
  2
TABLES
  0
TABLE
  2
VPORT
  5
8
330
0
100
AcDbSymbolTable
 70
     2
  0
VPORT
  5
C9A
330
8
100
AcDbSymbolTableRecord
100
AcDbViewportTableRecord
  2
*ACTIVE
 70
     0
 10
0.0
 20
0.0
 11
1.0
 21
1.0
 12
94.6356556
 22
14.99917062
 13
0.0
 23
0.0
 14
7.0
 24
7.0
 15
7.0
 25
7.0
 16
0.0
 26
0.0
 36
1.0
 17
0.0
 27
0.0
 37
0.0
 40
189.72519483
 41
1.45595855
 42
50.0
 43
0.0
 44
0.0
 50
0.0
 51
0.0
 71
     0
 72
  2000
 73
     1
 74
     0
 75
     0
 76
     0
 77
     0
 78
     0
  0
ENDTAB
  0
TABLE
  2
LTYPE
  5
5
330
0
100
AcDbSymbolTable
 70
     4
  0
LTYPE
  5
14
330
5
100
AcDbSymbolTableRecord
100
AcDbLinetypeTableRecord
  2
BYBLOCK
 70
     0
  3

 72
    65
 73
     0
 40
0.0
  0
LTYPE
  5
15
330
5
100
AcDbSymbolTableRecord
100
AcDbLinetypeTableRecord
  2
BYLAYER
 70
     0
  3

 72
    65
 73
     0
 40
0.0
  0
LTYPE
  5
16
330
5
100
AcDbSymbolTableRecord
100
AcDbLinetypeTableRecord
  2
CONTINUOUS
 70
     0
  3
Solid line
 72
    65
 73
     0
 40
0.0
  0
LTYPE
  5
258
330
5
100
AcDbSymbolTableRecord
100
AcDbLinetypeTableRecord
  2
CENTER2
 70
     0
  3
___ _ ___ _ ___ _ ___ _ ___ _ ___ _ ___ _ ___ _
 72
    65
 73
     4
 40
1.125
 49
0.75
 74
     0
 49
-0.125
 74
     0
 49
0.125
 74
     0
 49
-0.125
 74
     0
  0
LTYPE
  5
25C
330
5
100
AcDbSymbolTableRecord
100
AcDbLinetypeTableRecord
  2
HIDDEN2
 70
     0
  3
_ _ _ _ _ _ _ _ _ _ _ _ _ _ _ _ _ _ _ _ _ _ _ _
 72
    65
 73
     2
 40
0.1875
 49
0.125
 74
     0
 49
-0.0625
 74
     0
  0
LTYPE
  5
25D
330
5
100
AcDbSymbolTableRecord
100
AcDbLinetypeTableRecord
  2
PHANTOM2
 70
     0
  3
___ _ _ ___ _ _ ___ _ _ ___ _ _ ___ _ _ ___ _ _
 72
    65
 73
     6
 40
1.25
 49
0.625
 74
     0
 49
-0.125
 74
     0
 49
0.125
 74
     0
 49
-0.125
 74
     0
 49
0.125
 74
     0
 49
-0.125
 74
     0
  0
ENDTAB
  0
TABLE
  2
LAYER
  5
2
330
0
100
AcDbSymbolTable
 70
    11
  0
LAYER
  5
F
330
2
100
AcDbSymbolTableRecord
100
AcDbLayerTableRecord
  2
0
 70
     0
 62
     7
  6
CONTINUOUS
  0
LAYER
  5
1AA
330
2
100
AcDbSymbolTableRecord
100
AcDbLayerTableRecord
  2
240
 70
     0
 62
     4
  6
CONTINUOUS
  0
LAYER
  5
1AB
330
2
100
AcDbSymbolTableRecord
100
AcDbLayerTableRecord
  2
241
 70
     0
 62
   211
  6
CONTINUOUS
  0
LAYER
  5
1AC
330
2
100
AcDbSymbolTableRecord
100
AcDbLayerTableRecord
  2
242
 70
     0
 62
     3
  6
CONTINUOUS
  0
LAYER
  5
1AD
330
2
100
AcDbSymbolTableRecord
100
AcDbLayerTableRecord
  2
243
 70
     0
 62
   211
  6
HIDDEN2
  0
LAYER
  5
1AF
330
2
100
AcDbSymbolTableRecord
100
AcDbLayerTableRecord
  2
245
 70
     0
 62
     2
  6
CENTER2
  0
LAYER
  5
21E
330
2
100
AcDbSymbolTableRecord
100
AcDbLayerTableRecord
  2
250
 70
     0
 62
     3
  6
CONTINUOUS
  0
LAYER
  5
21F
330
2
100
AcDbSymbolTableRecord
100
AcDbLayerTableRecord
  2
251
 70
     0
 62
    40
  6
CONTINUOUS
  0
LAYER
  5
5C4
330
2
100
AcDbSymbolTableRecord
100
AcDbLayerTableRecord
  2
DEFPOINTS
 70
     0
 62
     7
  6
CONTINUOUS
  0
ENDTAB
  0
TABLE
  2
STYLE
  5
3
330
0
100
AcDbSymbolTable
 70
     2
  0
STYLE
  5
10
330
3
100
AcDbSymbolTableRecord
100
AcDbTextStyleTableRecord
  2
STANDARD
 70
     0
 40
0.0
 41
1.0
 50
0.0
 71
     0
 42
3.0
  3
romans.shx
  4
BIGFONT.SHX
  0
STYLE
  5
339
330
3
100
AcDbSymbolTableRecord
100
AcDbTextStyleTableRecord
  2
YOKO
 70
     0
 40
0.0
 41
1.0
 50
0.0
 71
     0
 42
3.0
  3
romans.shx
  4
extfont.shx
  0
ENDTAB
  0
TABLE
  2
VIEW
  5
6
330
0
100
AcDbSymbolTable
 70
     0
  0
ENDTAB
  0
TABLE
  2
UCS
  5
7
330
0
100
AcDbSymbolTable
 70
     0
  0
ENDTAB
  0
TABLE
  2
APPID
  5
9
330
0
100
AcDbSymbolTable
 70
    10
  0
APPID
  5
11
330
9
100
AcDbSymbolTableRecord
100
AcDbRegAppTableRecord
  2
ACAD
 70
     0
  0
APPID
  5
1B1
330
9
100
AcDbSymbolTableRecord
100
AcDbRegAppTableRecord
  2
GLOBAL
 70
     0
  0
APPID
  5
2A4
330
9
100
AcDbSymbolTableRecord
100
AcDbRegAppTableRecord
  2
DETAIL
 70
     0
  0
APPID
  5
5FD
330
9
100
AcDbSymbolTableRecord
100
AcDbRegAppTableRecord
  2
GRPNAME
 70
     0
  0
APPID
  5
5FE
330
9
100
AcDbSymbolTableRecord
100
AcDbRegAppTableRecord
  2
GPARA
 70
     0
  0
APPID
  5
6C4
330
9
100
AcDbSymbolTableRecord
100
AcDbRegAppTableRecord
  2
DCO15
 70
     0
  0
APPID
  5
6C5
330
9
100
AcDbSymbolTableRecord
100
AcDbRegAppTableRecord
  2
ITEMNAME
 70
     0
  0
APPID
  5
6C6
330
9
100
AcDbSymbolTableRecord
100
AcDbRegAppTableRecord
  2
GRADE_0
 70
     0
  0
APPID
  5
8E1
330
9
100
AcDbSymbolTableRecord
100
AcDbRegAppTableRecord
  2
ACAD_PSEXT
 70
     0
  0
APPID
  5
AEB
330
9
100
AcDbSymbolTableRecord
100
AcDbRegAppTableRecord
  2
CONTENTBLOCKICON
 70
     0
  0
ENDTAB
  0
TABLE
  2
DIMSTYLE
  5
A
330
0
100
AcDbSymbolTable
 70
     4
  0
DIMSTYLE
105
725
102
{ACAD_REACTORS
330
81E
330
91D
330
92C
330
946
330
979
102
}
330
A
100
AcDbSymbolTableRecord
100
AcDbDimStyleTableRecord
  2
BIGT
 70
     0
  3

  4

  5

  6
OPEN
  7
OPEN
 40
1.0
 41
2.23
 42
0.5
 43
2.5
 44
1.0
 45
0.0
 46
0.0
 47
0.0
 48
0.0
140
2.8
141
0.0
142
0.0
143
25.4
144
1.0
145
0.0
146
1.0
147
1.0
 71
     0
 72
     0
 73
     0
 74
     0
 75
     0
 76
     0
 77
     3
 78
     8
170
     0
171
     2
172
     1
173
     1
174
     1
175
     0
176
   256
177
   256
178
    40
270
     2
271
     3
272
     3
273
     2
274
     2
340
10
275
     0
280
     0
281
     0
282
     0
283
     1
284
     8
285
     0
286
     0
287
     3
288
     0
  0
ENDTAB
  0
TABLE
  2
BLOCK_RECORD
  5
1
330
0
100
AcDbSymbolTable
 70
     9
  0
BLOCK_RECORD
  5
1A
102
{ACAD_XDICTIONARY
360
AE9
102
}
330
1
100
AcDbSymbolTableRecord
100
AcDbBlockTableRecord
  2
*MODEL_SPACE
  0
BLOCK_RECORD
  5
17
102
{ACAD_XDICTIONARY
360
AE7
102
}
330
1
100
AcDbSymbolTableRecord
100
AcDbBlockTableRecord
  2
*PAPER_SPACE
  0
BLOCK_RECORD
  5
594
330
1
100
AcDbSymbolTableRecord
100
AcDbBlockTableRecord
  2
_OPEN
  0
BLOCK_RECORD
  5
6E3
330
1
100
AcDbSymbolTableRecord
100
AcDbBlockTableRecord
  2
矢印なし
  0
BLOCK_RECORD
  5
76C
330
1
100
AcDbSymbolTableRecord
100
AcDbBlockTableRecord
  2
1
1001
CONTENTBLOCKICON
1071
        0
1004
2800000020000000200000000100080000000000000400000000000000000000000000000000000000000000000080000080000000808000800000008000800080800000C0C0C000C0DCC000F0CAA6000020400000206000002080000020A0000020C0000020E00000400000004020000040400000406000004080000040A0
1004
000040C0000040E00000600000006020000060400000606000006080000060A0000060C0000060E00000800000008020000080400000806000008080000080A0000080C0000080E00000A0000000A0200000A0400000A0600000A0800000A0A00000A0C00000A0E00000C0000000C0200000C0400000C0600000C0800000C0
1004
A00000C0C00000C0E00000E0000000E0200000E0400000E0600000E0800000E0A00000E0C00000E0E00040000000400020004000400040006000400080004000A0004000C0004000E00040200000402020004020400040206000402080004020A0004020C0004020E000404000004040200040404000404060004040800040
1004
40A0004040C0004040E00040600000406020004060400040606000406080004060A0004060C0004060E00040800000408020004080400040806000408080004080A0004080C0004080E00040A0000040A0200040A0400040A0600040A0800040A0A00040A0C00040A0E00040C0000040C0200040C0400040C0600040C08000
1004
40C0A00040C0C00040C0E00040E0000040E0200040E0400040E0600040E0800040E0A00040E0C00040E0E00080000000800020008000400080006000800080008000A0008000C0008000E00080200000802020008020400080206000802080008020A0008020C0008020E00080400000804020008040400080406000804080
1004
008040A0008040C0008040E00080600000806020008060400080606000806080008060A0008060C0008060E00080800000808020008080400080806000808080008080A0008080C0008080E00080A0000080A0200080A0400080A0600080A0800080A0A00080A0C00080A0E00080C0000080C0200080C0400080C0600080C0
1004
800080C0A00080C0C00080C0E00080E0000080E0200080E0400080E0600080E0800080E0A00080E0C00080E0E000C0000000C0002000C0004000C0006000C0008000C000A000C000C000C000E000C0200000C0202000C0204000C0206000C0208000C020A000C020C000C020E000C0400000C0402000C0404000C0406000C0
1004
408000C040A000C040C000C040E000C0600000C0602000C0604000C0606000C0608000C060A000C060C000C060E000C0800000C0802000C0804000C0806000C0808000C080A000C080C000C080E000C0A00000C0A02000C0A04000C0A06000C0A08000C0A0A000C0A0C000C0A0E000C0C00000C0C02000C0C04000C0C06000
1004
C0C08000C0C0A000F0FBFF00A4A0A000808080000000FF0000FF000000FFFF00FF000000FF00FF00FFFF0000FFFFFF0000000000000000000000000000000000000000000000000000000000000000000000000000000000000000000000000000000000000000000000000000000000000000000000000000000000000000
1004
00000000000000000000000000000000000000000000000000000000000000000000000000000000000000000000000000000000000000000000000000000000000000000000000000000000000000000000000000000000000000000000000000000000000000000000000000000000000000000000000000000000000000
1004
00000000000000000000000000000000000000000000000000000000000000000000000000000000000000000000000000000000000000000000000000000000000000000000000000000000000000000000000000000000000000000000000000000000000000000000000000000000000000000000000000000000000000
1004
000000000000000000FAFAFBFAFA00000000000000000000000000000000FEFEE7FEFEFE000000FEFEFEFEE7FEFEFEFA0000000000000000FEE7FEE7E7FEFE00E7E7E7FE000000FE000000E70000E7FE0000000000FEFEFEFEE7E7E7E700E700E7FBFBFB0000FAFE000000E70000E700FE00000000FE0000E700E7E70000E7
1004
00E700FBFE00FA00FE000000E70000E700FE00000000FE0000E700E7E70000E700E7E7E7FE00FA00FE000000E70000E700FE000000FBFEFBFBE7FBE7E7FBFBE7FBE7E7E7E700FBFBFEFBFBFBE7FBFBE7FBFEFB000000FE0000E700FBE70000E700E700FBFE00FA00FE000000FB0000E700FE00000000FEFEFEFEE7E7E7E700
1004
E700E7FBFBFB0000FAFE000000FB0000E700FE00000000000000FEE7FEE7E7FEFE00E7E7E7FE000000FE000000FB0000E7FE0000000000000000000000000000FEFEFEFEFEFE000000FEFEFEFEFEFEFEFEFA00000000000000000000000000000000000000000000000000FAFAFBFAFA000000000000000000000000000000
1004
00000000000000000000000000000000000000000000000000000000000000000000000000000000000000000000000000000000000000000000000000000000000000000000000000000000000000000000000000000000000000000000000000000000000000000000000000000000000000000000000000000000000000
1004
00000000000000000000000000000000000000000000000000000000000000000000000000000000000000000000000000000000000000000000000000000000000000000000000000000000000000000000000000000000000000000000000000000000000000000000000000000000000000000000000000000000000000
1004
0000000000000000000000000000000000000000000000000000000000000000000000000000000000000000000000000000000000000000
  0
BLOCK_RECORD
  5
825
330
1
100
AcDbSymbolTableRecord
100
AcDbBlockTableRecord
  2
*D3
  0
BLOCK_RECORD
  5
91E
330
1
100
AcDbSymbolTableRecord
100
AcDbBlockTableRecord
  2
*D4
  0
BLOCK_RECORD
  5
92D
330
1
100
AcDbSymbolTableRecord
100
AcDbBlockTableRecord
  2
*D5
  0
BLOCK_RECORD
  5
947
330
1
100
AcDbSymbolTableRecord
100
AcDbBlockTableRecord
  2
*D6
  0
BLOCK_RECORD
  5
97A
330
1
100
AcDbSymbolTableRecord
100
AcDbBlockTableRecord
  2
*D7
  0
ENDTAB
  0
ENDSEC
  0
SECTION
  2
BLOCKS
  0
BLOCK
  5
1B
330
1A
100
AcDbEntity
  8
0
100
AcDbBlockBegin
  2
*MODEL_SPACE
 70
     0
 10
0.0
 20
0.0
 30
0.0
  3
*MODEL_SPACE
  1

  0
ENDBLK
  5
1C
330
1A
100
AcDbEntity
  8
0
100
AcDbBlockEnd
  0
BLOCK
  5
18
330
17
100
AcDbEntity
 67
     1
  8
0
100
AcDbBlockBegin
  2
*PAPER_SPACE
 70
     0
 10
0.0
 20
0.0
 30
0.0
  3
*PAPER_SPACE
  1

  0
ENDBLK
  5
19
330
17
100
AcDbEntity
 67
     1
  8
0
100
AcDbBlockEnd
  0
BLOCK
  5
598
330
594
100
AcDbEntity
  8
0
100
AcDbBlockBegin
  2
_OPEN
 70
     0
 10
0.0
 20
0.0
 30
0.0
  3
_OPEN
  1

  0
LINE
  5
595
330
594
100
AcDbEntity
  8
0
  6
BYBLOCK
 62
     0
100
AcDbLine
 10
-1.0
 20
0.16666667
 30
0.0
 11
0.0
 21
0.0
 31
0.0
  0
LINE
  5
596
330
594
100
AcDbEntity
  8
0
  6
BYBLOCK
 62
     0
100
AcDbLine
 10
-1.0
 20
-0.16666667
 30
0.0
 11
0.0
 21
0.0
 31
0.0
  0
LINE
  5
597
330
594
100
AcDbEntity
  8
0
  6
BYBLOCK
 62
     0
100
AcDbLine
 10
0.0
 20
0.0
 30
0.0
 11
-1.0
 21
0.0
 31
0.0
  0
ENDBLK
  5
599
330
594
100
AcDbEntity
  8
0
100
AcDbBlockEnd
  0
BLOCK
  5
6E4
330
6E3
100
AcDbEntity
  8
0
100
AcDbBlockBegin
  2
矢印なし
 70
     0
 10
0.0
 20
0.0
 30
0.0
  3
矢印なし
  1

  0
ENDBLK
  5
6E5
330
6E3
100
AcDbEntity
  8
0
100
AcDbBlockEnd
  0
BLOCK
  5
7EC
330
76C
100
AcDbEntity
  8
0
100
AcDbBlockBegin
  2
1
 70
     0
 10
0.0
 20
0.0
 30
0.0
  3
1
  1

  0
CIRCLE
  5
C2F
330
76C
100
AcDbEntity
  8
242
  6
PHANTOM2
100
AcDbCircle
 10
168.0
 20
0.0
 30
0.0
 40
50.0
  0
LINE
  5
C30
330
76C
100
AcDbEntity
  8
240
100
AcDbLine
 10
196.28427125
 20
-40.0
 30
0.0
 11
141.0
 21
-40.0
 31
0.0
  0
LINE
  5
C31
330
76C
100
AcDbEntity
  8
245
100
AcDbLine
 10
220.0
 20
0.0
 30
0.0
 11
116.00000132
 21
0.0
 31
0.0
  0
LINE
  5
C32
330
76C
100
AcDbEntity
  8
240
100
AcDbLine
 10
167.9
 20
40.0
 30
0.0
 11
196.28427125
 21
40.0
 31
0.0
  0
LINE
  5
C33
330
76C
100
AcDbEntity
  8
240
  6
CONTINUOUS
100
AcDbLine
 10
21.37749907
 20
-31.5
 30
0.0
 11
47.0
 21
-31.5
 31
0.0
  0
LINE
  5
C34
330
76C
100
AcDbEntity
  8
240
  6
CONTINUOUS
100
AcDbLine
 10
21.37749907
 20
31.5
 30
0.0
 11
47.0
 21
31.5
 31
0.0
  0
LINE
  5
C35
330
76C
100
AcDbEntity
  8
245
100
AcDbLine
 10
-33.0
 20
0.0
 30
0.0
 11
101.0
 21
0.0
 31
0.0
  0
LINE
  5
C36
330
76C
100
AcDbEntity
  8
241
  6
CONTINUOUS
100
AcDbLine
 10
14.62250093
 20
0.0
 30
0.0
 11
14.62250093
 21
20.0
 31
0.0
  0
LINE
  5
C37
330
76C
100
AcDbEntity
  8
241
  6
CONTINUOUS
100
AcDbLine
 10
21.37749907
 20
0.0
 30
0.0
 11
21.37749907
 21
20.0
 31
0.0
  0
LINE
  5
C38
330
76C
100
AcDbEntity
  8
241
100
AcDbLine
 10
26.0
 20
0.0
 30
0.0
 11
26.0
 21
20.0
 31
0.0
  0
LINE
  5
C39
330
76C
100
AcDbEntity
  8
241
100
AcDbLine
 10
0.0
 20
24.215
 30
0.0
 11
0.0
 21
0.0
 31
0.0
  0
LINE
  5
C3A
330
76C
100
AcDbEntity
  8
241
  6
CONTINUOUS
100
AcDbLine
 10
19.875
 20
27.5
 30
0.0
 11
19.875
 21
0.0
 31
0.0
  0
LINE
  5
C3B
330
76C
100
AcDbEntity
  8
241
  6
CONTINUOUS
100
AcDbLine
 10
16.125
 20
27.5
 30
0.0
 11
16.125
 21
0.0
 31
0.0
  0
LINE
  5
C3C
330
76C
100
AcDbEntity
  8
241
  6
CONTINUOUS
100
AcDbLine
 10
-2.0
 20
-24.215
 30
0.0
 11
-2.0
 21
24.215
 31
0.0
  0
LINE
  5
C3D
330
76C
100
AcDbEntity
  8
240
  6
CONTINUOUS
100
AcDbLine
 10
-32.0
 20
-21.57350094
 30
0.0
 11
-32.0
 21
21.57350094
 31
0.0
  0
LINE
  5
C3E
330
76C
100
AcDbEntity
  8
245
  6
CENTER2
100
AcDbLine
 10
18.0
 20
-31.5
 30
0.0
 11
18.0
 21
31.5
 31
0.0
  0
LINE
  5
C3F
330
76C
100
AcDbEntity
  8
240
  6
CONTINUOUS
100
AcDbLine
 10
-2.0
 20
-24.215
 30
0.0
 11
-30.85992514
 21
-22.77200374
 31
0.0
  0
ARC
  5
C40
330
76C
100
AcDbEntity
  8
240
  6
CONTINUOUS
100
AcDbCircle
 10
-30.8
 20
-21.57350094
 30
0.0
 40
1.199999999999988
100
AcDbArc
 50
180.0
 51
267.13759477
  0
LINE
  5
C41
330
76C
100
AcDbEntity
  8
241
  6
HIDDEN2
100
AcDbLine
 10
5.0
 20
-26.5
 30
0.0
 11
35.0
 21
-26.5
 31
0.0
  0
LINE
  5
C42
330
76C
100
AcDbEntity
  8
240
  6
CONTINUOUS
100
AcDbLine
 10
1.0
 20
-31.5
 30
0.0
 11
14.62250093
 21
-31.5
 31
0.0
  0
LINE
  5
C43
330
76C
100
AcDbEntity
  8
241
100
AcDbLine
 10
0.0
 20
-24.215
 30
0.0
 11
0.0
 21
0.0
 31
0.0
  0
LINE
  5
C44
330
76C
100
AcDbEntity
  8
240
  6
CONTINUOUS
100
AcDbLine
 10
0.0
 20
-30.5
 30
0.0
 11
0.0
 21
-24.215
 31
0.0
  0
LINE
  5
C45
330
76C
100
AcDbEntity
  8
241
  6
HIDDEN2
100
AcDbLine
 10
5.0
 20
-26.5
 30
0.0
 11
5.0
 21
-31.5
 31
0.0
  0
ARC
  5
C46
330
76C
100
AcDbEntity
  8
240
  6
CONTINUOUS
100
AcDbCircle
 10
1.0
 20
-30.5
 30
0.0
 40
1.0
100
AcDbArc
 50
180.0
 51
270.0
  0
LINE
  5
C47
330
76C
100
AcDbEntity
  8
240
100
AcDbLine
 10
-2.0
 20
-24.215
 30
0.0
 11
0.0
 21
-24.215
 31
0.0
  0
LINE
  5
C48
330
76C
100
AcDbEntity
  8
241
100
AcDbLine
 10
26.0
 20
0.0
 30
0.0
 11
26.0
 21
-31.5
 31
0.0
  0
LINE
  5
C49
330
76C
100
AcDbEntity
  8
241
  6
CONTINUOUS
100
AcDbLine
 10
21.37749907
 20
-31.5
 30
0.0
 11
21.37749907
 21
0.0
 31
0.0
  0
LINE
  5
C4A
330
76C
100
AcDbEntity
  8
241
  6
CONTINUOUS
100
AcDbLine
 10
19.875
 20
-27.5
 30
0.0
 11
19.875
 21
0.0
 31
0.0
  0
LINE
  5
C4B
330
76C
100
AcDbEntity
  8
241
  6
CONTINUOUS
100
AcDbLine
 10
16.125
 20
-27.5
 30
0.0
 11
16.125
 21
0.0
 31
0.0
  0
LINE
  5
C4C
330
76C
100
AcDbEntity
  8
241
  6
CONTINUOUS
100
AcDbLine
 10
14.62250093
 20
-31.5
 30
0.0
 11
14.62250093
 21
0.0
 31
0.0
  0
LINE
  5
C4D
330
76C
100
AcDbEntity
  8
240
  6
CONTINUOUS
100
AcDbLine
 10
16.125
 20
-27.5
 30
0.0
 11
19.875
 21
-27.5
 31
0.0
  0
LINE
  5
C4E
330
76C
100
AcDbEntity
  8
240
  6
CONTINUOUS
100
AcDbLine
 10
16.125
 20
-27.5
 30
0.0
 11
16.125
 21
-28.89759526
 31
0.0
  0
LINE
  5
C4F
330
76C
100
AcDbEntity
  8
240
  6
CONTINUOUS
100
AcDbLine
 10
16.125
 20
-28.89759526
 30
0.0
 11
14.62250093
 21
-31.5
 31
0.0
  0
LINE
  5
C50
330
76C
100
AcDbEntity
  8
240
  6
CONTINUOUS
100
AcDbLine
 10
19.875
 20
-28.89759526
 30
0.0
 11
21.37749907
 21
-31.5
 31
0.0
  0
LINE
  5
C51
330
76C
100
AcDbEntity
  8
240
  6
CONTINUOUS
100
AcDbLine
 10
19.875
 20
-27.5
 30
0.0
 11
19.875
 21
-28.89759526
 31
0.0
  0
LINE
  5
C52
330
76C
100
AcDbEntity
  8
241
  6
HIDDEN2
100
AcDbLine
 10
35.0
 20
-26.5
 30
0.0
 11
35.0
 21
-31.5
 31
0.0
  0
LINE
  5
C53
330
76C
100
AcDbEntity
  8
240
  6
CONTINUOUS
100
AcDbLine
 10
-2.0
 20
24.215
 30
0.0
 11
-30.85992514
 21
22.77200374
 31
0.0
  0
ARC
  5
C54
330
76C
100
AcDbEntity
  8
240
  6
CONTINUOUS
100
AcDbCircle
 10
-30.8
 20
21.57350094
 30
0.0
 40
1.199999999999994
100
AcDbArc
 50
92.86240523
 51
180.0
  0
LINE
  5
C55
330
76C
100
AcDbEntity
  8
241
  6
HIDDEN2
100
AcDbLine
 10
5.0
 20
26.5
 30
0.0
 11
35.0
 21
26.5
 31
0.0
  0
LINE
  5
C56
330
76C
100
AcDbEntity
  8
240
  6
CONTINUOUS
100
AcDbLine
 10
1.0
 20
31.5
 30
0.0
 11
14.62250093
 21
31.5
 31
0.0
  0
ARC
  5
C57
330
76C
100
AcDbEntity
  8
241
  6
CONTINUOUS
100
AcDbCircle
 10
12.1117139
 20
16.33618705
 30
0.0
 40
8.0
100
AcDbArc
 50
90.0
 51
152.74338069
  0
LINE
  5
C58
330
76C
100
AcDbEntity
  8
241
  6
CONTINUOUS
100
AcDbLine
 10
5.0
 20
20.0
 30
0.0
 11
16.125
 21
20.0
 31
0.0
  0
LINE
  5
C59
330
76C
100
AcDbEntity
  8
241
  6
HIDDEN2
100
AcDbLine
 10
5.0
 20
26.5
 30
0.0
 11
5.0
 21
31.5
 31
0.0
  0
LINE
  5
C5A
330
76C
100
AcDbEntity
  8
240
  6
CONTINUOUS
100
AcDbLine
 10
0.0
 20
24.215
 30
0.0
 11
0.0
 21
30.5
 31
0.0
  0
LINE
  5
C5B
330
76C
100
AcDbEntity
  8
240
100
AcDbLine
 10
-2.0
 20
24.215
 30
0.0
 11
0.0
 21
24.215
 31
0.0
  0
ARC
  5
C5C
330
76C
100
AcDbEntity
  8
240
  6
CONTINUOUS
100
AcDbCircle
 10
1.0
 20
30.5
 30
0.0
 40
1.0
100
AcDbArc
 50
90.0
 51
180.0
  0
LINE
  5
C5D
330
76C
100
AcDbEntity
  8
241
100
AcDbLine
 10
25.5
 20
24.33618705
 30
0.0
 11
26.0
 21
23.68543856
 31
0.0
  0
LINE
  5
C5E
330
76C
100
AcDbEntity
  8
241
  6
CONTINUOUS
100
AcDbLine
 10
19.875
 20
20.0
 30
0.0
 11
33.73680634
 21
20.0
 31
0.0
  0
LINE
  5
C5F
330
76C
100
AcDbEntity
  8
241
  6
CONTINUOUS
100
AcDbLine
 10
21.37749907
 20
31.5
 30
0.0
 11
21.37749907
 21
24.33618705
 31
0.0
  0
LINE
  5
C60
330
76C
100
AcDbEntity
  8
241
  6
CONTINUOUS
100
AcDbLine
 10
14.62250093
 20
31.5
 30
0.0
 11
14.62250093
 21
24.33618705
 31
0.0
  0
LINE
  5
C61
330
76C
100
AcDbEntity
  8
241
  6
CONTINUOUS
100
AcDbLine
 10
12.1117139
 20
24.33618705
 30
0.0
 11
14.62250093
 21
24.33618705
 31
0.0
  0
LINE
  5
C62
330
76C
100
AcDbEntity
  8
241
100
AcDbLine
 10
14.62250093
 20
24.33618705
 30
0.0
 11
16.125
 21
20.85835593
 31
0.0
  0
LINE
  5
C63
330
76C
100
AcDbEntity
  8
241
100
AcDbLine
 10
21.37749907
 20
24.33618705
 30
0.0
 11
19.875
 21
20.85835593
 31
0.0
  0
LINE
  5
C64
330
76C
100
AcDbEntity
  8
241
  6
CONTINUOUS
100
AcDbLine
 10
25.5
 20
24.33618705
 30
0.0
 11
21.37749907
 21
24.33618705
 31
0.0
  0
LINE
  5
C65
330
76C
100
AcDbEntity
  8
240
  6
CONTINUOUS
100
AcDbLine
 10
16.125
 20
27.5
 30
0.0
 11
19.875
 21
27.5
 31
0.0
  0
LINE
  5
C66
330
76C
100
AcDbEntity
  8
240
  6
CONTINUOUS
100
AcDbLine
 10
16.125
 20
27.5
 30
0.0
 11
16.125
 21
28.89759526
 31
0.0
  0
LINE
  5
C67
330
76C
100
AcDbEntity
  8
240
  6
CONTINUOUS
100
AcDbLine
 10
16.125
 20
28.89759526
 30
0.0
 11
14.62250093
 21
31.5
 31
0.0
  0
LINE
  5
C68
330
76C
100
AcDbEntity
  8
240
  6
CONTINUOUS
100
AcDbLine
 10
19.875
 20
28.89759526
 30
0.0
 11
21.37749907
 21
31.5
 31
0.0
  0
LINE
  5
C69
330
76C
100
AcDbEntity
  8
240
  6
CONTINUOUS
100
AcDbLine
 10
19.875
 20
27.5
 30
0.0
 11
19.875
 21
28.89759526
 31
0.0
  0
LINE
  5
C6A
330
76C
100
AcDbEntity
  8
241
100
AcDbLine
 10
26.0
 20
31.5
 30
0.0
 11
26.0
 21
23.68543856
 31
0.0
  0
LINE
  5
C6B
330
76C
100
AcDbEntity
  8
241
  6
HIDDEN2
100
AcDbLine
 10
35.0
 20
26.5
 30
0.0
 11
35.0
 21
31.5
 31
0.0
  0
ARC
  5
C6C
330
76C
100
AcDbEntity
  8
241
  6
CONTINUOUS
100
AcDbCircle
 10
27.0
 20
15.68543856
 30
0.0
 40
8.0
100
AcDbArc
 50
32.6373725
 51
90.0
  0
LINE
  5
C6D
330
76C
100
AcDbEntity
  8
241
100
AcDbLine
 10
26.0
 20
23.68543856
 30
0.0
 11
27.0
 21
23.68543856
 31
0.0
  0
LINE
  5
C6E
330
76C
100
AcDbEntity
  8
241
100
AcDbLine
 10
167.9
 20
0.0
 30
0.0
 11
167.9
 21
40.0
 31
0.0
  0
LINE
  5
C6F
330
76C
100
AcDbEntity
  8
240
100
AcDbLine
 10
133.0
 20
32.0
 30
0.0
 11
133.0
 21
0.0
 31
0.0
  0
LINE
  5
C70
330
76C
100
AcDbEntity
  8
241
100
AcDbLine
 10
50.0
 20
34.5
 30
0.0
 11
50.0
 21
0.0
 31
0.0
  0
LINE
  5
C71
330
76C
100
AcDbEntity
  8
243
100
AcDbLine
 10
75.00010162
 20
0.0
 30
0.0
 11
75.00010162
 21
40.0
 31
0.0
  0
LINE
  5
C72
330
76C
100
AcDbEntity
  8
240
100
AcDbLine
 10
100.0
 20
37.41657387
 30
0.0
 11
100.0
 21
0.0
 31
0.0
  0
LINE
  5
C73
330
76C
100
AcDbEntity
  8
245
100
AcDbLine
 10
87.5
 20
-32.0
 30
0.0
 11
87.5
 21
32.0
 31
0.0
  0
LINE
  5
C74
330
76C
100
AcDbEntity
  8
245
100
AcDbLine
 10
168.0
 20
51.9884917
 30
0.0
 11
168.0
 21
-52.0115083
 31
0.0
  0
LINE
  5
C75
330
76C
100
AcDbEntity
  8
240
100
AcDbLine
 10
90.0
 20
-40.0
 30
0.0
 11
55.0
 21
-40.0
 31
0.0
  0
LINE
  5
C76
330
76C
100
AcDbEntity
  8
243
100
AcDbLine
 10
75.00010162
 20
0.0
 30
0.0
 11
75.00010162
 21
-40.0
 31
0.0
  0
LINE
  5
C77
330
76C
100
AcDbEntity
  8
241
100
AcDbLine
 10
50.0
 20
-34.5
 30
0.0
 11
50.0
 21
0.0
 31
0.0
  0
ARC
  5
C78
330
76C
100
AcDbEntity
  8
240
100
AcDbCircle
 10
55.0
 20
-35.0
 30
0.0
 40
5.0
100
AcDbArc
 50
180.0
 51
270.0
  0
ARC
  5
C79
330
76C
100
AcDbEntity
  8
240
  6
CONTINUOUS
100
AcDbCircle
 10
47.0
 20
-34.5
 30
0.0
 40
3.0
100
AcDbArc
 50
0.0
 51
90.0
  0
LINE
  5
C7A
330
76C
100
AcDbEntity
  8
240
100
AcDbLine
 10
50.0
 20
-34.5
 30
0.0
 11
50.0
 21
-35.0
 31
0.0
  0
LINE
  5
C7B
330
76C
100
AcDbEntity
  8
240
100
AcDbLine
 10
100.0
 20
-37.41657387
 30
0.0
 11
100.0
 21
0.0
 31
0.0
  0
LINE
  5
C7C
330
76C
100
AcDbEntity
  8
240
100
AcDbLine
 10
99.5046098
 20
-40.0
 30
0.0
 11
90.0
 21
-40.0
 31
0.0
  0
LWPOLYLINE
  5
C7D
330
76C
100
AcDbEntity
  8
241
100
AcDbPolyline
 90
        6
 70
     1
 43
0.0
 10
84.5
 20
-26.73205081
 10
87.5
 20
-28.46410162
 10
90.5
 20
-26.73205081
 10
90.5
 20
-23.26794919
 10
87.5
 20
-21.53589838
 10
84.5
 20
-23.26794919
  0
CIRCLE
  5
C7E
330
76C
100
AcDbEntity
  8
242
100
AcDbCircle
 10
87.5
 20
-25.0
 30
0.0
 40
5.125
  0
CIRCLE
  5
C7F
330
76C
100
AcDbEntity
  8
241
100
AcDbCircle
 10
87.5
 20
-25.0
 30
0.0
 40
6.0
  0
LINE
  5
C80
330
76C
100
AcDbEntity
  8
245
100
AcDbLine
 10
94.5
 20
-25.0
 30
0.0
 11
80.5
 21
-25.0
 31
0.0
  0
SPLINE
  5
C81
330
76C
100
AcDbEntity
  8
240
100
AcDbSpline
210
0.0
220
0.0
230
1.0
 70
     8
 71
     3
 72
    14
 73
    10
 74
     0
 42
0.0000000001
 43
0.0000000001
 40
-8.084754433706956
 40
-8.084754433706956
 40
-8.084754433706956
 40
-8.084754433706956
 40
-6.919220361330054
 40
-6.919220361330054
 40
-6.336453325141603
 40
-6.336453325141603
 40
-5.753686288953151
 40
-5.753686288953151
 40
-5.58373332804397
 40
-5.58373332804397
 40
-5.58373332804397
 40
-5.58373332804397
 10
100.0000000000007
 20
-37.41657386773943
 30
0.0
 10
100.0000000000007
 20
-37.80508522519834
 30
0.0
 10
99.96674513695149
 20
-38.23017997115129
 30
0.0
 10
99.85610596100588
 20
-38.85679804773224
 30
0.0
 10
99.80945597140006
 20
-39.06393670217868
 30
0.0
 10
99.69949421002519
 20
-39.46442972987949
 30
0.0
 10
99.63617952203181
 20
-39.6577833024321
 30
0.0
 10
99.54763241870177
 20
-39.89254608777969
 30
0.0
 10
99.52662938040269
 20
-39.94609482824717
 30
0.0
 10
99.50460979722521
 20
-40.0000000000299
 30
0.0
  0
LWPOLYLINE
  5
C82
330
76C
100
AcDbEntity
  8
241
100
AcDbPolyline
 90
        6
 70
     1
 43
0.0
 10
84.5
 20
-1.73205081
 10
87.5
 20
-3.46410162
 10
90.5
 20
-1.73205081
 10
90.5
 20
1.73205081
 10
87.5
 20
3.46410162
 10
84.5
 20
1.73205081
  0
CIRCLE
  5
C83
330
76C
100
AcDbEntity
  8
242
100
AcDbCircle
 10
87.5
 20
0.0
 30
0.0
 40
5.125
  0
CIRCLE
  5
C84
330
76C
100
AcDbEntity
  8
241
100
AcDbCircle
 10
87.5
 20
0.0
 30
0.0
 40
6.0
  0
ARC
  5
C85
330
76C
100
AcDbEntity
  8
240
100
AcDbCircle
 10
141.0
 20
-32.0
 30
0.0
 40
8.0
100
AcDbArc
 50
180.0
 51
270.0
  0
LINE
  5
C86
330
76C
100
AcDbEntity
  8
240
100
AcDbLine
 10
133.0
 20
-32.0
 30
0.0
 11
133.0
 21
0.0
 31
0.0
  0
LINE
  5
C87
330
76C
100
AcDbEntity
  8
241
100
AcDbLine
 10
167.9
 20
0.0
 30
0.0
 11
167.9
 21
-40.0
 31
0.0
  0
LINE
  5
C88
330
76C
100
AcDbEntity
  8
240
100
AcDbLine
 10
55.0
 20
40.0
 30
0.0
 11
99.50460981
 21
39.99999998
 31
0.0
  0
ARC
  5
C89
330
76C
100
AcDbEntity
  8
240
100
AcDbCircle
 10
55.0
 20
35.0
 30
0.0
 40
5.0
100
AcDbArc
 50
90.0
 51
180.0
  0
ARC
  5
C8A
330
76C
100
AcDbEntity
  8
240
  6
CONTINUOUS
100
AcDbCircle
 10
47.0
 20
34.5
 30
0.0
 40
3.0
100
AcDbArc
 50
270.0
 51
0.0
  0
LINE
  5
C8B
330
76C
100
AcDbEntity
  8
240
100
AcDbLine
 10
50.0
 20
34.5
 30
0.0
 11
50.0
 21
35.0
 31
0.0
  0
LWPOLYLINE
  5
C8C
330
76C
100
AcDbEntity
  8
241
100
AcDbPolyline
 90
        6
 70
     1
 43
0.0
 10
84.5
 20
23.26794919
 10
87.5
 20
21.53589838
 10
90.5
 20
23.26794919
 10
90.5
 20
26.73205081
 10
87.5
 20
28.46410162
 10
84.5
 20
26.73205081
  0
CIRCLE
  5
C8D
330
76C
100
AcDbEntity
  8
242
100
AcDbCircle
 10
87.5
 20
25.0
 30
0.0
 40
5.125
  0
CIRCLE
  5
C8E
330
76C
100
AcDbEntity
  8
241
100
AcDbCircle
 10
87.5
 20
25.0
 30
0.0
 40
6.0
  0
LINE
  5
C8F
330
76C
100
AcDbEntity
  8
245
100
AcDbLine
 10
94.5
 20
25.0
 30
0.0
 11
80.5
 21
25.0
 31
0.0
  0
SPLINE
  5
C90
330
76C
100
AcDbEntity
  8
240
100
AcDbSpline
210
0.0
220
0.0
230
1.0
 70
     8
 71
     3
 72
    14
 73
    10
 74
     0
 42
0.0000000001
 43
0.0000000001
 40
5.583733328043923
 40
5.583733328043923
 40
5.583733328043923
 40
5.583733328043923
 40
5.753686288953146
 40
5.753686288953146
 40
6.336453325141601
 40
6.336453325141601
 40
6.919220361330052
 40
6.919220361330052
 40
8.08474443370691
 40
8.08474443370691
 40
8.08474443370691
 40
8.08474443370691
 10
99.50460979722521
 20
40.00000000003001
 30
0.0
 10
99.52662938040269
 20
39.94609482824717
 30
0.0
 10
99.54763241870177
 20
39.89254608777969
 30
0.0
 10
99.63617952203172
 20
39.6577833024321
 30
0.0
 10
99.69949421002519
 20
39.46442972987949
 30
0.0
 10
99.80945597140006
 20
39.06393670217868
 30
0.0
 10
99.85610596100588
 20
38.85679804773224
 30
0.0
 10
99.96674450411331
 20
38.23018355530553
 30
0.0
 10
99.99999942936035
 20
37.80509251961769
 30
0.0
 10
99.99999999999337
 20
37.41658386774759
 30
0.0
  0
LINE
  5
C91
330
76C
100
AcDbEntity
  8
240
100
AcDbLine
 10
167.9
 20
40.0
 30
0.0
 11
141.0
 21
40.0
 31
0.0
  0
ARC
  5
C92
330
76C
100
AcDbEntity
  8
240
100
AcDbCircle
 10
141.0
 20
32.0
 30
0.0
 40
8.0
100
AcDbArc
 50
90.0
 51
180.0
  0
ARC
  5
C93
330
76C
100
AcDbEntity
  8
240
100
AcDbCircle
 10
168.0
 20
0.0
 30
0.0
 40
50.0
100
AcDbArc
 50
0.0
 51
51.05755873
  0
LINE
  5
C94
330
76C
100
AcDbEntity
  8
241
100
AcDbLine
 10
193.0
 20
0.0
 30
0.0
 11
193.0
 21
40.0
 31
0.0
  0
ARC
  5
C95
330
76C
100
AcDbEntity
  8
240
100
AcDbCircle
 10
168.0
 20
0.0
 30
0.0
 40
50.0
100
AcDbArc
 50
308.94244127
 51
0.0
  0
LINE
  5
C96
330
76C
100
AcDbEntity
  8
241
100
AcDbLine
 10
193.0
 20
0.0
 30
0.0
 11
193.0
 21
-40.0
 31
0.0
  0
ARC
  5
C97
330
76C
100
AcDbEntity
  8
240
100
AcDbCircle
 10
196.28427125
 20
-35.0
 30
0.0
 40
5.0
100
AcDbArc
 50
270.0
 51
308.94244127
  0
ARC
  5
C98
330
76C
100
AcDbEntity
  8
240
100
AcDbCircle
 10
196.28427125
 20
35.0
 30
0.0
 40
5.0
100
AcDbArc
 50
51.05755873
 51
90.0
  0
ENDBLK
  5
7ED
330
76C
100
AcDbEntity
  8
0
100
AcDbBlockEnd
  0
BLOCK
  5
82F
330
825
100
AcDbEntity
  8
0
100
AcDbBlockBegin
  2
*D3
 70
     1
 10
0.0
 20
0.0
 30
0.0
  3
*D3
  1

  0
LINE
  5
9E3
330
825
100
AcDbEntity
  8
250
  6
CONTINUOUS
100
AcDbLine
 10
0.0
 20
31.0
 30
0.0
 11
0.0
 21
64.0
 31
0.0
  0
LINE
  5
9E4
330
825
100
AcDbEntity
  8
250
  6
CONTINUOUS
100
AcDbLine
 10
100.0
 20
37.91658387
 30
0.0
 11
100.0
 21
64.0
 31
0.0
  0
LINE
  5
9E5
330
825
100
AcDbEntity
  8
250
  6
CONTINUOUS
100
AcDbLine
 10
2.23
 20
63.0
 30
0.0
 11
97.77
 21
63.0
 31
0.0
  0
INSERT
  5
9E6
330
825
100
AcDbEntity
  8
250
  6
CONTINUOUS
100
AcDbBlockReference
  2
_OPEN
 10
0.0
 20
63.0
 30
0.0
 41
2.23
 42
2.23
 43
2.23
 50
180.0
  0
INSERT
  5
9E7
330
825
100
AcDbEntity
  8
250
  6
CONTINUOUS
100
AcDbBlockReference
  2
_OPEN
 10
100.0
 20
63.0
 30
0.0
 41
2.23
 42
2.23
 43
2.23
  0
MTEXT
  5
9E8
330
825
100
AcDbEntity
  8
250
  6
CONTINUOUS
 62
    40
100
AcDbMText
 10
49.8491773
 20
65.4
 30
0.0
 40
2.8
 41
0.0
 71
     5
 72
     1
  1
\A1;100
1001
ACAD
1000
MTEXTBEGIN
1070
    73
1070
     1
1070
    44
1040
1.0
1070
    74
1070
     0
1000
MTEXTEND
1000
MTEXTBEGIN
1070
    73
1070
     1
1070
    44
1040
1.0
1070
    74
1070
     0
1000
MTEXTEND
  0
POINT
  5
9E9
330
825
100
AcDbEntity
  8
DEFPOINTS
  6
CONTINUOUS
 62
     0
100
AcDbPoint
 10
0.0
 20
30.5
 30
0.0
  0
POINT
  5
9EA
330
825
100
AcDbEntity
  8
DEFPOINTS
  6
CONTINUOUS
 62
     0
100
AcDbPoint
 10
100.0
 20
37.41658387
 30
0.0
  0
POINT
  5
9EB
330
825
100
AcDbEntity
  8
DEFPOINTS
  6
CONTINUOUS
 62
     0
100
AcDbPoint
 10
100.0
 20
63.0
 30
0.0
  0
ENDBLK
  5
830
330
825
100
AcDbEntity
  8
0
100
AcDbBlockEnd
  0
BLOCK
  5
928
330
91E
100
AcDbEntity
  8
0
100
AcDbBlockBegin
  2
*D4
 70
     1
 10
0.0
 20
0.0
 30
0.0
  3
*D4
  1

  0
LINE
  5
C24
330
91E
100
AcDbEntity
  8
250
  6
CONTINUOUS
100
AcDbLine
 10
168.0
 20
52.4884917
 30
0.0
 11
168.0
 21
64.0
 31
0.0
  0
LINE
  5
C25
330
91E
100
AcDbEntity
  8
250
  6
CONTINUOUS
100
AcDbLine
 10
193.0
 20
40.5
 30
0.0
 11
193.0
 21
64.0
 31
0.0
  0
LINE
  5
C26
330
91E
100
AcDbEntity
  8
250
  6
CONTINUOUS
100
AcDbLine
 10
170.23
 20
63.0
 30
0.0
 11
190.77
 21
63.0
 31
0.0
  0
INSERT
  5
C27
330
91E
100
AcDbEntity
  8
250
  6
CONTINUOUS
100
AcDbBlockReference
  2
_OPEN
 10
168.0
 20
63.0
 30
0.0
 41
2.23
 42
2.23
 43
2.23
 50
180.0
  0
INSERT
  5
C28
330
91E
100
AcDbEntity
  8
250
  6
CONTINUOUS
100
AcDbBlockReference
  2
_OPEN
 10
193.0
 20
63.0
 30
0.0
 41
2.23
 42
2.23
 43
2.23
  0
MTEXT
  5
C29
330
91E
100
AcDbEntity
  8
250
  6
CONTINUOUS
 62
    40
100
AcDbMText
 10
180.5
 20
65.4
 30
0.0
 40
2.8
 41
0.0
 71
     5
 72
     1
  1
\A1;□25
1001
ACAD
1000
MTEXTBEGIN
1070
    73
1070
     1
1070
    44
1040
1.0
1070
    74
1070
     0
1000
MTEXTEND
  0
POINT
  5
C2A
330
91E
100
AcDbEntity
  8
DEFPOINTS
  6
CONTINUOUS
 62
     0
100
AcDbPoint
 10
168.0
 20
51.9884917
 30
0.0
  0
POINT
  5
C2B
330
91E
100
AcDbEntity
  8
DEFPOINTS
  6
CONTINUOUS
 62
     0
100
AcDbPoint
 10
193.0
 20
40.0
 30
0.0
  0
POINT
  5
C2C
330
91E
100
AcDbEntity
  8
DEFPOINTS
  6
CONTINUOUS
 62
     0
100
AcDbPoint
 10
193.0
 20
63.0
 30
0.0
  0
ENDBLK
  5
929
330
91E
100
AcDbEntity
  8
0
100
AcDbBlockEnd
  0
BLOCK
  5
937
330
92D
100
AcDbEntity
  8
0
100
AcDbBlockBegin
  2
*D5
 70
     1
 10
0.0
 20
0.0
 30
0.0
  3
*D5
  1

  0
LINE
  5
9F5
330
92D
100
AcDbEntity
  8
250
  6
CONTINUOUS
100
AcDbLine
 10
220.5
 20
0.0
 30
0.0
 11
232.0
 21
0.0
 31
0.0
  0
LINE
  5
9F6
330
92D
100
AcDbEntity
  8
250
  6
CONTINUOUS
100
AcDbLine
 10
196.78427125
 20
40.0
 30
0.0
 11
232.0
 21
40.0
 31
0.0
  0
LINE
  5
9F7
330
92D
100
AcDbEntity
  8
250
  6
CONTINUOUS
100
AcDbLine
 10
231.0
 20
2.23
 30
0.0
 11
231.0
 21
37.77
 31
0.0
  0
INSERT
  5
9F8
330
92D
100
AcDbEntity
  8
250
  6
CONTINUOUS
100
AcDbBlockReference
  2
_OPEN
 10
231.0
 20
0.0
 30
0.0
 41
2.23
 42
2.23
 43
2.23
 50
270.0
  0
INSERT
  5
9F9
330
92D
100
AcDbEntity
  8
250
  6
CONTINUOUS
100
AcDbBlockReference
  2
_OPEN
 10
231.0
 20
40.0
 30
0.0
 41
2.23
 42
2.23
 43
2.23
 50
90.0
  0
MTEXT
  5
9FA
330
92D
100
AcDbEntity
  8
250
  6
CONTINUOUS
 62
    40
100
AcDbMText
 10
228.6
 20
20.0
 30
0.0
 40
2.8
 41
0.0
 71
     5
 72
     1
  1
\A1;40
 11
0.0
 21
1.0
 31
0.0
1001
ACAD
1000
MTEXTBEGIN
1070
    73
1070
     1
1070
    44
1040
1.0
1070
    74
1070
     0
1000
MTEXTEND
1000
MTEXTBEGIN
1070
    73
1070
     1
1070
    44
1040
1.0
1070
    74
1070
     0
1000
MTEXTEND
  0
POINT
  5
9FB
330
92D
100
AcDbEntity
  8
DEFPOINTS
  6
CONTINUOUS
 62
     0
100
AcDbPoint
 10
220.0
 20
0.0
 30
0.0
  0
POINT
  5
9FC
330
92D
100
AcDbEntity
  8
DEFPOINTS
  6
CONTINUOUS
 62
     0
100
AcDbPoint
 10
196.28427125
 20
40.0
 30
0.0
  0
POINT
  5
9FD
330
92D
100
AcDbEntity
  8
DEFPOINTS
  6
CONTINUOUS
 62
     0
100
AcDbPoint
 10
231.0
 20
40.0
 30
0.0
  0
ENDBLK
  5
938
330
92D
100
AcDbEntity
  8
0
100
AcDbBlockEnd
  0
BLOCK
  5
951
330
947
100
AcDbEntity
  8
0
100
AcDbBlockBegin
  2
*D6
 70
     1
 10
0.0
 20
0.0
 30
0.0
  3
*D6
  1

  0
LINE
  5
9EC
330
947
100
AcDbEntity
  8
250
  6
CONTINUOUS
100
AcDbLine
 10
196.78427125
 20
-40.0
 30
0.0
 11
232.0
 21
-40.0
 31
0.0
  0
LINE
  5
9ED
330
947
100
AcDbEntity
  8
250
  6
CONTINUOUS
100
AcDbLine
 10
220.5
 20
0.0
 30
0.0
 11
232.0
 21
0.0
 31
0.0
  0
LINE
  5
9EE
330
947
100
AcDbEntity
  8
250
  6
CONTINUOUS
100
AcDbLine
 10
231.0
 20
-37.77
 30
0.0
 11
231.0
 21
-2.23
 31
0.0
  0
INSERT
  5
9EF
330
947
100
AcDbEntity
  8
250
  6
CONTINUOUS
100
AcDbBlockReference
  2
_OPEN
 10
231.0
 20
-40.0
 30
0.0
 41
2.23
 42
2.23
 43
2.23
 50
270.0
  0
INSERT
  5
9F0
330
947
100
AcDbEntity
  8
250
  6
CONTINUOUS
100
AcDbBlockReference
  2
_OPEN
 10
231.0
 20
0.0
 30
0.0
 41
2.23
 42
2.23
 43
2.23
 50
90.0
  0
MTEXT
  5
9F1
330
947
100
AcDbEntity
  8
250
  6
CONTINUOUS
 62
    40
100
AcDbMText
 10
228.6
 20
-20.0
 30
0.0
 40
2.8
 41
0.0
 71
     5
 72
     1
  1
\A1;40
 11
0.0
 21
1.0
 31
0.0
1001
ACAD
1000
MTEXTBEGIN
1070
    73
1070
     1
1070
    44
1040
1.0
1070
    74
1070
     0
1000
MTEXTEND
1000
MTEXTBEGIN
1070
    73
1070
     1
1070
    44
1040
1.0
1070
    74
1070
     0
1000
MTEXTEND
  0
POINT
  5
9F2
330
947
100
AcDbEntity
  8
DEFPOINTS
  6
CONTINUOUS
 62
     0
100
AcDbPoint
 10
196.28427125
 20
-40.0
 30
0.0
  0
POINT
  5
9F3
330
947
100
AcDbEntity
  8
DEFPOINTS
  6
CONTINUOUS
 62
     0
100
AcDbPoint
 10
220.0
 20
0.0
 30
0.0
  0
POINT
  5
9F4
330
947
100
AcDbEntity
  8
DEFPOINTS
  6
CONTINUOUS
 62
     0
100
AcDbPoint
 10
231.0
 20
0.0
 30
0.0
  0
ENDBLK
  5
952
330
947
100
AcDbEntity
  8
0
100
AcDbBlockEnd
  0
BLOCK
  5
981
330
97A
100
AcDbEntity
  8
0
100
AcDbBlockBegin
  2
*D7
 70
     1
 10
0.0
 20
0.0
 30
0.0
  3
*D7
  1

  0
LINE
  5
CBF
330
97A
100
AcDbEntity
  8
250
  6
CONTINUOUS
100
AcDbLine
 10
127.09880635
 20
-24.67924752
 30
0.0
 11
208.90119365
 21
24.67924752
 31
0.0
  0
INSERT
  5
CC0
330
97A
100
AcDbEntity
  8
250
  6
CONTINUOUS
100
AcDbBlockReference
  2
_OPEN
 10
125.18945609
 20
-25.83132459
 30
0.0
 41
2.23
 42
2.23
 43
2.23
 50
211.10623406
  0
INSERT
  5
CC1
330
97A
100
AcDbEntity
  8
250
  6
CONTINUOUS
100
AcDbBlockReference
  2
_OPEN
 10
210.81054391
 20
25.83132459
 30
0.0
 41
2.23
 42
2.23
 43
2.23
 50
31.10623406
  0
MTEXT
  5
CC2
330
97A
100
AcDbEntity
  8
250
  6
CONTINUOUS
 62
    40
100
AcDbMText
 10
181.22074214
 20
10.78027139
 30
0.0
 40
2.8
 41
0.0
 71
     5
 72
     1
  1
\A1;（{\H2.8;\U+2205}100）
 11
0.85621088
 21
0.51662649
 31
0.0
  0
POINT
  5
CC3
330
97A
100
AcDbEntity
  8
DEFPOINTS
  6
CONTINUOUS
 62
     0
100
AcDbPoint
 10
210.81054391
 20
25.83132459
 30
0.0
  0
POINT
  5
CC4
330
97A
100
AcDbEntity
  8
DEFPOINTS
  6
CONTINUOUS
 62
     0
100
AcDbPoint
 10
125.18945609
 20
-25.83132459
 30
0.0
  0
ENDBLK
  5
982
330
97A
100
AcDbEntity
  8
0
100
AcDbBlockEnd
  0
ENDSEC
  0
SECTION
  2
ENTITIES
  0
INSERT
  5
6E6
330
1A
100
AcDbEntity
  8
245
100
AcDbBlockReference
  2
矢印なし
 10
175.62382697
 20
90.55123572
 30
0.0
  0
DIMENSION
  5
81E
330
1A
100
AcDbEntity
  8
250
  6
CONTINUOUS
100
AcDbDimension
  2
*D3
 10
100.0
 20
63.0
 30
0.0
 11
49.8491773
 21
63.0
 31
0.0
 70
   160
  3
BIGT
100
AcDbAlignedDimension
 13
0.0
 23
30.5
 33
0.0
 14
100.0
 24
37.41658387
 34
0.0
100
AcDbRotatedDimension
  0
TEXT
  5
81F
330
1A
100
AcDbEntity
  8
241
100
AcDbText
 10
-32.0
 20
77.0
 30
0.0
 40
5.0
  1
HSK-T63-90-BH25N-100
  7
YOKO
 11
-32.0
 21
77.0
 31
0.0
100
AcDbText
 73
     1
  0
DIMENSION
  5
91D
330
1A
100
AcDbEntity
  8
250
  6
CONTINUOUS
100
AcDbDimension
  2
*D4
 10
193.0
 20
63.0
 30
0.0
 11
180.5
 21
63.0
 31
0.0
 70
   160
  1
□<>
  3
BIGT
100
AcDbAlignedDimension
 13
168.0
 23
51.9884917
 33
0.0
 14
193.0
 24
40.0
 34
0.0
100
AcDbRotatedDimension
  0
DIMENSION
  5
92C
330
1A
100
AcDbEntity
  8
250
  6
CONTINUOUS
100
AcDbDimension
  2
*D5
 10
231.0
 20
40.0
 30
0.0
 11
228.6
 21
20.0
 31
0.0
 70
    32
  3
BIGT
100
AcDbAlignedDimension
 13
220.0
 23
0.0
 33
0.0
 14
196.28427125
 24
40.0
 34
0.0
 50
90.0
100
AcDbRotatedDimension
  0
DIMENSION
  5
946
330
1A
100
AcDbEntity
  8
250
  6
CONTINUOUS
100
AcDbDimension
  2
*D6
 10
231.0
 20
0.0
 30
0.0
 11
228.6
 21
-20.0
 31
0.0
 70
    32
  3
BIGT
100
AcDbAlignedDimension
 13
196.28427125
 23
-40.0
 33
0.0
 14
220.0
 24
0.0
 34
0.0
 50
90.0
100
AcDbRotatedDimension
  0
DIMENSION
  5
979
330
1A
100
AcDbEntity
  8
250
  6
CONTINUOUS
100
AcDbDimension
  2
*D7
 10
125.18945609
 20
-25.83132459
 30
0.0
 11
182.46064572
 21
8.72536528
 31
0.0
 70
   163
  1
（{\H2.8;\U+2205}<>）
  3
BIGT
100
AcDbDiametricDimension
 15
210.81054391
 25
25.83132459
 35
0.0
 40
0.0
1001
ACAD
1000
DSTYLE
1002
{
1070
   287
1070
     0
1070
   287
1070
     0
1070
     3
1000
<>
1070
   288
1070
     1
1070
   289
1070
     0
1002
}
  0
LINE
  5
BB9
330
1A
100
AcDbEntity
  8
250
  6
CONTINUOUS
100
AcDbLine
 10
-18.44991262
 20
-34.94501046
 30
0.0
 11
-42.71657929
 21
-34.94501046
 31
0.0
1001
ITEMNAME
1000
LNSP2
  0
MTEXT
  5
BBA
330
1A
100
AcDbEntity
  8
251
  6
CONTINUOUS
100
AcDbMText
 10
-39.91657929
 20
-33.94501046
 30
0.0
 40
2.8
 41
0.0
 71
     7
 72
     1
  1
HSK-A63
  7
YOKO
1001
ITEMNAME
1000
LNSP3
1001
ACAD
1000
MTEXTBEGIN
1070
    73
1070
     1
1070
    44
1040
1.0
1070
    74
1070
     0
1000
MTEXTEND
1000
MTEXTBEGIN
1070
    73
1070
     1
1070
    44
1040
1.0
1070
    74
1070
     0
1000
MTEXTEND
1000
MTEXTBEGIN
1070
    73
1070
     1
1070
    44
1040
1.0
1070
    74
1070
     0
1000
MTEXTEND
  0
LEADER
  5
BBC
330
1A
100
AcDbEntity
  8
250
  6
CONTINUOUS
100
AcDbLeader
  3
BIGT
 76
     2
 10
-11.96720963
 20
-23.71663952
 30
0.0
 10
-18.44991262
 20
-34.94501046
 30
0.0
1001
ACAD
1000
DSTYLE
1002
{
1070
     6
1000
OPEN
1070
   343
1005
594
1002
}
  0
INSERT
  5
C99
330
1A
100
AcDbEntity
  8
245
100
AcDbBlockReference
  2
1
 10
0.0
 20
0.0
 30
0.0
  0
VIEWPORT
  5
22
330
17
100
AcDbEntity
 67
     1
  8
0
100
AcDbViewport
 10
261.51769912
 20
148.5
 30
0.0
 40
523.03539823
 41
297.0
 68
     1
 69
     1
1001
ACAD
1000
MVIEW
1002
{
1070
    16
1010
0.0
1020
0.0
1030
0.0
1010
0.0
1020
0.0
1030
1.0
1040
0.0
1040
297.0
1040
261.51769912
1040
148.5
1040
50.0
1040
0.0
1040
0.0
1070
     0
1070
   100
1070
     1
1070
     1
1070
     0
1070
     0
1070
     0
1070
     0
1040
0.0
1040
0.0
1040
0.0
1040
1.0
1040
1.0
1040
10.0
1040
10.0
1070
     0
1002
{
1002
}
1002
}
  0
ENDSEC
  0
SECTION
  2
OBJECTS
  0
DICTIONARY
  5
C
330
0
100
AcDbDictionary
  3
ACAD_GROUP
350
D
  3
ACAD_LAYOUT
350
565
  3
ACAD_MLINESTYLE
350
E
  3
ACAD_PLOTSETTINGS
350
566
  3
ACAD_PLOTSTYLENAME
350
563
  3
ACDBHEADERROUNDTRIPXREC
350
C9B
  3
GRADE_DWG
350
540
  0
DICTIONARY
  5
AE9
330
1A
100
AcDbDictionary
280
     1
  3
ACAD_LAYOUTSELFREF
360
CBD
  0
DICTIONARY
  5
AE7
330
17
100
AcDbDictionary
280
     1
  3
ACAD_LAYOUTSELFREF
360
CBC
  0
DICTIONARY
  5
D
102
{ACAD_REACTORS
330
C
102
}
330
C
100
AcDbDictionary
  3
*A1
350
6C7
  3
*A2
350
6C8
  3
*A3
350
6D4
  3
*A4
350
6D5
  3
DREC-1
350
5FC
  3
DREC-2
350
654
  3
DREC-3
350
673
  0
DICTIONARY
  5
565
102
{ACAD_REACTORS
330
C
102
}
330
C
100
AcDbDictionary
  0
DICTIONARY
  5
E
102
{ACAD_REACTORS
330
C
102
}
330
C
100
AcDbDictionary
  3
STANDARD
350
13
  0
DICTIONARY
  5
566
102
{ACAD_REACTORS
330
C
102
}
330
C
100
AcDbDictionary
  3
A3_0_5倍_
350
758
  3
A3_1倍_
350
757
  3
A3_1倍__2000_
350
707
  3
A3_2倍_
350
759
  3
A4_0_5倍_
350
755
  3
A4_1倍_
350
754
  3
A4_1倍__2000_
350
708
  3
A4_2倍_
350
756
  0
ACDBDICTIONARYWDFLT
  5
563
102
{ACAD_REACTORS
330
C
102
}
330
C
100
AcDbDictionary
281
     1
  3
Normal
350
564
100
AcDbDictionaryWithDefault
340
564
  0
DICTIONARY
  5
C9B
102
{ACAD_REACTORS
330
C
102
}
330
C
100
AcDbDictionary
  3
CEPSNTYPE
350
CA5
  3
DIMSTYLEDATA
350
CA9
  3
FINGERPRINTGUID
350
CA6
  3
HYPERLINKBASE
350
C9E
  3
INSUNITS
350
CA4
  3
LAYOUTDICT
350
CA0
  3
LWETCUNION
350
CA3
  3
PLOTSETDICT
350
CA1
  3
PLOTSTYLNAMDICT
350
CA2
  3
PSVPSCALE
350
CA8
  3
PUCSBASE
350
CAC
  3
PUCSORGBACK
350
CB2
  3
PUCSORGBOTTOM
350
CAE
  3
PUCSORGFRONT
350
CB1
  3
PUCSORGLEFT
350
CAF
  3
PUCSORGRIGHT
350
CB0
  3
PUCSORGTOP
350
CAD
  3
PUCSORTHOREF
350
CAA
  3
PUCSORTHOVIEW
350
CAB
  3
STYLESHEET
350
C9F
  3
TSTACKALIGN
350
C9C
  3
TSTACKSIZE
350
C9D
  3
UCSBASE
350
CB5
  3
UCSORGBACK
350
CBB
  3
UCSORGBOTTOM
350
CB7
  3
UCSORGFRONT
350
CBA
  3
UCSORGLEFT
350
CB8
  3
UCSORGRIGHT
350
CB9
  3
UCSORGTOP
350
CB6
  3
UCSORTHOREF
350
CB3
  3
UCSORTHOVIEW
350
CB4
  3
VERSIONGUID
350
CA7
  0
DICTIONARY
  5
540
102
{ACAD_REACTORS
330
C
102
}
330
C
100
AcDbDictionary
  3
VERSION
350
560
  0
XRECORD
  5
CBD
102
{ACAD_REACTORS
330
AE9
102
}
330
AE9
100
AcDbXrecord
340
1A
  0
XRECORD
  5
CBC
102
{ACAD_REACTORS
330
AE7
102
}
330
AE7
100
AcDbXrecord
340
17
  0
GROUP
  5
6C7
102
{ACAD_REACTORS
330
D
102
}
330
D
100
AcDbGroup
300

 70
     0
 71
     1
1001
GRPNAME
1000
DMA00
  0
GROUP
  5
6C8
102
{ACAD_REACTORS
330
D
102
}
330
D
100
AcDbGroup
300

 70
     0
 71
     1
1001
GRPNAME
1000
DMA00
  0
GROUP
  5
6D4
102
{ACAD_REACTORS
330
D
102
}
330
D
100
AcDbGroup
300

 70
     0
 71
     1
1001
GRPNAME
1000
DMA00
  0
GROUP
  5
6D5
102
{ACAD_REACTORS
330
D
102
}
330
D
100
AcDbGroup
300

 70
     0
 71
     1
1001
GRPNAME
1000
DMA00
  0
GROUP
  5
5FC
102
{ACAD_REACTORS
330
D
102
}
330
D
100
AcDbGroup
300

 70
     0
 71
     1
1001
GRPNAME
1000
DREC-
1001
GPARA
1000
xsiz
1000
44.182
1000
ysiz
1000
40.677
1000
angl
1000
0
1000
ctyp
1000
0
1000
csiz
1000
5
1000
lfnt
1000
cont
1000
hcnt
1000
hoff
1000
vcnt
1000
voff
1000
opnt
1000
4
1000
dxpt
1000
0
1000
dypt
1000
0
  0
GROUP
  5
654
102
{ACAD_REACTORS
330
D
102
}
330
D
100
AcDbGroup
300

 70
     0
 71
     1
1001
GRPNAME
1000
DREC-
1001
GPARA
1000
xsiz
1000
54.592
1000
ysiz
1000
53.036
1000
angl
1000
0
1000
ctyp
1000
0
1000
csiz
1000
5
1000
lfnt
1000
cont
1000
hcnt
1000
hoff
1000
vcnt
1000
voff
1000
opnt
1000
4
1000
dxpt
1000
0
1000
dypt
1000
0
  0
GROUP
  5
673
102
{ACAD_REACTORS
330
D
102
}
330
D
100
AcDbGroup
300

 70
     0
 71
     1
1001
GRPNAME
1000
DREC-
1001
GPARA
1000
xsiz
1000
30.363
1000
ysiz
1000
36.175
1000
angl
1000
0
1000
ctyp
1000
0
1000
csiz
1000
5
1000
lfnt
1000
cont
1000
hcnt
1000
hoff
1000
vcnt
1000
voff
1000
opnt
1000
4
1000
dxpt
1000
0
1000
dypt
1000
0
  0
MLINESTYLE
  5
13
102
{ACAD_REACTORS
330
E
102
}
330
E
100
AcDbMlineStyle
  2
STANDARD
 70
     0
  3

 62
     0
 51
90.0
 52
90.0
 71
     2
 49
0.5
 62
   256
  6
BYLAYER
 49
-0.5
 62
   256
  6
BYLAYER
  0
PLOTSETTINGS
  5
758
102
{ACAD_REACTORS
330
566
102
}
330
566
100
AcDbPlotSettings
  1
A3(0.5倍)
  2
\\AWTECPC05\HP DeskJet 1120C
  4
A3
  6

 40
5.95841646
 41
13.49375153
 42
6.04309082
 43
3.67242432
 44
296.92599487
 45
419.94665527
 46
89.96
 47
127.14
 48
0.0
 49
0.0
140
0.0
141
0.0
142
1.0
143
2.0
 70
  1716
 72
     1
 73
     1
 74
     2
  7
big.ctb
 75
    17
147
0.5
148
0.0
149
0.0
  0
PLOTSETTINGS
  5
757
102
{ACAD_REACTORS
330
566
102
}
330
566
100
AcDbPlotSettings
  1
A3(1倍)
  2
\\AWTECPC05\HP DeskJet 1120C
  4
A3
  6

 40
5.95841646
 41
13.49375153
 42
6.04309082
 43
3.67242432
 44
296.92599487
 45
419.94665527
 46
37.46
 47
52.89
 48
0.0
 49
0.0
140
0.0
141
0.0
142
1.0
143
1.0
 70
  1716
 72
     1
 73
     1
 74
     2
  7
big.ctb
 75
    16
147
1.0
148
0.0
149
0.0
  0
PLOTSETTINGS
  5
707
102
{ACAD_REACTORS
330
566
102
}
330
566
100
AcDbPlotSettings
  1
A3(1倍)(2000)
  2
SII LS-1300 (D-SCAN)
  4
User258
  6

 40
3.17499995
 41
3.17499995
 42
3.17498779
 43
3.17498779
 44
419.98898315
 45
296.98950195
 46
58.32
 47
40.32
 48
0.0
 49
0.0
140
0.0
141
0.0
142
1.0
143
1.0
 70
  1716
 72
     1
 73
     0
 74
     2
  7
big.ctb
 75
    16
147
1.0
148
0.0
149
0.0
  0
PLOTSETTINGS
  5
759
102
{ACAD_REACTORS
330
566
102
}
330
566
100
AcDbPlotSettings
  1
A3(2倍)
  2
\\AWTECPC05\HP DeskJet 1120C
  4
A3
  6

 40
5.95841646
 41
13.49375153
 42
6.04309082
 43
3.67242432
 44
296.92599487
 45
419.94665527
 46
-67.54
 47
-95.61
 48
0.0
 49
0.0
140
0.0
141
0.0
142
1.0
143
0.5
 70
  1716
 72
     1
 73
     1
 74
     2
  7
big.ctb
 75
    27
147
2.0
148
0.0
149
0.0
  0
PLOTSETTINGS
  5
755
102
{ACAD_REACTORS
330
566
102
}
330
566
100
AcDbPlotSettings
  1
A4(0.5倍)
  2
\\AWTECPC05\HP DeskJet 1120C
  4
A4
  6

 40
4.18041658
 41
13.49374962
 42
4.18040466
 43
3.92642212
 44
209.97332764
 45
296.92599487
 46
48.31
 47
65.5
 48
0.0
 49
0.0
140
0.0
141
0.0
142
1.0
143
2.0
 70
  1716
 72
     1
 73
     1
 74
     2
  7
big.ctb
 75
    17
147
0.5
148
0.0
149
0.0
  0
PLOTSETTINGS
  5
754
102
{ACAD_REACTORS
330
566
102
}
330
566
100
AcDbPlotSettings
  1
A4(1倍)
  2
\\AWTECPC05\HP DeskJet 1120C
  4
A4
  6

 40
4.18041658
 41
13.49374962
 42
4.18040466
 43
3.92642212
 44
209.97332764
 45
296.92599487
 46
-4.19
 47
-8.75
 48
0.0
 49
0.0
140
0.0
141
0.0
142
1.0
143
1.0
 70
  1716
 72
     1
 73
     1
 74
     2
  7
big.ctb
 75
    16
147
1.0
148
0.0
149
0.0
  0
PLOTSETTINGS
  5
708
102
{ACAD_REACTORS
330
566
102
}
330
566
100
AcDbPlotSettings
  1
A4(1倍)(2000)
  2
SII LS-1300 (D-SCAN)
  4
User259
  6

 40
3.17499995
 41
3.17499995
 42
3.17498779
 43
3.17500305
 44
296.98950195
 45
209.99449158
 46
-3.18
 47
-3.18
 48
0.0
 49
0.0
140
0.0
141
0.0
142
1.0
143
1.0
 70
  1716
 72
     1
 73
     0
 74
     2
  7
big.ctb
 75
    16
147
1.0
148
0.0
149
0.0
  0
PLOTSETTINGS
  5
756
102
{ACAD_REACTORS
330
566
102
}
330
566
100
AcDbPlotSettings
  1
A4(2倍)
  2
\\AWTECPC05\HP DeskJet 1120C
  4
A4
  6

 40
4.18041658
 41
13.49374962
 42
4.18040466
 43
3.92642212
 44
209.97332764
 45
296.92599487
 46
-109.19
 47
-157.25
 48
0.0
 49
0.0
140
0.0
141
0.0
142
1.0
143
0.5
 70
  1716
 72
     1
 73
     1
 74
     2
  7
big.ctb
 75
    27
147
2.0
148
0.0
149
0.0
  0
ACDBPLACEHOLDER
  5
564
102
{ACAD_REACTORS
330
563
102
}
330
563
100
AcDbPlaceHolder
280
     0
  0
XRECORD
  5
CA5
102
{ACAD_REACTORS
330
C9B
102
}
330
C9B
100
AcDbXrecord
 90
        0
  0
XRECORD
  5
CA9
102
{ACAD_REACTORS
330
C9B
102
}
330
C9B
100
AcDbXrecord
1000
DSTYLE
1002
{
1070
    79
 70
     2
1070
   179
 70
     3
1070
   341
340
594
1070
   343
340
594
1070
   344
340
594
1070
   371
 70
    -1
1070
   372
 70
    -1
1002
}
  0
XRECORD
  5
CA6
102
{ACAD_REACTORS
330
C9B
102
}
330
C9B
100
AcDbXrecord
  1
{51294030-9CB4-11D3-8E18-00A0C925D94D}
  0
XRECORD
  5
C9E
102
{ACAD_REACTORS
330
C9B
102
}
330
C9B
100
AcDbXrecord
  1

  0
XRECORD
  5
CA4
102
{ACAD_REACTORS
330
C9B
102
}
330
C9B
100
AcDbXrecord
 90
        0
  0
XRECORD
  5
CA0
102
{ACAD_REACTORS
330
C9B
102
}
330
C9B
100
AcDbXrecord
340
565
  0
XRECORD
  5
CA3
102
{ACAD_REACTORS
330
C9B
102
}
330
C9B
100
AcDbXrecord
 90
    10781
  0
XRECORD
  5
CA1
102
{ACAD_REACTORS
330
C9B
102
}
330
C9B
100
AcDbXrecord
340
566
  0
XRECORD
  5
CA2
102
{ACAD_REACTORS
330
C9B
102
}
330
C9B
100
AcDbXrecord
340
563
  0
XRECORD
  5
CA8
102
{ACAD_REACTORS
330
C9B
102
}
330
C9B
100
AcDbXrecord
 40
0.0
  0
XRECORD
  5
CAC
102
{ACAD_REACTORS
330
C9B
102
}
330
C9B
100
AcDbXrecord
340
0
  0
XRECORD
  5
CB2
102
{ACAD_REACTORS
330
C9B
102
}
330
C9B
100
AcDbXrecord
 10
0.0
 20
0.0
 30
0.0
  0
XRECORD
  5
CAE
102
{ACAD_REACTORS
330
C9B
102
}
330
C9B
100
AcDbXrecord
 10
0.0
 20
0.0
 30
0.0
  0
XRECORD
  5
CB1
102
{ACAD_REACTORS
330
C9B
102
}
330
C9B
100
AcDbXrecord
 10
0.0
 20
0.0
 30
0.0
  0
XRECORD
  5
CAF
102
{ACAD_REACTORS
330
C9B
102
}
330
C9B
100
AcDbXrecord
 10
0.0
 20
0.0
 30
0.0
  0
XRECORD
  5
CB0
102
{ACAD_REACTORS
330
C9B
102
}
330
C9B
100
AcDbXrecord
 10
0.0
 20
0.0
 30
0.0
  0
XRECORD
  5
CAD
102
{ACAD_REACTORS
330
C9B
102
}
330
C9B
100
AcDbXrecord
 10
0.0
 20
0.0
 30
0.0
  0
XRECORD
  5
CAA
102
{ACAD_REACTORS
330
C9B
102
}
330
C9B
100
AcDbXrecord
340
0
  0
XRECORD
  5
CAB
102
{ACAD_REACTORS
330
C9B
102
}
330
C9B
100
AcDbXrecord
 70
     0
  0
XRECORD
  5
C9F
102
{ACAD_REACTORS
330
C9B
102
}
330
C9B
100
AcDbXrecord
  1
big.ctb
  0
XRECORD
  5
C9C
102
{ACAD_REACTORS
330
C9B
102
}
330
C9B
100
AcDbXrecord
 90
        1
  0
XRECORD
  5
C9D
102
{ACAD_REACTORS
330
C9B
102
}
330
C9B
100
AcDbXrecord
 90
       70
  0
XRECORD
  5
CB5
102
{ACAD_REACTORS
330
C9B
102
}
330
C9B
100
AcDbXrecord
340
0
  0
XRECORD
  5
CBB
102
{ACAD_REACTORS
330
C9B
102
}
330
C9B
100
AcDbXrecord
 10
0.0
 20
0.0
 30
0.0
  0
XRECORD
  5
CB7
102
{ACAD_REACTORS
330
C9B
102
}
330
C9B
100
AcDbXrecord
 10
0.0
 20
0.0
 30
0.0
  0
XRECORD
  5
CBA
102
{ACAD_REACTORS
330
C9B
102
}
330
C9B
100
AcDbXrecord
 10
0.0
 20
0.0
 30
0.0
  0
XRECORD
  5
CB8
102
{ACAD_REACTORS
330
C9B
102
}
330
C9B
100
AcDbXrecord
 10
0.0
 20
0.0
 30
0.0
  0
XRECORD
  5
CB9
102
{ACAD_REACTORS
330
C9B
102
}
330
C9B
100
AcDbXrecord
 10
0.0
 20
0.0
 30
0.0
  0
XRECORD
  5
CB6
102
{ACAD_REACTORS
330
C9B
102
}
330
C9B
100
AcDbXrecord
 10
0.0
 20
0.0
 30
0.0
  0
XRECORD
  5
CB3
102
{ACAD_REACTORS
330
C9B
102
}
330
C9B
100
AcDbXrecord
340
0
  0
XRECORD
  5
CB4
102
{ACAD_REACTORS
330
C9B
102
}
330
C9B
100
AcDbXrecord
 70
     0
  0
XRECORD
  5
CA7
102
{ACAD_REACTORS
330
C9B
102
}
330
C9B
100
AcDbXrecord
  1
{4158552E-21E5-4F93-9445-B4179AD2BC91}
  0
XRECORD
  5
560
102
{ACAD_REACTORS
330
540
102
}
330
540
100
AcDbXrecord
  1
2.0.0
  0
ENDSEC
  0
EOF
