  0
SECTION
  2
HEADER
  9
$ACADVER
  1
AC1014
  9
$ACADMAINTVER
 70
     9
  9
$DWGCODEPAGE
  3
ANSI_932
  9
$INSBASE
 10
0.0
 20
0.0
 30
0.0
  9
$EXTMIN
 10
-40.64359986
 20
-31.73366966
 30
-0.00152582
  9
$EXTMAX
 10
152.02062283
 20
61.01582953
 30
0.00000003
  9
$LIMMIN
 10
0.0
 20
0.0
  9
$LIMMAX
 10
420.0
 20
297.0
  9
$ORTHOMODE
 70
     1
  9
$REGENMODE
 70
     1
  9
$FILLMODE
 70
     1
  9
$QTEXTMODE
 70
     0
  9
$MIRRTEXT
 70
     1
  9
$DRAGMODE
 70
     2
  9
$LTSCALE
 40
10.0
  9
$OSMODE
 70
   549
  9
$ATTMODE
 70
     1
  9
$TEXTSIZE
 40
3.0
  9
$TRACEWID
 40
1.0
  9
$TEXTSTYLE
  7
YOKO
  9
$CLAYER
  8
245
  9
$CELTYPE
  6
BYLAYER
  9
$CECOLOR
 62
   256
  9
$CELTSCALE
 40
1.0
  9
$DELOBJ
 70
     1
  9
$DISPSILH
 70
     0
  9
$DIMSCALE
 40
1.0
  9
$DIMASZ
 40
2.23
  9
$DIMEXO
 40
0.5
  9
$DIMDLI
 40
2.5
  9
$DIMRND
 40
0.0
  9
$DIMDLE
 40
0.0
  9
$DIMEXE
 40
1.0
  9
$DIMTP
 40
0.0
  9
$DIMTM
 40
0.0
  9
$DIMTXT
 40
2.8
  9
$DIMCEN
 40
0.0
  9
$DIMTSZ
 40
0.0
  9
$DIMTOL
 70
     0
  9
$DIMLIM
 70
     0
  9
$DIMTIH
 70
     0
  9
$DIMTOH
 70
     0
  9
$DIMSE1
 70
     0
  9
$DIMSE2
 70
     0
  9
$DIMTAD
 70
     3
  9
$DIMZIN
 70
     8
  9
$DIMBLK
  1

  9
$DIMASO
 70
     1
  9
$DIMSHO
 70
     1
  9
$DIMPOST
  1

  9
$DIMAPOST
  1

  9
$DIMALT
 70
     0
  9
$DIMALTD
 70
     2
  9
$DIMALTF
 40
25.4
  9
$DIMLFAC
 40
1.0
  9
$DIMTOFL
 70
     1
  9
$DIMTVP
 40
0.0
  9
$DIMTIX
 70
     1
  9
$DIMSOXD
 70
     0
  9
$DIMSAH
 70
     1
  9
$DIMBLK1
  1
OPEN
  9
$DIMBLK2
  1
OPEN
  9
$DIMSTYLE
  2
BIGT
  9
$DIMCLRD
 70
   256
  9
$DIMCLRE
 70
   256
  9
$DIMCLRT
 70
    40
  9
$DIMTFAC
 40
1.0
  9
$DIMGAP
 40
1.0
  9
$DIMJUST
 70
     0
  9
$DIMSD1
 70
     0
  9
$DIMSD2
 70
     0
  9
$DIMTOLJ
 70
     1
  9
$DIMTZIN
 70
     8
  9
$DIMALTZ
 70
     0
  9
$DIMALTTZ
 70
     0
  9
$DIMFIT
 70
     3
  9
$DIMUPT
 70
     0
  9
$DIMUNIT
 70
     2
  9
$DIMDEC
 70
     3
  9
$DIMTDEC
 70
     3
  9
$DIMALTU
 70
     2
  9
$DIMALTTD
 70
     2
  9
$DIMTXSTY
  7
STANDARD
  9
$DIMAUNIT
 70
     0
  9
$LUNITS
 70
     2
  9
$LUPREC
 70
     3
  9
$SKETCHINC
 40
1.0
  9
$FILLETRAD
 40
10.0
  9
$AUNITS
 70
     0
  9
$AUPREC
 70
     3
  9
$MENU
  1
.
  9
$ELEVATION
 40
0.0
  9
$PELEVATION
 40
0.0
  9
$THICKNESS
 40
0.0
  9
$LIMCHECK
 70
     0
  9
$BLIPMODE
 70
     0
  9
$CHAMFERA
 40
10.0
  9
$CHAMFERB
 40
10.0
  9
$CHAMFERC
 40
0.0
  9
$CHAMFERD
 40
0.0
  9
$SKPOLY
 70
     0
  9
$TDCREATE
 40
2455133.639560185
  9
$TDUPDATE
 40
2455216.458128796
  9
$TDINDWG
 40
0.0162416667
  9
$TDUSRTIMER
 40
0.0162416667
  9
$USRTIMER
 70
     1
  9
$ANGBASE
 50
0.0
  9
$ANGDIR
 70
     0
  9
$PDMODE
 70
     1
  9
$PDSIZE
 40
-5.0
  9
$PLINEWID
 40
0.0
  9
$COORDS
 70
     2
  9
$SPLFRAME
 70
     0
  9
$SPLINETYPE
 70
     6
  9
$SPLINESEGS
 70
     8
  9
$ATTDIA
 70
     0
  9
$ATTREQ
 70
     1
  9
$HANDLING
 70
-16383
  9
$HANDSEED
  5
C3A
  9
$SURFTAB1
 70
     6
  9
$SURFTAB2
 70
     6
  9
$SURFTYPE
 70
     6
  9
$SURFU
 70
     6
  9
$SURFV
 70
     6
  9
$UCSNAME
  2

  9
$UCSORG
 10
0.0
 20
0.0
 30
0.0
  9
$UCSXDIR
 10
1.0
 20
0.0
 30
0.0
  9
$UCSYDIR
 10
0.0
 20
1.0
 30
0.0
  9
$PUCSNAME
  2

  9
$PUCSORG
 10
0.0
 20
0.0
 30
0.0
  9
$PUCSXDIR
 10
1.0
 20
0.0
 30
0.0
  9
$PUCSYDIR
 10
0.0
 20
1.0
 30
0.0
  9
$USERI1
 70
     1
  9
$USERI2
 70
     0
  9
$USERI3
 70
     0
  9
$USERI4
 70
     0
  9
$USERI5
 70
     0
  9
$USERR1
 40
0.0
  9
$USERR2
 40
0.0
  9
$USERR3
 40
0.0
  9
$USERR4
 40
0.0
  9
$USERR5
 40
0.0
  9
$WORLDVIEW
 70
     1
  9
$SHADEDGE
 70
     3
  9
$SHADEDIF
 70
    70
  9
$TILEMODE
 70
     1
  9
$MAXACTVP
 70
    16
  9
$PINSBASE
 10
0.0
 20
0.0
 30
0.0
  9
$PLIMCHECK
 70
     0
  9
$PEXTMIN
 10
1.00000000E+20
 20
1.00000000E+20
 30
1.00000000E+20
  9
$PEXTMAX
 10
-1.00000000E+20
 20
-1.00000000E+20
 30
-1.00000000E+20
  9
$PLIMMIN
 10
0.0
 20
0.0
  9
$PLIMMAX
 10
420.0
 20
297.0
  9
$UNITMODE
 70
     0
  9
$VISRETAIN
 70
     0
  9
$PLINEGEN
 70
     0
  9
$PSLTSCALE
 70
     1
  9
$TREEDEPTH
 70
  3020
  9
$PICKSTYLE
 70
     0
  9
$CMLSTYLE
  2
STANDARD
  9
$CMLJUST
 70
     0
  9
$CMLSCALE
 40
1.0
  9
$PROXYGRAPHICS
 70
     1
  9
$MEASUREMENT
 70
     1
  0
ENDSEC
  0
SECTION
  2
CLASSES
  0
CLASS
  1
XRECORD
  2
AcDbXrecord
  3
AutoCAD 2000
 90
        0
280
     0
281
     0
  0
CLASS
  1
ACDBDICTIONARYWDFLT
  2
AcDbDictionaryWithDefault
  3
AutoCAD 2000
 90
        0
280
     0
281
     0
  0
CLASS
  1
ACDBPLACEHOLDER
  2
AcDbPlaceHolder
  3
AutoCAD 2000
 90
        0
280
     0
281
     0
  0
CLASS
  1
LAYOUT
  2
AcDbLayout
  3
AutoCAD 2000
 90
        0
280
     0
281
     0
  0
CLASS
  1
PLOTSETTINGS
  2
AcDbPlotSettings
  3
AutoCAD 2000
 90
        0
280
     0
281
     0
  0
CLASS
  1
LONG_TRANSACTION
  2
AcDbLongTransaction
  3
AutoCAD 2000
 90
        0
280
     0
281
     0
  0
CLASS
  1
LWPOLYLINE
  2
AcDbPolyline
  3
AutoCAD 2000
 90
        0
280
     0
281
     1
  0
CLASS
  1
HATCH
  2
AcDbHatch
  3
AutoCAD 2000
 90
        0
280
     0
281
     1
  0
CLASS
  1
XRECORD
  2
AcDbXrecord
  3
AutoCAD 2000
 90
        0
280
     0
281
     0
  0
CLASS
  1
LONG_TRANSACTION
  2
AcDbLongTransaction
  3
AutoCAD 2000
 90
        0
280
     0
281
     0
  0
CLASS
  1
LWPOLYLINE
  2
AcDbPolyline
  3
AutoCAD 2000
 90
        0
280
     0
281
     1
  0
CLASS
  1
HATCH
  2
AcDbHatch
  3
AutoCAD 2000
 90
        0
280
     0
281
     1
  0
CLASS
  1
XRECORD
  2
AcDbXrecord
  3
AutoCAD 2000
 90
        0
280
     0
281
     0
  0
ENDSEC
  0
SECTION
  2
TABLES
  0
TABLE
  2
VPORT
  5
8
330
0
100
AcDbSymbolTable
 70
     2
  0
VPORT
  5
C15
330
8
100
AcDbSymbolTableRecord
100
AcDbViewportTableRecord
  2
*ACTIVE
 70
     0
 10
0.0
 20
0.0
 11
1.0
 21
1.0
 12
55.68851148
 22
14.64107994
 13
0.0
 23
0.0
 14
7.0
 24
7.0
 15
7.0
 25
7.0
 16
0.0
 26
0.0
 36
1.0
 17
0.0
 27
0.0
 37
0.0
 40
135.27377774
 41
1.43184713
 42
50.0
 43
0.0
 44
0.0
 50
0.0
 51
0.0
 71
     0
 72
  2000
 73
     1
 74
     0
 75
     0
 76
     0
 77
     0
 78
     0
  0
ENDTAB
  0
TABLE
  2
LTYPE
  5
5
330
0
100
AcDbSymbolTable
 70
     3
  0
LTYPE
  5
14
330
5
100
AcDbSymbolTableRecord
100
AcDbLinetypeTableRecord
  2
BYBLOCK
 70
     0
  3

 72
    65
 73
     0
 40
0.0
  0
LTYPE
  5
15
330
5
100
AcDbSymbolTableRecord
100
AcDbLinetypeTableRecord
  2
BYLAYER
 70
     0
  3

 72
    65
 73
     0
 40
0.0
  0
LTYPE
  5
16
330
5
100
AcDbSymbolTableRecord
100
AcDbLinetypeTableRecord
  2
CONTINUOUS
 70
     0
  3
Solid line
 72
    65
 73
     0
 40
0.0
  0
LTYPE
  5
258
330
5
100
AcDbSymbolTableRecord
100
AcDbLinetypeTableRecord
  2
CENTER2
 70
     0
  3
___ _ ___ _ ___ _ ___ _ ___ _ ___ _ ___ _ ___ _
 72
    65
 73
     4
 40
1.125
 49
0.75
 74
     0
 49
-0.125
 74
     0
 49
0.125
 74
     0
 49
-0.125
 74
     0
  0
LTYPE
  5
25C
330
5
100
AcDbSymbolTableRecord
100
AcDbLinetypeTableRecord
  2
HIDDEN2
 70
     0
  3
_ _ _ _ _ _ _ _ _ _ _ _ _ _ _ _ _ _ _ _ _ _ _ _
 72
    65
 73
     2
 40
0.1875
 49
0.125
 74
     0
 49
-0.0625
 74
     0
  0
ENDTAB
  0
TABLE
  2
LAYER
  5
2
330
0
100
AcDbSymbolTable
 70
    10
  0
LAYER
  5
F
330
2
100
AcDbSymbolTableRecord
100
AcDbLayerTableRecord
  2
0
 70
     0
 62
     7
  6
CONTINUOUS
  0
LAYER
  5
1AA
330
2
100
AcDbSymbolTableRecord
100
AcDbLayerTableRecord
  2
240
 70
     0
 62
     4
  6
CONTINUOUS
  0
LAYER
  5
1AB
330
2
100
AcDbSymbolTableRecord
100
AcDbLayerTableRecord
  2
241
 70
     0
 62
   211
  6
CONTINUOUS
  0
LAYER
  5
1AC
330
2
100
AcDbSymbolTableRecord
100
AcDbLayerTableRecord
  2
242
 70
     0
 62
     3
  6
CONTINUOUS
  0
LAYER
  5
1AF
330
2
100
AcDbSymbolTableRecord
100
AcDbLayerTableRecord
  2
245
 70
     0
 62
     2
  6
CENTER2
  0
LAYER
  5
21E
330
2
100
AcDbSymbolTableRecord
100
AcDbLayerTableRecord
  2
250
 70
     0
 62
     3
  6
CONTINUOUS
  0
LAYER
  5
21F
330
2
100
AcDbSymbolTableRecord
100
AcDbLayerTableRecord
  2
251
 70
     0
 62
    40
  6
CONTINUOUS
  0
LAYER
  5
5C4
330
2
100
AcDbSymbolTableRecord
100
AcDbLayerTableRecord
  2
DEFPOINTS
 70
     0
 62
     7
  6
CONTINUOUS
  0
ENDTAB
  0
TABLE
  2
STYLE
  5
3
330
0
100
AcDbSymbolTable
 70
     2
  0
STYLE
  5
10
330
3
100
AcDbSymbolTableRecord
100
AcDbTextStyleTableRecord
  2
STANDARD
 70
     0
 40
0.0
 41
1.0
 50
0.0
 71
     0
 42
3.0
  3
romans.shx
  4
BIGFONT.SHX
  0
STYLE
  5
339
330
3
100
AcDbSymbolTableRecord
100
AcDbTextStyleTableRecord
  2
YOKO
 70
     0
 40
0.0
 41
1.0
 50
0.0
 71
     0
 42
3.0
  3
romans.shx
  4
extfont.shx
  0
ENDTAB
  0
TABLE
  2
VIEW
  5
6
330
0
100
AcDbSymbolTable
 70
     0
  0
ENDTAB
  0
TABLE
  2
UCS
  5
7
330
0
100
AcDbSymbolTable
 70
     0
  0
ENDTAB
  0
TABLE
  2
APPID
  5
9
330
0
100
AcDbSymbolTable
 70
     9
  0
APPID
  5
11
330
9
100
AcDbSymbolTableRecord
100
AcDbRegAppTableRecord
  2
ACAD
 70
     0
  0
APPID
  5
1B1
330
9
100
AcDbSymbolTableRecord
100
AcDbRegAppTableRecord
  2
GLOBAL
 70
     0
  0
APPID
  5
2A4
330
9
100
AcDbSymbolTableRecord
100
AcDbRegAppTableRecord
  2
DETAIL
 70
     0
  0
APPID
  5
5FD
330
9
100
AcDbSymbolTableRecord
100
AcDbRegAppTableRecord
  2
GRPNAME
 70
     0
  0
APPID
  5
5FE
330
9
100
AcDbSymbolTableRecord
100
AcDbRegAppTableRecord
  2
GPARA
 70
     0
  0
APPID
  5
6C4
330
9
100
AcDbSymbolTableRecord
100
AcDbRegAppTableRecord
  2
DCO15
 70
     0
  0
APPID
  5
6C5
330
9
100
AcDbSymbolTableRecord
100
AcDbRegAppTableRecord
  2
ITEMNAME
 70
     0
  0
APPID
  5
6C6
330
9
100
AcDbSymbolTableRecord
100
AcDbRegAppTableRecord
  2
GRADE_0
 70
     0
  0
APPID
  5
9E6
330
9
100
AcDbSymbolTableRecord
100
AcDbRegAppTableRecord
  2
CONTENTBLOCKICON
 70
     0
  0
ENDTAB
  0
TABLE
  2
DIMSTYLE
  5
A
330
0
100
AcDbSymbolTable
 70
     5
  0
DIMSTYLE
105
725
102
{ACAD_REACTORS
330
800
102
}
330
A
100
AcDbSymbolTableRecord
100
AcDbDimStyleTableRecord
  2
BIGT
 70
     0
  3

  4

  5

  6
OPEN
  7
OPEN
 40
1.0
 41
2.23
 42
0.5
 43
2.5
 44
1.0
 45
0.0
 46
0.0
 47
0.0
 48
0.0
140
2.8
141
0.0
142
0.0
143
25.4
144
1.0
145
0.0
146
1.0
147
1.0
 71
     0
 72
     0
 73
     0
 74
     0
 75
     0
 76
     0
 77
     3
 78
     8
170
     0
171
     2
172
     1
173
     1
174
     1
175
     0
176
   256
177
   256
178
    40
270
     2
271
     3
272
     3
273
     2
274
     2
340
10
275
     0
280
     0
281
     0
282
     0
283
     1
284
     8
285
     0
286
     0
287
     3
288
     0
  0
DIMSTYLE
105
7EF
102
{ACAD_REACTORS
330
801
330
B36
330
B37
330
B9C
102
}
330
A
100
AcDbSymbolTableRecord
100
AcDbDimStyleTableRecord
  2
BIGT$0
 70
     0
  3

  4
"
  5
OPEN
  6

  7

 40
1.0
 41
2.23
 42
0.5
 43
7.0
 44
1.0
 45
0.0
 46
0.0
 47
0.1
 48
0.1
140
3.0
141
0.0
142
0.0
143
0.0393701
144
1.0
145
0.0
146
0.71
147
1.0
 71
     0
 72
     0
 73
     0
 74
     0
 75
     0
 76
     0
 77
     3
 78
     8
170
     0
171
     2
172
     1
173
     0
174
     0
175
     0
176
     3
177
     3
178
    40
270
     2
271
     3
272
     3
273
     2
274
     2
340
10
275
     0
280
     0
281
     0
282
     0
283
     1
284
     8
285
     0
286
     0
287
     3
288
     0
  0
ENDTAB
  0
TABLE
  2
BLOCK_RECORD
  5
1
330
0
100
AcDbSymbolTable
 70
    16
  0
BLOCK_RECORD
  5
1A
102
{ACAD_XDICTIONARY
360
9E4
102
}
330
1
100
AcDbSymbolTableRecord
100
AcDbBlockTableRecord
  2
*MODEL_SPACE
  0
BLOCK_RECORD
  5
17
102
{ACAD_XDICTIONARY
360
9E2
102
}
330
1
100
AcDbSymbolTableRecord
100
AcDbBlockTableRecord
  2
*PAPER_SPACE
  0
BLOCK_RECORD
  5
594
330
1
100
AcDbSymbolTableRecord
100
AcDbBlockTableRecord
  2
_OPEN
  0
BLOCK_RECORD
  5
6E3
330
1
100
AcDbSymbolTableRecord
100
AcDbBlockTableRecord
  2
矢印なし
  0
BLOCK_RECORD
  5
762
330
1
100
AcDbSymbolTableRecord
100
AcDbBlockTableRecord
  2
1
1001
CONTENTBLOCKICON
1071
        0
1004
2800000020000000200000000100080000000000000400000000000000000000000000000000000000000000000080000080000000808000800000008000800080800000C0C0C000C0DCC000F0CAA6000020400000206000002080000020A0000020C0000020E00000400000004020000040400000406000004080000040A0
1004
000040C0000040E00000600000006020000060400000606000006080000060A0000060C0000060E00000800000008020000080400000806000008080000080A0000080C0000080E00000A0000000A0200000A0400000A0600000A0800000A0A00000A0C00000A0E00000C0000000C0200000C0400000C0600000C0800000C0
1004
A00000C0C00000C0E00000E0000000E0200000E0400000E0600000E0800000E0A00000E0C00000E0E00040000000400020004000400040006000400080004000A0004000C0004000E00040200000402020004020400040206000402080004020A0004020C0004020E000404000004040200040404000404060004040800040
1004
40A0004040C0004040E00040600000406020004060400040606000406080004060A0004060C0004060E00040800000408020004080400040806000408080004080A0004080C0004080E00040A0000040A0200040A0400040A0600040A0800040A0A00040A0C00040A0E00040C0000040C0200040C0400040C0600040C08000
1004
40C0A00040C0C00040C0E00040E0000040E0200040E0400040E0600040E0800040E0A00040E0C00040E0E00080000000800020008000400080006000800080008000A0008000C0008000E00080200000802020008020400080206000802080008020A0008020C0008020E00080400000804020008040400080406000804080
1004
008040A0008040C0008040E00080600000806020008060400080606000806080008060A0008060C0008060E00080800000808020008080400080806000808080008080A0008080C0008080E00080A0000080A0200080A0400080A0600080A0800080A0A00080A0C00080A0E00080C0000080C0200080C0400080C0600080C0
1004
800080C0A00080C0C00080C0E00080E0000080E0200080E0400080E0600080E0800080E0A00080E0C00080E0E000C0000000C0002000C0004000C0006000C0008000C000A000C000C000C000E000C0200000C0202000C0204000C0206000C0208000C020A000C020C000C020E000C0400000C0402000C0404000C0406000C0
1004
408000C040A000C040C000C040E000C0600000C0602000C0604000C0606000C0608000C060A000C060C000C060E000C0800000C0802000C0804000C0806000C0808000C080A000C080C000C080E000C0A00000C0A02000C0A04000C0A06000C0A08000C0A0A000C0A0C000C0A0E000C0C00000C0C02000C0C04000C0C06000
1004
C0C08000C0C0A000F0FBFF00A4A0A000808080000000FF0000FF000000FFFF00FF000000FF00FF00FFFF0000FFFFFF0000000000000000000000000000000000000000000000000000000000000000000000000000000000000000000000000000000000000000000000000000000000000000000000000000000000000000
1004
00000000000000000000000000000000000000000000000000000000000000000000000000000000000000000000000000000000000000000000000000000000000000000000000000000000000000000000000000000000000000000000000000000000000000000000000000000000000000000000000000000000000000
1004
000000000000000000000000000000000000000000000000000000000000000000000000000000000000000000000000000000000000000000000000000000000000000000000000000000000000000000000000000000000000000000000000000000000000000000000000000000000000000000000000FEFEFEFEFE0000
1004
00000000000000000000000000000000000000000000000000FE00E7FEFE0000000000000000000000000000000000000000000000FEFEFEFEFE00E7FBFEFE00000000000000000000000000000000000000000000FE000000E700E7FBE7FEFEFEFEFEFEFEFEFEFEFEFEFEFEFEFEFEFEFE00000000FE000000E700E7FBE700
1004
00000000000000000000000000FEE70000FE00000000FE000000E700E7FBE70000000000000000000000000000E7E70000FE000000FBFEFBFBFBE7FBE7E7E7FBFBFBFBFBE7E7E7E7FAE7E7E7E7E7E7E7E7E7FB000000FE000000E700E7E7E70000000000000000000000000000FEFAE7E7E700000000FE000000E700E7E7E7
1004
FEFEFEFEFEFEFEFEFEFEFEFEFEFEFEFEFEFEFE00000000FEFEFEFEFE00E7E7FEFE0000000000000000000000000000000000000000000000000000FE00E7FEFE000000000000000000000000000000000000000000000000000000FEFEFEFEFE00000000000000000000000000000000000000000000000000000000000000
1004
00000000000000000000000000000000000000000000000000000000000000000000000000000000000000000000000000000000000000000000000000000000000000000000000000000000000000000000000000000000000000000000000000000000000000000000000000000000000000000000000000000000000000
1004
00000000000000000000000000000000000000000000000000000000000000000000000000000000000000000000000000000000000000000000000000000000000000000000000000000000000000000000000000000000000000000000000000000000000000000000000000000000000000000000000000000000000000
1004
0000000000000000000000000000000000000000000000000000000000000000000000000000000000000000000000000000000000000000
  0
BLOCK_RECORD
  5
7D6
330
1
100
AcDbSymbolTableRecord
100
AcDbBlockTableRecord
  2
_NONE
  0
BLOCK_RECORD
  5
806
330
1
100
AcDbSymbolTableRecord
100
AcDbBlockTableRecord
  2
*D4
  0
BLOCK_RECORD
  5
812
330
1
100
AcDbSymbolTableRecord
100
AcDbBlockTableRecord
  2
*D5
  0
BLOCK_RECORD
  5
B3D
330
1
100
AcDbSymbolTableRecord
100
AcDbBlockTableRecord
  2
*D12
  0
BLOCK_RECORD
  5
B47
330
1
100
AcDbSymbolTableRecord
100
AcDbBlockTableRecord
  2
*D13
  0
BLOCK_RECORD
  5
B9D
330
1
100
AcDbSymbolTableRecord
100
AcDbBlockTableRecord
  2
*D15
  0
ENDTAB
  0
ENDSEC
  0
SECTION
  2
BLOCKS
  0
BLOCK
  5
1B
330
1A
100
AcDbEntity
  8
0
100
AcDbBlockBegin
  2
*MODEL_SPACE
 70
     0
 10
0.0
 20
0.0
 30
0.0
  3
*MODEL_SPACE
  1

  0
ENDBLK
  5
1C
330
1A
100
AcDbEntity
  8
0
100
AcDbBlockEnd
  0
BLOCK
  5
18
330
17
100
AcDbEntity
 67
     1
  8
0
100
AcDbBlockBegin
  2
*PAPER_SPACE
 70
     0
 10
0.0
 20
0.0
 30
0.0
  3
*PAPER_SPACE
  1

  0
ENDBLK
  5
19
330
17
100
AcDbEntity
 67
     1
  8
0
100
AcDbBlockEnd
  0
BLOCK
  5
598
330
594
100
AcDbEntity
  8
0
100
AcDbBlockBegin
  2
_OPEN
 70
     0
 10
0.0
 20
0.0
 30
0.0
  3
_OPEN
  1

  0
LINE
  5
595
330
594
100
AcDbEntity
  8
0
  6
BYBLOCK
 62
     0
100
AcDbLine
 10
-1.0
 20
0.16666667
 30
0.0
 11
0.0
 21
0.0
 31
0.0
  0
LINE
  5
596
330
594
100
AcDbEntity
  8
0
  6
BYBLOCK
 62
     0
100
AcDbLine
 10
-1.0
 20
-0.16666667
 30
0.0
 11
0.0
 21
0.0
 31
0.0
  0
LINE
  5
597
330
594
100
AcDbEntity
  8
0
  6
BYBLOCK
 62
     0
100
AcDbLine
 10
0.0
 20
0.0
 30
0.0
 11
-1.0
 21
0.0
 31
0.0
  0
ENDBLK
  5
599
330
594
100
AcDbEntity
  8
0
100
AcDbBlockEnd
  0
BLOCK
  5
6E4
330
6E3
100
AcDbEntity
  8
0
100
AcDbBlockBegin
  2
矢印なし
 70
     0
 10
0.0
 20
0.0
 30
0.0
  3
矢印なし
  1

  0
ENDBLK
  5
6E5
330
6E3
100
AcDbEntity
  8
0
100
AcDbBlockEnd
  0
BLOCK
  5
7BC
330
762
100
AcDbEntity
  8
0
100
AcDbBlockBegin
  2
1
 70
     0
 10
0.0
 20
0.0
 30
0.0
  3
1
  1

  0
LINE
  5
BA9
330
762
100
AcDbEntity
  8
240
  6
CONTINUOUS
100
AcDbLine
 10
36.0
 20
12.25000347
 30
0.0
 11
108.29812341
 21
12.25000347
 31
0.0
1001
GRPNAME
1000
PASTMD0U
  0
LINE
  5
BAA
330
762
100
AcDbEntity
  8
240
  6
CONTINUOUS
100
AcDbLine
 10
36.0
 20
-12.24999844
 30
0.0
 11
108.29812341
 21
-12.24999844
 31
0.0
1001
GRPNAME
1000
PASTMD0U
  0
LINE
  5
BAB
330
762
100
AcDbEntity
  8
245
  6
CENTER2
100
AcDbLine
 10
-26.0
 20
0.0
 30
0.0
 11
136.0
 21
0.0
 31
0.0
  0
LINE
  5
BAC
330
762
100
AcDbEntity
  8
241
  6
CONTINUOUS
100
AcDbLine
 10
-2.0
 20
-19.15
 30
0.0
 11
-2.0
 21
0.0
 31
0.0
  0
LINE
  5
BAD
330
762
100
AcDbEntity
  8
241
100
AcDbLine
 10
0.0
 20
-19.15
 30
0.0
 11
0.0
 21
0.0
 31
0.0
  0
LINE
  5
BAE
330
762
100
AcDbEntity
  8
240
  6
CONTINUOUS
100
AcDbLine
 10
-25.0
 20
-17.04875078
 30
0.0
 11
-25.0
 21
0.0
 31
0.0
  0
LINE
  5
BAF
330
762
100
AcDbEntity
  8
241
100
AcDbLine
 10
26.0
 20
-22.24999844
 30
0.0
 11
26.0
 21
0.0
 31
0.0
  0
ARC
  5
BB0
330
762
100
AcDbEntity
  8
240
  6
CONTINUOUS
100
AcDbCircle
 10
36.0
 20
-22.24999844
 30
0.0
 40
10.0
100
AcDbArc
 50
90.0
 51
180.0
  0
LINE
  5
BB1
330
762
100
AcDbEntity
  8
241
  6
CONTINUOUS
100
AcDbLine
 10
14.62250093
 20
-31.5
 30
0.0
 11
14.62250093
 21
0.0
 31
0.0
  0
LINE
  5
BB2
330
762
100
AcDbEntity
  8
241
  6
CONTINUOUS
100
AcDbLine
 10
21.37749907
 20
-31.5
 30
0.0
 11
21.37749907
 21
0.0
 31
0.0
  0
LINE
  5
BB3
330
762
100
AcDbEntity
  8
241
  6
CONTINUOUS
100
AcDbLine
 10
16.125
 20
-27.5
 30
0.0
 11
16.125
 21
0.0
 31
0.0
  0
LINE
  5
BB4
330
762
100
AcDbEntity
  8
241
  6
CONTINUOUS
100
AcDbLine
 10
19.875
 20
-27.5
 30
0.0
 11
19.875
 21
0.0
 31
0.0
  0
LINE
  5
BB5
330
762
100
AcDbEntity
  8
245
  6
CENTER2
100
AcDbLine
 10
18.0
 20
-31.5
 30
0.0
 11
18.0
 21
31.5
 31
0.0
  0
LINE
  5
BB6
330
762
100
AcDbEntity
  8
240
  6
CONTINUOUS
100
AcDbLine
 10
1.0
 20
-31.5
 30
0.0
 11
14.62250093
 21
-31.5
 31
0.0
  0
LINE
  5
BB7
330
762
100
AcDbEntity
  8
240
  6
CONTINUOUS
100
AcDbLine
 10
-2.0
 20
-19.15
 30
0.0
 11
-24.04993762
 21
-18.04750312
 31
0.0
  0
ARC
  5
BB8
330
762
100
AcDbEntity
  8
240
  6
CONTINUOUS
100
AcDbCircle
 10
-24.0
 20
-17.04875078
 30
0.0
 40
1.0
100
AcDbArc
 50
180.0
 51
267.13759477
  0
ARC
  5
BB9
330
762
100
AcDbEntity
  8
240
  6
CONTINUOUS
100
AcDbCircle
 10
1.0
 20
-30.5
 30
0.0
 40
1.0
100
AcDbArc
 50
180.0
 51
270.0
  0
LINE
  5
BBA
330
762
100
AcDbEntity
  8
240
  6
CONTINUOUS
100
AcDbLine
 10
0.0
 20
-30.5
 30
0.0
 11
0.0
 21
-19.15
 31
0.0
  0
LINE
  5
BBB
330
762
100
AcDbEntity
  8
240
100
AcDbLine
 10
-2.0
 20
-19.15
 30
0.0
 11
0.0
 21
-19.15
 31
0.0
  0
LINE
  5
BBC
330
762
100
AcDbEntity
  8
240
  6
CONTINUOUS
100
AcDbLine
 10
16.125
 20
-27.5
 30
0.0
 11
19.875
 21
-27.5
 31
0.0
  0
LINE
  5
BBD
330
762
100
AcDbEntity
  8
240
  6
CONTINUOUS
100
AcDbLine
 10
16.125
 20
-28.89759526
 30
0.0
 11
14.62250093
 21
-31.5
 31
0.0
  0
LINE
  5
BBE
330
762
100
AcDbEntity
  8
240
100
AcDbLine
 10
16.125
 20
-28.89759526
 30
0.0
 11
16.125
 21
-27.5
 31
0.0
  0
LINE
  5
BBF
330
762
100
AcDbEntity
  8
240
  6
CONTINUOUS
100
AcDbLine
 10
26.0
 20
-30.5
 30
0.0
 11
26.0
 21
-22.24999844
 31
0.0
  0
LINE
  5
BC0
330
762
100
AcDbEntity
  8
240
  6
CONTINUOUS
100
AcDbLine
 10
21.37749907
 20
-31.5
 30
0.0
 11
25.0
 21
-31.5
 31
0.0
  0
LINE
  5
BC1
330
762
100
AcDbEntity
  8
240
  6
CONTINUOUS
100
AcDbLine
 10
19.875
 20
-28.89759526
 30
0.0
 11
21.37749907
 21
-31.5
 31
0.0
  0
LINE
  5
BC2
330
762
100
AcDbEntity
  8
240
100
AcDbLine
 10
19.875
 20
-28.89759526
 30
0.0
 11
19.875
 21
-27.5
 31
0.0
  0
ARC
  5
BC3
330
762
100
AcDbEntity
  8
240
  6
CONTINUOUS
100
AcDbCircle
 10
25.0
 20
-30.5
 30
0.0
 40
1.0
100
AcDbArc
 50
270.0
 51
0.0
  0
LINE
  5
BC4
330
762
100
AcDbEntity
  8
240
  6
CONTINUOUS
100
AcDbLine
 10
1.0
 20
31.5
 30
0.0
 11
14.62250093
 21
31.5
 31
0.0
  0
LINE
  5
BC5
330
762
100
AcDbEntity
  8
241
100
AcDbLine
 10
0.0
 20
19.15
 30
0.0
 11
0.0
 21
0.0
 31
0.0
  0
LINE
  5
BC6
330
762
100
AcDbEntity
  8
241
  6
CONTINUOUS
100
AcDbLine
 10
-2.0
 20
19.15
 30
0.0
 11
-2.0
 21
0.0
 31
0.0
  0
LINE
  5
BC7
330
762
100
AcDbEntity
  8
240
  6
CONTINUOUS
100
AcDbLine
 10
-25.0
 20
17.04875078
 30
0.0
 11
-25.0
 21
0.0
 31
0.0
  0
LINE
  5
BC8
330
762
100
AcDbEntity
  8
240
  6
CONTINUOUS
100
AcDbLine
 10
-2.0
 20
19.15
 30
0.0
 11
-24.04993762
 21
18.04750312
 31
0.0
  0
ARC
  5
BC9
330
762
100
AcDbEntity
  8
240
  6
CONTINUOUS
100
AcDbCircle
 10
-24.0
 20
17.04875078
 30
0.0
 40
0.9999999999999916
100
AcDbArc
 50
92.86240523
 51
180.0
  0
LINE
  5
BCA
330
762
100
AcDbEntity
  8
240
  6
CONTINUOUS
100
AcDbLine
 10
0.0
 20
30.5
 30
0.0
 11
0.0
 21
19.15
 31
0.0
  0
LINE
  5
BCB
330
762
100
AcDbEntity
  8
240
100
AcDbLine
 10
-2.0
 20
19.15
 30
0.0
 11
0.0
 21
19.15
 31
0.0
  0
ARC
  5
BCC
330
762
100
AcDbEntity
  8
240
  6
CONTINUOUS
100
AcDbCircle
 10
1.0
 20
30.5
 30
0.0
 40
1.0
100
AcDbArc
 50
90.0
 51
180.0
  0
ARC
  5
BCD
330
762
100
AcDbEntity
  8
240
  6
CONTINUOUS
100
AcDbCircle
 10
36.0
 20
22.25000347
 30
0.0
 40
10.0
100
AcDbArc
 50
180.0
 51
270.0
  0
LINE
  5
BCE
330
762
100
AcDbEntity
  8
241
100
AcDbLine
 10
26.0
 20
22.24999844
 30
0.0
 11
26.0
 21
0.0
 31
0.0
  0
LINE
  5
BCF
330
762
100
AcDbEntity
  8
241
  6
CONTINUOUS
100
AcDbLine
 10
19.875
 20
27.5
 30
0.0
 11
19.875
 21
0.0
 31
0.0
  0
LINE
  5
BD0
330
762
100
AcDbEntity
  8
241
  6
CONTINUOUS
100
AcDbLine
 10
16.125
 20
27.5
 30
0.0
 11
16.125
 21
0.0
 31
0.0
  0
LINE
  5
BD1
330
762
100
AcDbEntity
  8
241
  6
CONTINUOUS
100
AcDbLine
 10
21.37749907
 20
31.5
 30
0.0
 11
21.37749907
 21
0.0
 31
0.0
  0
LINE
  5
BD2
330
762
100
AcDbEntity
  8
241
  6
CONTINUOUS
100
AcDbLine
 10
14.62250093
 20
31.5
 30
0.0
 11
14.62250093
 21
0.0
 31
0.0
  0
LINE
  5
BD3
330
762
100
AcDbEntity
  8
240
100
AcDbLine
 10
19.875
 20
28.89759526
 30
0.0
 11
19.875
 21
27.5
 31
0.0
  0
LINE
  5
BD4
330
762
100
AcDbEntity
  8
240
100
AcDbLine
 10
16.125
 20
28.89759526
 30
0.0
 11
16.125
 21
27.5
 31
0.0
  0
LINE
  5
BD5
330
762
100
AcDbEntity
  8
240
  6
CONTINUOUS
100
AcDbLine
 10
26.0
 20
30.5
 30
0.0
 11
26.0
 21
22.25000347
 31
0.0
  0
LINE
  5
BD6
330
762
100
AcDbEntity
  8
240
  6
CONTINUOUS
100
AcDbLine
 10
16.125
 20
27.5
 30
0.0
 11
19.875
 21
27.5
 31
0.0
  0
LINE
  5
BD7
330
762
100
AcDbEntity
  8
240
  6
CONTINUOUS
100
AcDbLine
 10
16.125
 20
28.89759526
 30
0.0
 11
14.62250093
 21
31.5
 31
0.0
  0
LINE
  5
BD8
330
762
100
AcDbEntity
  8
240
  6
CONTINUOUS
100
AcDbLine
 10
21.37749907
 20
31.5
 30
0.0
 11
25.0
 21
31.5
 31
0.0
  0
LINE
  5
BD9
330
762
100
AcDbEntity
  8
240
  6
CONTINUOUS
100
AcDbLine
 10
19.875
 20
28.89759526
 30
0.0
 11
21.37749907
 21
31.5
 31
0.0
  0
ARC
  5
BDA
330
762
100
AcDbEntity
  8
240
  6
CONTINUOUS
100
AcDbCircle
 10
25.0
 20
30.5
 30
0.0
 40
1.0
100
AcDbArc
 50
0.0
 51
90.0
  0
LINE
  5
BDB
330
762
100
AcDbEntity
  8
241
  6
HIDDEN2
100
AcDbLine
 10
113.99800248
 20
4.73874918
 30
0.0
 11
128.39800248
 21
6.25225016
 31
0.0
1001
GRPNAME
1000
PASTMD0T
  0
LINE
  5
BDC
330
762
100
AcDbEntity
  8
242
  6
HIDDEN2
100
AcDbLine
 10
124.33811612
 20
8.29999126
 30
0.0
 11
116.5980845
 21
8.29999126
 31
0.0
1001
GRPNAME
1000
PASTMD0T
  0
LINE
  5
BDD
330
762
100
AcDbEntity
  8
241
  6
HIDDEN2
100
AcDbLine
 10
123.93396829
 20
8.99999584
 30
0.0
 11
114.5980845
 21
8.99999584
 31
0.0
1001
GRPNAME
1000
PASTMD0T
  0
LINE
  5
BDE
330
762
100
AcDbEntity
  8
241
  6
HIDDEN2
100
AcDbLine
 10
113.99800248
 20
4.0
 30
0.0
 11
131.99800248
 21
4.0
 31
0.0
1001
GRPNAME
1000
PASTMD0T
  0
LINE
  5
BDF
330
762
100
AcDbEntity
  8
240
  6
CONTINUOUS
100
AcDbLine
 10
114.19992928
 20
12.5
 30
0.0
 11
134.3
 21
12.5
 31
0.0
1001
GRPNAME
1000
PASTMD0T
  0
LINE
  5
BE0
330
762
100
AcDbEntity
  8
240
  6
CONTINUOUS
100
AcDbLine
 10
114.19992928
 20
-12.5
 30
0.0
 11
134.3
 21
-12.5
 31
0.0
1001
GRPNAME
1000
PASTMD0T
  0
LINE
  5
BE1
330
762
100
AcDbEntity
  8
242
  6
HIDDEN2
100
AcDbLine
 10
79.99791818
 20
4.5
 30
0.0
 11
108.99791818
 21
4.5
 31
0.0
  0
LINE
  5
BE2
330
762
100
AcDbEntity
  8
241
  6
HIDDEN2
100
AcDbLine
 10
108.99791818
 20
4.2
 30
0.0
 11
57.0
 21
4.2
 31
0.0
  0
LINE
  5
BE3
330
762
100
AcDbEntity
  8
242
  6
HIDDEN2
100
AcDbLine
 10
79.99791818
 20
4.5
 30
0.0
 11
79.99791818
 21
0.0
 31
0.0
  0
LINE
  5
BE4
330
762
100
AcDbEntity
  8
241
  6
CONTINUOUS
100
AcDbLine
 10
114.04992928
 20
-12.65
 30
0.0
 11
114.04992928
 21
0.0
 31
0.0
1001
GRPNAME
1000
PASTMD0T
  0
LINE
  5
BE5
330
762
100
AcDbEntity
  8
241
  6
CONTINUOUS
100
AcDbLine
 10
115.41414284
 20
-12.5
 30
0.0
 11
115.41414284
 21
0.0
 31
0.0
1001
GRPNAME
1000
PASTMD0T
  0
LINE
  5
BE6
330
762
100
AcDbEntity
  8
241
100
AcDbLine
 10
112.1
 20
-10.5000137
 30
0.0
 11
112.1
 21
0.0
 31
0.0
  0
LINE
  5
BE7
330
762
100
AcDbEntity
  8
241
100
AcDbLine
 10
108.79812341
 20
-10.5000137
 30
0.0
 11
108.79812341
 21
0.0
 31
0.0
  0
ARC
  5
BE8
330
762
100
AcDbEntity
  8
240
  6
CONTINUOUS
100
AcDbCircle
 10
108.29812341
 20
-11.74999844
 30
0.0
 40
0.5
100
AcDbArc
 50
269.99999997
 51
359.99999997
1001
GRPNAME
1000
PASTMD0S
  0
LINE
  5
BE9
330
762
100
AcDbEntity
  8
240
  6
CONTINUOUS
100
AcDbLine
 10
112.6
 20
-12.65
 30
0.0
 11
114.04992928
 21
-12.65
 31
0.0
1001
GRPNAME
1000
PASTMD0T
  0
LINE
  5
BEA
330
762
100
AcDbEntity
  8
240
  6
CONTINUOUS
100
AcDbLine
 10
112.1
 20
-12.15
 30
0.0
 11
112.1
 21
-10.5000137
 31
0.0
1001
GRPNAME
1000
PASTMD0T
  0
LINE
  5
BEB
330
762
100
AcDbEntity
  8
240
  6
CONTINUOUS
100
AcDbLine
 10
108.79812341
 20
-11.74999844
 30
0.0
 11
108.79812341
 21
-10.5000137
 31
0.0
1001
GRPNAME
1000
PASTMD0U
  0
ARC
  5
BEC
330
762
100
AcDbEntity
  8
240
  6
CONTINUOUS
100
AcDbCircle
 10
112.6
 20
-12.15
 30
0.0
 40
0.5
100
AcDbArc
 50
180.00000008
 51
270.00000008
1001
GRPNAME
1000
PASTMD0T
  0
LINE
  5
BED
330
762
100
AcDbEntity
  8
240
  6
CONTINUOUS
100
AcDbLine
 10
108.79812341
 20
-10.5000137
 30
0.0
 11
112.1
 21
-10.5000137
 31
0.0
1001
GRPNAME
1000
PASTMD0T
  0
LINE
  5
BEE
330
762
100
AcDbEntity
  8
240
  6
CONTINUOUS
100
AcDbLine
 10
114.04992928
 20
-12.65
 30
0.0
 11
114.19992928
 21
-12.5
 31
0.0
1001
GRPNAME
1000
PASTMD0T
  0
ARC
  5
BEF
330
762
100
AcDbEntity
  8
240
  6
CONTINUOUS
100
AcDbCircle
 10
108.29812341
 20
11.75000347
 30
0.0
 40
0.5
100
AcDbArc
 50
0.0
 51
90.0
1001
GRPNAME
1000
PASTMD0S
  0
LINE
  5
BF0
330
762
100
AcDbEntity
  8
241
  6
CONTINUOUS
100
AcDbLine
 10
114.04992928
 20
12.65
 30
0.0
 11
114.04992928
 21
0.0
 31
0.0
1001
GRPNAME
1000
PASTMD0T
  0
LINE
  5
BF1
330
762
100
AcDbEntity
  8
241
  6
CONTINUOUS
100
AcDbLine
 10
115.41414284
 20
12.5
 30
0.0
 11
115.41414284
 21
0.0
 31
0.0
1001
GRPNAME
1000
PASTMD0T
  0
LINE
  5
BF2
330
762
100
AcDbEntity
  8
241
100
AcDbLine
 10
112.1
 20
10.5000137
 30
0.0
 11
112.1
 21
0.0
 31
0.0
  0
LINE
  5
BF3
330
762
100
AcDbEntity
  8
241
100
AcDbLine
 10
108.79812341
 20
10.5000137
 30
0.0
 11
108.79812341
 21
0.0
 31
0.0
  0
LINE
  5
BF4
330
762
100
AcDbEntity
  8
241
  6
HIDDEN2
100
AcDbLine
 10
108.99791818
 20
5.00000395
 30
0.0
 11
113.99791055
 21
5.00000395
 31
0.0
1001
GRPNAME
1000
PASTMD0T
  0
LINE
  5
BF5
330
762
100
AcDbEntity
  8
241
  6
HIDDEN2
100
AcDbLine
 10
108.99791818
 20
0.0
 30
0.0
 11
108.99791818
 21
5.00000395
 31
0.0
1001
GRPNAME
1000
PASTMD0W
  0
LINE
  5
BF6
330
762
100
AcDbEntity
  8
241
  6
HIDDEN2
100
AcDbLine
 10
113.99791055
 20
5.00000395
 30
0.0
 11
113.99791055
 21
0.0
 31
0.0
1001
GRPNAME
1000
PASTMD0T
  0
LINE
  5
BF7
330
762
100
AcDbEntity
  8
240
  6
CONTINUOUS
100
AcDbLine
 10
112.6
 20
12.65
 30
0.0
 11
114.04992928
 21
12.65
 31
0.0
1001
GRPNAME
1000
PASTMD0T
  0
LINE
  5
BF8
330
762
100
AcDbEntity
  8
241
  6
HIDDEN2
100
AcDbLine
 10
112.4980784
 20
9.55001415
 30
0.0
 11
113.5980845
 21
9.55001415
 31
0.0
1001
GRPNAME
1000
PASTMD0T
  0
ARC
  5
BF9
330
762
100
AcDbEntity
  8
240
  6
CONTINUOUS
100
AcDbCircle
 10
112.6
 20
12.15
 30
0.0
 40
0.5
100
AcDbArc
 50
89.99999999
 51
179.99999999
1001
GRPNAME
1000
PASTMD0T
  0
LINE
  5
BFA
330
762
100
AcDbEntity
  8
240
  6
CONTINUOUS
100
AcDbLine
 10
108.79812341
 20
10.5000111
 30
0.0
 11
112.1
 21
10.5000111
 31
0.0
1001
GRPNAME
1000
PASTMD0T
  0
LINE
  5
BFB
330
762
100
AcDbEntity
  8
241
  6
HIDDEN2
100
AcDbLine
 10
112.4980784
 20
9.55001415
 30
0.0
 11
112.4980784
 21
10.5000111
 31
0.0
1001
GRPNAME
1000
PASTMD0T
  0
LINE
  5
BFC
330
762
100
AcDbEntity
  8
241
  6
HIDDEN2
100
AcDbLine
 10
112.1
 20
10.5000111
 30
0.0
 11
112.4980784
 21
10.5000111
 31
0.0
  0
LINE
  5
BFD
330
762
100
AcDbEntity
  8
240
  6
CONTINUOUS
100
AcDbLine
 10
112.1
 20
12.15
 30
0.0
 11
112.1
 21
10.5000111
 31
0.0
1001
GRPNAME
1000
PASTMD0T
  0
LINE
  5
BFE
330
762
100
AcDbEntity
  8
240
  6
CONTINUOUS
100
AcDbLine
 10
108.79812341
 20
11.74999844
 30
0.0
 11
108.79812341
 21
10.5000111
 31
0.0
1001
GRPNAME
1000
PASTMD0U
  0
LINE
  5
BFF
330
762
100
AcDbEntity
  8
240
  6
CONTINUOUS
100
AcDbLine
 10
114.04992928
 20
12.65
 30
0.0
 11
114.19992928
 21
12.5
 31
0.0
1001
GRPNAME
1000
PASTMD0T
  0
LINE
  5
C00
330
762
100
AcDbEntity
  8
241
  6
HIDDEN2
100
AcDbLine
 10
114.5980845
 20
8.99999584
 30
0.0
 11
114.5980845
 21
10.5000111
 31
0.0
1001
GRPNAME
1000
PASTMD0T
  0
LINE
  5
C01
330
762
100
AcDbEntity
  8
241
  6
HIDDEN2
100
AcDbLine
 10
113.5980845
 20
9.55001415
 30
0.0
 11
113.5980845
 21
10.5000111
 31
0.0
1001
GRPNAME
1000
PASTMD0T
  0
LINE
  5
C02
330
762
100
AcDbEntity
  8
241
  6
HIDDEN2
100
AcDbLine
 10
113.5980845
 20
10.5000111
 30
0.0
 11
114.5980845
 21
10.5000111
 31
0.0
1001
GRPNAME
1000
PASTMD0T
  0
LINE
  5
C03
330
762
100
AcDbEntity
  8
242
  6
HIDDEN2
100
AcDbLine
 10
115.38563638
 20
8.99999584
 30
0.0
 11
116.5980845
 21
8.29999126
 31
0.0
1001
GRPNAME
1000
PASTMD0T
  0
LINE
  5
C04
330
762
100
AcDbEntity
  8
240
  6
CONTINUOUS
100
AcDbLine
 10
135.0
 20
-11.8
 30
0.0
 11
135.0
 21
0.0
 31
0.0
1001
GRPNAME
1000
PASTMD0T
  0
ARC
  5
C05
330
762
100
AcDbEntity
  8
240
  6
CONTINUOUS
100
AcDbCircle
 10
134.3
 20
-11.8
 30
0.0
 40
0.6999999999999887
100
AcDbArc
 50
269.99999997
 51
359.99999997
1001
GRPNAME
1000
PASTMD0T
  0
LINE
  5
C06
330
762
100
AcDbEntity
  8
241
  6
HIDDEN2
100
AcDbLine
 10
125.99791818
 20
7.3500009
 30
0.0
 11
125.99791818
 21
5.99999114
 31
0.0
1001
GRPNAME
1000
PASTMD0T
  0
LINE
  5
C07
330
762
100
AcDbEntity
  8
241
  6
HIDDEN2
100
AcDbLine
 10
125.49791818
 20
7.8500009
 30
0.0
 11
125.99791818
 21
7.3500009
 31
0.0
1001
GRPNAME
1000
PASTMD0T
  0
LINE
  5
C08
330
762
100
AcDbEntity
  8
241
  6
HIDDEN2
100
AcDbLine
 10
124.59791818
 20
7.8500009
 30
0.0
 11
125.49791818
 21
7.8500009
 31
0.0
1001
GRPNAME
1000
PASTMD0T
  0
LINE
  5
C09
330
762
100
AcDbEntity
  8
241
  6
HIDDEN2
100
AcDbLine
 10
124.59791818
 20
7.8500009
 30
0.0
 11
123.93396829
 21
8.99999584
 31
0.0
  0
LINE
  5
C0A
330
762
100
AcDbEntity
  8
241
  6
HIDDEN2
100
AcDbLine
 10
133.00000452
 20
5.32501244
 30
0.0
 11
135.0
 21
6.47970226
 31
0.0
1001
GRPNAME
1000
PASTMD0T
  0
LINE
  5
C0B
330
762
100
AcDbEntity
  8
241
  6
HIDDEN2
100
AcDbLine
 10
128.39800248
 20
5.25
 30
0.0
 11
128.39800248
 21
6.25225016
 31
0.0
1001
GRPNAME
1000
PASTMD0T
  0
LINE
  5
C0C
330
762
100
AcDbEntity
  8
241
  6
HIDDEN2
100
AcDbLine
 10
130.29800248
 20
5.25
 30
0.0
 11
130.29800248
 21
6.25
 31
0.0
1001
GRPNAME
1000
PASTMD0T
  0
LINE
  5
C0D
330
762
100
AcDbEntity
  8
241
  6
HIDDEN2
100
AcDbLine
 10
131.99800248
 20
5.32623957
 30
0.0
 11
130.39800248
 21
6.25
 31
0.0
1001
GRPNAME
1000
PASTMD0T
  0
LINE
  5
C0E
330
762
100
AcDbEntity
  8
240
  6
CONTINUOUS
100
AcDbLine
 10
135.0
 20
11.8
 30
0.0
 11
135.0
 21
0.0
 31
0.0
1001
GRPNAME
1000
PASTMD0T
  0
LINE
  5
C0F
330
762
100
AcDbEntity
  8
241
  6
HIDDEN2
100
AcDbLine
 10
128.39800248
 20
5.25
 30
0.0
 11
130.29800248
 21
5.25
 31
0.0
1001
GRPNAME
1000
PASTMD0T
  0
LINE
  5
C10
330
762
100
AcDbEntity
  8
241
  6
HIDDEN2
100
AcDbLine
 10
133.00000452
 20
5.32501244
 30
0.0
 11
132.00000457
 21
5.32501244
 31
0.0
1001
GRPNAME
1000
PASTMD0T
  0
LINE
  5
C11
330
762
100
AcDbEntity
  8
241
  6
HIDDEN2
100
AcDbLine
 10
131.99800248
 20
5.32623957
 30
0.0
 11
131.99800248
 21
0.0
 31
0.0
1001
GRPNAME
1000
PASTMD0T
  0
LINE
  5
C12
330
762
100
AcDbEntity
  8
241
  6
HIDDEN2
100
AcDbLine
 10
130.29800248
 20
6.25
 30
0.0
 11
130.39800248
 21
6.25
 31
0.0
1001
GRPNAME
1000
PASTMD0T
  0
ARC
  5
C13
330
762
100
AcDbEntity
  8
240
  6
CONTINUOUS
100
AcDbCircle
 10
134.3
 20
11.8
 30
0.0
 40
0.7000000000000455
100
AcDbArc
 50
0.00000009
 51
90.00000009
1001
GRPNAME
1000
PASTMD0T
  0
ENDBLK
  5
7BD
330
762
100
AcDbEntity
  8
0
100
AcDbBlockEnd
  0
BLOCK
  5
7D7
330
7D6
100
AcDbEntity
  8
0
100
AcDbBlockBegin
  2
_NONE
 70
     0
 10
0.0
 20
0.0
 30
0.0
  3
_NONE
  1

  0
ENDBLK
  5
7D8
330
7D6
100
AcDbEntity
  8
0
100
AcDbBlockEnd
  0
BLOCK
  5
810
330
806
100
AcDbEntity
  8
0
100
AcDbBlockBegin
  2
*D4
 70
     1
 10
0.0
 20
0.0
 30
0.0
  3
*D4
  1

  0
LINE
  5
926
330
806
100
AcDbEntity
  8
250
  6
CONTINUOUS
100
AcDbLine
 10
0.0
 20
31.0
 30
0.0
 11
0.0
 21
43.0
 31
0.0
  0
LINE
  5
927
330
806
100
AcDbEntity
  8
250
  6
CONTINUOUS
100
AcDbLine
 10
135.0
 20
12.3
 30
0.0
 11
135.0
 21
43.0
 31
0.0
  0
LINE
  5
928
330
806
100
AcDbEntity
  8
250
  6
CONTINUOUS
100
AcDbLine
 10
2.23
 20
42.0
 30
0.0
 11
132.77
 21
42.0
 31
0.0
  0
INSERT
  5
929
330
806
100
AcDbEntity
  8
250
  6
CONTINUOUS
100
AcDbBlockReference
  2
_OPEN
 10
0.0
 20
42.0
 30
0.0
 41
2.23
 42
2.23
 43
2.23
 50
180.0
  0
INSERT
  5
92A
330
806
100
AcDbEntity
  8
250
  6
CONTINUOUS
100
AcDbBlockReference
  2
_OPEN
 10
135.0
 20
42.0
 30
0.0
 41
2.23
 42
2.23
 43
2.23
  0
MTEXT
  5
92B
330
806
100
AcDbEntity
  8
250
  6
CONTINUOUS
 62
    40
100
AcDbMText
 10
66.375517
 20
44.4
 30
0.0
 40
2.8
 41
0.0
 71
     5
 72
     1
  1
\A1;135
1001
ACAD
1000
MTEXTBEGIN
1070
    73
1070
     1
1070
    44
1040
1.0
1070
    74
1070
     0
1000
MTEXTEND
1000
MTEXTBEGIN
1070
    73
1070
     1
1070
    44
1040
1.0
1070
    74
1070
     0
1000
MTEXTEND
  0
POINT
  5
92C
330
806
100
AcDbEntity
  8
DEFPOINTS
  6
CONTINUOUS
 62
     0
100
AcDbPoint
 10
0.0
 20
30.5
 30
0.0
  0
POINT
  5
92D
330
806
100
AcDbEntity
  8
DEFPOINTS
  6
CONTINUOUS
 62
     0
100
AcDbPoint
 10
135.0
 20
11.8
 30
0.0
  0
POINT
  5
92E
330
806
100
AcDbEntity
  8
DEFPOINTS
  6
CONTINUOUS
 62
     0
100
AcDbPoint
 10
135.0
 20
42.0
 30
0.0
  0
ENDBLK
  5
811
330
806
100
AcDbEntity
  8
0
100
AcDbBlockEnd
  0
BLOCK
  5
81C
330
812
100
AcDbEntity
  8
0
100
AcDbBlockBegin
  2
*D5
 70
     1
 10
0.0
 20
0.0
 30
0.0
  3
*D5
  1

  0
LINE
  5
B91
330
812
100
AcDbEntity
  8
250
  6
CONTINUOUS
 62
     3
100
AcDbLine
 10
57.0
 20
4.7
 30
0.0
 11
57.0
 21
29.0
 31
0.0
  0
LINE
  5
B92
330
812
100
AcDbEntity
  8
250
  6
CONTINUOUS
 62
     3
100
AcDbLine
 10
135.0
 20
12.3
 30
0.0
 11
135.0
 21
29.0
 31
0.0
  0
LINE
  5
B93
330
812
100
AcDbEntity
  8
250
  6
CONTINUOUS
 62
     3
100
AcDbLine
 10
59.23
 20
28.0
 30
0.0
 11
132.77
 21
28.0
 31
0.0
  0
INSERT
  5
B94
330
812
100
AcDbEntity
  8
250
  6
CONTINUOUS
 62
     3
100
AcDbBlockReference
  2
_OPEN
 10
57.0
 20
28.0
 30
0.0
 41
2.23
 42
2.23
 43
2.23
 50
180.0
  0
INSERT
  5
B95
330
812
100
AcDbEntity
  8
250
  6
CONTINUOUS
 62
     3
100
AcDbBlockReference
  2
_OPEN
 10
135.0
 20
28.0
 30
0.0
 41
2.23
 42
2.23
 43
2.23
  0
MTEXT
  5
B96
330
812
100
AcDbEntity
  8
250
  6
CONTINUOUS
 62
    40
100
AcDbMText
 10
96.0
 20
30.5
 30
0.0
 40
3.0
 41
0.0
 71
     5
 72
     1
  1
\A1;（max.78）
1001
ACAD
1000
MTEXTBEGIN
1070
    73
1070
     1
1070
    44
1040
1.0
1070
    74
1070
     0
1000
MTEXTEND
  0
POINT
  5
B97
330
812
100
AcDbEntity
  8
DEFPOINTS
  6
CONTINUOUS
 62
     0
100
AcDbPoint
 10
57.0
 20
4.2
 30
0.0
  0
POINT
  5
B98
330
812
100
AcDbEntity
  8
DEFPOINTS
  6
CONTINUOUS
 62
     0
100
AcDbPoint
 10
135.0
 20
11.8
 30
0.0
  0
POINT
  5
B99
330
812
100
AcDbEntity
  8
DEFPOINTS
  6
CONTINUOUS
 62
     0
100
AcDbPoint
 10
135.0
 20
28.0
 30
0.0
  0
ENDBLK
  5
81D
330
812
100
AcDbEntity
  8
0
100
AcDbBlockEnd
  0
BLOCK
  5
B45
330
B3D
100
AcDbEntity
  8
0
100
AcDbBlockBegin
  2
*D12
 70
     1
 10
0.0
 20
0.0
 30
0.0
  3
*D12
  1

  0
LINE
  5
B53
330
B3D
100
AcDbEntity
  8
250
  6
CONTINUOUS
 62
     3
100
AcDbLine
 10
132.49800248
 20
4.0
 30
0.0
 11
145.00513705
 21
4.0
 31
0.0
  0
LINE
  5
B54
330
B3D
100
AcDbEntity
  8
250
  6
CONTINUOUS
 62
     3
100
AcDbLine
 10
144.00513705
 20
-4.0
 30
0.0
 11
144.00513705
 21
1.77
 31
0.0
  0
INSERT
  5
B55
330
B3D
100
AcDbEntity
  8
250
  6
CONTINUOUS
 62
     3
100
AcDbBlockReference
  2
_OPEN
 10
144.00513705
 20
4.0
 30
0.0
 41
2.23
 42
2.23
 43
2.23
 50
90.0
  0
MTEXT
  5
B56
330
B3D
100
AcDbEntity
  8
250
  6
CONTINUOUS
 62
    40
100
AcDbMText
 10
141.50513705
 20
-1.115
 30
0.0
 40
3.0
 41
0.0
 71
     5
 72
     1
  1
\A1;max.{\H3;\U+2205}8
 11
0.0
 21
1.0
 31
0.0
1001
ACAD
1000
MTEXTBEGIN
1070
    73
1070
     1
1070
    44
1040
1.0
1070
    74
1070
     0
1000
MTEXTEND
  0
POINT
  5
B57
330
B3D
100
AcDbEntity
  8
DEFPOINTS
  6
CONTINUOUS
 62
     0
100
AcDbPoint
 10
131.69800248
 20
-4.0
 30
0.0
  0
POINT
  5
B58
330
B3D
100
AcDbEntity
  8
DEFPOINTS
  6
CONTINUOUS
 62
     0
100
AcDbPoint
 10
131.99800248
 20
4.0
 30
0.0
  0
POINT
  5
B59
330
B3D
100
AcDbEntity
  8
DEFPOINTS
  6
CONTINUOUS
 62
     0
100
AcDbPoint
 10
144.00513705
 20
4.0
 30
0.0
  0
ENDBLK
  5
B46
330
B3D
100
AcDbEntity
  8
0
100
AcDbBlockEnd
  0
BLOCK
  5
B51
330
B47
100
AcDbEntity
  8
0
100
AcDbBlockBegin
  2
*D13
 70
     1
 10
0.0
 20
0.0
 30
0.0
  3
*D13
  1

  0
LINE
  5
B5A
330
B47
100
AcDbEntity
  8
250
  6
CONTINUOUS
 62
     3
100
AcDbLine
 10
134.8
 20
-12.5
 30
0.0
 11
152.0
 21
-12.5
 31
0.0
  0
LINE
  5
B5B
330
B47
100
AcDbEntity
  8
250
  6
CONTINUOUS
 62
     3
100
AcDbLine
 10
134.8
 20
12.5
 30
0.0
 11
152.0
 21
12.5
 31
0.0
  0
LINE
  5
B5C
330
B47
100
AcDbEntity
  8
250
  6
CONTINUOUS
 62
     3
100
AcDbLine
 10
151.0
 20
-10.27
 30
0.0
 11
151.0
 21
10.27
 31
0.0
  0
INSERT
  5
B5D
330
B47
100
AcDbEntity
  8
250
  6
CONTINUOUS
 62
     3
100
AcDbBlockReference
  2
_OPEN
 10
151.0
 20
-12.5
 30
0.0
 41
2.23
 42
2.23
 43
2.23
 50
270.0
  0
INSERT
  5
B5E
330
B47
100
AcDbEntity
  8
250
  6
CONTINUOUS
 62
     3
100
AcDbBlockReference
  2
_OPEN
 10
151.0
 20
12.5
 30
0.0
 41
2.23
 42
2.23
 43
2.23
 50
90.0
  0
MTEXT
  5
B5F
330
B47
100
AcDbEntity
  8
250
  6
CONTINUOUS
 62
    40
100
AcDbMText
 10
148.5
 20
0.0
 30
0.0
 40
3.0
 41
0.0
 71
     5
 72
     1
  1
\A1;{\H3;\U+2205}25
 11
0.0
 21
1.0
 31
0.0
1001
ACAD
1000
MTEXTBEGIN
1070
    73
1070
     1
1070
    44
1040
1.0
1070
    74
1070
     0
1000
MTEXTEND
  0
POINT
  5
B60
330
B47
100
AcDbEntity
  8
DEFPOINTS
  6
CONTINUOUS
 62
     0
100
AcDbPoint
 10
134.3
 20
-12.5
 30
0.0
  0
POINT
  5
B61
330
B47
100
AcDbEntity
  8
DEFPOINTS
  6
CONTINUOUS
 62
     0
100
AcDbPoint
 10
134.3
 20
12.5
 30
0.0
  0
POINT
  5
B62
330
B47
100
AcDbEntity
  8
DEFPOINTS
  6
CONTINUOUS
 62
     0
100
AcDbPoint
 10
151.0
 20
12.5
 30
0.0
  0
ENDBLK
  5
B52
330
B47
100
AcDbEntity
  8
0
100
AcDbBlockEnd
  0
BLOCK
  5
BA7
330
B9D
100
AcDbEntity
  8
0
100
AcDbBlockBegin
  2
*D15
 70
     1
 10
0.0
 20
0.0
 30
0.0
  3
*D15
  1

  0
LINE
  5
B9E
330
B9D
100
AcDbEntity
  8
250
  6
CONTINUOUS
 62
     3
100
AcDbLine
 10
26.0
 20
31.0
 30
0.0
 11
26.0
 21
36.0
 31
0.0
  0
LINE
  5
B9F
330
B9D
100
AcDbEntity
  8
250
  6
CONTINUOUS
 62
     3
100
AcDbLine
 10
135.0
 20
12.3
 30
0.0
 11
135.0
 21
36.0
 31
0.0
  0
LINE
  5
BA0
330
B9D
100
AcDbEntity
  8
250
  6
CONTINUOUS
 62
     3
100
AcDbLine
 10
28.23
 20
35.0
 30
0.0
 11
132.77
 21
35.0
 31
0.0
  0
INSERT
  5
BA1
330
B9D
100
AcDbEntity
  8
250
  6
CONTINUOUS
 62
     3
100
AcDbBlockReference
  2
_OPEN
 10
26.0
 20
35.0
 30
0.0
 41
2.23
 42
2.23
 43
2.23
 50
180.0
  0
INSERT
  5
BA2
330
B9D
100
AcDbEntity
  8
250
  6
CONTINUOUS
 62
     3
100
AcDbBlockReference
  2
_OPEN
 10
135.0
 20
35.0
 30
0.0
 41
2.23
 42
2.23
 43
2.23
  0
MTEXT
  5
BA3
330
B9D
100
AcDbEntity
  8
250
  6
CONTINUOUS
 62
    40
100
AcDbMText
 10
80.5
 20
37.5
 30
0.0
 40
3.0
 41
0.0
 71
     5
 72
     1
  1
\A1;109
1001
ACAD
1000
MTEXTBEGIN
1070
    73
1070
     1
1070
    44
1040
1.0
1070
    74
1070
     0
1000
MTEXTEND
  0
POINT
  5
BA4
330
B9D
100
AcDbEntity
  8
DEFPOINTS
  6
CONTINUOUS
 62
     0
100
AcDbPoint
 10
26.0
 20
30.5
 30
0.0
  0
POINT
  5
BA5
330
B9D
100
AcDbEntity
  8
DEFPOINTS
  6
CONTINUOUS
 62
     0
100
AcDbPoint
 10
135.0
 20
11.8
 30
0.0
  0
POINT
  5
BA6
330
B9D
100
AcDbEntity
  8
DEFPOINTS
  6
CONTINUOUS
 62
     0
100
AcDbPoint
 10
135.0
 20
35.0
 30
0.0
  0
ENDBLK
  5
BA8
330
B9D
100
AcDbEntity
  8
0
100
AcDbBlockEnd
  0
ENDSEC
  0
SECTION
  2
ENTITIES
  0
INSERT
  5
6E6
330
1A
100
AcDbEntity
  8
245
100
AcDbBlockReference
  2
矢印なし
 10
175.62382697
 20
90.55123572
 30
0.0
  0
DIMENSION
  5
800
330
1A
100
AcDbEntity
  8
250
  6
CONTINUOUS
100
AcDbDimension
  2
*D4
 10
135.0
 20
42.0
 30
0.0
 11
66.375517
 21
42.0
 31
0.0
 70
   160
  3
BIGT
100
AcDbAlignedDimension
 13
0.0
 23
30.5
 33
0.0
 14
135.0
 24
11.8
 34
0.0
100
AcDbRotatedDimension
  0
DIMENSION
  5
801
330
1A
100
AcDbEntity
  8
250
  6
CONTINUOUS
100
AcDbDimension
  2
*D5
 10
135.0
 20
28.0
 30
0.0
 11
96.0
 21
28.0
 31
0.0
 70
   160
  1
（max.<>）
  3
BIGT$0
100
AcDbAlignedDimension
 13
57.0
 23
4.2
 33
0.0
 14
135.0
 24
11.8
 34
0.0
100
AcDbRotatedDimension
  0
TEXT
  5
803
330
1A
100
AcDbEntity
  8
241
100
AcDbText
 10
-25.0
 20
56.0
 30
0.0
 40
5.0
  1
HSK-F63-MEGA8N-135
  7
YOKO
 11
-25.0
 21
56.0
 31
0.0
100
AcDbText
 73
     1
  0
LEADER
  5
A83
330
1A
100
AcDbEntity
  8
250
  6
CONTINUOUS
100
AcDbLeader
  3
BIGT
 76
     2
 10
-10.953318
 20
-18.7023341
 30
0.0
 10
-16.34912835
 20
-28.04815178
 30
0.0
1001
ACAD
1000
DSTYLE
1002
{
1070
     6
1000
OPEN
1070
    41
1040
2.0
1070
    42
1040
2.0
1070
    44
1040
2.0
1070
   140
1040
4.0
1002
}
  0
MTEXT
  5
A84
330
1A
100
AcDbEntity
  8
251
  6
CONTINUOUS
100
AcDbMText
 10
-37.81579501
 20
-27.04815178
 30
0.0
 40
2.8
 41
0.0
 71
     7
 72
     1
  1
HSK-F63
  7
YOKO
1001
ITEMNAME
1000
LNSP3
1001
ACAD
1000
MTEXTBEGIN
1070
    73
1070
     1
1070
    44
1040
1.0
1070
    74
1070
     0
1000
MTEXTEND
  0
LINE
  5
A85
330
1A
100
AcDbEntity
  8
250
  6
CONTINUOUS
100
AcDbLine
 10
-16.34912835
 20
-28.04815178
 30
0.0
 11
-40.61579501
 21
-28.04815178
 31
0.0
1001
ITEMNAME
1000
LNSP2
  0
DIMENSION
  5
B36
330
1A
100
AcDbEntity
  8
250
  6
CONTINUOUS
100
AcDbDimension
  2
*D12
 10
144.00513705
 20
4.0
 30
0.0
 11
144.00513705
 21
-1.115
 31
0.0
 70
   160
  1
max.{\H3;\U+2205}<>
  3
BIGT$0
100
AcDbAlignedDimension
 13
131.69800248
 23
-4.0
 33
0.0
 14
131.99800248
 24
4.0
 34
0.0
 50
90.0
100
AcDbRotatedDimension
1001
ACAD
1000
DSTYLE
1002
{
1070
     5
1000

1070
   173
1070
     1
1070
     7
1000
OPEN
1070
    75
1070
     1
1070
     6
1000
NONE
1002
}
  0
DIMENSION
  5
B37
330
1A
100
AcDbEntity
  8
250
  6
CONTINUOUS
100
AcDbDimension
  2
*D13
 10
151.0
 20
12.5
 30
0.0
 11
148.5
 21
0.0
 31
0.0
 70
    32
  1
{\H3;\U+2205}<>
  3
BIGT$0
100
AcDbAlignedDimension
 13
134.3
 23
-12.5
 33
0.0
 14
134.3
 24
12.5
 34
0.0
 50
90.0
100
AcDbRotatedDimension
  0
DIMENSION
  5
B9C
330
1A
100
AcDbEntity
  8
250
  6
CONTINUOUS
100
AcDbDimension
  2
*D15
 10
135.0
 20
35.0
 30
0.0
 11
80.5
 21
37.5
 31
0.0
 70
    32
  3
BIGT$0
100
AcDbAlignedDimension
 13
26.0
 23
30.5
 33
0.0
 14
135.0
 24
11.8
 34
0.0
100
AcDbRotatedDimension
  0
INSERT
  5
C14
330
1A
100
AcDbEntity
  8
245
100
AcDbBlockReference
  2
1
 10
0.0
 20
0.0
 30
0.0
  0
VIEWPORT
  5
22
330
17
100
AcDbEntity
 67
     1
  8
0
100
AcDbViewport
 10
261.51769912
 20
148.5
 30
0.0
 40
523.03539823
 41
297.0
 68
     1
 69
     1
1001
ACAD
1000
MVIEW
1002
{
1070
    16
1010
0.0
1020
0.0
1030
0.0
1010
0.0
1020
0.0
1030
1.0
1040
0.0
1040
297.0
1040
261.51769912
1040
148.5
1040
50.0
1040
0.0
1040
0.0
1070
     0
1070
   100
1070
     1
1070
     1
1070
     0
1070
     0
1070
     0
1070
     0
1040
0.0
1040
0.0
1040
0.0
1040
1.0
1040
1.0
1040
10.0
1040
10.0
1070
     0
1002
{
1002
}
1002
}
  0
ENDSEC
  0
SECTION
  2
OBJECTS
  0
DICTIONARY
  5
C
330
0
100
AcDbDictionary
  3
ACAD_GROUP
350
D
  3
ACAD_LAYOUT
350
565
  3
ACAD_MLINESTYLE
350
E
  3
ACAD_PLOTSETTINGS
350
566
  3
ACAD_PLOTSTYLENAME
350
563
  3
ACDBHEADERROUNDTRIPXREC
350
C16
  3
GRADE_DWG
350
540
  0
DICTIONARY
  5
9E4
330
1A
100
AcDbDictionary
280
     1
  3
ACAD_LAYOUTSELFREF
360
C38
  0
DICTIONARY
  5
9E2
330
17
100
AcDbDictionary
280
     1
  3
ACAD_LAYOUTSELFREF
360
C37
  0
DICTIONARY
  5
D
102
{ACAD_REACTORS
330
C
102
}
330
C
100
AcDbDictionary
  3
*A1
350
6C7
  3
*A2
350
6C8
  3
*A3
350
6D4
  3
*A4
350
6D5
  3
DREC-1
350
5FC
  3
DREC-2
350
654
  3
DREC-3
350
673
  0
DICTIONARY
  5
565
102
{ACAD_REACTORS
330
C
102
}
330
C
100
AcDbDictionary
  0
DICTIONARY
  5
E
102
{ACAD_REACTORS
330
C
102
}
330
C
100
AcDbDictionary
  3
STANDARD
350
13
  0
DICTIONARY
  5
566
102
{ACAD_REACTORS
330
C
102
}
330
C
100
AcDbDictionary
  3
A3_0_5倍_
350
758
  3
A3_1倍_
350
757
  3
A3_1倍__2000_
350
707
  3
A3_2倍_
350
759
  3
A4_0_5倍_
350
755
  3
A4_1倍_
350
754
  3
A4_1倍__2000_
350
708
  3
A4_2倍_
350
756
  0
ACDBDICTIONARYWDFLT
  5
563
102
{ACAD_REACTORS
330
C
102
}
330
C
100
AcDbDictionary
281
     1
  3
Normal
350
564
100
AcDbDictionaryWithDefault
340
564
  0
DICTIONARY
  5
C16
102
{ACAD_REACTORS
330
C
102
}
330
C
100
AcDbDictionary
  3
CEPSNTYPE
350
C20
  3
DIMSTYLEDATA
350
C24
  3
FINGERPRINTGUID
350
C21
  3
HYPERLINKBASE
350
C19
  3
INSUNITS
350
C1F
  3
LAYOUTDICT
350
C1B
  3
LWETCUNION
350
C1E
  3
PLOTSETDICT
350
C1C
  3
PLOTSTYLNAMDICT
350
C1D
  3
PSVPSCALE
350
C23
  3
PUCSBASE
350
C27
  3
PUCSORGBACK
350
C2D
  3
PUCSORGBOTTOM
350
C29
  3
PUCSORGFRONT
350
C2C
  3
PUCSORGLEFT
350
C2A
  3
PUCSORGRIGHT
350
C2B
  3
PUCSORGTOP
350
C28
  3
PUCSORTHOREF
350
C25
  3
PUCSORTHOVIEW
350
C26
  3
STYLESHEET
350
C1A
  3
TSTACKALIGN
350
C17
  3
TSTACKSIZE
350
C18
  3
UCSBASE
350
C30
  3
UCSORGBACK
350
C36
  3
UCSORGBOTTOM
350
C32
  3
UCSORGFRONT
350
C35
  3
UCSORGLEFT
350
C33
  3
UCSORGRIGHT
350
C34
  3
UCSORGTOP
350
C31
  3
UCSORTHOREF
350
C2E
  3
UCSORTHOVIEW
350
C2F
  3
VERSIONGUID
350
C22
  0
DICTIONARY
  5
540
102
{ACAD_REACTORS
330
C
102
}
330
C
100
AcDbDictionary
  3
VERSION
350
560
  0
XRECORD
  5
C38
102
{ACAD_REACTORS
330
9E4
102
}
330
9E4
100
AcDbXrecord
340
1A
  0
XRECORD
  5
C37
102
{ACAD_REACTORS
330
9E2
102
}
330
9E2
100
AcDbXrecord
340
17
  0
GROUP
  5
6C7
102
{ACAD_REACTORS
330
D
102
}
330
D
100
AcDbGroup
300

 70
     0
 71
     1
1001
GRPNAME
1000
DMA00
  0
GROUP
  5
6C8
102
{ACAD_REACTORS
330
D
102
}
330
D
100
AcDbGroup
300

 70
     0
 71
     1
1001
GRPNAME
1000
DMA00
  0
GROUP
  5
6D4
102
{ACAD_REACTORS
330
D
102
}
330
D
100
AcDbGroup
300

 70
     0
 71
     1
1001
GRPNAME
1000
DMA00
  0
GROUP
  5
6D5
102
{ACAD_REACTORS
330
D
102
}
330
D
100
AcDbGroup
300

 70
     0
 71
     1
1001
GRPNAME
1000
DMA00
  0
GROUP
  5
5FC
102
{ACAD_REACTORS
330
D
102
}
330
D
100
AcDbGroup
300

 70
     0
 71
     1
1001
GRPNAME
1000
DREC-
1001
GPARA
1000
xsiz
1000
44.182
1000
ysiz
1000
40.677
1000
angl
1000
0
1000
ctyp
1000
0
1000
csiz
1000
5
1000
lfnt
1000
cont
1000
hcnt
1000
hoff
1000
vcnt
1000
voff
1000
opnt
1000
4
1000
dxpt
1000
0
1000
dypt
1000
0
  0
GROUP
  5
654
102
{ACAD_REACTORS
330
D
102
}
330
D
100
AcDbGroup
300

 70
     0
 71
     1
1001
GRPNAME
1000
DREC-
1001
GPARA
1000
xsiz
1000
54.592
1000
ysiz
1000
53.036
1000
angl
1000
0
1000
ctyp
1000
0
1000
csiz
1000
5
1000
lfnt
1000
cont
1000
hcnt
1000
hoff
1000
vcnt
1000
voff
1000
opnt
1000
4
1000
dxpt
1000
0
1000
dypt
1000
0
  0
GROUP
  5
673
102
{ACAD_REACTORS
330
D
102
}
330
D
100
AcDbGroup
300

 70
     0
 71
     1
1001
GRPNAME
1000
DREC-
1001
GPARA
1000
xsiz
1000
30.363
1000
ysiz
1000
36.175
1000
angl
1000
0
1000
ctyp
1000
0
1000
csiz
1000
5
1000
lfnt
1000
cont
1000
hcnt
1000
hoff
1000
vcnt
1000
voff
1000
opnt
1000
4
1000
dxpt
1000
0
1000
dypt
1000
0
  0
MLINESTYLE
  5
13
102
{ACAD_REACTORS
330
E
102
}
330
E
100
AcDbMlineStyle
  2
STANDARD
 70
     0
  3

 62
     0
 51
90.0
 52
90.0
 71
     2
 49
0.5
 62
   256
  6
BYLAYER
 49
-0.5
 62
   256
  6
BYLAYER
  0
PLOTSETTINGS
  5
758
102
{ACAD_REACTORS
330
566
102
}
330
566
100
AcDbPlotSettings
  1
A3(0.5倍)
  2
\\AWTECPC05\HP DeskJet 1120C
  4
A3
  6

 40
5.95841646
 41
13.49375153
 42
6.04309082
 43
3.67242432
 44
296.92599487
 45
419.94665527
 46
89.96
 47
127.14
 48
0.0
 49
0.0
140
0.0
141
0.0
142
1.0
143
2.0
 70
  1716
 72
     1
 73
     1
 74
     2
  7
big.ctb
 75
    17
147
0.5
148
0.0
149
0.0
  0
PLOTSETTINGS
  5
757
102
{ACAD_REACTORS
330
566
102
}
330
566
100
AcDbPlotSettings
  1
A3(1倍)
  2
\\AWTECPC05\HP DeskJet 1120C
  4
A3
  6

 40
5.95841646
 41
13.49375153
 42
6.04309082
 43
3.67242432
 44
296.92599487
 45
419.94665527
 46
37.46
 47
52.89
 48
0.0
 49
0.0
140
0.0
141
0.0
142
1.0
143
1.0
 70
  1716
 72
     1
 73
     1
 74
     2
  7
big.ctb
 75
    16
147
1.0
148
0.0
149
0.0
  0
PLOTSETTINGS
  5
707
102
{ACAD_REACTORS
330
566
102
}
330
566
100
AcDbPlotSettings
  1
A3(1倍)(2000)
  2
SII LS-1300 (D-SCAN)
  4
User258
  6

 40
3.17499995
 41
3.17499995
 42
3.17498779
 43
3.17498779
 44
419.98898315
 45
296.98950195
 46
58.32
 47
40.32
 48
0.0
 49
0.0
140
0.0
141
0.0
142
1.0
143
1.0
 70
  1716
 72
     1
 73
     0
 74
     2
  7
big.ctb
 75
    16
147
1.0
148
0.0
149
0.0
  0
PLOTSETTINGS
  5
759
102
{ACAD_REACTORS
330
566
102
}
330
566
100
AcDbPlotSettings
  1
A3(2倍)
  2
\\AWTECPC05\HP DeskJet 1120C
  4
A3
  6

 40
5.95841646
 41
13.49375153
 42
6.04309082
 43
3.67242432
 44
296.92599487
 45
419.94665527
 46
-67.54
 47
-95.61
 48
0.0
 49
0.0
140
0.0
141
0.0
142
1.0
143
0.5
 70
  1716
 72
     1
 73
     1
 74
     2
  7
big.ctb
 75
    27
147
2.0
148
0.0
149
0.0
  0
PLOTSETTINGS
  5
755
102
{ACAD_REACTORS
330
566
102
}
330
566
100
AcDbPlotSettings
  1
A4(0.5倍)
  2
\\AWTECPC05\HP DeskJet 1120C
  4
A4
  6

 40
4.18041658
 41
13.49374962
 42
4.18040466
 43
3.92642212
 44
209.97332764
 45
296.92599487
 46
48.31
 47
65.5
 48
0.0
 49
0.0
140
0.0
141
0.0
142
1.0
143
2.0
 70
  1716
 72
     1
 73
     1
 74
     2
  7
big.ctb
 75
    17
147
0.5
148
0.0
149
0.0
  0
PLOTSETTINGS
  5
754
102
{ACAD_REACTORS
330
566
102
}
330
566
100
AcDbPlotSettings
  1
A4(1倍)
  2
\\AWTECPC05\HP DeskJet 1120C
  4
A4
  6

 40
4.18041658
 41
13.49374962
 42
4.18040466
 43
3.92642212
 44
209.97332764
 45
296.92599487
 46
-4.19
 47
-8.75
 48
0.0
 49
0.0
140
0.0
141
0.0
142
1.0
143
1.0
 70
  1716
 72
     1
 73
     1
 74
     2
  7
big.ctb
 75
    16
147
1.0
148
0.0
149
0.0
  0
PLOTSETTINGS
  5
708
102
{ACAD_REACTORS
330
566
102
}
330
566
100
AcDbPlotSettings
  1
A4(1倍)(2000)
  2
SII LS-1300 (D-SCAN)
  4
User259
  6

 40
3.17499995
 41
3.17499995
 42
3.17498779
 43
3.17500305
 44
296.98950195
 45
209.99449158
 46
-3.18
 47
-3.18
 48
0.0
 49
0.0
140
0.0
141
0.0
142
1.0
143
1.0
 70
  1716
 72
     1
 73
     0
 74
     2
  7
big.ctb
 75
    16
147
1.0
148
0.0
149
0.0
  0
PLOTSETTINGS
  5
756
102
{ACAD_REACTORS
330
566
102
}
330
566
100
AcDbPlotSettings
  1
A4(2倍)
  2
\\AWTECPC05\HP DeskJet 1120C
  4
A4
  6

 40
4.18041658
 41
13.49374962
 42
4.18040466
 43
3.92642212
 44
209.97332764
 45
296.92599487
 46
-109.19
 47
-157.25
 48
0.0
 49
0.0
140
0.0
141
0.0
142
1.0
143
0.5
 70
  1716
 72
     1
 73
     1
 74
     2
  7
big.ctb
 75
    27
147
2.0
148
0.0
149
0.0
  0
ACDBPLACEHOLDER
  5
564
102
{ACAD_REACTORS
330
563
102
}
330
563
100
AcDbPlaceHolder
280
     0
  0
XRECORD
  5
C20
102
{ACAD_REACTORS
330
C16
102
}
330
C16
100
AcDbXrecord
 90
        0
  0
XRECORD
  5
C24
102
{ACAD_REACTORS
330
C16
102
}
330
C16
100
AcDbXrecord
1000
DSTYLE
1002
{
1070
   341
340
594
1070
   343
340
594
1070
   344
340
594
1002
}
  0
XRECORD
  5
C21
102
{ACAD_REACTORS
330
C16
102
}
330
C16
100
AcDbXrecord
  1
{51294030-9CB4-11D3-8E18-00A0C925D94D}
  0
XRECORD
  5
C19
102
{ACAD_REACTORS
330
C16
102
}
330
C16
100
AcDbXrecord
  1

  0
XRECORD
  5
C1F
102
{ACAD_REACTORS
330
C16
102
}
330
C16
100
AcDbXrecord
 90
        0
  0
XRECORD
  5
C1B
102
{ACAD_REACTORS
330
C16
102
}
330
C16
100
AcDbXrecord
340
565
  0
XRECORD
  5
C1E
102
{ACAD_REACTORS
330
C16
102
}
330
C16
100
AcDbXrecord
 90
    10781
  0
XRECORD
  5
C1C
102
{ACAD_REACTORS
330
C16
102
}
330
C16
100
AcDbXrecord
340
566
  0
XRECORD
  5
C1D
102
{ACAD_REACTORS
330
C16
102
}
330
C16
100
AcDbXrecord
340
563
  0
XRECORD
  5
C23
102
{ACAD_REACTORS
330
C16
102
}
330
C16
100
AcDbXrecord
 40
0.0
  0
XRECORD
  5
C27
102
{ACAD_REACTORS
330
C16
102
}
330
C16
100
AcDbXrecord
340
0
  0
XRECORD
  5
C2D
102
{ACAD_REACTORS
330
C16
102
}
330
C16
100
AcDbXrecord
 10
0.0
 20
0.0
 30
0.0
  0
XRECORD
  5
C29
102
{ACAD_REACTORS
330
C16
102
}
330
C16
100
AcDbXrecord
 10
0.0
 20
0.0
 30
0.0
  0
XRECORD
  5
C2C
102
{ACAD_REACTORS
330
C16
102
}
330
C16
100
AcDbXrecord
 10
0.0
 20
0.0
 30
0.0
  0
XRECORD
  5
C2A
102
{ACAD_REACTORS
330
C16
102
}
330
C16
100
AcDbXrecord
 10
0.0
 20
0.0
 30
0.0
  0
XRECORD
  5
C2B
102
{ACAD_REACTORS
330
C16
102
}
330
C16
100
AcDbXrecord
 10
0.0
 20
0.0
 30
0.0
  0
XRECORD
  5
C28
102
{ACAD_REACTORS
330
C16
102
}
330
C16
100
AcDbXrecord
 10
0.0
 20
0.0
 30
0.0
  0
XRECORD
  5
C25
102
{ACAD_REACTORS
330
C16
102
}
330
C16
100
AcDbXrecord
340
0
  0
XRECORD
  5
C26
102
{ACAD_REACTORS
330
C16
102
}
330
C16
100
AcDbXrecord
 70
     0
  0
XRECORD
  5
C1A
102
{ACAD_REACTORS
330
C16
102
}
330
C16
100
AcDbXrecord
  1
big.ctb
  0
XRECORD
  5
C17
102
{ACAD_REACTORS
330
C16
102
}
330
C16
100
AcDbXrecord
 90
        1
  0
XRECORD
  5
C18
102
{ACAD_REACTORS
330
C16
102
}
330
C16
100
AcDbXrecord
 90
       70
  0
XRECORD
  5
C30
102
{ACAD_REACTORS
330
C16
102
}
330
C16
100
AcDbXrecord
340
0
  0
XRECORD
  5
C36
102
{ACAD_REACTORS
330
C16
102
}
330
C16
100
AcDbXrecord
 10
0.0
 20
0.0
 30
0.0
  0
XRECORD
  5
C32
102
{ACAD_REACTORS
330
C16
102
}
330
C16
100
AcDbXrecord
 10
0.0
 20
0.0
 30
0.0
  0
XRECORD
  5
C35
102
{ACAD_REACTORS
330
C16
102
}
330
C16
100
AcDbXrecord
 10
0.0
 20
0.0
 30
0.0
  0
XRECORD
  5
C33
102
{ACAD_REACTORS
330
C16
102
}
330
C16
100
AcDbXrecord
 10
0.0
 20
0.0
 30
0.0
  0
XRECORD
  5
C34
102
{ACAD_REACTORS
330
C16
102
}
330
C16
100
AcDbXrecord
 10
0.0
 20
0.0
 30
0.0
  0
XRECORD
  5
C31
102
{ACAD_REACTORS
330
C16
102
}
330
C16
100
AcDbXrecord
 10
0.0
 20
0.0
 30
0.0
  0
XRECORD
  5
C2E
102
{ACAD_REACTORS
330
C16
102
}
330
C16
100
AcDbXrecord
340
0
  0
XRECORD
  5
C2F
102
{ACAD_REACTORS
330
C16
102
}
330
C16
100
AcDbXrecord
 70
     0
  0
XRECORD
  5
C22
102
{ACAD_REACTORS
330
C16
102
}
330
C16
100
AcDbXrecord
  1
{8E45ED2D-042C-449B-99DA-6FF187AF7EEC}
  0
XRECORD
  5
560
102
{ACAD_REACTORS
330
540
102
}
330
540
100
AcDbXrecord
  1
2.0.0
  0
ENDSEC
  0
EOF
