  0
SECTION
  2
HEADER
  9
$ACADVER
  1
AC1014
  9
$ACADMAINTVER
 70
     9
  9
$DWGCODEPAGE
  3
ANSI_932
  9
$INSBASE
 10
0.0
 20
0.0
 30
0.0
  9
$EXTMIN
 10
-40.62985082
 20
-31.71713736
 30
-0.00152582
  9
$EXTMAX
 10
121.0242517
 20
61.37374222
 30
0.00000003
  9
$LIMMIN
 10
0.0
 20
0.0
  9
$LIMMAX
 10
420.0
 20
297.0
  9
$ORTHOMODE
 70
     1
  9
$REGENMODE
 70
     1
  9
$FILLMODE
 70
     1
  9
$QTEXTMODE
 70
     0
  9
$MIRRTEXT
 70
     1
  9
$DRAGMODE
 70
     2
  9
$LTSCALE
 40
10.0
  9
$OSMODE
 70
   549
  9
$ATTMODE
 70
     1
  9
$TEXTSIZE
 40
3.0
  9
$TRACEWID
 40
1.0
  9
$TEXTSTYLE
  7
YOKO
  9
$CLAYER
  8
245
  9
$CELTYPE
  6
BYLAYER
  9
$CECOLOR
 62
   256
  9
$CELTSCALE
 40
1.0
  9
$DELOBJ
 70
     1
  9
$DISPSILH
 70
     0
  9
$DIMSCALE
 40
1.0
  9
$DIMASZ
 40
2.0
  9
$DIMEXO
 40
2.0
  9
$DIMDLI
 40
2.5
  9
$DIMRND
 40
0.0
  9
$DIMDLE
 40
0.0
  9
$DIMEXE
 40
2.0
  9
$DIMTP
 40
0.0
  9
$DIMTM
 40
0.0
  9
$DIMTXT
 40
4.0
  9
$DIMCEN
 40
0.0
  9
$DIMTSZ
 40
0.0
  9
$DIMTOL
 70
     0
  9
$DIMLIM
 70
     0
  9
$DIMTIH
 70
     0
  9
$DIMTOH
 70
     0
  9
$DIMSE1
 70
     0
  9
$DIMSE2
 70
     0
  9
$DIMTAD
 70
     3
  9
$DIMZIN
 70
     8
  9
$DIMBLK
  1

  9
$DIMASO
 70
     1
  9
$DIMSHO
 70
     1
  9
$DIMPOST
  1

  9
$DIMAPOST
  1

  9
$DIMALT
 70
     0
  9
$DIMALTD
 70
     2
  9
$DIMALTF
 40
25.4
  9
$DIMLFAC
 40
1.0
  9
$DIMTOFL
 70
     1
  9
$DIMTVP
 40
0.0
  9
$DIMTIX
 70
     1
  9
$DIMSOXD
 70
     0
  9
$DIMSAH
 70
     1
  9
$DIMBLK1
  1
OPEN
  9
$DIMBLK2
  1
OPEN
  9
$DIMSTYLE
  2
BIGT
  9
$DIMCLRD
 70
   256
  9
$DIMCLRE
 70
   256
  9
$DIMCLRT
 70
    40
  9
$DIMTFAC
 40
1.0
  9
$DIMGAP
 40
1.0
  9
$DIMJUST
 70
     0
  9
$DIMSD1
 70
     0
  9
$DIMSD2
 70
     0
  9
$DIMTOLJ
 70
     1
  9
$DIMTZIN
 70
     8
  9
$DIMALTZ
 70
     0
  9
$DIMALTTZ
 70
     0
  9
$DIMFIT
 70
     3
  9
$DIMUPT
 70
     0
  9
$DIMUNIT
 70
     2
  9
$DIMDEC
 70
     3
  9
$DIMTDEC
 70
     3
  9
$DIMALTU
 70
     2
  9
$DIMALTTD
 70
     2
  9
$DIMTXSTY
  7
STANDARD
  9
$DIMAUNIT
 70
     0
  9
$LUNITS
 70
     2
  9
$LUPREC
 70
     3
  9
$SKETCHINC
 40
1.0
  9
$FILLETRAD
 40
0.0
  9
$AUNITS
 70
     0
  9
$AUPREC
 70
     3
  9
$MENU
  1
.
  9
$ELEVATION
 40
0.0
  9
$PELEVATION
 40
0.0
  9
$THICKNESS
 40
0.0
  9
$LIMCHECK
 70
     0
  9
$BLIPMODE
 70
     0
  9
$CHAMFERA
 40
10.0
  9
$CHAMFERB
 40
10.0
  9
$CHAMFERC
 40
0.0
  9
$CHAMFERD
 40
0.0
  9
$SKPOLY
 70
     0
  9
$TDCREATE
 40
2455204.669692917
  9
$TDUPDATE
 40
2455204.694410983
  9
$TDINDWG
 40
0.0086579630
  9
$TDUSRTIMER
 40
0.0086579630
  9
$USRTIMER
 70
     1
  9
$ANGBASE
 50
0.0
  9
$ANGDIR
 70
     0
  9
$PDMODE
 70
    35
  9
$PDSIZE
 40
-5.0
  9
$PLINEWID
 40
0.0
  9
$COORDS
 70
     2
  9
$SPLFRAME
 70
     0
  9
$SPLINETYPE
 70
     6
  9
$SPLINESEGS
 70
     8
  9
$ATTDIA
 70
     0
  9
$ATTREQ
 70
     1
  9
$HANDLING
 70
-16383
  9
$HANDSEED
  5
F03
  9
$SURFTAB1
 70
     6
  9
$SURFTAB2
 70
     6
  9
$SURFTYPE
 70
     6
  9
$SURFU
 70
     6
  9
$SURFV
 70
     6
  9
$UCSNAME
  2

  9
$UCSORG
 10
0.0
 20
0.0
 30
0.0
  9
$UCSXDIR
 10
1.0
 20
0.0
 30
0.0
  9
$UCSYDIR
 10
0.0
 20
1.0
 30
0.0
  9
$PUCSNAME
  2

  9
$PUCSORG
 10
0.0
 20
0.0
 30
0.0
  9
$PUCSXDIR
 10
1.0
 20
0.0
 30
0.0
  9
$PUCSYDIR
 10
0.0
 20
1.0
 30
0.0
  9
$USERI1
 70
     1
  9
$USERI2
 70
     0
  9
$USERI3
 70
     0
  9
$USERI4
 70
     0
  9
$USERI5
 70
     0
  9
$USERR1
 40
0.0
  9
$USERR2
 40
0.0
  9
$USERR3
 40
0.0
  9
$USERR4
 40
0.0
  9
$USERR5
 40
0.0
  9
$WORLDVIEW
 70
     1
  9
$SHADEDGE
 70
     3
  9
$SHADEDIF
 70
    70
  9
$TILEMODE
 70
     1
  9
$MAXACTVP
 70
    16
  9
$PINSBASE
 10
0.0
 20
0.0
 30
0.0
  9
$PLIMCHECK
 70
     0
  9
$PEXTMIN
 10
1.00000000E+20
 20
1.00000000E+20
 30
1.00000000E+20
  9
$PEXTMAX
 10
-1.00000000E+20
 20
-1.00000000E+20
 30
-1.00000000E+20
  9
$PLIMMIN
 10
0.0
 20
0.0
  9
$PLIMMAX
 10
420.0
 20
297.0
  9
$UNITMODE
 70
     0
  9
$VISRETAIN
 70
     0
  9
$PLINEGEN
 70
     0
  9
$PSLTSCALE
 70
     1
  9
$TREEDEPTH
 70
  3020
  9
$PICKSTYLE
 70
     0
  9
$CMLSTYLE
  2
STANDARD
  9
$CMLJUST
 70
     0
  9
$CMLSCALE
 40
1.0
  9
$PROXYGRAPHICS
 70
     1
  9
$MEASUREMENT
 70
     1
  0
ENDSEC
  0
SECTION
  2
CLASSES
  0
CLASS
  1
XRECORD
  2
AcDbXrecord
  3
AutoCAD 2000
 90
        0
280
     0
281
     0
  0
CLASS
  1
ACDBDICTIONARYWDFLT
  2
AcDbDictionaryWithDefault
  3
AutoCAD 2000
 90
        0
280
     0
281
     0
  0
CLASS
  1
ACDBPLACEHOLDER
  2
AcDbPlaceHolder
  3
AutoCAD 2000
 90
        0
280
     0
281
     0
  0
CLASS
  1
LAYOUT
  2
AcDbLayout
  3
AutoCAD 2000
 90
        0
280
     0
281
     0
  0
CLASS
  1
PLOTSETTINGS
  2
AcDbPlotSettings
  3
AutoCAD 2000
 90
        0
280
     0
281
     0
  0
CLASS
  1
LONG_TRANSACTION
  2
AcDbLongTransaction
  3
AutoCAD 2000
 90
        0
280
     0
281
     0
  0
CLASS
  1
LWPOLYLINE
  2
AcDbPolyline
  3
AutoCAD 2000
 90
        0
280
     0
281
     1
  0
CLASS
  1
HATCH
  2
AcDbHatch
  3
AutoCAD 2000
 90
        0
280
     0
281
     1
  0
CLASS
  1
XRECORD
  2
AcDbXrecord
  3
AutoCAD 2000
 90
        0
280
     0
281
     0
  0
CLASS
  1
LONG_TRANSACTION
  2
AcDbLongTransaction
  3
AutoCAD 2000
 90
        0
280
     0
281
     0
  0
CLASS
  1
LWPOLYLINE
  2
AcDbPolyline
  3
AutoCAD 2000
 90
        0
280
     0
281
     1
  0
CLASS
  1
HATCH
  2
AcDbHatch
  3
AutoCAD 2000
 90
        0
280
     0
281
     1
  0
CLASS
  1
XRECORD
  2
AcDbXrecord
  3
AutoCAD 2000
 90
        0
280
     0
281
     0
  0
CLASS
  1
LONG_TRANSACTION
  2
AcDbLongTransaction
  3
AutoCAD 2000
 90
        0
280
     0
281
     0
  0
CLASS
  1
LWPOLYLINE
  2
AcDbPolyline
  3
AutoCAD 2000
 90
        0
280
     0
281
     1
  0
CLASS
  1
HATCH
  2
AcDbHatch
  3
AutoCAD 2000
 90
        0
280
     0
281
     1
  0
CLASS
  1
XRECORD
  2
AcDbXrecord
  3
AutoCAD 2000
 90
        0
280
     0
281
     0
  0
ENDSEC
  0
SECTION
  2
TABLES
  0
TABLE
  2
VPORT
  5
8
330
0
100
AcDbSymbolTable
 70
     2
  0
VPORT
  5
EDE
330
8
100
AcDbSymbolTableRecord
100
AcDbViewportTableRecord
  2
*ACTIVE
 70
     0
 10
0.0
 20
0.0
 11
1.0
 21
1.0
 12
40.19720044
 22
14.82830243
 13
0.0
 23
0.0
 14
7.0
 24
7.0
 15
7.0
 25
7.0
 16
0.0
 26
0.0
 36
1.0
 17
0.0
 27
0.0
 37
0.0
 40
113.50089201
 41
1.43184713
 42
50.0
 43
0.0
 44
0.0
 50
0.0
 51
0.0
 71
     0
 72
  2000
 73
     1
 74
     0
 75
     0
 76
     0
 77
     0
 78
     0
  0
ENDTAB
  0
TABLE
  2
LTYPE
  5
5
330
0
100
AcDbSymbolTable
 70
     3
  0
LTYPE
  5
14
330
5
100
AcDbSymbolTableRecord
100
AcDbLinetypeTableRecord
  2
BYBLOCK
 70
     0
  3

 72
    65
 73
     0
 40
0.0
  0
LTYPE
  5
15
330
5
100
AcDbSymbolTableRecord
100
AcDbLinetypeTableRecord
  2
BYLAYER
 70
     0
  3

 72
    65
 73
     0
 40
0.0
  0
LTYPE
  5
16
330
5
100
AcDbSymbolTableRecord
100
AcDbLinetypeTableRecord
  2
CONTINUOUS
 70
     0
  3
Solid line
 72
    65
 73
     0
 40
0.0
  0
LTYPE
  5
258
330
5
100
AcDbSymbolTableRecord
100
AcDbLinetypeTableRecord
  2
CENTER2
 70
     0
  3
___ _ ___ _ ___ _ ___ _ ___ _ ___ _ ___ _ ___ _
 72
    65
 73
     4
 40
1.125
 49
0.75
 74
     0
 49
-0.125
 74
     0
 49
0.125
 74
     0
 49
-0.125
 74
     0
  0
LTYPE
  5
25C
330
5
100
AcDbSymbolTableRecord
100
AcDbLinetypeTableRecord
  2
HIDDEN2
 70
     0
  3
_ _ _ _ _ _ _ _ _ _ _ _ _ _ _ _ _ _ _ _ _ _ _ _
 72
    65
 73
     2
 40
0.1875
 49
0.125
 74
     0
 49
-0.0625
 74
     0
  0
ENDTAB
  0
TABLE
  2
LAYER
  5
2
330
0
100
AcDbSymbolTable
 70
     9
  0
LAYER
  5
F
330
2
100
AcDbSymbolTableRecord
100
AcDbLayerTableRecord
  2
0
 70
     0
 62
     7
  6
CONTINUOUS
  0
LAYER
  5
1AA
330
2
100
AcDbSymbolTableRecord
100
AcDbLayerTableRecord
  2
240
 70
     0
 62
     4
  6
CONTINUOUS
  0
LAYER
  5
1AB
330
2
100
AcDbSymbolTableRecord
100
AcDbLayerTableRecord
  2
241
 70
     0
 62
   211
  6
CONTINUOUS
  0
LAYER
  5
1AC
330
2
100
AcDbSymbolTableRecord
100
AcDbLayerTableRecord
  2
242
 70
     0
 62
     3
  6
CONTINUOUS
  0
LAYER
  5
1AF
330
2
100
AcDbSymbolTableRecord
100
AcDbLayerTableRecord
  2
245
 70
     0
 62
     2
  6
CENTER2
  0
LAYER
  5
21E
330
2
100
AcDbSymbolTableRecord
100
AcDbLayerTableRecord
  2
250
 70
     0
 62
     3
  6
CONTINUOUS
  0
LAYER
  5
21F
330
2
100
AcDbSymbolTableRecord
100
AcDbLayerTableRecord
  2
251
 70
     0
 62
    40
  6
CONTINUOUS
  0
LAYER
  5
5C4
330
2
100
AcDbSymbolTableRecord
100
AcDbLayerTableRecord
  2
DEFPOINTS
 70
     0
 62
     7
  6
CONTINUOUS
  0
ENDTAB
  0
TABLE
  2
STYLE
  5
3
330
0
100
AcDbSymbolTable
 70
     2
  0
STYLE
  5
10
330
3
100
AcDbSymbolTableRecord
100
AcDbTextStyleTableRecord
  2
STANDARD
 70
     0
 40
0.0
 41
1.0
 50
0.0
 71
     0
 42
3.0
  3
romans.shx
  4
BIGFONT.SHX
  0
STYLE
  5
339
330
3
100
AcDbSymbolTableRecord
100
AcDbTextStyleTableRecord
  2
YOKO
 70
     0
 40
0.0
 41
1.0
 50
0.0
 71
     0
 42
3.0
  3
romans.shx
  4
extfont.shx
  0
ENDTAB
  0
TABLE
  2
VIEW
  5
6
330
0
100
AcDbSymbolTable
 70
     0
  0
ENDTAB
  0
TABLE
  2
UCS
  5
7
330
0
100
AcDbSymbolTable
 70
     0
  0
ENDTAB
  0
TABLE
  2
APPID
  5
9
330
0
100
AcDbSymbolTable
 70
     9
  0
APPID
  5
11
330
9
100
AcDbSymbolTableRecord
100
AcDbRegAppTableRecord
  2
ACAD
 70
     0
  0
APPID
  5
1B1
330
9
100
AcDbSymbolTableRecord
100
AcDbRegAppTableRecord
  2
GLOBAL
 70
     0
  0
APPID
  5
2A4
330
9
100
AcDbSymbolTableRecord
100
AcDbRegAppTableRecord
  2
DETAIL
 70
     0
  0
APPID
  5
5FD
330
9
100
AcDbSymbolTableRecord
100
AcDbRegAppTableRecord
  2
GRPNAME
 70
     0
  0
APPID
  5
5FE
330
9
100
AcDbSymbolTableRecord
100
AcDbRegAppTableRecord
  2
GPARA
 70
     0
  0
APPID
  5
6C4
330
9
100
AcDbSymbolTableRecord
100
AcDbRegAppTableRecord
  2
DCO15
 70
     0
  0
APPID
  5
6C5
330
9
100
AcDbSymbolTableRecord
100
AcDbRegAppTableRecord
  2
ITEMNAME
 70
     0
  0
APPID
  5
6C6
330
9
100
AcDbSymbolTableRecord
100
AcDbRegAppTableRecord
  2
GRADE_0
 70
     0
  0
APPID
  5
BA5
330
9
100
AcDbSymbolTableRecord
100
AcDbRegAppTableRecord
  2
CONTENTBLOCKICON
 70
     0
  0
ENDTAB
  0
TABLE
  2
DIMSTYLE
  5
A
330
0
100
AcDbSymbolTable
 70
     2
  0
DIMSTYLE
105
725
330
A
100
AcDbSymbolTableRecord
100
AcDbDimStyleTableRecord
  2
BIGT
 70
     0
  3

  4

  5

  6
OPEN
  7
OPEN
 40
1.0
 41
2.23
 42
0.5
 43
2.5
 44
1.0
 45
0.0
 46
0.0
 47
0.0
 48
0.0
140
2.8
141
0.0
142
0.0
143
25.4
144
1.0
145
0.0
146
1.0
147
1.0
 71
     0
 72
     0
 73
     0
 74
     0
 75
     0
 76
     0
 77
     3
 78
     8
170
     0
171
     2
172
     1
173
     1
174
     1
175
     0
176
   256
177
   256
178
    40
270
     2
271
     3
272
     3
273
     2
274
     2
340
10
275
     0
280
     0
281
     0
282
     0
283
     1
284
     8
285
     0
286
     0
287
     3
288
     0
  0
DIMSTYLE
105
83A
102
{ACAD_REACTORS
330
A6C
330
A9A
330
AB1
330
AC0
102
}
330
A
100
AcDbSymbolTableRecord
100
AcDbDimStyleTableRecord
  2
BIGT$0
 70
     0
  3

  4
"
  5
OPEN
  6

  7

 40
1.0
 41
2.23
 42
0.5
 43
7.0
 44
1.0
 45
0.0
 46
0.0
 47
0.1
 48
0.1
140
3.0
141
0.0
142
0.0
143
0.0393701
144
1.0
145
0.0
146
0.71
147
1.0
 71
     0
 72
     0
 73
     0
 74
     0
 75
     0
 76
     0
 77
     3
 78
     8
170
     0
171
     2
172
     1
173
     0
174
     0
175
     0
176
     3
177
     3
178
    40
270
     2
271
     3
272
     3
273
     2
274
     2
340
10
275
     0
280
     0
281
     0
282
     0
283
     1
284
     8
285
     0
286
     0
287
     3
288
     0
  0
ENDTAB
  0
TABLE
  2
BLOCK_RECORD
  5
1
330
0
100
AcDbSymbolTable
 70
     7
  0
BLOCK_RECORD
  5
1A
102
{ACAD_XDICTIONARY
360
BA3
102
}
330
1
100
AcDbSymbolTableRecord
100
AcDbBlockTableRecord
  2
*MODEL_SPACE
  0
BLOCK_RECORD
  5
17
102
{ACAD_XDICTIONARY
360
BA1
102
}
330
1
100
AcDbSymbolTableRecord
100
AcDbBlockTableRecord
  2
*PAPER_SPACE
  0
BLOCK_RECORD
  5
594
330
1
100
AcDbSymbolTableRecord
100
AcDbBlockTableRecord
  2
_OPEN
  0
BLOCK_RECORD
  5
6E3
330
1
100
AcDbSymbolTableRecord
100
AcDbBlockTableRecord
  2
矢印なし
  0
BLOCK_RECORD
  5
A72
330
1
100
AcDbSymbolTableRecord
100
AcDbBlockTableRecord
  2
*D2
  0
BLOCK_RECORD
  5
A9B
330
1
100
AcDbSymbolTableRecord
100
AcDbBlockTableRecord
  2
*D3
  0
BLOCK_RECORD
  5
AB2
330
1
100
AcDbSymbolTableRecord
100
AcDbBlockTableRecord
  2
*D4
  0
BLOCK_RECORD
  5
AC1
330
1
100
AcDbSymbolTableRecord
100
AcDbBlockTableRecord
  2
*D5
  0
BLOCK_RECORD
  5
B02
330
1
100
AcDbSymbolTableRecord
100
AcDbBlockTableRecord
  2
1
1001
CONTENTBLOCKICON
1071
        0
1004
2800000020000000200000000100080000000000000400000000000000000000000000000000000000000000000080000080000000808000800000008000800080800000C0C0C000C0DCC000F0CAA6000020400000206000002080000020A0000020C0000020E00000400000004020000040400000406000004080000040A0
1004
000040C0000040E00000600000006020000060400000606000006080000060A0000060C0000060E00000800000008020000080400000806000008080000080A0000080C0000080E00000A0000000A0200000A0400000A0600000A0800000A0A00000A0C00000A0E00000C0000000C0200000C0400000C0600000C0800000C0
1004
A00000C0C00000C0E00000E0000000E0200000E0400000E0600000E0800000E0A00000E0C00000E0E00040000000400020004000400040006000400080004000A0004000C0004000E00040200000402020004020400040206000402080004020A0004020C0004020E000404000004040200040404000404060004040800040
1004
40A0004040C0004040E00040600000406020004060400040606000406080004060A0004060C0004060E00040800000408020004080400040806000408080004080A0004080C0004080E00040A0000040A0200040A0400040A0600040A0800040A0A00040A0C00040A0E00040C0000040C0200040C0400040C0600040C08000
1004
40C0A00040C0C00040C0E00040E0000040E0200040E0400040E0600040E0800040E0A00040E0C00040E0E00080000000800020008000400080006000800080008000A0008000C0008000E00080200000802020008020400080206000802080008020A0008020C0008020E00080400000804020008040400080406000804080
1004
008040A0008040C0008040E00080600000806020008060400080606000806080008060A0008060C0008060E00080800000808020008080400080806000808080008080A0008080C0008080E00080A0000080A0200080A0400080A0600080A0800080A0A00080A0C00080A0E00080C0000080C0200080C0400080C0600080C0
1004
800080C0A00080C0C00080C0E00080E0000080E0200080E0400080E0600080E0800080E0A00080E0C00080E0E000C0000000C0002000C0004000C0006000C0008000C000A000C000C000C000E000C0200000C0202000C0204000C0206000C0208000C020A000C020C000C020E000C0400000C0402000C0404000C0406000C0
1004
408000C040A000C040C000C040E000C0600000C0602000C0604000C0606000C0608000C060A000C060C000C060E000C0800000C0802000C0804000C0806000C0808000C080A000C080C000C080E000C0A00000C0A02000C0A04000C0A06000C0A08000C0A0A000C0A0C000C0A0E000C0C00000C0C02000C0C04000C0C06000
1004
C0C08000C0C0A000F0FBFF00A4A0A000808080000000FF0000FF000000FFFF00FF000000FF00FF00FFFF0000FFFFFF0000000000000000000000000000000000000000000000000000000000000000000000000000000000000000000000000000000000000000000000000000000000000000000000000000000000000000
1004
00000000000000000000000000000000000000000000000000000000000000000000000000000000000000000000000000000000000000000000000000000000000000000000000000000000000000000000000000000000000000000000000000000000000000000000000000000000000000000000000000000000000000
1004
0000000000000000000000000000000000000000000000000000000000000000000000000000000000000000000000000000000000000000000000000000000000000000000000000000000000000000000000000000000000FEFEFEFEFEFEFE00000000000000000000000000000000000000000000000000FE0000FEFEE7
1004
FE0000000000000000000000000000000000000000000000FEFEFE0000E7E7E7FE0000000000000000000000000000000000000000FEFEFE0000E70000E7E7E7FE0000000000000000000000000000000000000000FE00000000E70000E7E7E7E70000000000000000000000000000000000000000FE00000000E70000E7E7
1004
E7FEFEFEFEFEFEFEFEFEFEFEFEFEFEFEFEFE00000000FE00000000E70000E7E7E7E700E700000000000000000000E7E700FE000000FBFEFBFBFBFBE7FBFBE7E7E7E7FBE7FBE7E7FAE7E7E7E7E7E7E7FAFAE7FB000000FE00000000E70000E7E7E7FEFEFEFEFEFEFEFEFEFEFEFEFEFEFAE7FE00000000FE00000000E70000E7
1004
E7E7FE0000000000000000000000000000000000000000FEFEFE0000E70000E7E7E7FE0000000000000000000000000000000000000000000000FEFEFE0000E7E7E7FE00000000000000000000000000000000000000000000000000FE0000FEFEE7FE00000000000000000000000000000000000000000000000000FEFEFE
1004
FEFEFEFE000000000000000000000000000000000000000000000000000000000000000000000000000000000000000000000000000000000000000000000000000000000000000000000000000000000000000000000000000000000000000000000000000000000000000000000000000000000000000000000000000000
1004
00000000000000000000000000000000000000000000000000000000000000000000000000000000000000000000000000000000000000000000000000000000000000000000000000000000000000000000000000000000000000000000000000000000000000000000000000000000000000000000000000000000000000
1004
0000000000000000000000000000000000000000000000000000000000000000000000000000000000000000000000000000000000000000
  0
ENDTAB
  0
ENDSEC
  0
SECTION
  2
BLOCKS
  0
BLOCK
  5
1B
330
1A
100
AcDbEntity
  8
0
100
AcDbBlockBegin
  2
*MODEL_SPACE
 70
     0
 10
0.0
 20
0.0
 30
0.0
  3
*MODEL_SPACE
  1

  0
ENDBLK
  5
1C
330
1A
100
AcDbEntity
  8
0
100
AcDbBlockEnd
  0
BLOCK
  5
18
330
17
100
AcDbEntity
 67
     1
  8
0
100
AcDbBlockBegin
  2
*PAPER_SPACE
 70
     0
 10
0.0
 20
0.0
 30
0.0
  3
*PAPER_SPACE
  1

  0
ENDBLK
  5
19
330
17
100
AcDbEntity
 67
     1
  8
0
100
AcDbBlockEnd
  0
BLOCK
  5
598
330
594
100
AcDbEntity
  8
0
100
AcDbBlockBegin
  2
_OPEN
 70
     0
 10
0.0
 20
0.0
 30
0.0
  3
_OPEN
  1

  0
LINE
  5
595
330
594
100
AcDbEntity
  8
0
  6
BYBLOCK
 62
     0
100
AcDbLine
 10
-1.0
 20
0.16666667
 30
0.0
 11
0.0
 21
0.0
 31
0.0
  0
LINE
  5
596
330
594
100
AcDbEntity
  8
0
  6
BYBLOCK
 62
     0
100
AcDbLine
 10
-1.0
 20
-0.16666667
 30
0.0
 11
0.0
 21
0.0
 31
0.0
  0
LINE
  5
597
330
594
100
AcDbEntity
  8
0
  6
BYBLOCK
 62
     0
100
AcDbLine
 10
0.0
 20
0.0
 30
0.0
 11
-1.0
 21
0.0
 31
0.0
  0
ENDBLK
  5
599
330
594
100
AcDbEntity
  8
0
100
AcDbBlockEnd
  0
BLOCK
  5
6E4
330
6E3
100
AcDbEntity
  8
0
100
AcDbBlockBegin
  2
矢印なし
 70
     0
 10
0.0
 20
0.0
 30
0.0
  3
矢印なし
  1

  0
ENDBLK
  5
6E5
330
6E3
100
AcDbEntity
  8
0
100
AcDbBlockEnd
  0
BLOCK
  5
A7C
330
A72
100
AcDbEntity
  8
0
100
AcDbBlockBegin
  2
*D2
 70
     1
 10
0.0
 20
0.0
 30
0.0
  3
*D2
  1

  0
LINE
  5
C7D
330
A72
100
AcDbEntity
  8
250
  6
CONTINUOUS
 62
     3
100
AcDbLine
 10
104.5
 20
-6.00000071
 30
0.0
 11
121.0
 21
-6.00000071
 31
0.0
  0
LINE
  5
C7E
330
A72
100
AcDbEntity
  8
250
  6
CONTINUOUS
 62
     3
100
AcDbLine
 10
104.5
 20
6.00000005
 30
0.0
 11
121.0
 21
6.00000005
 31
0.0
  0
LINE
  5
C7F
330
A72
100
AcDbEntity
  8
250
  6
CONTINUOUS
 62
     3
100
AcDbLine
 10
120.0
 20
-3.77000071
 30
0.0
 11
120.0
 21
3.77000005
 31
0.0
  0
INSERT
  5
C80
330
A72
100
AcDbEntity
  8
250
  6
CONTINUOUS
 62
     3
100
AcDbBlockReference
  2
_OPEN
 10
120.0
 20
-6.00000071
 30
0.0
 41
2.23
 42
2.23
 43
2.23
 50
270.0
  0
INSERT
  5
C81
330
A72
100
AcDbEntity
  8
250
  6
CONTINUOUS
 62
     3
100
AcDbBlockReference
  2
_OPEN
 10
120.0
 20
6.00000005
 30
0.0
 41
2.23
 42
2.23
 43
2.23
 50
90.0
  0
MTEXT
  5
C82
330
A72
100
AcDbEntity
  8
250
  6
CONTINUOUS
 62
    40
100
AcDbMText
 10
117.5
 20
-0.00000033
 30
0.0
 40
2.8
 41
0.0
 71
     5
 72
     1
  1
\A1;{\H3;\U+2205}12
 11
0.0
 21
1.0
 31
0.0
1001
ACAD
1000
MTEXTBEGIN
1070
    73
1070
     1
1070
    44
1040
1.0
1070
    74
1070
     0
1000
MTEXTEND
1000
MTEXTBEGIN
1070
    73
1070
     1
1070
    44
1040
1.0
1070
    74
1070
     0
1000
MTEXTEND
  0
POINT
  5
C83
330
A72
100
AcDbEntity
  8
DEFPOINTS
  6
CONTINUOUS
 62
     0
100
AcDbPoint
 10
104.0
 20
-6.00000071
 30
0.0
  0
POINT
  5
C84
330
A72
100
AcDbEntity
  8
DEFPOINTS
  6
CONTINUOUS
 62
     0
100
AcDbPoint
 10
104.0
 20
6.00000005
 30
0.0
  0
POINT
  5
C85
330
A72
100
AcDbEntity
  8
DEFPOINTS
  6
CONTINUOUS
 62
     0
100
AcDbPoint
 10
120.0
 20
6.00000005
 30
0.0
  0
ENDBLK
  5
A7D
330
A72
100
AcDbEntity
  8
0
100
AcDbBlockEnd
  0
BLOCK
  5
AA5
330
A9B
100
AcDbEntity
  8
0
100
AcDbBlockBegin
  2
*D3
 70
     1
 10
0.0
 20
0.0
 30
0.0
  3
*D3
  1

  0
LINE
  5
DE0
330
A9B
100
AcDbEntity
  8
250
  6
CONTINUOUS
 62
     3
100
AcDbLine
 10
37.0
 20
6.4
 30
0.0
 11
37.0
 21
29.0
 31
0.0
  0
LINE
  5
DE1
330
A9B
100
AcDbEntity
  8
250
  6
CONTINUOUS
 62
     3
100
AcDbLine
 10
105.0
 20
5.50000005
 30
0.0
 11
105.0
 21
29.0
 31
0.0
  0
LINE
  5
DE2
330
A9B
100
AcDbEntity
  8
250
  6
CONTINUOUS
 62
     3
100
AcDbLine
 10
39.23
 20
28.0
 30
0.0
 11
102.77
 21
28.0
 31
0.0
  0
INSERT
  5
DE3
330
A9B
100
AcDbEntity
  8
250
  6
CONTINUOUS
 62
     3
100
AcDbBlockReference
  2
_OPEN
 10
37.0
 20
28.0
 30
0.0
 41
2.23
 42
2.23
 43
2.23
 50
180.0
  0
INSERT
  5
DE4
330
A9B
100
AcDbEntity
  8
250
  6
CONTINUOUS
 62
     3
100
AcDbBlockReference
  2
_OPEN
 10
105.0
 20
28.0
 30
0.0
 41
2.23
 42
2.23
 43
2.23
  0
MTEXT
  5
DE5
330
A9B
100
AcDbEntity
  8
250
  6
CONTINUOUS
 62
    40
100
AcDbMText
 10
71.0
 20
30.5
 30
0.0
 40
3.0
 41
0.0
 71
     5
 72
     1
  1
\A1;68
1001
ACAD
1000
MTEXTBEGIN
1070
    73
1070
     1
1070
    44
1040
1.0
1070
    74
1070
     0
1000
MTEXTEND
  0
POINT
  5
DE6
330
A9B
100
AcDbEntity
  8
DEFPOINTS
  6
CONTINUOUS
 62
     0
100
AcDbPoint
 10
37.0
 20
5.9
 30
0.0
  0
POINT
  5
DE7
330
A9B
100
AcDbEntity
  8
DEFPOINTS
  6
CONTINUOUS
 62
     0
100
AcDbPoint
 10
105.0
 20
5.00000005
 30
0.0
  0
POINT
  5
DE8
330
A9B
100
AcDbEntity
  8
DEFPOINTS
  6
CONTINUOUS
 62
     0
100
AcDbPoint
 10
105.0
 20
28.0
 30
0.0
  0
ENDBLK
  5
AA6
330
A9B
100
AcDbEntity
  8
0
100
AcDbBlockEnd
  0
BLOCK
  5
ABC
330
AB2
100
AcDbEntity
  8
0
100
AcDbBlockBegin
  2
*D4
 70
     1
 10
0.0
 20
0.0
 30
0.0
  3
*D4
  1

  0
LINE
  5
DD6
330
AB2
100
AcDbEntity
  8
250
  6
CONTINUOUS
 62
     3
100
AcDbLine
 10
29.0
 20
3.6
 30
0.0
 11
29.0
 21
36.0
 31
0.0
  0
LINE
  5
DD7
330
AB2
100
AcDbEntity
  8
250
  6
CONTINUOUS
 62
     3
100
AcDbLine
 10
105.0
 20
5.50000005
 30
0.0
 11
105.0
 21
36.0
 31
0.0
  0
LINE
  5
DD8
330
AB2
100
AcDbEntity
  8
250
  6
CONTINUOUS
 62
     3
100
AcDbLine
 10
31.23
 20
35.0
 30
0.0
 11
102.77
 21
35.0
 31
0.0
  0
INSERT
  5
DD9
330
AB2
100
AcDbEntity
  8
250
  6
CONTINUOUS
 62
     3
100
AcDbBlockReference
  2
_OPEN
 10
29.0
 20
35.0
 30
0.0
 41
2.23
 42
2.23
 43
2.23
 50
180.0
  0
INSERT
  5
DDA
330
AB2
100
AcDbEntity
  8
250
  6
CONTINUOUS
 62
     3
100
AcDbBlockReference
  2
_OPEN
 10
105.0
 20
35.0
 30
0.0
 41
2.23
 42
2.23
 43
2.23
  0
MTEXT
  5
DDB
330
AB2
100
AcDbEntity
  8
250
  6
CONTINUOUS
 62
    40
100
AcDbMText
 10
67.0
 20
37.5
 30
0.0
 40
3.0
 41
0.0
 71
     5
 72
     1
  1
\A1;（max.76）
1001
ACAD
1000
MTEXTBEGIN
1070
    73
1070
     1
1070
    44
1040
1.0
1070
    74
1070
     0
1000
MTEXTEND
  0
POINT
  5
DDC
330
AB2
100
AcDbEntity
  8
DEFPOINTS
  6
CONTINUOUS
 62
     0
100
AcDbPoint
 10
29.0
 20
3.1
 30
0.0
  0
POINT
  5
DDD
330
AB2
100
AcDbEntity
  8
DEFPOINTS
  6
CONTINUOUS
 62
     0
100
AcDbPoint
 10
105.0
 20
5.00000005
 30
0.0
  0
POINT
  5
DDE
330
AB2
100
AcDbEntity
  8
DEFPOINTS
  6
CONTINUOUS
 62
     0
100
AcDbPoint
 10
105.0
 20
35.0
 30
0.0
  0
ENDBLK
  5
ABD
330
AB2
100
AcDbEntity
  8
0
100
AcDbBlockEnd
  0
BLOCK
  5
ACB
330
AC1
100
AcDbEntity
  8
0
100
AcDbBlockBegin
  2
*D5
 70
     1
 10
0.0
 20
0.0
 30
0.0
  3
*D5
  1

  0
LINE
  5
C62
330
AC1
100
AcDbEntity
  8
250
  6
CONTINUOUS
 62
     3
100
AcDbLine
 10
0.0
 20
31.0
 30
0.0
 11
0.0
 21
43.0
 31
0.0
  0
LINE
  5
C63
330
AC1
100
AcDbEntity
  8
250
  6
CONTINUOUS
 62
     3
100
AcDbLine
 10
105.0
 20
5.50000005
 30
0.0
 11
105.0
 21
43.0
 31
0.0
  0
LINE
  5
C64
330
AC1
100
AcDbEntity
  8
250
  6
CONTINUOUS
 62
     3
100
AcDbLine
 10
2.23
 20
42.0
 30
0.0
 11
102.77
 21
42.0
 31
0.0
  0
INSERT
  5
C65
330
AC1
100
AcDbEntity
  8
250
  6
CONTINUOUS
 62
     3
100
AcDbBlockReference
  2
_OPEN
 10
0.0
 20
42.0
 30
0.0
 41
2.23
 42
2.23
 43
2.23
 50
180.0
  0
INSERT
  5
C66
330
AC1
100
AcDbEntity
  8
250
  6
CONTINUOUS
 62
     3
100
AcDbBlockReference
  2
_OPEN
 10
105.0
 20
42.0
 30
0.0
 41
2.23
 42
2.23
 43
2.23
  0
MTEXT
  5
C67
330
AC1
100
AcDbEntity
  8
250
  6
CONTINUOUS
 62
    40
100
AcDbMText
 10
52.5
 20
44.5
 30
0.0
 40
3.0
 41
0.0
 71
     5
 72
     1
  1
\A1;105
1001
ACAD
1000
MTEXTBEGIN
1070
    73
1070
     1
1070
    44
1040
1.0
1070
    74
1070
     0
1000
MTEXTEND
1000
MTEXTBEGIN
1070
    73
1070
     1
1070
    44
1040
1.0
1070
    74
1070
     0
1000
MTEXTEND
  0
POINT
  5
C68
330
AC1
100
AcDbEntity
  8
DEFPOINTS
  6
CONTINUOUS
 62
     0
100
AcDbPoint
 10
0.0
 20
30.5
 30
0.0
  0
POINT
  5
C69
330
AC1
100
AcDbEntity
  8
DEFPOINTS
  6
CONTINUOUS
 62
     0
100
AcDbPoint
 10
105.0
 20
5.00000005
 30
0.0
  0
POINT
  5
C6A
330
AC1
100
AcDbEntity
  8
DEFPOINTS
  6
CONTINUOUS
 62
     0
100
AcDbPoint
 10
105.0
 20
42.0
 30
0.0
  0
ENDBLK
  5
ACC
330
AC1
100
AcDbEntity
  8
0
100
AcDbBlockEnd
  0
BLOCK
  5
B03
330
B02
100
AcDbEntity
  8
0
100
AcDbBlockBegin
  2
1
 70
     0
 10
0.0
 20
0.0
 30
0.0
  3
1
  1

  0
LINE
  5
E63
330
B02
100
AcDbEntity
  8
245
  6
CENTER2
100
AcDbLine
 10
-26.0
 20
0.0
 30
0.0
 11
106.0
 21
0.0
 31
0.0
  0
LINE
  5
E64
330
B02
100
AcDbEntity
  8
240
100
AcDbLine
 10
89.09835876
 20
-6.0
 30
0.0
 11
39.1
 21
-6.0
 31
0.0
  0
LINE
  5
E65
330
B02
100
AcDbEntity
  8
240
100
AcDbLine
 10
89.09835876
 20
6.0
 30
0.0
 11
39.1
 21
6.0
 31
0.0
  0
LINE
  5
E66
330
B02
100
AcDbEntity
  8
245
  6
CENTER2
100
AcDbLine
 10
18.0
 20
-31.5
 30
0.0
 11
18.0
 21
31.5
 31
0.0
  0
LINE
  5
E67
330
B02
100
AcDbEntity
  8
240
  6
CONTINUOUS
100
AcDbLine
 10
0.0
 20
30.5
 30
0.0
 11
0.0
 21
19.15
 31
0.0
  0
LINE
  5
E68
330
B02
100
AcDbEntity
  8
241
  6
CONTINUOUS
100
AcDbLine
 10
21.37749907
 20
31.5
 30
0.0
 11
21.37749907
 21
0.0
 31
0.0
  0
LINE
  5
E69
330
B02
100
AcDbEntity
  8
241
  6
CONTINUOUS
100
AcDbLine
 10
14.62250093
 20
31.5
 30
0.0
 11
14.62250093
 21
0.0
 31
0.0
  0
LINE
  5
E6A
330
B02
100
AcDbEntity
  8
240
  6
CONTINUOUS
100
AcDbLine
 10
26.0
 20
30.5
 30
0.0
 11
26.0
 21
11.0
 31
0.0
  0
LINE
  5
E6B
330
B02
100
AcDbEntity
  8
240
  6
CONTINUOUS
100
AcDbLine
 10
19.875
 20
28.89759526
 30
0.0
 11
21.37749907
 21
31.5
 31
0.0
  0
LINE
  5
E6C
330
B02
100
AcDbEntity
  8
240
  6
CONTINUOUS
100
AcDbLine
 10
16.125
 20
28.89759526
 30
0.0
 11
14.62250093
 21
31.5
 31
0.0
  0
LINE
  5
E6D
330
B02
100
AcDbEntity
  8
240
  6
CONTINUOUS
100
AcDbLine
 10
0.0
 20
-30.5
 30
0.0
 11
0.0
 21
-19.15
 31
0.0
  0
LINE
  5
E6E
330
B02
100
AcDbEntity
  8
241
  6
CONTINUOUS
100
AcDbLine
 10
14.62250093
 20
-31.5
 30
0.0
 11
14.62250093
 21
0.0
 31
0.0
  0
LINE
  5
E6F
330
B02
100
AcDbEntity
  8
241
  6
CONTINUOUS
100
AcDbLine
 10
21.37749907
 20
-31.5
 30
0.0
 11
21.37749907
 21
0.0
 31
0.0
  0
LINE
  5
E70
330
B02
100
AcDbEntity
  8
241
  6
CONTINUOUS
100
AcDbLine
 10
16.125
 20
-27.5
 30
0.0
 11
16.125
 21
0.0
 31
0.0
  0
LINE
  5
E71
330
B02
100
AcDbEntity
  8
241
  6
CONTINUOUS
100
AcDbLine
 10
19.875
 20
-27.5
 30
0.0
 11
19.875
 21
0.0
 31
0.0
  0
LINE
  5
E72
330
B02
100
AcDbEntity
  8
240
  6
CONTINUOUS
100
AcDbLine
 10
26.0
 20
-30.5
 30
0.0
 11
26.0
 21
-11.0
 31
0.0
  0
LINE
  5
E73
330
B02
100
AcDbEntity
  8
240
  6
CONTINUOUS
100
AcDbLine
 10
1.0
 20
-31.5
 30
0.0
 11
14.62250093
 21
-31.5
 31
0.0
  0
ARC
  5
E74
330
B02
100
AcDbEntity
  8
240
  6
CONTINUOUS
100
AcDbCircle
 10
1.0
 20
-30.5
 30
0.0
 40
1.0
100
AcDbArc
 50
180.0
 51
270.0
  0
LINE
  5
E75
330
B02
100
AcDbEntity
  8
240
  6
CONTINUOUS
100
AcDbLine
 10
16.125
 20
-27.5
 30
0.0
 11
19.875
 21
-27.5
 31
0.0
  0
LINE
  5
E76
330
B02
100
AcDbEntity
  8
240
100
AcDbLine
 10
16.125
 20
-28.89759526
 30
0.0
 11
16.125
 21
-27.5
 31
0.0
  0
LINE
  5
E77
330
B02
100
AcDbEntity
  8
240
  6
CONTINUOUS
100
AcDbLine
 10
16.125
 20
-28.89759526
 30
0.0
 11
14.62250093
 21
-31.5
 31
0.0
  0
LINE
  5
E78
330
B02
100
AcDbEntity
  8
240
100
AcDbLine
 10
19.875
 20
-28.89759526
 30
0.0
 11
19.875
 21
-27.5
 31
0.0
  0
LINE
  5
E79
330
B02
100
AcDbEntity
  8
240
  6
CONTINUOUS
100
AcDbLine
 10
21.37749907
 20
-31.5
 30
0.0
 11
25.0
 21
-31.5
 31
0.0
  0
LINE
  5
E7A
330
B02
100
AcDbEntity
  8
240
  6
CONTINUOUS
100
AcDbLine
 10
19.875
 20
-28.89759526
 30
0.0
 11
21.37749907
 21
-31.5
 31
0.0
  0
ARC
  5
E7B
330
B02
100
AcDbEntity
  8
240
  6
CONTINUOUS
100
AcDbCircle
 10
25.0
 20
-30.5
 30
0.0
 40
1.0
100
AcDbArc
 50
270.0
 51
0.0
  0
LINE
  5
E7C
330
B02
100
AcDbEntity
  8
241
100
AcDbLine
 10
0.0
 20
19.15
 30
0.0
 11
0.0
 21
0.0
 31
0.0
  0
LINE
  5
E7D
330
B02
100
AcDbEntity
  8
241
  6
CONTINUOUS
100
AcDbLine
 10
-2.0
 20
19.15
 30
0.0
 11
-2.0
 21
0.0
 31
0.0
  0
LINE
  5
E7E
330
B02
100
AcDbEntity
  8
240
  6
CONTINUOUS
100
AcDbLine
 10
-25.0
 20
17.04875078
 30
0.0
 11
-25.0
 21
0.0
 31
0.0
  0
LINE
  5
E7F
330
B02
100
AcDbEntity
  8
240
  6
CONTINUOUS
100
AcDbLine
 10
-2.0
 20
-19.15
 30
0.0
 11
-24.04993762
 21
-18.04750312
 31
0.0
  0
LINE
  5
E80
330
B02
100
AcDbEntity
  8
240
  6
CONTINUOUS
100
AcDbLine
 10
-25.0
 20
-17.04875078
 30
0.0
 11
-25.0
 21
0.0
 31
0.0
  0
ARC
  5
E81
330
B02
100
AcDbEntity
  8
240
  6
CONTINUOUS
100
AcDbCircle
 10
-24.0
 20
-17.04875078
 30
0.0
 40
1.0
100
AcDbArc
 50
180.0
 51
267.13759477
  0
LINE
  5
E82
330
B02
100
AcDbEntity
  8
241
  6
CONTINUOUS
100
AcDbLine
 10
-2.0
 20
-19.15
 30
0.0
 11
-2.0
 21
0.0
 31
0.0
  0
LINE
  5
E83
330
B02
100
AcDbEntity
  8
241
100
AcDbLine
 10
0.0
 20
-19.15
 30
0.0
 11
0.0
 21
0.0
 31
0.0
  0
LINE
  5
E84
330
B02
100
AcDbEntity
  8
240
100
AcDbLine
 10
-2.0
 20
-19.15
 30
0.0
 11
0.0
 21
-19.15
 31
0.0
  0
LINE
  5
E85
330
B02
100
AcDbEntity
  8
240
  6
CONTINUOUS
100
AcDbLine
 10
-2.0
 20
19.15
 30
0.0
 11
-24.04993762
 21
18.04750312
 31
0.0
  0
ARC
  5
E86
330
B02
100
AcDbEntity
  8
240
  6
CONTINUOUS
100
AcDbCircle
 10
-24.0
 20
17.04875078
 30
0.0
 40
0.9999999999999914
100
AcDbArc
 50
92.86240523
 51
180.0
  0
LINE
  5
E87
330
B02
100
AcDbEntity
  8
240
100
AcDbLine
 10
-2.0
 20
19.15
 30
0.0
 11
0.0
 21
19.15
 31
0.0
  0
LINE
  5
E88
330
B02
100
AcDbEntity
  8
241
100
AcDbLine
 10
26.0
 20
11.0
 30
0.0
 11
26.0
 21
0.0
 31
0.0
  0
LINE
  5
E89
330
B02
100
AcDbEntity
  8
241
  6
CONTINUOUS
100
AcDbLine
 10
19.875
 20
27.5
 30
0.0
 11
19.875
 21
0.0
 31
0.0
  0
LINE
  5
E8A
330
B02
100
AcDbEntity
  8
241
  6
CONTINUOUS
100
AcDbLine
 10
16.125
 20
27.5
 30
0.0
 11
16.125
 21
0.0
 31
0.0
  0
LINE
  5
E8B
330
B02
100
AcDbEntity
  8
241
100
AcDbLine
 10
35.78756443
 20
7.81649658
 30
0.0
 11
35.78756443
 21
0.0
 31
0.0
  0
LINE
  5
E8C
330
B02
100
AcDbEntity
  8
241
100
AcDbLine
 10
39.0
 20
0.0
 30
0.0
 11
39.0
 21
5.9
 31
0.0
  0
LINE
  5
E8D
330
B02
100
AcDbEntity
  8
241
100
AcDbLine
 10
37.0
 20
5.9
 30
0.0
 11
37.0
 21
0.0
 31
0.0
  0
ARC
  5
E8E
330
B02
100
AcDbEntity
  8
240
  6
CONTINUOUS
100
AcDbCircle
 10
29.0
 20
-11.0
 30
0.0
 40
3.0
100
AcDbArc
 50
90.0
 51
180.0
  0
LINE
  5
E8F
330
B02
100
AcDbEntity
  8
241
100
AcDbLine
 10
26.0
 20
-11.0
 30
0.0
 11
26.0
 21
0.0
 31
0.0
  0
LINE
  5
E90
330
B02
100
AcDbEntity
  8
240
100
AcDbLine
 10
36.07623957
 20
-7.5
 30
0.0
 11
37.0
 21
-5.9
 31
0.0
  0
LINE
  5
E91
330
B02
100
AcDbEntity
  8
241
100
AcDbLine
 10
35.78756443
 20
-7.81649658
 30
0.0
 11
35.78756443
 21
0.0
 31
0.0
  0
LINE
  5
E92
330
B02
100
AcDbEntity
  8
240
100
AcDbLine
 10
29.0
 20
-8.0
 30
0.0
 11
35.21021417
 21
-8.0
 31
0.0
  0
ARC
  5
E93
330
B02
100
AcDbEntity
  8
240
100
AcDbCircle
 10
35.21021417
 20
-7.0
 30
0.0
 40
1.0
100
AcDbArc
 50
270.0
 51
330.0
  0
LINE
  5
E94
330
B02
100
AcDbEntity
  8
241
100
AcDbLine
 10
37.0
 20
-5.9
 30
0.0
 11
37.0
 21
0.0
 31
0.0
  0
LINE
  5
E95
330
B02
100
AcDbEntity
  8
241
100
AcDbLine
 10
39.0
 20
0.0
 30
0.0
 11
39.0
 21
-5.9
 31
0.0
  0
LINE
  5
E96
330
B02
100
AcDbEntity
  8
240
100
AcDbLine
 10
39.1
 20
-6.0
 30
0.0
 11
39.0
 21
-5.9
 31
0.0
  0
LINE
  5
E97
330
B02
100
AcDbEntity
  8
240
100
AcDbLine
 10
37.0
 20
-5.9
 30
0.0
 11
39.0
 21
-5.9
 31
0.0
  0
ARC
  5
E98
330
B02
100
AcDbEntity
  8
240
100
AcDbCircle
 10
29.0
 20
11.0
 30
0.0
 40
3.0
100
AcDbArc
 50
180.0
 51
270.0
  0
LINE
  5
E99
330
B02
100
AcDbEntity
  8
240
  6
CONTINUOUS
100
AcDbLine
 10
16.125
 20
27.5
 30
0.0
 11
19.875
 21
27.5
 31
0.0
  0
LINE
  5
E9A
330
B02
100
AcDbEntity
  8
240
100
AcDbLine
 10
16.125
 20
28.89759526
 30
0.0
 11
16.125
 21
27.5
 31
0.0
  0
LINE
  5
E9B
330
B02
100
AcDbEntity
  8
240
100
AcDbLine
 10
19.875
 20
28.89759526
 30
0.0
 11
19.875
 21
27.5
 31
0.0
  0
LINE
  5
E9C
330
B02
100
AcDbEntity
  8
240
100
AcDbLine
 10
36.07623957
 20
7.5
 30
0.0
 11
37.0
 21
5.9
 31
0.0
  0
LINE
  5
E9D
330
B02
100
AcDbEntity
  8
240
100
AcDbLine
 10
29.0
 20
8.0
 30
0.0
 11
35.21021417
 21
8.0
 31
0.0
  0
ARC
  5
E9E
330
B02
100
AcDbEntity
  8
240
100
AcDbCircle
 10
35.21021417
 20
7.0
 30
0.0
 40
1.0
100
AcDbArc
 50
30.0
 51
90.0
  0
LINE
  5
E9F
330
B02
100
AcDbEntity
  8
240
100
AcDbLine
 10
39.1
 20
6.0
 30
0.0
 11
39.0
 21
5.9
 31
0.0
  0
LINE
  5
EA0
330
B02
100
AcDbEntity
  8
240
100
AcDbLine
 10
37.0
 20
5.9
 30
0.0
 11
39.0
 21
5.9
 31
0.0
  0
LINE
  5
EA1
330
B02
100
AcDbEntity
  8
240
  6
CONTINUOUS
100
AcDbLine
 10
1.0
 20
31.5
 30
0.0
 11
14.62250093
 21
31.5
 31
0.0
  0
ARC
  5
EA2
330
B02
100
AcDbEntity
  8
240
  6
CONTINUOUS
100
AcDbCircle
 10
1.0
 20
30.5
 30
0.0
 40
1.0
100
AcDbArc
 50
90.0
 51
180.0
  0
LINE
  5
EA3
330
B02
100
AcDbEntity
  8
240
  6
CONTINUOUS
100
AcDbLine
 10
21.37749907
 20
31.5
 30
0.0
 11
25.0
 21
31.5
 31
0.0
  0
ARC
  5
EA4
330
B02
100
AcDbEntity
  8
240
  6
CONTINUOUS
100
AcDbCircle
 10
25.0
 20
30.5
 30
0.0
 40
1.0
100
AcDbArc
 50
0.0
 51
90.0
  0
LINE
  5
EA5
330
B02
100
AcDbEntity
  8
241
  6
HIDDEN2
100
AcDbLine
 10
93.46226688
 20
2.10000027
 30
0.0
 11
81.02000137
 21
2.10000027
 31
0.0
1001
GRPNAME
1000
PASTMD0K
  0
LINE
  5
EA6
330
B02
100
AcDbEntity
  8
241
  6
HIDDEN2
100
AcDbLine
 10
91.87600351
 20
2.70000467
 30
0.0
 11
81.02000137
 21
2.70000467
 31
0.0
1001
GRPNAME
1000
PASTMD0E
  0
LINE
  5
EA7
330
B02
100
AcDbEntity
  8
242
  6
HIDDEN2
100
AcDbLine
 10
58.02
 20
2.5
 30
0.0
 11
78.52
 21
2.5
 31
0.0
  0
LINE
  5
EA8
330
B02
100
AcDbEntity
  8
241
  6
HIDDEN2
100
AcDbLine
 10
48.23094011
 20
2.1
 30
0.0
 11
78.52
 21
2.1
 31
0.0
  0
LINE
  5
EA9
330
B02
100
AcDbEntity
  8
242
  6
HIDDEN2
100
AcDbLine
 10
58.02
 20
2.5
 30
0.0
 11
58.02
 21
0.0
 31
0.0
  0
LINE
  5
EAA
330
B02
100
AcDbEntity
  8
241
  6
HIDDEN2
100
AcDbLine
 10
78.52
 20
3.0
 30
0.0
 11
81.02
 21
3.0
 31
0.0
  0
LINE
  5
EAB
330
B02
100
AcDbEntity
  8
241
  6
HIDDEN2
100
AcDbLine
 10
78.52
 20
0.0
 30
0.0
 11
78.52
 21
3.0
 31
0.0
  0
LINE
  5
EAC
330
B02
100
AcDbEntity
  8
241
  6
HIDDEN2
100
AcDbLine
 10
81.02000137
 20
3.0000001
 30
0.0
 11
81.02000137
 21
0.0
 31
0.0
1001
GRPNAME
1000
PASTMD0K
  0
LINE
  5
EAD
330
B02
100
AcDbEntity
  8
241
  6
CONTINUOUS
100
AcDbLine
 10
89.3870339
 20
0.0
 30
0.0
 11
89.3870339
 21
5.90824829
 31
0.0
1001
GRPNAME
1000
PASTMD04
  0
LINE
  5
EAE
330
B02
100
AcDbEntity
  8
241
100
AcDbLine
 10
90.49999847
 20
5.2500001
 30
0.0
 11
90.49999847
 21
0.0
 31
0.0
  0
LINE
  5
EAF
330
B02
100
AcDbEntity
  8
240
  6
CONTINUOUS
100
AcDbLine
 10
105.0
 20
5.00000005
 30
0.0
 11
105.0
 21
0.0
 31
0.0
1001
GRPNAME
1000
PASTMD0F
  0
LINE
  5
EB0
330
B02
100
AcDbEntity
  8
241
  6
HIDDEN2
100
AcDbLine
 10
101.0200466
 20
3.50000479
 30
0.0
 11
101.0200466
 21
4.5000001
 31
0.0
1001
GRPNAME
1000
PASTMD0E
  0
LINE
  5
EB1
330
B02
100
AcDbEntity
  8
241
  6
CONTINUOUS
100
AcDbLine
 10
92.49999847
 20
6.15000071
 30
0.0
 11
92.49999847
 21
0.0
 31
0.0
1001
GRPNAME
1000
PASTMD0J
  0
LINE
  5
EB2
330
B02
100
AcDbEntity
  8
241
  6
CONTINUOUS
100
AcDbLine
 10
93.69999847
 20
6.00000005
 30
0.0
 11
93.69999847
 21
0.0
 31
0.0
1001
GRPNAME
1000
PASTMD0I
  0
LINE
  5
EB3
330
B02
100
AcDbEntity
  8
241
  6
CONTINUOUS
100
AcDbLine
 10
89.8200466
 20
5.2500001
 30
0.0
 11
89.8200466
 21
0.0
 31
0.0
1001
GRPNAME
1000
PASTMD04
  0
LINE
  5
EB4
330
B02
100
AcDbEntity
  8
241
  6
HIDDEN2
100
AcDbLine
 10
93.52000042
 20
2.00000001
 30
0.0
 11
103.5
 21
2.00000001
 31
0.0
1001
GRPNAME
1000
PASTMD0K
  0
LINE
  5
EB5
330
B02
100
AcDbEntity
  8
240
  6
CONTINUOUS
100
AcDbLine
 10
92.75980609
 20
-6.00000071
 30
0.0
 11
104.0
 21
-6.00000071
 31
0.0
1001
GRPNAME
1000
PASTMD0F
  0
LINE
  5
EB6
330
B02
100
AcDbEntity
  8
241
  6
HIDDEN2
100
AcDbLine
 10
91.87600351
 20
2.70000467
 30
0.0
 11
101.55738673
 21
3.54701605
 31
0.0
1001
GRPNAME
1000
PASTMD0E
  0
ARC
  5
EB7
330
B02
100
AcDbEntity
  8
240
  6
CONTINUOUS
100
AcDbCircle
 10
90.79999847
 20
-5.84999995
 30
0.0
 40
0.3000000000000114
100
AcDbArc
 50
180.00000001
 51
270.00000069
1001
GRPNAME
1000
PASTMD0J
  0
LINE
  5
EB8
330
B02
100
AcDbEntity
  8
241
100
AcDbLine
 10
90.49999847
 20
-5.2500001
 30
0.0
 11
90.49999847
 21
0.0
 31
0.0
  0
LINE
  5
EB9
330
B02
100
AcDbEntity
  8
241
  6
CONTINUOUS
100
AcDbLine
 10
89.3870339
 20
0.0
 30
0.0
 11
89.3870339
 21
-5.90824829
 31
0.0
1001
GRPNAME
1000
PASTMD04
  0
LINE
  5
EBA
330
B02
100
AcDbEntity
  8
241
  6
CONTINUOUS
100
AcDbLine
 10
89.8200466
 20
-5.2500001
 30
0.0
 11
89.8200466
 21
0.0
 31
0.0
1001
GRPNAME
1000
PASTMD04
  0
ARC
  5
EBB
330
B02
100
AcDbEntity
  8
240
  6
CONTINUOUS
100
AcDbCircle
 10
89.09835876
 20
-5.5
 30
0.0
 40
0.5
100
AcDbArc
 50
270.0
 51
329.99999902
  0
LINE
  5
EBC
330
B02
100
AcDbEntity
  8
240
  6
CONTINUOUS
100
AcDbLine
 10
89.8200466
 20
-5.2500001
 30
0.0
 11
90.49999847
 21
-5.2500001
 31
0.0
1001
GRPNAME
1000
PASTMD0E
  0
LINE
  5
EBD
330
B02
100
AcDbEntity
  8
240
  6
CONTINUOUS
100
AcDbLine
 10
89.82004655
 20
-5.2500001
 30
0.0
 11
89.53137146
 21
-5.75000001
 31
0.0
1001
GRPNAME
1000
PASTMD04
  0
LINE
  5
EBE
330
B02
100
AcDbEntity
  8
240
  6
CONTINUOUS
100
AcDbLine
 10
90.49999847
 20
-5.2500001
 30
0.0
 11
90.49999847
 21
-5.84999995
 31
0.0
1001
GRPNAME
1000
PASTMD0F
  0
LINE
  5
EBF
330
B02
100
AcDbEntity
  8
241
  6
CONTINUOUS
100
AcDbLine
 10
93.69999847
 20
-6.00000005
 30
0.0
 11
93.69999847
 21
0.0
 31
0.0
1001
GRPNAME
1000
PASTMD0I
  0
LINE
  5
EC0
330
B02
100
AcDbEntity
  8
241
  6
CONTINUOUS
100
AcDbLine
 10
92.49999847
 20
-6.15000071
 30
0.0
 11
92.49999847
 21
0.0
 31
0.0
1001
GRPNAME
1000
PASTMD0J
  0
LINE
  5
EC1
330
B02
100
AcDbEntity
  8
240
100
AcDbLine
 10
92.75980609
 20
-6.00000071
 30
0.0
 11
92.49999847
 21
-6.15000071
 31
0.0
  0
LINE
  5
EC2
330
B02
100
AcDbEntity
  8
240
  6
CONTINUOUS
100
AcDbLine
 10
90.79999847
 20
-6.15000071
 30
0.0
 11
92.49999847
 21
-6.15000071
 31
0.0
1001
GRPNAME
1000
PASTMD0J
  0
LINE
  5
EC3
330
B02
100
AcDbEntity
  8
241
  6
CONTINUOUS
100
AcDbLine
 10
93.52000042
 20
2.00000001
 30
0.0
 11
93.46226688
 21
2.10000027
 31
0.0
1001
GRPNAME
1000
PASTMD0K
  0
LINE
  5
EC4
330
B02
100
AcDbEntity
  8
240
  6
CONTINUOUS
100
AcDbLine
 10
105.0
 20
-5.00000071
 30
0.0
 11
105.0
 21
0.0
 31
0.0
1001
GRPNAME
1000
PASTMD0F
  0
ARC
  5
EC5
330
B02
100
AcDbEntity
  8
240
  6
CONTINUOUS
100
AcDbCircle
 10
104.0
 20
-5.00000071
 30
0.0
 40
1.0
100
AcDbArc
 50
270.0
 51
0.0
1001
GRPNAME
1000
PASTMD0F
  0
LINE
  5
EC6
330
B02
100
AcDbEntity
  8
241
  6
HIDDEN2
100
AcDbLine
 10
104.5
 20
2.05000005
 30
0.0
 11
103.5
 21
2.05000005
 31
0.0
1001
GRPNAME
1000
PASTMD0F
  0
LINE
  5
EC7
330
B02
100
AcDbEntity
  8
241
  6
HIDDEN2
100
AcDbLine
 10
102.70000075
 20
3.70000065
 30
0.0
 11
103.10000226
 21
3.70000065
 31
0.0
1001
GRPNAME
1000
PASTMD0K
  0
LINE
  5
EC8
330
B02
100
AcDbEntity
  8
241
  6
HIDDEN2
100
AcDbLine
 10
102.70000075
 20
3.70000065
 30
0.0
 11
102.29999921
 21
3.29999912
 31
0.0
1001
GRPNAME
1000
PASTMD0K
  0
LINE
  5
EC9
330
B02
100
AcDbEntity
  8
241
  6
HIDDEN2
100
AcDbLine
 10
101.55738673
 20
3.54701605
 30
0.0
 11
101.7000007
 21
3.29999912
 31
0.0
1001
GRPNAME
1000
PASTMD0K
  0
LINE
  5
ECA
330
B02
100
AcDbEntity
  8
241
  6
HIDDEN2
100
AcDbLine
 10
101.7000007
 20
3.29999912
 30
0.0
 11
102.29999921
 21
3.29999912
 31
0.0
1001
GRPNAME
1000
PASTMD0K
  0
LINE
  5
ECB
330
B02
100
AcDbEntity
  8
241
  6
HIDDEN2
100
AcDbLine
 10
103.10000226
 20
3.70000065
 30
0.0
 11
103.5
 21
3.29999912
 31
0.0
1001
GRPNAME
1000
PASTMD0K
  0
LINE
  5
ECC
330
B02
100
AcDbEntity
  8
241
  6
HIDDEN2
100
AcDbLine
 10
103.5
 20
3.29999912
 30
0.0
 11
103.5
 21
0.0
 31
0.0
1001
GRPNAME
1000
PASTMD0K
  0
LINE
  5
ECD
330
B02
100
AcDbEntity
  8
241
  6
HIDDEN2
100
AcDbLine
 10
104.5
 20
2.05000005
 30
0.0
 11
105.0
 21
2.55000005
 31
0.0
1001
GRPNAME
1000
PASTMD0F
  0
LINE
  5
ECE
330
B02
100
AcDbEntity
  8
240
  6
CONTINUOUS
100
AcDbLine
 10
92.75980723
 20
6.00000005
 30
0.0
 11
104.0
 21
6.00000005
 31
0.0
1001
GRPNAME
1000
PASTMD0F
  0
LINE
  5
ECF
330
B02
100
AcDbEntity
  8
241
  6
HIDDEN2
100
AcDbLine
 10
100.5200466
 20
5.0000001
 30
0.0
 11
94.02004648
 21
5.0000001
 31
0.0
1001
GRPNAME
1000
PASTMD0E
  0
LINE
  5
ED0
330
B02
100
AcDbEntity
  8
242
  6
HIDDEN2
100
AcDbLine
 10
94.52004648
 20
4.5000001
 30
0.0
 11
101.0200466
 21
4.5000001
 31
0.0
1001
GRPNAME
1000
PASTMD0E
  0
LINE
  5
ED1
330
B02
100
AcDbEntity
  8
241
  6
HIDDEN2
100
AcDbLine
 10
93.77004648
 20
5.2500001
 30
0.0
 11
90.49999847
 21
5.2500001
 31
0.0
1001
GRPNAME
1000
PASTMD0E
  0
ARC
  5
ED2
330
B02
100
AcDbEntity
  8
240
  6
CONTINUOUS
100
AcDbCircle
 10
90.79999847
 20
5.84999995
 30
0.0
 40
0.3000000000000114
100
AcDbArc
 50
89.99999931
 51
179.99999999
1001
GRPNAME
1000
PASTMD0J
  0
ARC
  5
ED3
330
B02
100
AcDbEntity
  8
240
  6
CONTINUOUS
100
AcDbCircle
 10
89.09835876
 20
5.5
 30
0.0
 40
0.5
100
AcDbArc
 50
30.00000098
 51
90.0
  0
LINE
  5
ED4
330
B02
100
AcDbEntity
  8
240
  6
CONTINUOUS
100
AcDbLine
 10
90.49999847
 20
5.2500001
 30
0.0
 11
90.49999847
 21
5.84999995
 31
0.0
1001
GRPNAME
1000
PASTMD0F
  0
LINE
  5
ED5
330
B02
100
AcDbEntity
  8
240
  6
CONTINUOUS
100
AcDbLine
 10
89.82004655
 20
5.2500001
 30
0.0
 11
89.53137146
 21
5.75000001
 31
0.0
1001
GRPNAME
1000
PASTMD04
  0
LINE
  5
ED6
330
B02
100
AcDbEntity
  8
240
  6
CONTINUOUS
100
AcDbLine
 10
89.8200466
 20
5.2500001
 30
0.0
 11
90.49999847
 21
5.2500001
 31
0.0
1001
GRPNAME
1000
PASTMD0E
  0
LINE
  5
ED7
330
B02
100
AcDbEntity
  8
240
  6
CONTINUOUS
100
AcDbLine
 10
90.79999847
 20
6.15000071
 30
0.0
 11
92.49999847
 21
6.15000071
 31
0.0
1001
GRPNAME
1000
PASTMD0J
  0
LINE
  5
ED8
330
B02
100
AcDbEntity
  8
240
100
AcDbLine
 10
92.75980723
 20
6.00000005
 30
0.0
 11
92.49999847
 21
6.15000071
 31
0.0
  0
LINE
  5
ED9
330
B02
100
AcDbEntity
  8
241
  6
HIDDEN2
100
AcDbLine
 10
94.02004648
 20
5.0000001
 30
0.0
 11
93.77004648
 21
5.2500001
 31
0.0
1001
GRPNAME
1000
PASTMD0E
  0
LINE
  5
EDA
330
B02
100
AcDbEntity
  8
242
  6
HIDDEN2
100
AcDbLine
 10
94.52004648
 20
4.5000001
 30
0.0
 11
94.02004648
 21
5.0000001
 31
0.0
1001
GRPNAME
1000
PASTMD0E
  0
ARC
  5
EDB
330
B02
100
AcDbEntity
  8
240
  6
CONTINUOUS
100
AcDbCircle
 10
104.0
 20
5.00000005
 30
0.0
 40
1.0
100
AcDbArc
 50
0.0
 51
90.0
1001
GRPNAME
1000
PASTMD0F
  0
LINE
  5
EDC
330
B02
100
AcDbEntity
  8
241
  6
HIDDEN2
100
AcDbLine
 10
100.5200466
 20
5.0000001
 30
0.0
 11
101.0200466
 21
4.5000001
 31
0.0
1001
GRPNAME
1000
PASTMD0E
  0
ENDBLK
  5
B04
330
B02
100
AcDbEntity
  8
0
100
AcDbBlockEnd
  0
ENDSEC
  0
SECTION
  2
ENTITIES
  0
INSERT
  5
6E6
330
1A
100
AcDbEntity
  8
245
100
AcDbBlockReference
  2
矢印なし
 10
175.62382697
 20
90.55123572
 30
0.0
  0
LEADER
  5
829
330
1A
100
AcDbEntity
  8
250
  6
CONTINUOUS
100
AcDbLeader
  3
BIGT
 76
     2
 10
-10.953318
 20
-18.7023341
 30
0.0
 10
-16.34912835
 20
-28.04815178
 30
0.0
1001
ACAD
1000
DSTYLE
1002
{
1070
     6
1000
OPEN
1070
    41
1040
2.0
1070
    42
1040
2.0
1070
    44
1040
2.0
1070
   140
1040
4.0
1070
   343
1005
594
1002
}
  0
MTEXT
  5
82A
330
1A
100
AcDbEntity
  8
251
  6
CONTINUOUS
100
AcDbMText
 10
-37.81579501
 20
-27.04815178
 30
0.0
 40
2.8
 41
0.0
 71
     7
 72
     1
  1
HSK-F63
  7
YOKO
1001
ITEMNAME
1000
LNSP3
1001
ACAD
1000
MTEXTBEGIN
1070
    73
1070
     1
1070
    44
1040
1.0
1070
    74
1070
     0
1000
MTEXTEND
1000
MTEXTBEGIN
1070
    73
1070
     1
1070
    44
1040
1.0
1070
    74
1070
     0
1000
MTEXTEND
1000
MTEXTBEGIN
1070
    73
1070
     1
1070
    44
1040
1.0
1070
    74
1070
     0
1000
MTEXTEND
  0
LINE
  5
82B
330
1A
100
AcDbEntity
  8
250
  6
CONTINUOUS
100
AcDbLine
 10
-16.34912835
 20
-28.04815178
 30
0.0
 11
-40.61579501
 21
-28.04815178
 31
0.0
1001
ITEMNAME
1000
LNSP2
  0
MTEXT
  5
A4A
330
1A
100
AcDbEntity
  8
250
  6
CONTINUOUS
 62
    40
100
AcDbMText
 10
110.5
 20
0.0
 30
0.0
 40
3.0
 41
0.0
 71
     5
 72
     1
  1
max.φ4
 11
0.0
 21
1.0
 31
0.0
1001
ITEMNAME
1000
DI010
1001
ACAD
1000
MTEXTBEGIN
1070
    73
1070
     1
1070
    44
1040
1.0
1070
    74
1070
     0
1000
MTEXTEND
1000
MTEXTBEGIN
1070
    73
1070
     1
1070
    44
1040
1.0
1070
    74
1070
     0
1000
MTEXTEND
1000
MTEXTBEGIN
1070
    73
1070
     1
1070
    44
1040
1.0
1070
    74
1070
     0
1000
MTEXTEND
1000
MTEXTBEGIN
1070
    73
1070
     1
1070
    44
1040
1.0
1070
    74
1070
     0
1000
MTEXTEND
  0
INSERT
  5
A4B
330
1A
100
AcDbEntity
  8
250
  6
CONTINUOUS
 62
     3
100
AcDbBlockReference
  2
_OPEN
 10
113.0
 20
2.00000001
 30
0.0
 41
2.23
 42
2.23
 43
2.23
 50
90.0
  0
LINE
  5
A4C
330
1A
100
AcDbEntity
  8
250
  6
CONTINUOUS
 62
     3
100
AcDbLine
 10
113.0
 20
2.00000001
 30
0.0
 11
113.0
 21
-4.73630231
 31
0.0
  0
LINE
  5
A4D
330
1A
100
AcDbEntity
  8
250
  6
CONTINUOUS
 62
     3
100
AcDbLine
 10
103.70000073
 20
2.00000001
 30
0.0
 11
114.0
 21
2.00000001
 31
0.0
  0
DIMENSION
  5
A6C
330
1A
100
AcDbEntity
  8
250
  6
CONTINUOUS
100
AcDbDimension
  2
*D2
 10
120.0
 20
6.00000005
 30
0.0
 11
120.0
 21
-0.00000033
 31
0.0
 70
   160
  1
{\H3;\U+2205}<>
  3
BIGT$0
100
AcDbAlignedDimension
 13
104.0
 23
-6.00000071
 33
0.0
 14
104.0
 24
6.00000005
 34
0.0
 50
90.0
100
AcDbRotatedDimension
1001
ACAD
1000
DSTYLE
1002
{
1070
   140
1040
2.8
1002
}
  0
DIMENSION
  5
A9A
330
1A
100
AcDbEntity
  8
250
  6
CONTINUOUS
100
AcDbDimension
  2
*D3
 10
105.0
 20
28.0
 30
0.0
 11
71.0
 21
28.0
 31
0.0
 70
   160
  3
BIGT$0
100
AcDbAlignedDimension
 13
37.0
 23
5.9
 33
0.0
 14
105.0
 24
5.00000005
 34
0.0
100
AcDbRotatedDimension
  0
DIMENSION
  5
AB1
330
1A
100
AcDbEntity
  8
250
  6
CONTINUOUS
100
AcDbDimension
  2
*D4
 10
105.0
 20
35.0
 30
0.0
 11
67.0
 21
37.5
 31
0.0
 70
    32
  1
（max.<>）
  3
BIGT$0
100
AcDbAlignedDimension
 13
29.0
 23
3.1
 33
0.0
 14
105.0
 24
5.00000005
 34
0.0
100
AcDbRotatedDimension
  0
DIMENSION
  5
AC0
330
1A
100
AcDbEntity
  8
250
  6
CONTINUOUS
100
AcDbDimension
  2
*D5
 10
105.0
 20
42.0
 30
0.0
 11
52.5
 21
44.5
 31
0.0
 70
    32
  3
BIGT$0
100
AcDbAlignedDimension
 13
0.0
 23
30.5
 33
0.0
 14
105.0
 24
5.00000005
 34
0.0
100
AcDbRotatedDimension
  0
TEXT
  5
ADD
330
1A
100
AcDbEntity
  8
241
100
AcDbText
 10
-25.08247803
 20
56.37170309
 30
0.0
 40
5.0
  1
HSK-F63-MEGA4S-105
  7
YOKO
 11
-25.08247803
 21
56.37170309
 31
0.0
100
AcDbText
 73
     1
  0
INSERT
  5
EDD
330
1A
100
AcDbEntity
  8
245
100
AcDbBlockReference
  2
1
 10
0.0
 20
0.0
 30
0.0
  0
VIEWPORT
  5
22
330
17
100
AcDbEntity
 67
     1
  8
0
100
AcDbViewport
 10
261.51769912
 20
148.5
 30
0.0
 40
523.03539823
 41
297.0
 68
     1
 69
     1
1001
ACAD
1000
MVIEW
1002
{
1070
    16
1010
0.0
1020
0.0
1030
0.0
1010
0.0
1020
0.0
1030
1.0
1040
0.0
1040
297.0
1040
261.51769912
1040
148.5
1040
50.0
1040
0.0
1040
0.0
1070
     0
1070
   100
1070
     1
1070
     1
1070
     0
1070
     0
1070
     0
1070
     0
1040
0.0
1040
0.0
1040
0.0
1040
1.0
1040
1.0
1040
10.0
1040
10.0
1070
     0
1002
{
1002
}
1002
}
  0
ENDSEC
  0
SECTION
  2
OBJECTS
  0
DICTIONARY
  5
C
330
0
100
AcDbDictionary
  3
ACAD_GROUP
350
D
  3
ACAD_LAYOUT
350
565
  3
ACAD_MLINESTYLE
350
E
  3
ACAD_PLOTSETTINGS
350
566
  3
ACAD_PLOTSTYLENAME
350
563
  3
ACDBHEADERROUNDTRIPXREC
350
EDF
  3
GRADE_DWG
350
540
  0
DICTIONARY
  5
BA3
330
1A
100
AcDbDictionary
280
     1
  3
ACAD_LAYOUTSELFREF
360
F01
  0
DICTIONARY
  5
BA1
330
17
100
AcDbDictionary
280
     1
  3
ACAD_LAYOUTSELFREF
360
F00
  0
DICTIONARY
  5
D
102
{ACAD_REACTORS
330
C
102
}
330
C
100
AcDbDictionary
  3
*A1
350
6C7
  3
*A2
350
6C8
  3
*A3
350
6D4
  3
*A4
350
6D5
  3
DREC-1
350
5FC
  3
DREC-2
350
654
  3
DREC-3
350
673
  0
DICTIONARY
  5
565
102
{ACAD_REACTORS
330
C
102
}
330
C
100
AcDbDictionary
  0
DICTIONARY
  5
E
102
{ACAD_REACTORS
330
C
102
}
330
C
100
AcDbDictionary
  3
STANDARD
350
13
  0
DICTIONARY
  5
566
102
{ACAD_REACTORS
330
C
102
}
330
C
100
AcDbDictionary
  3
A3_0_5倍_
350
758
  3
A3_1倍_
350
757
  3
A3_1倍__2000_
350
707
  3
A3_2倍_
350
759
  3
A4_0_5倍_
350
755
  3
A4_1倍_
350
754
  3
A4_1倍__2000_
350
708
  3
A4_2倍_
350
756
  0
ACDBDICTIONARYWDFLT
  5
563
102
{ACAD_REACTORS
330
C
102
}
330
C
100
AcDbDictionary
281
     1
  3
Normal
350
564
100
AcDbDictionaryWithDefault
340
564
  0
DICTIONARY
  5
EDF
102
{ACAD_REACTORS
330
C
102
}
330
C
100
AcDbDictionary
  3
CEPSNTYPE
350
EE9
  3
DIMSTYLEDATA
350
EED
  3
FINGERPRINTGUID
350
EEA
  3
HYPERLINKBASE
350
EE2
  3
INSUNITS
350
EE8
  3
LAYOUTDICT
350
EE4
  3
LWETCUNION
350
EE7
  3
PLOTSETDICT
350
EE5
  3
PLOTSTYLNAMDICT
350
EE6
  3
PSVPSCALE
350
EEC
  3
PUCSBASE
350
EF0
  3
PUCSORGBACK
350
EF6
  3
PUCSORGBOTTOM
350
EF2
  3
PUCSORGFRONT
350
EF5
  3
PUCSORGLEFT
350
EF3
  3
PUCSORGRIGHT
350
EF4
  3
PUCSORGTOP
350
EF1
  3
PUCSORTHOREF
350
EEE
  3
PUCSORTHOVIEW
350
EEF
  3
STYLESHEET
350
EE3
  3
TSTACKALIGN
350
EE0
  3
TSTACKSIZE
350
EE1
  3
UCSBASE
350
EF9
  3
UCSORGBACK
350
EFF
  3
UCSORGBOTTOM
350
EFB
  3
UCSORGFRONT
350
EFE
  3
UCSORGLEFT
350
EFC
  3
UCSORGRIGHT
350
EFD
  3
UCSORGTOP
350
EFA
  3
UCSORTHOREF
350
EF7
  3
UCSORTHOVIEW
350
EF8
  3
VERSIONGUID
350
EEB
  0
DICTIONARY
  5
540
102
{ACAD_REACTORS
330
C
102
}
330
C
100
AcDbDictionary
  3
VERSION
350
560
  0
XRECORD
  5
F01
102
{ACAD_REACTORS
330
BA3
102
}
330
BA3
100
AcDbXrecord
340
1A
  0
XRECORD
  5
F00
102
{ACAD_REACTORS
330
BA1
102
}
330
BA1
100
AcDbXrecord
340
17
  0
GROUP
  5
6C7
102
{ACAD_REACTORS
330
D
102
}
330
D
100
AcDbGroup
300

 70
     0
 71
     1
1001
GRPNAME
1000
DMA00
  0
GROUP
  5
6C8
102
{ACAD_REACTORS
330
D
102
}
330
D
100
AcDbGroup
300

 70
     0
 71
     1
1001
GRPNAME
1000
DMA00
  0
GROUP
  5
6D4
102
{ACAD_REACTORS
330
D
102
}
330
D
100
AcDbGroup
300

 70
     0
 71
     1
1001
GRPNAME
1000
DMA00
  0
GROUP
  5
6D5
102
{ACAD_REACTORS
330
D
102
}
330
D
100
AcDbGroup
300

 70
     0
 71
     1
1001
GRPNAME
1000
DMA00
  0
GROUP
  5
5FC
102
{ACAD_REACTORS
330
D
102
}
330
D
100
AcDbGroup
300

 70
     0
 71
     1
1001
GRPNAME
1000
DREC-
1001
GPARA
1000
xsiz
1000
44.182
1000
ysiz
1000
40.677
1000
angl
1000
0
1000
ctyp
1000
0
1000
csiz
1000
5
1000
lfnt
1000
cont
1000
hcnt
1000
hoff
1000
vcnt
1000
voff
1000
opnt
1000
4
1000
dxpt
1000
0
1000
dypt
1000
0
  0
GROUP
  5
654
102
{ACAD_REACTORS
330
D
102
}
330
D
100
AcDbGroup
300

 70
     0
 71
     1
1001
GRPNAME
1000
DREC-
1001
GPARA
1000
xsiz
1000
54.592
1000
ysiz
1000
53.036
1000
angl
1000
0
1000
ctyp
1000
0
1000
csiz
1000
5
1000
lfnt
1000
cont
1000
hcnt
1000
hoff
1000
vcnt
1000
voff
1000
opnt
1000
4
1000
dxpt
1000
0
1000
dypt
1000
0
  0
GROUP
  5
673
102
{ACAD_REACTORS
330
D
102
}
330
D
100
AcDbGroup
300

 70
     0
 71
     1
1001
GRPNAME
1000
DREC-
1001
GPARA
1000
xsiz
1000
30.363
1000
ysiz
1000
36.175
1000
angl
1000
0
1000
ctyp
1000
0
1000
csiz
1000
5
1000
lfnt
1000
cont
1000
hcnt
1000
hoff
1000
vcnt
1000
voff
1000
opnt
1000
4
1000
dxpt
1000
0
1000
dypt
1000
0
  0
MLINESTYLE
  5
13
102
{ACAD_REACTORS
330
E
102
}
330
E
100
AcDbMlineStyle
  2
STANDARD
 70
     0
  3

 62
     0
 51
90.0
 52
90.0
 71
     2
 49
0.5
 62
   256
  6
BYLAYER
 49
-0.5
 62
   256
  6
BYLAYER
  0
PLOTSETTINGS
  5
758
102
{ACAD_REACTORS
330
566
102
}
330
566
100
AcDbPlotSettings
  1
A3(0.5倍)
  2
\\AWTECPC05\HP DeskJet 1120C
  4
A3
  6

 40
5.95841646
 41
13.49375153
 42
6.04309082
 43
3.67242432
 44
296.92599487
 45
419.94665527
 46
89.96
 47
127.14
 48
0.0
 49
0.0
140
0.0
141
0.0
142
1.0
143
2.0
 70
  1716
 72
     1
 73
     1
 74
     2
  7
big.ctb
 75
    17
147
0.5
148
0.0
149
0.0
  0
PLOTSETTINGS
  5
757
102
{ACAD_REACTORS
330
566
102
}
330
566
100
AcDbPlotSettings
  1
A3(1倍)
  2
\\AWTECPC05\HP DeskJet 1120C
  4
A3
  6

 40
5.95841646
 41
13.49375153
 42
6.04309082
 43
3.67242432
 44
296.92599487
 45
419.94665527
 46
37.46
 47
52.89
 48
0.0
 49
0.0
140
0.0
141
0.0
142
1.0
143
1.0
 70
  1716
 72
     1
 73
     1
 74
     2
  7
big.ctb
 75
    16
147
1.0
148
0.0
149
0.0
  0
PLOTSETTINGS
  5
707
102
{ACAD_REACTORS
330
566
102
}
330
566
100
AcDbPlotSettings
  1
A3(1倍)(2000)
  2
SII LS-1300 (D-SCAN)
  4
User258
  6

 40
3.17499995
 41
3.17499995
 42
3.17498779
 43
3.17498779
 44
419.98898315
 45
296.98950195
 46
58.32
 47
40.32
 48
0.0
 49
0.0
140
0.0
141
0.0
142
1.0
143
1.0
 70
  1716
 72
     1
 73
     0
 74
     2
  7
big.ctb
 75
    16
147
1.0
148
0.0
149
0.0
  0
PLOTSETTINGS
  5
759
102
{ACAD_REACTORS
330
566
102
}
330
566
100
AcDbPlotSettings
  1
A3(2倍)
  2
\\AWTECPC05\HP DeskJet 1120C
  4
A3
  6

 40
5.95841646
 41
13.49375153
 42
6.04309082
 43
3.67242432
 44
296.92599487
 45
419.94665527
 46
-67.54
 47
-95.61
 48
0.0
 49
0.0
140
0.0
141
0.0
142
1.0
143
0.5
 70
  1716
 72
     1
 73
     1
 74
     2
  7
big.ctb
 75
    27
147
2.0
148
0.0
149
0.0
  0
PLOTSETTINGS
  5
755
102
{ACAD_REACTORS
330
566
102
}
330
566
100
AcDbPlotSettings
  1
A4(0.5倍)
  2
\\AWTECPC05\HP DeskJet 1120C
  4
A4
  6

 40
4.18041658
 41
13.49374962
 42
4.18040466
 43
3.92642212
 44
209.97332764
 45
296.92599487
 46
48.31
 47
65.5
 48
0.0
 49
0.0
140
0.0
141
0.0
142
1.0
143
2.0
 70
  1716
 72
     1
 73
     1
 74
     2
  7
big.ctb
 75
    17
147
0.5
148
0.0
149
0.0
  0
PLOTSETTINGS
  5
754
102
{ACAD_REACTORS
330
566
102
}
330
566
100
AcDbPlotSettings
  1
A4(1倍)
  2
\\AWTECPC05\HP DeskJet 1120C
  4
A4
  6

 40
4.18041658
 41
13.49374962
 42
4.18040466
 43
3.92642212
 44
209.97332764
 45
296.92599487
 46
-4.19
 47
-8.75
 48
0.0
 49
0.0
140
0.0
141
0.0
142
1.0
143
1.0
 70
  1716
 72
     1
 73
     1
 74
     2
  7
big.ctb
 75
    16
147
1.0
148
0.0
149
0.0
  0
PLOTSETTINGS
  5
708
102
{ACAD_REACTORS
330
566
102
}
330
566
100
AcDbPlotSettings
  1
A4(1倍)(2000)
  2
SII LS-1300 (D-SCAN)
  4
User259
  6

 40
3.17499995
 41
3.17499995
 42
3.17498779
 43
3.17500305
 44
296.98950195
 45
209.99449158
 46
-3.18
 47
-3.18
 48
0.0
 49
0.0
140
0.0
141
0.0
142
1.0
143
1.0
 70
  1716
 72
     1
 73
     0
 74
     2
  7
big.ctb
 75
    16
147
1.0
148
0.0
149
0.0
  0
PLOTSETTINGS
  5
756
102
{ACAD_REACTORS
330
566
102
}
330
566
100
AcDbPlotSettings
  1
A4(2倍)
  2
\\AWTECPC05\HP DeskJet 1120C
  4
A4
  6

 40
4.18041658
 41
13.49374962
 42
4.18040466
 43
3.92642212
 44
209.97332764
 45
296.92599487
 46
-109.19
 47
-157.25
 48
0.0
 49
0.0
140
0.0
141
0.0
142
1.0
143
0.5
 70
  1716
 72
     1
 73
     1
 74
     2
  7
big.ctb
 75
    27
147
2.0
148
0.0
149
0.0
  0
ACDBPLACEHOLDER
  5
564
102
{ACAD_REACTORS
330
563
102
}
330
563
100
AcDbPlaceHolder
280
     0
  0
XRECORD
  5
EE9
102
{ACAD_REACTORS
330
EDF
102
}
330
EDF
100
AcDbXrecord
 90
        0
  0
XRECORD
  5
EED
102
{ACAD_REACTORS
330
EDF
102
}
330
EDF
100
AcDbXrecord
1000
DSTYLE
1002
{
1070
    79
 70
     2
1070
   179
 70
     3
1070
   341
340
594
1070
   343
340
594
1070
   344
340
594
1070
   371
 70
    -1
1070
   372
 70
    -1
1002
}
  0
XRECORD
  5
EEA
102
{ACAD_REACTORS
330
EDF
102
}
330
EDF
100
AcDbXrecord
  1
{51294030-9CB4-11D3-8E18-00A0C925D94D}
  0
XRECORD
  5
EE2
102
{ACAD_REACTORS
330
EDF
102
}
330
EDF
100
AcDbXrecord
  1

  0
XRECORD
  5
EE8
102
{ACAD_REACTORS
330
EDF
102
}
330
EDF
100
AcDbXrecord
 90
        0
  0
XRECORD
  5
EE4
102
{ACAD_REACTORS
330
EDF
102
}
330
EDF
100
AcDbXrecord
340
565
  0
XRECORD
  5
EE7
102
{ACAD_REACTORS
330
EDF
102
}
330
EDF
100
AcDbXrecord
 90
    10781
  0
XRECORD
  5
EE5
102
{ACAD_REACTORS
330
EDF
102
}
330
EDF
100
AcDbXrecord
340
566
  0
XRECORD
  5
EE6
102
{ACAD_REACTORS
330
EDF
102
}
330
EDF
100
AcDbXrecord
340
563
  0
XRECORD
  5
EEC
102
{ACAD_REACTORS
330
EDF
102
}
330
EDF
100
AcDbXrecord
 40
0.0
  0
XRECORD
  5
EF0
102
{ACAD_REACTORS
330
EDF
102
}
330
EDF
100
AcDbXrecord
340
0
  0
XRECORD
  5
EF6
102
{ACAD_REACTORS
330
EDF
102
}
330
EDF
100
AcDbXrecord
 10
0.0
 20
0.0
 30
0.0
  0
XRECORD
  5
EF2
102
{ACAD_REACTORS
330
EDF
102
}
330
EDF
100
AcDbXrecord
 10
0.0
 20
0.0
 30
0.0
  0
XRECORD
  5
EF5
102
{ACAD_REACTORS
330
EDF
102
}
330
EDF
100
AcDbXrecord
 10
0.0
 20
0.0
 30
0.0
  0
XRECORD
  5
EF3
102
{ACAD_REACTORS
330
EDF
102
}
330
EDF
100
AcDbXrecord
 10
0.0
 20
0.0
 30
0.0
  0
XRECORD
  5
EF4
102
{ACAD_REACTORS
330
EDF
102
}
330
EDF
100
AcDbXrecord
 10
0.0
 20
0.0
 30
0.0
  0
XRECORD
  5
EF1
102
{ACAD_REACTORS
330
EDF
102
}
330
EDF
100
AcDbXrecord
 10
0.0
 20
0.0
 30
0.0
  0
XRECORD
  5
EEE
102
{ACAD_REACTORS
330
EDF
102
}
330
EDF
100
AcDbXrecord
340
0
  0
XRECORD
  5
EEF
102
{ACAD_REACTORS
330
EDF
102
}
330
EDF
100
AcDbXrecord
 70
     0
  0
XRECORD
  5
EE3
102
{ACAD_REACTORS
330
EDF
102
}
330
EDF
100
AcDbXrecord
  1
big.ctb
  0
XRECORD
  5
EE0
102
{ACAD_REACTORS
330
EDF
102
}
330
EDF
100
AcDbXrecord
 90
        1
  0
XRECORD
  5
EE1
102
{ACAD_REACTORS
330
EDF
102
}
330
EDF
100
AcDbXrecord
 90
       70
  0
XRECORD
  5
EF9
102
{ACAD_REACTORS
330
EDF
102
}
330
EDF
100
AcDbXrecord
340
0
  0
XRECORD
  5
EFF
102
{ACAD_REACTORS
330
EDF
102
}
330
EDF
100
AcDbXrecord
 10
0.0
 20
0.0
 30
0.0
  0
XRECORD
  5
EFB
102
{ACAD_REACTORS
330
EDF
102
}
330
EDF
100
AcDbXrecord
 10
0.0
 20
0.0
 30
0.0
  0
XRECORD
  5
EFE
102
{ACAD_REACTORS
330
EDF
102
}
330
EDF
100
AcDbXrecord
 10
0.0
 20
0.0
 30
0.0
  0
XRECORD
  5
EFC
102
{ACAD_REACTORS
330
EDF
102
}
330
EDF
100
AcDbXrecord
 10
0.0
 20
0.0
 30
0.0
  0
XRECORD
  5
EFD
102
{ACAD_REACTORS
330
EDF
102
}
330
EDF
100
AcDbXrecord
 10
0.0
 20
0.0
 30
0.0
  0
XRECORD
  5
EFA
102
{ACAD_REACTORS
330
EDF
102
}
330
EDF
100
AcDbXrecord
 10
0.0
 20
0.0
 30
0.0
  0
XRECORD
  5
EF7
102
{ACAD_REACTORS
330
EDF
102
}
330
EDF
100
AcDbXrecord
340
0
  0
XRECORD
  5
EF8
102
{ACAD_REACTORS
330
EDF
102
}
330
EDF
100
AcDbXrecord
 70
     0
  0
XRECORD
  5
EEB
102
{ACAD_REACTORS
330
EDF
102
}
330
EDF
100
AcDbXrecord
  1
{F83721B4-33FE-4B7B-B86D-5BDC0E6788B2}
  0
XRECORD
  5
560
102
{ACAD_REACTORS
330
540
102
}
330
540
100
AcDbXrecord
  1
2.0.0
  0
ENDSEC
  0
EOF
