  0
SECTION
  2
HEADER
  9
$ACADVER
  1
AC1014
  9
$ACADMAINTVER
 70
     9
  9
$DWGCODEPAGE
  3
ANSI_932
  9
$INSBASE
 10
0.0
 20
0.0
 30
0.0
  9
$EXTMIN
 10
-40.64359986
 20
-31.72347295
 30
-0.00152582
  9
$EXTMAX
 10
122.00142074
 20
68.0096073
 30
0.00000003
  9
$LIMMIN
 10
0.0
 20
0.0
  9
$LIMMAX
 10
420.0
 20
297.0
  9
$ORTHOMODE
 70
     1
  9
$REGENMODE
 70
     1
  9
$FILLMODE
 70
     1
  9
$QTEXTMODE
 70
     0
  9
$MIRRTEXT
 70
     1
  9
$DRAGMODE
 70
     2
  9
$LTSCALE
 40
10.0
  9
$OSMODE
 70
   549
  9
$ATTMODE
 70
     1
  9
$TEXTSIZE
 40
3.0
  9
$TRACEWID
 40
1.0
  9
$TEXTSTYLE
  7
YOKO
  9
$CLAYER
  8
245
  9
$CELTYPE
  6
BYLAYER
  9
$CECOLOR
 62
   256
  9
$CELTSCALE
 40
1.0
  9
$DELOBJ
 70
     1
  9
$DISPSILH
 70
     0
  9
$DIMSCALE
 40
1.0
  9
$DIMASZ
 40
2.23
  9
$DIMEXO
 40
0.5
  9
$DIMDLI
 40
2.5
  9
$DIMRND
 40
0.0
  9
$DIMDLE
 40
0.0
  9
$DIMEXE
 40
1.0
  9
$DIMTP
 40
0.0
  9
$DIMTM
 40
0.0
  9
$DIMTXT
 40
2.8
  9
$DIMCEN
 40
0.0
  9
$DIMTSZ
 40
0.0
  9
$DIMTOL
 70
     0
  9
$DIMLIM
 70
     0
  9
$DIMTIH
 70
     0
  9
$DIMTOH
 70
     0
  9
$DIMSE1
 70
     0
  9
$DIMSE2
 70
     0
  9
$DIMTAD
 70
     3
  9
$DIMZIN
 70
     8
  9
$DIMBLK
  1

  9
$DIMASO
 70
     1
  9
$DIMSHO
 70
     1
  9
$DIMPOST
  1

  9
$DIMAPOST
  1

  9
$DIMALT
 70
     0
  9
$DIMALTD
 70
     2
  9
$DIMALTF
 40
25.4
  9
$DIMLFAC
 40
1.0
  9
$DIMTOFL
 70
     1
  9
$DIMTVP
 40
0.0
  9
$DIMTIX
 70
     1
  9
$DIMSOXD
 70
     0
  9
$DIMSAH
 70
     1
  9
$DIMBLK1
  1
OPEN
  9
$DIMBLK2
  1
OPEN
  9
$DIMSTYLE
  2
BIGT
  9
$DIMCLRD
 70
   256
  9
$DIMCLRE
 70
   256
  9
$DIMCLRT
 70
    40
  9
$DIMTFAC
 40
1.0
  9
$DIMGAP
 40
1.0
  9
$DIMJUST
 70
     0
  9
$DIMSD1
 70
     0
  9
$DIMSD2
 70
     0
  9
$DIMTOLJ
 70
     1
  9
$DIMTZIN
 70
     8
  9
$DIMALTZ
 70
     0
  9
$DIMALTTZ
 70
     0
  9
$DIMFIT
 70
     3
  9
$DIMUPT
 70
     0
  9
$DIMUNIT
 70
     2
  9
$DIMDEC
 70
     3
  9
$DIMTDEC
 70
     3
  9
$DIMALTU
 70
     2
  9
$DIMALTTD
 70
     2
  9
$DIMTXSTY
  7
STANDARD
  9
$DIMAUNIT
 70
     0
  9
$LUNITS
 70
     2
  9
$LUPREC
 70
     3
  9
$SKETCHINC
 40
1.0
  9
$FILLETRAD
 40
10.0
  9
$AUNITS
 70
     0
  9
$AUPREC
 70
     3
  9
$MENU
  1
.
  9
$ELEVATION
 40
0.0
  9
$PELEVATION
 40
0.0
  9
$THICKNESS
 40
0.0
  9
$LIMCHECK
 70
     0
  9
$BLIPMODE
 70
     0
  9
$CHAMFERA
 40
10.0
  9
$CHAMFERB
 40
10.0
  9
$CHAMFERC
 40
0.0
  9
$CHAMFERD
 40
0.0
  9
$SKPOLY
 70
     0
  9
$TDCREATE
 40
2455133.651620185
  9
$TDUPDATE
 40
2455216.467420243
  9
$TDINDWG
 40
0.0070012269
  9
$TDUSRTIMER
 40
0.0070012269
  9
$USRTIMER
 70
     1
  9
$ANGBASE
 50
0.0
  9
$ANGDIR
 70
     0
  9
$PDMODE
 70
     1
  9
$PDSIZE
 40
-5.0
  9
$PLINEWID
 40
0.0
  9
$COORDS
 70
     2
  9
$SPLFRAME
 70
     0
  9
$SPLINETYPE
 70
     6
  9
$SPLINESEGS
 70
     8
  9
$ATTDIA
 70
     0
  9
$ATTREQ
 70
     1
  9
$HANDLING
 70
-16383
  9
$HANDSEED
  5
C15
  9
$SURFTAB1
 70
     6
  9
$SURFTAB2
 70
     6
  9
$SURFTYPE
 70
     6
  9
$SURFU
 70
     6
  9
$SURFV
 70
     6
  9
$UCSNAME
  2

  9
$UCSORG
 10
0.0
 20
0.0
 30
0.0
  9
$UCSXDIR
 10
1.0
 20
0.0
 30
0.0
  9
$UCSYDIR
 10
0.0
 20
1.0
 30
0.0
  9
$PUCSNAME
  2

  9
$PUCSORG
 10
0.0
 20
0.0
 30
0.0
  9
$PUCSXDIR
 10
1.0
 20
0.0
 30
0.0
  9
$PUCSYDIR
 10
0.0
 20
1.0
 30
0.0
  9
$USERI1
 70
     1
  9
$USERI2
 70
     0
  9
$USERI3
 70
     0
  9
$USERI4
 70
     0
  9
$USERI5
 70
     0
  9
$USERR1
 40
0.0
  9
$USERR2
 40
0.0
  9
$USERR3
 40
0.0
  9
$USERR4
 40
0.0
  9
$USERR5
 40
0.0
  9
$WORLDVIEW
 70
     1
  9
$SHADEDGE
 70
     3
  9
$SHADEDIF
 70
    70
  9
$TILEMODE
 70
     1
  9
$MAXACTVP
 70
    16
  9
$PINSBASE
 10
0.0
 20
0.0
 30
0.0
  9
$PLIMCHECK
 70
     0
  9
$PEXTMIN
 10
1.00000000E+20
 20
1.00000000E+20
 30
1.00000000E+20
  9
$PEXTMAX
 10
-1.00000000E+20
 20
-1.00000000E+20
 30
-1.00000000E+20
  9
$PLIMMIN
 10
0.0
 20
0.0
  9
$PLIMMAX
 10
420.0
 20
297.0
  9
$UNITMODE
 70
     0
  9
$VISRETAIN
 70
     0
  9
$PLINEGEN
 70
     0
  9
$PSLTSCALE
 70
     1
  9
$TREEDEPTH
 70
  3020
  9
$PICKSTYLE
 70
     0
  9
$CMLSTYLE
  2
STANDARD
  9
$CMLJUST
 70
     0
  9
$CMLSCALE
 40
1.0
  9
$PROXYGRAPHICS
 70
     1
  9
$MEASUREMENT
 70
     1
  0
ENDSEC
  0
SECTION
  2
CLASSES
  0
CLASS
  1
XRECORD
  2
AcDbXrecord
  3
AutoCAD 2000
 90
        0
280
     0
281
     0
  0
CLASS
  1
ACDBDICTIONARYWDFLT
  2
AcDbDictionaryWithDefault
  3
AutoCAD 2000
 90
        0
280
     0
281
     0
  0
CLASS
  1
ACDBPLACEHOLDER
  2
AcDbPlaceHolder
  3
AutoCAD 2000
 90
        0
280
     0
281
     0
  0
CLASS
  1
LAYOUT
  2
AcDbLayout
  3
AutoCAD 2000
 90
        0
280
     0
281
     0
  0
CLASS
  1
PLOTSETTINGS
  2
AcDbPlotSettings
  3
AutoCAD 2000
 90
        0
280
     0
281
     0
  0
CLASS
  1
LONG_TRANSACTION
  2
AcDbLongTransaction
  3
AutoCAD 2000
 90
        0
280
     0
281
     0
  0
CLASS
  1
LWPOLYLINE
  2
AcDbPolyline
  3
AutoCAD 2000
 90
        0
280
     0
281
     1
  0
CLASS
  1
HATCH
  2
AcDbHatch
  3
AutoCAD 2000
 90
        0
280
     0
281
     1
  0
CLASS
  1
XRECORD
  2
AcDbXrecord
  3
AutoCAD 2000
 90
        0
280
     0
281
     0
  0
CLASS
  1
LONG_TRANSACTION
  2
AcDbLongTransaction
  3
AutoCAD 2000
 90
        0
280
     0
281
     0
  0
CLASS
  1
LWPOLYLINE
  2
AcDbPolyline
  3
AutoCAD 2000
 90
        0
280
     0
281
     1
  0
CLASS
  1
HATCH
  2
AcDbHatch
  3
AutoCAD 2000
 90
        0
280
     0
281
     1
  0
CLASS
  1
XRECORD
  2
AcDbXrecord
  3
AutoCAD 2000
 90
        0
280
     0
281
     0
  0
ENDSEC
  0
SECTION
  2
TABLES
  0
TABLE
  2
VPORT
  5
8
330
0
100
AcDbSymbolTable
 70
     2
  0
VPORT
  5
BF0
330
8
100
AcDbSymbolTableRecord
100
AcDbViewportTableRecord
  2
*ACTIVE
 70
     0
 10
0.0
 20
0.0
 11
1.0
 21
1.0
 12
40.67891044
 22
18.14306717
 13
0.0
 23
0.0
 14
7.0
 24
7.0
 15
7.0
 25
7.0
 16
0.0
 26
0.0
 36
1.0
 17
0.0
 27
0.0
 37
0.0
 40
114.19663734
 41
1.43184713
 42
50.0
 43
0.0
 44
0.0
 50
0.0
 51
0.0
 71
     0
 72
  2000
 73
     1
 74
     0
 75
     0
 76
     0
 77
     0
 78
     0
  0
ENDTAB
  0
TABLE
  2
LTYPE
  5
5
330
0
100
AcDbSymbolTable
 70
     3
  0
LTYPE
  5
14
330
5
100
AcDbSymbolTableRecord
100
AcDbLinetypeTableRecord
  2
BYBLOCK
 70
     0
  3

 72
    65
 73
     0
 40
0.0
  0
LTYPE
  5
15
330
5
100
AcDbSymbolTableRecord
100
AcDbLinetypeTableRecord
  2
BYLAYER
 70
     0
  3

 72
    65
 73
     0
 40
0.0
  0
LTYPE
  5
16
330
5
100
AcDbSymbolTableRecord
100
AcDbLinetypeTableRecord
  2
CONTINUOUS
 70
     0
  3
Solid line
 72
    65
 73
     0
 40
0.0
  0
LTYPE
  5
258
330
5
100
AcDbSymbolTableRecord
100
AcDbLinetypeTableRecord
  2
CENTER2
 70
     0
  3
___ _ ___ _ ___ _ ___ _ ___ _ ___ _ ___ _ ___ _
 72
    65
 73
     4
 40
1.125
 49
0.75
 74
     0
 49
-0.125
 74
     0
 49
0.125
 74
     0
 49
-0.125
 74
     0
  0
LTYPE
  5
25C
330
5
100
AcDbSymbolTableRecord
100
AcDbLinetypeTableRecord
  2
HIDDEN2
 70
     0
  3
_ _ _ _ _ _ _ _ _ _ _ _ _ _ _ _ _ _ _ _ _ _ _ _
 72
    65
 73
     2
 40
0.1875
 49
0.125
 74
     0
 49
-0.0625
 74
     0
  0
ENDTAB
  0
TABLE
  2
LAYER
  5
2
330
0
100
AcDbSymbolTable
 70
    11
  0
LAYER
  5
F
330
2
100
AcDbSymbolTableRecord
100
AcDbLayerTableRecord
  2
0
 70
     0
 62
     7
  6
CONTINUOUS
  0
LAYER
  5
1AA
330
2
100
AcDbSymbolTableRecord
100
AcDbLayerTableRecord
  2
240
 70
     0
 62
     4
  6
CONTINUOUS
  0
LAYER
  5
1AB
330
2
100
AcDbSymbolTableRecord
100
AcDbLayerTableRecord
  2
241
 70
     0
 62
   211
  6
CONTINUOUS
  0
LAYER
  5
1AC
330
2
100
AcDbSymbolTableRecord
100
AcDbLayerTableRecord
  2
242
 70
     0
 62
     3
  6
CONTINUOUS
  0
LAYER
  5
1AF
330
2
100
AcDbSymbolTableRecord
100
AcDbLayerTableRecord
  2
245
 70
     0
 62
     2
  6
CENTER2
  0
LAYER
  5
21E
330
2
100
AcDbSymbolTableRecord
100
AcDbLayerTableRecord
  2
250
 70
     0
 62
     3
  6
CONTINUOUS
  0
LAYER
  5
21F
330
2
100
AcDbSymbolTableRecord
100
AcDbLayerTableRecord
  2
251
 70
     0
 62
    40
  6
CONTINUOUS
  0
LAYER
  5
5C4
330
2
100
AcDbSymbolTableRecord
100
AcDbLayerTableRecord
  2
DEFPOINTS
 70
     0
 62
     7
  6
CONTINUOUS
  0
ENDTAB
  0
TABLE
  2
STYLE
  5
3
330
0
100
AcDbSymbolTable
 70
     2
  0
STYLE
  5
10
330
3
100
AcDbSymbolTableRecord
100
AcDbTextStyleTableRecord
  2
STANDARD
 70
     0
 40
0.0
 41
1.0
 50
0.0
 71
     0
 42
3.0
  3
romans.shx
  4
BIGFONT.SHX
  0
STYLE
  5
339
330
3
100
AcDbSymbolTableRecord
100
AcDbTextStyleTableRecord
  2
YOKO
 70
     0
 40
0.0
 41
1.0
 50
0.0
 71
     0
 42
3.0
  3
romans.shx
  4
extfont.shx
  0
ENDTAB
  0
TABLE
  2
VIEW
  5
6
330
0
100
AcDbSymbolTable
 70
     0
  0
ENDTAB
  0
TABLE
  2
UCS
  5
7
330
0
100
AcDbSymbolTable
 70
     0
  0
ENDTAB
  0
TABLE
  2
APPID
  5
9
330
0
100
AcDbSymbolTable
 70
     9
  0
APPID
  5
11
330
9
100
AcDbSymbolTableRecord
100
AcDbRegAppTableRecord
  2
ACAD
 70
     0
  0
APPID
  5
1B1
330
9
100
AcDbSymbolTableRecord
100
AcDbRegAppTableRecord
  2
GLOBAL
 70
     0
  0
APPID
  5
2A4
330
9
100
AcDbSymbolTableRecord
100
AcDbRegAppTableRecord
  2
DETAIL
 70
     0
  0
APPID
  5
5FD
330
9
100
AcDbSymbolTableRecord
100
AcDbRegAppTableRecord
  2
GRPNAME
 70
     0
  0
APPID
  5
5FE
330
9
100
AcDbSymbolTableRecord
100
AcDbRegAppTableRecord
  2
GPARA
 70
     0
  0
APPID
  5
6C4
330
9
100
AcDbSymbolTableRecord
100
AcDbRegAppTableRecord
  2
DCO15
 70
     0
  0
APPID
  5
6C5
330
9
100
AcDbSymbolTableRecord
100
AcDbRegAppTableRecord
  2
ITEMNAME
 70
     0
  0
APPID
  5
6C6
330
9
100
AcDbSymbolTableRecord
100
AcDbRegAppTableRecord
  2
GRADE_0
 70
     0
  0
APPID
  5
9AF
330
9
100
AcDbSymbolTableRecord
100
AcDbRegAppTableRecord
  2
CONTENTBLOCKICON
 70
     0
  0
ENDTAB
  0
TABLE
  2
DIMSTYLE
  5
A
330
0
100
AcDbSymbolTable
 70
     5
  0
DIMSTYLE
105
725
102
{ACAD_REACTORS
330
7FB
102
}
330
A
100
AcDbSymbolTableRecord
100
AcDbDimStyleTableRecord
  2
BIGT
 70
     0
  3

  4

  5

  6
OPEN
  7
OPEN
 40
1.0
 41
2.23
 42
0.5
 43
2.5
 44
1.0
 45
0.0
 46
0.0
 47
0.0
 48
0.0
140
2.8
141
0.0
142
0.0
143
25.4
144
1.0
145
0.0
146
1.0
147
1.0
 71
     0
 72
     0
 73
     0
 74
     0
 75
     0
 76
     0
 77
     3
 78
     8
170
     0
171
     2
172
     1
173
     1
174
     1
175
     0
176
   256
177
   256
178
    40
270
     2
271
     3
272
     3
273
     2
274
     2
340
10
275
     0
280
     0
281
     0
282
     0
283
     1
284
     8
285
     0
286
     0
287
     3
288
     0
  0
DIMSTYLE
105
7E8
102
{ACAD_REACTORS
330
7FC
330
ACC
330
AED
330
B78
102
}
330
A
100
AcDbSymbolTableRecord
100
AcDbDimStyleTableRecord
  2
BIGT$0
 70
     0
  3

  4
"
  5
OPEN
  6

  7

 40
1.0
 41
2.23
 42
0.5
 43
7.0
 44
1.0
 45
0.0
 46
0.0
 47
0.1
 48
0.1
140
3.0
141
0.0
142
0.0
143
0.0393701
144
1.0
145
0.0
146
0.71
147
1.0
 71
     0
 72
     0
 73
     0
 74
     0
 75
     0
 76
     0
 77
     3
 78
     8
170
     0
171
     2
172
     1
173
     0
174
     0
175
     0
176
     3
177
     3
178
    40
270
     2
271
     3
272
     3
273
     2
274
     2
340
10
275
     0
280
     0
281
     0
282
     0
283
     1
284
     8
285
     0
286
     0
287
     3
288
     0
  0
ENDTAB
  0
TABLE
  2
BLOCK_RECORD
  5
1
330
0
100
AcDbSymbolTable
 70
    16
  0
BLOCK_RECORD
  5
1A
102
{ACAD_XDICTIONARY
360
9AD
102
}
330
1
100
AcDbSymbolTableRecord
100
AcDbBlockTableRecord
  2
*MODEL_SPACE
  0
BLOCK_RECORD
  5
17
102
{ACAD_XDICTIONARY
360
9AB
102
}
330
1
100
AcDbSymbolTableRecord
100
AcDbBlockTableRecord
  2
*PAPER_SPACE
  0
BLOCK_RECORD
  5
594
330
1
100
AcDbSymbolTableRecord
100
AcDbBlockTableRecord
  2
_OPEN
  0
BLOCK_RECORD
  5
6E3
330
1
100
AcDbSymbolTableRecord
100
AcDbBlockTableRecord
  2
矢印なし
  0
BLOCK_RECORD
  5
762
330
1
100
AcDbSymbolTableRecord
100
AcDbBlockTableRecord
  2
1
1001
CONTENTBLOCKICON
1071
        0
1004
2800000020000000200000000100080000000000000400000000000000000000000000000000000000000000000080000080000000808000800000008000800080800000C0C0C000C0DCC000F0CAA6000020400000206000002080000020A0000020C0000020E00000400000004020000040400000406000004080000040A0
1004
000040C0000040E00000600000006020000060400000606000006080000060A0000060C0000060E00000800000008020000080400000806000008080000080A0000080C0000080E00000A0000000A0200000A0400000A0600000A0800000A0A00000A0C00000A0E00000C0000000C0200000C0400000C0600000C0800000C0
1004
A00000C0C00000C0E00000E0000000E0200000E0400000E0600000E0800000E0A00000E0C00000E0E00040000000400020004000400040006000400080004000A0004000C0004000E00040200000402020004020400040206000402080004020A0004020C0004020E000404000004040200040404000404060004040800040
1004
40A0004040C0004040E00040600000406020004060400040606000406080004060A0004060C0004060E00040800000408020004080400040806000408080004080A0004080C0004080E00040A0000040A0200040A0400040A0600040A0800040A0A00040A0C00040A0E00040C0000040C0200040C0400040C0600040C08000
1004
40C0A00040C0C00040C0E00040E0000040E0200040E0400040E0600040E0800040E0A00040E0C00040E0E00080000000800020008000400080006000800080008000A0008000C0008000E00080200000802020008020400080206000802080008020A0008020C0008020E00080400000804020008040400080406000804080
1004
008040A0008040C0008040E00080600000806020008060400080606000806080008060A0008060C0008060E00080800000808020008080400080806000808080008080A0008080C0008080E00080A0000080A0200080A0400080A0600080A0800080A0A00080A0C00080A0E00080C0000080C0200080C0400080C0600080C0
1004
800080C0A00080C0C00080C0E00080E0000080E0200080E0400080E0600080E0800080E0A00080E0C00080E0E000C0000000C0002000C0004000C0006000C0008000C000A000C000C000C000E000C0200000C0202000C0204000C0206000C0208000C020A000C020C000C020E000C0400000C0402000C0404000C0406000C0
1004
408000C040A000C040C000C040E000C0600000C0602000C0604000C0606000C0608000C060A000C060C000C060E000C0800000C0802000C0804000C0806000C0808000C080A000C080C000C080E000C0A00000C0A02000C0A04000C0A06000C0A08000C0A0A000C0A0C000C0A0E000C0C00000C0C02000C0C04000C0C06000
1004
C0C08000C0C0A000F0FBFF00A4A0A000808080000000FF0000FF000000FFFF00FF000000FF00FF00FFFF0000FFFFFF0000000000000000000000000000000000000000000000000000000000000000000000000000000000000000000000000000000000000000000000000000000000000000000000000000000000000000
1004
00000000000000000000000000000000000000000000000000000000000000000000000000000000000000000000000000000000000000000000000000000000000000000000000000000000000000000000000000000000000000000000000000000000000000000000000000000000000000000000000000000000000000
1004
0000000000000000000000000000000000000000000000000000000000000000000000000000000000000000000000000000000000000000000000000000000000000000000000000000000000000000000000000000000000FEFEFEFEFEFEFE00000000000000000000000000000000000000000000000000FE0000FEFEE7
1004
FE0000000000000000000000000000000000000000000000FEFEFE0000E7E7E7FE0000000000000000000000000000000000000000FEFEFE0000E70000E7E7E7FEFEFEFEFEFEFEFEFEFEFEFEFEFEFEFEFE00000000FE00000000E70000E7E7E7E700000000000000000000FEE7000000FE00000000FE00000000E70000E7E7
1004
E7E700000000000000000000E7E7000000FE00000000FE00000000E70000E7E7E7E700000000000000000000E7E7000000FE000000FBFEFBFBFBFBE7FBFBE7E7E7E7FBFBFBFAFBFBFBE7FBE7E7E7FBFBFBE7FB000000FE00000000E70000E7E7E7E7E7E7E7FAFAFAFAE7E7E7E7E7E7E7E7E700000000FE00000000E70000E7
1004
E7E7E700000000000000000000FEE7E7E700FE00000000FEFEFE0000E70000E7E7E7E7FEFEFEFEFEFEFEFEFEFEFEFEFEFEFEFE00000000000000FEFEFE0000E7E7E7E700000000000000000000000000000000000000000000000000FE0000FEFEE7E700000000000000000000000000000000000000000000000000FEFEFE
1004
FEFEFEFE000000000000000000000000000000000000000000000000000000000000000000000000000000000000000000000000000000000000000000000000000000000000000000000000000000000000000000000000000000000000000000000000000000000000000000000000000000000000000000000000000000
1004
00000000000000000000000000000000000000000000000000000000000000000000000000000000000000000000000000000000000000000000000000000000000000000000000000000000000000000000000000000000000000000000000000000000000000000000000000000000000000000000000000000000000000
1004
0000000000000000000000000000000000000000000000000000000000000000000000000000000000000000000000000000000000000000
  0
BLOCK_RECORD
  5
7B7
330
1
100
AcDbSymbolTableRecord
100
AcDbBlockTableRecord
  2
_NONE
  0
BLOCK_RECORD
  5
7FF
330
1
100
AcDbSymbolTableRecord
100
AcDbBlockTableRecord
  2
*D4
  0
BLOCK_RECORD
  5
80B
330
1
100
AcDbSymbolTableRecord
100
AcDbBlockTableRecord
  2
*D5
  0
BLOCK_RECORD
  5
AFD
330
1
100
AcDbSymbolTableRecord
100
AcDbBlockTableRecord
  2
*D12
  0
BLOCK_RECORD
  5
B09
330
1
100
AcDbSymbolTableRecord
100
AcDbBlockTableRecord
  2
*D13
  0
BLOCK_RECORD
  5
B79
330
1
100
AcDbSymbolTableRecord
100
AcDbBlockTableRecord
  2
*D15
  0
ENDTAB
  0
ENDSEC
  0
SECTION
  2
BLOCKS
  0
BLOCK
  5
1B
330
1A
100
AcDbEntity
  8
0
100
AcDbBlockBegin
  2
*MODEL_SPACE
 70
     0
 10
0.0
 20
0.0
 30
0.0
  3
*MODEL_SPACE
  1

  0
ENDBLK
  5
1C
330
1A
100
AcDbEntity
  8
0
100
AcDbBlockEnd
  0
BLOCK
  5
18
330
17
100
AcDbEntity
 67
     1
  8
0
100
AcDbBlockBegin
  2
*PAPER_SPACE
 70
     0
 10
0.0
 20
0.0
 30
0.0
  3
*PAPER_SPACE
  1

  0
ENDBLK
  5
19
330
17
100
AcDbEntity
 67
     1
  8
0
100
AcDbBlockEnd
  0
BLOCK
  5
598
330
594
100
AcDbEntity
  8
0
100
AcDbBlockBegin
  2
_OPEN
 70
     0
 10
0.0
 20
0.0
 30
0.0
  3
_OPEN
  1

  0
LINE
  5
595
330
594
100
AcDbEntity
  8
0
  6
BYBLOCK
 62
     0
100
AcDbLine
 10
-1.0
 20
0.16666667
 30
0.0
 11
0.0
 21
0.0
 31
0.0
  0
LINE
  5
596
330
594
100
AcDbEntity
  8
0
  6
BYBLOCK
 62
     0
100
AcDbLine
 10
-1.0
 20
-0.16666667
 30
0.0
 11
0.0
 21
0.0
 31
0.0
  0
LINE
  5
597
330
594
100
AcDbEntity
  8
0
  6
BYBLOCK
 62
     0
100
AcDbLine
 10
0.0
 20
0.0
 30
0.0
 11
-1.0
 21
0.0
 31
0.0
  0
ENDBLK
  5
599
330
594
100
AcDbEntity
  8
0
100
AcDbBlockEnd
  0
BLOCK
  5
6E4
330
6E3
100
AcDbEntity
  8
0
100
AcDbBlockBegin
  2
矢印なし
 70
     0
 10
0.0
 20
0.0
 30
0.0
  3
矢印なし
  1

  0
ENDBLK
  5
6E5
330
6E3
100
AcDbEntity
  8
0
100
AcDbBlockEnd
  0
BLOCK
  5
7B5
330
762
100
AcDbEntity
  8
0
100
AcDbBlockBegin
  2
1
 70
     0
 10
0.0
 20
0.0
 30
0.0
  3
1
  1

  0
LINE
  5
B85
330
762
100
AcDbEntity
  8
241
  6
HIDDEN2
100
AcDbLine
 10
67.21808901
 20
5.20000381
 30
0.0
 11
27.0
 21
5.20000381
 31
0.0
  0
LINE
  5
B86
330
762
100
AcDbEntity
  8
240
  6
CONTINUOUS
100
AcDbLine
 10
36.0
 20
14.75000016
 30
0.0
 11
77.61802683
 21
14.75000016
 31
0.0
1001
GRPNAME
1000
PASTMD0R
  0
LINE
  5
B87
330
762
100
AcDbEntity
  8
240
  6
CONTINUOUS
100
AcDbLine
 10
36.0
 20
-14.74999983
 30
0.0
 11
77.61802683
 21
-14.74999983
 31
0.0
1001
GRPNAME
1000
PASTMD0R
  0
LINE
  5
B88
330
762
100
AcDbEntity
  8
242
  6
HIDDEN2
100
AcDbLine
 10
45.21808901
 20
5.50000381
 30
0.0
 11
67.21808901
 21
5.50000381
 31
0.0
  0
LINE
  5
B89
330
762
100
AcDbEntity
  8
245
  6
CENTER2
100
AcDbLine
 10
-26.0
 20
0.0
 30
0.0
 11
106.0
 21
0.0
 31
0.0
  0
LINE
  5
B8A
330
762
100
AcDbEntity
  8
240
  6
CONTINUOUS
100
AcDbLine
 10
26.0
 20
30.5
 30
0.0
 11
26.0
 21
24.75000016
 31
0.0
  0
LINE
  5
B8B
330
762
100
AcDbEntity
  8
240
  6
CONTINUOUS
100
AcDbLine
 10
19.875
 20
28.89759526
 30
0.0
 11
21.37749907
 21
31.5
 31
0.0
  0
LINE
  5
B8C
330
762
100
AcDbEntity
  8
240
  6
CONTINUOUS
100
AcDbLine
 10
16.125
 20
28.89759526
 30
0.0
 11
14.62250093
 21
31.5
 31
0.0
  0
LINE
  5
B8D
330
762
100
AcDbEntity
  8
241
  6
CONTINUOUS
100
AcDbLine
 10
21.37749907
 20
31.5
 30
0.0
 11
21.37749907
 21
0.0
 31
0.0
  0
LINE
  5
B8E
330
762
100
AcDbEntity
  8
241
  6
CONTINUOUS
100
AcDbLine
 10
14.62250093
 20
31.5
 30
0.0
 11
14.62250093
 21
0.0
 31
0.0
  0
LINE
  5
B8F
330
762
100
AcDbEntity
  8
240
  6
CONTINUOUS
100
AcDbLine
 10
0.0
 20
30.5
 30
0.0
 11
0.0
 21
19.15
 31
0.0
  0
LINE
  5
B90
330
762
100
AcDbEntity
  8
245
  6
CENTER2
100
AcDbLine
 10
18.0
 20
-31.5
 30
0.0
 11
18.0
 21
31.5
 31
0.0
  0
LINE
  5
B91
330
762
100
AcDbEntity
  8
240
  6
CONTINUOUS
100
AcDbLine
 10
1.0
 20
-31.5
 30
0.0
 11
14.62250093
 21
-31.5
 31
0.0
  0
LINE
  5
B92
330
762
100
AcDbEntity
  8
241
  6
CONTINUOUS
100
AcDbLine
 10
-2.0
 20
-19.15
 30
0.0
 11
-2.0
 21
0.0
 31
0.0
  0
LINE
  5
B93
330
762
100
AcDbEntity
  8
241
100
AcDbLine
 10
0.0
 20
-19.15
 30
0.0
 11
0.0
 21
0.0
 31
0.0
  0
LINE
  5
B94
330
762
100
AcDbEntity
  8
240
  6
CONTINUOUS
100
AcDbLine
 10
-25.0
 20
-17.04875078
 30
0.0
 11
-25.0
 21
0.0
 31
0.0
  0
LINE
  5
B95
330
762
100
AcDbEntity
  8
240
  6
CONTINUOUS
100
AcDbLine
 10
-2.0
 20
-19.15
 30
0.0
 11
-24.04993762
 21
-18.04750312
 31
0.0
  0
ARC
  5
B96
330
762
100
AcDbEntity
  8
240
  6
CONTINUOUS
100
AcDbCircle
 10
-24.0
 20
-17.04875078
 30
0.0
 40
1.0
100
AcDbArc
 50
180.0
 51
267.13759477
  0
ARC
  5
B97
330
762
100
AcDbEntity
  8
240
  6
CONTINUOUS
100
AcDbCircle
 10
1.0
 20
-30.5
 30
0.0
 40
1.0
100
AcDbArc
 50
180.0
 51
270.0
  0
LINE
  5
B98
330
762
100
AcDbEntity
  8
240
  6
CONTINUOUS
100
AcDbLine
 10
0.0
 20
-30.5
 30
0.0
 11
0.0
 21
-19.15
 31
0.0
  0
LINE
  5
B99
330
762
100
AcDbEntity
  8
240
100
AcDbLine
 10
-2.0
 20
-19.15
 30
0.0
 11
0.0
 21
-19.15
 31
0.0
  0
LINE
  5
B9A
330
762
100
AcDbEntity
  8
240
  6
CONTINUOUS
100
AcDbLine
 10
-2.0
 20
19.15
 30
0.0
 11
-24.04993762
 21
18.04750312
 31
0.0
  0
LINE
  5
B9B
330
762
100
AcDbEntity
  8
240
  6
CONTINUOUS
100
AcDbLine
 10
-25.0
 20
17.04875078
 30
0.0
 11
-25.0
 21
0.0
 31
0.0
  0
ARC
  5
B9C
330
762
100
AcDbEntity
  8
240
  6
CONTINUOUS
100
AcDbCircle
 10
-24.0
 20
17.04875078
 30
0.0
 40
0.9999999999999916
100
AcDbArc
 50
92.86240523
 51
180.0
  0
LINE
  5
B9D
330
762
100
AcDbEntity
  8
241
100
AcDbLine
 10
0.0
 20
19.15
 30
0.0
 11
0.0
 21
0.0
 31
0.0
  0
LINE
  5
B9E
330
762
100
AcDbEntity
  8
241
  6
CONTINUOUS
100
AcDbLine
 10
-2.0
 20
19.15
 30
0.0
 11
-2.0
 21
0.0
 31
0.0
  0
LINE
  5
B9F
330
762
100
AcDbEntity
  8
240
100
AcDbLine
 10
-2.0
 20
19.15
 30
0.0
 11
0.0
 21
19.15
 31
0.0
  0
LINE
  5
BA0
330
762
100
AcDbEntity
  8
241
100
AcDbLine
 10
26.0
 20
-24.74999983
 30
0.0
 11
26.0
 21
0.0
 31
0.0
  0
LINE
  5
BA1
330
762
100
AcDbEntity
  8
241
  6
CONTINUOUS
100
AcDbLine
 10
14.62250093
 20
-31.5
 30
0.0
 11
14.62250093
 21
0.0
 31
0.0
  0
LINE
  5
BA2
330
762
100
AcDbEntity
  8
241
  6
CONTINUOUS
100
AcDbLine
 10
21.37749907
 20
-31.5
 30
0.0
 11
21.37749907
 21
0.0
 31
0.0
  0
LINE
  5
BA3
330
762
100
AcDbEntity
  8
241
  6
CONTINUOUS
100
AcDbLine
 10
16.125
 20
-27.5
 30
0.0
 11
16.125
 21
0.0
 31
0.0
  0
LINE
  5
BA4
330
762
100
AcDbEntity
  8
241
  6
CONTINUOUS
100
AcDbLine
 10
19.875
 20
-27.5
 30
0.0
 11
19.875
 21
0.0
 31
0.0
  0
ARC
  5
BA5
330
762
100
AcDbEntity
  8
240
  6
CONTINUOUS
100
AcDbCircle
 10
36.0
 20
-24.74999983
 30
0.0
 40
10.0
100
AcDbArc
 50
90.0
 51
180.0
  0
LINE
  5
BA6
330
762
100
AcDbEntity
  8
240
  6
CONTINUOUS
100
AcDbLine
 10
16.125
 20
-27.5
 30
0.0
 11
19.875
 21
-27.5
 31
0.0
  0
LINE
  5
BA7
330
762
100
AcDbEntity
  8
240
  6
CONTINUOUS
100
AcDbLine
 10
16.125
 20
-28.89759526
 30
0.0
 11
14.62250093
 21
-31.5
 31
0.0
  0
LINE
  5
BA8
330
762
100
AcDbEntity
  8
240
100
AcDbLine
 10
16.125
 20
-28.89759526
 30
0.0
 11
16.125
 21
-27.5
 31
0.0
  0
LINE
  5
BA9
330
762
100
AcDbEntity
  8
240
  6
CONTINUOUS
100
AcDbLine
 10
26.0
 20
-30.5
 30
0.0
 11
26.0
 21
-24.74999983
 31
0.0
  0
LINE
  5
BAA
330
762
100
AcDbEntity
  8
240
  6
CONTINUOUS
100
AcDbLine
 10
21.37749907
 20
-31.5
 30
0.0
 11
25.0
 21
-31.5
 31
0.0
  0
LINE
  5
BAB
330
762
100
AcDbEntity
  8
240
  6
CONTINUOUS
100
AcDbLine
 10
19.875
 20
-28.89759526
 30
0.0
 11
21.37749907
 21
-31.5
 31
0.0
  0
LINE
  5
BAC
330
762
100
AcDbEntity
  8
240
100
AcDbLine
 10
19.875
 20
-28.89759526
 30
0.0
 11
19.875
 21
-27.5
 31
0.0
  0
ARC
  5
BAD
330
762
100
AcDbEntity
  8
240
  6
CONTINUOUS
100
AcDbCircle
 10
25.0
 20
-30.5
 30
0.0
 40
1.0
100
AcDbArc
 50
270.0
 51
0.0
  0
ARC
  5
BAE
330
762
100
AcDbEntity
  8
240
  6
CONTINUOUS
100
AcDbCircle
 10
36.0
 20
24.75000016
 30
0.0
 40
10.0
100
AcDbArc
 50
180.0
 51
270.0
  0
LINE
  5
BAF
330
762
100
AcDbEntity
  8
241
100
AcDbLine
 10
26.0
 20
24.74999983
 30
0.0
 11
26.0
 21
0.0
 31
0.0
  0
LINE
  5
BB0
330
762
100
AcDbEntity
  8
241
  6
CONTINUOUS
100
AcDbLine
 10
19.875
 20
27.5
 30
0.0
 11
19.875
 21
0.0
 31
0.0
  0
LINE
  5
BB1
330
762
100
AcDbEntity
  8
241
  6
CONTINUOUS
100
AcDbLine
 10
16.125
 20
27.5
 30
0.0
 11
16.125
 21
0.0
 31
0.0
  0
LINE
  5
BB2
330
762
100
AcDbEntity
  8
240
  6
CONTINUOUS
100
AcDbLine
 10
16.125
 20
27.5
 30
0.0
 11
19.875
 21
27.5
 31
0.0
  0
LINE
  5
BB3
330
762
100
AcDbEntity
  8
240
100
AcDbLine
 10
16.125
 20
28.89759526
 30
0.0
 11
16.125
 21
27.5
 31
0.0
  0
LINE
  5
BB4
330
762
100
AcDbEntity
  8
240
100
AcDbLine
 10
19.875
 20
28.89759526
 30
0.0
 11
19.875
 21
27.5
 31
0.0
  0
LINE
  5
BB5
330
762
100
AcDbEntity
  8
242
  6
HIDDEN2
100
AcDbLine
 10
45.21808901
 20
5.50000381
 30
0.0
 11
45.21808901
 21
0.00000381
 31
0.0
  0
LINE
  5
BB6
330
762
100
AcDbEntity
  8
240
  6
CONTINUOUS
100
AcDbLine
 10
1.0
 20
31.5
 30
0.0
 11
14.62250093
 21
31.5
 31
0.0
  0
ARC
  5
BB7
330
762
100
AcDbEntity
  8
240
  6
CONTINUOUS
100
AcDbCircle
 10
1.0
 20
30.5
 30
0.0
 40
1.0
100
AcDbArc
 50
90.0
 51
180.0
  0
LINE
  5
BB8
330
762
100
AcDbEntity
  8
240
  6
CONTINUOUS
100
AcDbLine
 10
21.37749907
 20
31.5
 30
0.0
 11
25.0
 21
31.5
 31
0.0
  0
ARC
  5
BB9
330
762
100
AcDbEntity
  8
240
  6
CONTINUOUS
100
AcDbCircle
 10
25.0
 20
30.5
 30
0.0
 40
1.0
100
AcDbArc
 50
0.0
 51
90.0
  0
LINE
  5
BBA
330
762
100
AcDbEntity
  8
241
  6
HIDDEN2
100
AcDbLine
 10
81.20000544
 20
12.49999253
 30
0.0
 11
82.21800318
 21
12.49999253
 31
0.0
1001
GRPNAME
1000
PASTMD0K
  0
ARC
  5
BBB
330
762
100
AcDbEntity
  8
240
  6
CONTINUOUS
100
AcDbCircle
 10
81.70000544
 20
14.65000747
 30
0.0
 40
0.5
100
AcDbArc
 50
89.99999999
 51
179.99999999
1001
GRPNAME
1000
PASTMD0L
  0
LINE
  5
BBC
330
762
100
AcDbEntity
  8
241
  6
HIDDEN2
100
AcDbLine
 10
74.9963769
 20
5.89566056
 30
0.0
 11
97.39637747
 21
8.25000016
 31
0.0
1001
GRPNAME
1000
PASTMD0K
  0
ARC
  5
BBD
330
762
100
AcDbEntity
  8
240
  6
CONTINUOUS
100
AcDbCircle
 10
81.70000544
 20
-14.64999984
 30
0.0
 40
0.5
100
AcDbArc
 50
180.00000008
 51
270.00000008
1001
GRPNAME
1000
PASTMD0L
  0
LINE
  5
BBE
330
762
100
AcDbEntity
  8
241
  6
HIDDEN2
100
AcDbLine
 10
74.9963769
 20
5.00000381
 30
0.0
 11
101.99637594
 21
5.00000381
 31
0.0
1001
GRPNAME
1000
PASTMD0R
  0
LINE
  5
BBF
330
762
100
AcDbEntity
  8
241
100
AcDbLine
 10
81.20000544
 20
-12.49999221
 30
0.0
 11
81.20000544
 21
0.0
 31
0.0
  0
LINE
  5
BC0
330
762
100
AcDbEntity
  8
241
100
AcDbLine
 10
78.11802683
 20
-12.49999221
 30
0.0
 11
78.11802683
 21
0.0
 31
0.0
  0
LINE
  5
BC1
330
762
100
AcDbEntity
  8
240
  6
CONTINUOUS
100
AcDbLine
 10
78.11802683
 20
-12.49999221
 30
0.0
 11
81.20000544
 21
-12.49999221
 31
0.0
1001
GRPNAME
1000
PASTMD0K
  0
ARC
  5
BC2
330
762
100
AcDbEntity
  8
240
  6
CONTINUOUS
100
AcDbCircle
 10
77.61802683
 20
-14.24999983
 30
0.0
 40
0.5
100
AcDbArc
 50
270.0
 51
0.0
1001
GRPNAME
1000
PASTMD0R
  0
LINE
  5
BC3
330
762
100
AcDbEntity
  8
240
  6
CONTINUOUS
100
AcDbLine
 10
78.11802683
 20
-14.24999983
 30
0.0
 11
78.11802683
 21
-12.49999221
 31
0.0
1001
GRPNAME
1000
PASTMD0K
  0
LINE
  5
BC4
330
762
100
AcDbEntity
  8
240
  6
CONTINUOUS
100
AcDbLine
 10
81.20000544
 20
-14.65000747
 30
0.0
 11
81.20000544
 21
-12.49999253
 31
0.0
1001
GRPNAME
1000
PASTMD0K
  0
LINE
  5
BC5
330
762
100
AcDbEntity
  8
240
  6
CONTINUOUS
100
AcDbLine
 10
81.20000544
 20
14.65000747
 30
0.0
 11
81.20000544
 21
12.49999253
 31
0.0
1001
GRPNAME
1000
PASTMD0K
  0
LINE
  5
BC6
330
762
100
AcDbEntity
  8
240
  6
CONTINUOUS
100
AcDbLine
 10
78.11802683
 20
14.24999983
 30
0.0
 11
78.11802683
 21
12.49999253
 31
0.0
1001
GRPNAME
1000
PASTMD0K
  0
LINE
  5
BC7
330
762
100
AcDbEntity
  8
241
  6
HIDDEN2
100
AcDbLine
 10
67.21808901
 20
6.25000016
 30
0.0
 11
75.21809092
 21
6.25000016
 31
0.0
1001
GRPNAME
1000
PASTMD0K
  0
LINE
  5
BC8
330
762
100
AcDbEntity
  8
241
  6
HIDDEN2
100
AcDbLine
 10
67.21808901
 20
6.25000016
 30
0.0
 11
67.21808901
 21
0.00000381
 31
0.0
1001
GRPNAME
1000
PASTMD0K
  0
LINE
  5
BC9
330
762
100
AcDbEntity
  8
241
  6
HIDDEN2
100
AcDbLine
 10
74.9963769
 20
0.0
 30
0.0
 11
74.9963769
 21
5.89566056
 31
0.0
1001
GRPNAME
1000
PASTMD0K
  0
LINE
  5
BCA
330
762
100
AcDbEntity
  8
241
100
AcDbLine
 10
81.20000544
 20
12.49999221
 30
0.0
 11
81.20000544
 21
0.0
 31
0.0
  0
LINE
  5
BCB
330
762
100
AcDbEntity
  8
241
100
AcDbLine
 10
78.11802683
 20
12.49999221
 30
0.0
 11
78.11802683
 21
0.0
 31
0.0
  0
LINE
  5
BCC
330
762
100
AcDbEntity
  8
241
  6
HIDDEN2
100
AcDbLine
 10
75.21809092
 20
6.25000016
 30
0.0
 11
75.21809092
 21
5.91896455
 31
0.0
1001
GRPNAME
1000
PASTMD0K
  0
LINE
  5
BCD
330
762
100
AcDbEntity
  8
240
  6
CONTINUOUS
100
AcDbLine
 10
78.11802683
 20
12.49999253
 30
0.0
 11
81.20000544
 21
12.49999253
 31
0.0
1001
GRPNAME
1000
PASTMD0K
  0
ARC
  5
BCE
330
762
100
AcDbEntity
  8
240
  6
CONTINUOUS
100
AcDbCircle
 10
77.61802683
 20
14.25000016
 30
0.0
 40
0.5
100
AcDbArc
 50
0.0
 51
90.0
1001
GRPNAME
1000
PASTMD0R
  0
LINE
  5
BCF
330
762
100
AcDbEntity
  8
240
  6
CONTINUOUS
100
AcDbLine
 10
105.0
 20
-14.29999984
 30
0.0
 11
105.0
 21
0.0
 31
0.0
1001
GRPNAME
1000
PASTMD0K
  0
LINE
  5
BD0
330
762
100
AcDbEntity
  8
241
  6
CONTINUOUS
100
AcDbLine
 10
83.20000544
 20
-15.14999984
 30
0.0
 11
83.20000544
 21
0.0
 31
0.0
1001
GRPNAME
1000
PASTMD0P
  0
LINE
  5
BD1
330
762
100
AcDbEntity
  8
241
  6
CONTINUOUS
100
AcDbLine
 10
84.55993964
 20
-14.99999984
 30
0.0
 11
84.55993964
 21
0.0
 31
0.0
1001
GRPNAME
1000
PASTMD0P
  0
LINE
  5
BD2
330
762
100
AcDbEntity
  8
240
  6
CONTINUOUS
100
AcDbLine
 10
83.35000544
 20
-14.99999984
 30
0.0
 11
104.3
 21
-14.99999984
 31
0.0
1001
GRPNAME
1000
PASTMD0K
  0
LINE
  5
BD3
330
762
100
AcDbEntity
  8
240
  6
CONTINUOUS
100
AcDbLine
 10
81.70000544
 20
-15.14999984
 30
0.0
 11
83.20000544
 21
-15.14999984
 31
0.0
1001
GRPNAME
1000
PASTMD0P
  0
LINE
  5
BD4
330
762
100
AcDbEntity
  8
240
100
AcDbLine
 10
83.35000544
 20
-14.99999984
 30
0.0
 11
83.20000544
 21
-15.14999984
 31
0.0
  0
ARC
  5
BD5
330
762
100
AcDbEntity
  8
240
  6
CONTINUOUS
100
AcDbCircle
 10
104.3
 20
-14.29999984
 30
0.0
 40
0.6999999999999887
100
AcDbArc
 50
269.99999997
 51
359.99999997
1001
GRPNAME
1000
PASTMD0L
  0
LINE
  5
BD6
330
762
100
AcDbEntity
  8
240
  6
CONTINUOUS
100
AcDbLine
 10
83.35000511
 20
15.00000016
 30
0.0
 11
104.3
 21
15.00000016
 31
0.0
1001
GRPNAME
1000
PASTMD0K
  0
LINE
  5
BD7
330
762
100
AcDbEntity
  8
241
  6
HIDDEN2
100
AcDbLine
 10
99.49637594
 20
8.25000016
 30
0.0
 11
99.69638052
 21
8.25000016
 31
0.0
1001
GRPNAME
1000
PASTMD0K
  0
LINE
  5
BD8
330
762
100
AcDbEntity
  8
241
  6
CONTINUOUS
100
AcDbLine
 10
84.55993964
 20
14.99999984
 30
0.0
 11
84.55993964
 21
0.0
 31
0.0
1001
GRPNAME
1000
PASTMD0P
  0
LINE
  5
BD9
330
762
100
AcDbEntity
  8
241
  6
CONTINUOUS
100
AcDbLine
 10
83.20000544
 20
15.14999984
 30
0.0
 11
83.20000544
 21
0.0
 31
0.0
1001
GRPNAME
1000
PASTMD0P
  0
LINE
  5
BDA
330
762
100
AcDbEntity
  8
242
  6
HIDDEN2
100
AcDbLine
 10
94.53578939
 20
10.50000016
 30
0.0
 11
86.31800165
 21
10.50000016
 31
0.0
1001
GRPNAME
1000
PASTMD0K
  0
LINE
  5
BDB
330
762
100
AcDbEntity
  8
241
  6
HIDDEN2
100
AcDbLine
 10
94.03578939
 20
11.00000016
 30
0.0
 11
84.31800165
 21
11.00000016
 31
0.0
1001
GRPNAME
1000
PASTMD0K
  0
LINE
  5
BDC
330
762
100
AcDbEntity
  8
242
  6
HIDDEN2
100
AcDbLine
 10
85.45197382
 20
11.00000016
 30
0.0
 11
86.31800165
 21
10.50000016
 31
0.0
1001
GRPNAME
1000
PASTMD0K
  0
LINE
  5
BDD
330
762
100
AcDbEntity
  8
241
  6
HIDDEN2
100
AcDbLine
 10
83.31800165
 20
12.49999253
 30
0.0
 11
84.31800165
 21
12.49999253
 31
0.0
1001
GRPNAME
1000
PASTMD0K
  0
LINE
  5
BDE
330
762
100
AcDbEntity
  8
241
  6
HIDDEN2
100
AcDbLine
 10
82.21800318
 20
11.54999177
 30
0.0
 11
83.31800165
 21
11.54999177
 31
0.0
1001
GRPNAME
1000
PASTMD0K
  0
LINE
  5
BDF
330
762
100
AcDbEntity
  8
241
  6
HIDDEN2
100
AcDbLine
 10
82.21800318
 20
11.54999177
 30
0.0
 11
82.21800318
 21
12.49999253
 31
0.0
1001
GRPNAME
1000
PASTMD0K
  0
LINE
  5
BE0
330
762
100
AcDbEntity
  8
241
  6
HIDDEN2
100
AcDbLine
 10
83.31800165
 20
11.54999177
 30
0.0
 11
83.31800165
 21
12.49999253
 31
0.0
1001
GRPNAME
1000
PASTMD0K
  0
LINE
  5
BE1
330
762
100
AcDbEntity
  8
241
  6
HIDDEN2
100
AcDbLine
 10
84.31800165
 20
11.00000016
 30
0.0
 11
84.31800165
 21
12.49999253
 31
0.0
1001
GRPNAME
1000
PASTMD0K
  0
LINE
  5
BE2
330
762
100
AcDbEntity
  8
241
  6
HIDDEN2
100
AcDbLine
 10
94.03578176
 20
11.00000398
 30
0.0
 11
95.21809378
 21
9.81769578
 31
0.0
1001
GRPNAME
1000
PASTMD0K
  0
LINE
  5
BE3
330
762
100
AcDbEntity
  8
241
  6
HIDDEN2
100
AcDbLine
 10
95.21809378
 20
9.81769578
 30
0.0
 11
95.21809378
 21
8.02105287
 31
0.0
1001
GRPNAME
1000
PASTMD0K
  0
LINE
  5
BE4
330
762
100
AcDbEntity
  8
241
  6
HIDDEN2
100
AcDbLine
 10
97.39637747
 20
7.00000016
 30
0.0
 11
99.49637594
 21
7.00000016
 31
0.0
1001
GRPNAME
1000
PASTMD0K
  0
LINE
  5
BE5
330
762
100
AcDbEntity
  8
241
  6
HIDDEN2
100
AcDbLine
 10
97.39637747
 20
7.00000016
 30
0.0
 11
97.39637747
 21
8.25000016
 31
0.0
1001
GRPNAME
1000
PASTMD0K
  0
LINE
  5
BE6
330
762
100
AcDbEntity
  8
241
  6
HIDDEN2
100
AcDbLine
 10
99.49637594
 20
7.00000016
 30
0.0
 11
99.49637594
 21
8.25000016
 31
0.0
1001
GRPNAME
1000
PASTMD0K
  0
LINE
  5
BE7
330
762
100
AcDbEntity
  8
240
  6
CONTINUOUS
100
AcDbLine
 10
81.70000544
 20
15.15000747
 30
0.0
 11
83.20000544
 21
15.15000747
 31
0.0
1001
GRPNAME
1000
PASTMD0P
  0
LINE
  5
BE8
330
762
100
AcDbEntity
  8
240
100
AcDbLine
 10
83.35000511
 20
15.00000016
 30
0.0
 11
83.20000544
 21
15.14999984
 31
0.0
  0
LINE
  5
BE9
330
762
100
AcDbEntity
  8
240
  6
CONTINUOUS
100
AcDbLine
 10
105.0
 20
14.29999984
 30
0.0
 11
105.0
 21
0.0
 31
0.0
1001
GRPNAME
1000
PASTMD0K
  0
LINE
  5
BEA
330
762
100
AcDbEntity
  8
241
  6
HIDDEN2
100
AcDbLine
 10
101.99637594
 20
0.0
 30
0.0
 11
101.99637594
 21
6.92208878
 31
0.0
1001
GRPNAME
1000
PASTMD0K
  0
LINE
  5
BEB
330
762
100
AcDbEntity
  8
241
  6
HIDDEN2
100
AcDbLine
 10
103.00000426
 20
6.91999833
 30
0.0
 11
105.0
 21
8.07471041
 31
0.0
1001
GRPNAME
1000
PASTMD0K
  0
LINE
  5
BEC
330
762
100
AcDbEntity
  8
241
  6
HIDDEN2
100
AcDbLine
 10
103.00000426
 20
6.91999833
 30
0.0
 11
101.9999999
 21
6.91999833
 31
0.0
1001
GRPNAME
1000
PASTMD0K
  0
LINE
  5
BED
330
762
100
AcDbEntity
  8
241
  6
HIDDEN2
100
AcDbLine
 10
101.99637594
 20
6.92208878
 30
0.0
 11
99.69638052
 21
8.25000016
 31
0.0
1001
GRPNAME
1000
PASTMD0K
  0
ARC
  5
BEE
330
762
100
AcDbEntity
  8
240
  6
CONTINUOUS
100
AcDbCircle
 10
104.3
 20
14.30000016
 30
0.0
 40
0.7000000000000455
100
AcDbArc
 50
0.00000009
 51
90.00000009
1001
GRPNAME
1000
PASTMD0L
  0
ENDBLK
  5
7B6
330
762
100
AcDbEntity
  8
0
100
AcDbBlockEnd
  0
BLOCK
  5
7B8
330
7B7
100
AcDbEntity
  8
0
100
AcDbBlockBegin
  2
_NONE
 70
     0
 10
0.0
 20
0.0
 30
0.0
  3
_NONE
  1

  0
ENDBLK
  5
7B9
330
7B7
100
AcDbEntity
  8
0
100
AcDbBlockEnd
  0
BLOCK
  5
809
330
7FF
100
AcDbEntity
  8
0
100
AcDbBlockBegin
  2
*D4
 70
     1
 10
0.0
 20
0.0
 30
0.0
  3
*D4
  1

  0
LINE
  5
B5B
330
7FF
100
AcDbEntity
  8
250
  6
CONTINUOUS
100
AcDbLine
 10
0.0
 20
31.0
 30
0.0
 11
0.0
 21
50.0
 31
0.0
  0
LINE
  5
B5C
330
7FF
100
AcDbEntity
  8
250
  6
CONTINUOUS
100
AcDbLine
 10
105.0
 20
14.79999663
 30
0.0
 11
105.0
 21
50.0
 31
0.0
  0
LINE
  5
B5D
330
7FF
100
AcDbEntity
  8
250
  6
CONTINUOUS
100
AcDbLine
 10
2.23
 20
49.0
 30
0.0
 11
102.77
 21
49.0
 31
0.0
  0
INSERT
  5
B5E
330
7FF
100
AcDbEntity
  8
250
  6
CONTINUOUS
100
AcDbBlockReference
  2
_OPEN
 10
0.0
 20
49.0
 30
0.0
 41
2.23
 42
2.23
 43
2.23
 50
180.0
  0
INSERT
  5
B5F
330
7FF
100
AcDbEntity
  8
250
  6
CONTINUOUS
100
AcDbBlockReference
  2
_OPEN
 10
105.0
 20
49.0
 30
0.0
 41
2.23
 42
2.23
 43
2.23
  0
MTEXT
  5
B60
330
7FF
100
AcDbEntity
  8
250
  6
CONTINUOUS
 62
    40
100
AcDbMText
 10
53.95400258
 20
51.4
 30
0.0
 40
2.8
 41
0.0
 71
     5
 72
     1
  1
\A1;105
1001
ACAD
1000
MTEXTBEGIN
1070
    73
1070
     1
1070
    44
1040
1.0
1070
    74
1070
     0
1000
MTEXTEND
  0
POINT
  5
B61
330
7FF
100
AcDbEntity
  8
DEFPOINTS
  6
CONTINUOUS
 62
     0
100
AcDbPoint
 10
0.0
 20
30.5
 30
0.0
  0
POINT
  5
B62
330
7FF
100
AcDbEntity
  8
DEFPOINTS
  6
CONTINUOUS
 62
     0
100
AcDbPoint
 10
105.0
 20
14.29999663
 30
0.0
  0
POINT
  5
B63
330
7FF
100
AcDbEntity
  8
DEFPOINTS
  6
CONTINUOUS
 62
     0
100
AcDbPoint
 10
105.0
 20
49.0
 30
0.0
  0
ENDBLK
  5
80A
330
7FF
100
AcDbEntity
  8
0
100
AcDbBlockEnd
  0
BLOCK
  5
815
330
80B
100
AcDbEntity
  8
0
100
AcDbBlockBegin
  2
*D5
 70
     1
 10
0.0
 20
0.0
 30
0.0
  3
*D5
  1

  0
LINE
  5
B6D
330
80B
100
AcDbEntity
  8
250
  6
CONTINUOUS
 62
     3
100
AcDbLine
 10
27.0
 20
5.70000381
 30
0.0
 11
27.0
 21
36.0
 31
0.0
  0
LINE
  5
B6E
330
80B
100
AcDbEntity
  8
250
  6
CONTINUOUS
 62
     3
100
AcDbLine
 10
105.0
 20
14.79999663
 30
0.0
 11
105.0
 21
36.0
 31
0.0
  0
LINE
  5
B6F
330
80B
100
AcDbEntity
  8
250
  6
CONTINUOUS
 62
     3
100
AcDbLine
 10
29.23
 20
35.0
 30
0.0
 11
102.77
 21
35.0
 31
0.0
  0
INSERT
  5
B70
330
80B
100
AcDbEntity
  8
250
  6
CONTINUOUS
 62
     3
100
AcDbBlockReference
  2
_OPEN
 10
27.0
 20
35.0
 30
0.0
 41
2.23
 42
2.23
 43
2.23
 50
180.0
  0
INSERT
  5
B71
330
80B
100
AcDbEntity
  8
250
  6
CONTINUOUS
 62
     3
100
AcDbBlockReference
  2
_OPEN
 10
105.0
 20
35.0
 30
0.0
 41
2.23
 42
2.23
 43
2.23
  0
MTEXT
  5
B72
330
80B
100
AcDbEntity
  8
250
  6
CONTINUOUS
 62
    40
100
AcDbMText
 10
66.0
 20
37.5
 30
0.0
 40
3.0
 41
0.0
 71
     5
 72
     1
  1
\A1;（max.78）
1001
ACAD
1000
MTEXTBEGIN
1070
    73
1070
     1
1070
    44
1040
1.0
1070
    74
1070
     0
1000
MTEXTEND
  0
POINT
  5
B73
330
80B
100
AcDbEntity
  8
DEFPOINTS
  6
CONTINUOUS
 62
     0
100
AcDbPoint
 10
27.0
 20
5.20000381
 30
0.0
  0
POINT
  5
B74
330
80B
100
AcDbEntity
  8
DEFPOINTS
  6
CONTINUOUS
 62
     0
100
AcDbPoint
 10
105.0
 20
14.29999663
 30
0.0
  0
POINT
  5
B75
330
80B
100
AcDbEntity
  8
DEFPOINTS
  6
CONTINUOUS
 62
     0
100
AcDbPoint
 10
105.0
 20
35.0
 30
0.0
  0
ENDBLK
  5
816
330
80B
100
AcDbEntity
  8
0
100
AcDbBlockEnd
  0
BLOCK
  5
B07
330
AFD
100
AcDbEntity
  8
0
100
AcDbBlockBegin
  2
*D12
 70
     1
 10
0.0
 20
0.0
 30
0.0
  3
*D12
  1

  0
LINE
  5
B13
330
AFD
100
AcDbEntity
  8
250
  6
CONTINUOUS
 62
     3
100
AcDbLine
 10
104.8
 20
-15.00000365
 30
0.0
 11
122.0
 21
-15.00000365
 31
0.0
  0
LINE
  5
B14
330
AFD
100
AcDbEntity
  8
250
  6
CONTINUOUS
 62
     3
100
AcDbLine
 10
104.8
 20
14.99999635
 30
0.0
 11
122.0
 21
14.99999635
 31
0.0
  0
LINE
  5
B15
330
AFD
100
AcDbEntity
  8
250
  6
CONTINUOUS
 62
     3
100
AcDbLine
 10
121.0
 20
-12.77000365
 30
0.0
 11
121.0
 21
12.76999635
 31
0.0
  0
INSERT
  5
B16
330
AFD
100
AcDbEntity
  8
250
  6
CONTINUOUS
 62
     3
100
AcDbBlockReference
  2
_OPEN
 10
121.0
 20
-15.00000365
 30
0.0
 41
2.23
 42
2.23
 43
2.23
 50
270.0
  0
INSERT
  5
B17
330
AFD
100
AcDbEntity
  8
250
  6
CONTINUOUS
 62
     3
100
AcDbBlockReference
  2
_OPEN
 10
121.0
 20
14.99999635
 30
0.0
 41
2.23
 42
2.23
 43
2.23
 50
90.0
  0
MTEXT
  5
B18
330
AFD
100
AcDbEntity
  8
250
  6
CONTINUOUS
 62
    40
100
AcDbMText
 10
118.5
 20
0.0
 30
0.0
 40
3.0
 41
0.0
 71
     5
 72
     1
  1
\A1;{\H3;\U+2205}30
 11
0.0
 21
1.0
 31
0.0
1001
ACAD
1000
MTEXTBEGIN
1070
    73
1070
     1
1070
    44
1040
1.0
1070
    74
1070
     0
1000
MTEXTEND
  0
POINT
  5
B19
330
AFD
100
AcDbEntity
  8
DEFPOINTS
  6
CONTINUOUS
 62
     0
100
AcDbPoint
 10
104.3
 20
-15.00000365
 30
0.0
  0
POINT
  5
B1A
330
AFD
100
AcDbEntity
  8
DEFPOINTS
  6
CONTINUOUS
 62
     0
100
AcDbPoint
 10
104.3
 20
14.99999635
 30
0.0
  0
POINT
  5
B1B
330
AFD
100
AcDbEntity
  8
DEFPOINTS
  6
CONTINUOUS
 62
     0
100
AcDbPoint
 10
121.0
 20
14.99999635
 30
0.0
  0
ENDBLK
  5
B08
330
AFD
100
AcDbEntity
  8
0
100
AcDbBlockEnd
  0
BLOCK
  5
B11
330
B09
100
AcDbEntity
  8
0
100
AcDbBlockBegin
  2
*D13
 70
     1
 10
0.0
 20
0.0
 30
0.0
  3
*D13
  1

  0
LINE
  5
B1C
330
B09
100
AcDbEntity
  8
250
  6
CONTINUOUS
 62
     3
100
AcDbLine
 10
102.49637594
 20
5.0
 30
0.0
 11
115.0
 21
5.0
 31
0.0
  0
LINE
  5
B1D
330
B09
100
AcDbEntity
  8
250
  6
CONTINUOUS
 62
     3
100
AcDbLine
 10
114.0
 20
-5.0
 30
0.0
 11
114.0
 21
2.77
 31
0.0
  0
INSERT
  5
B1E
330
B09
100
AcDbEntity
  8
250
  6
CONTINUOUS
 62
     3
100
AcDbBlockReference
  2
_OPEN
 10
114.0
 20
5.0
 30
0.0
 41
2.23
 42
2.23
 43
2.23
 50
90.0
  0
MTEXT
  5
B1F
330
B09
100
AcDbEntity
  8
250
  6
CONTINUOUS
 62
    40
100
AcDbMText
 10
111.5
 20
-1.115
 30
0.0
 40
3.0
 41
0.0
 71
     5
 72
     1
  1
\A1;max.{\H3;\U+2205}10
 11
0.0
 21
1.0
 31
0.0
1001
ACAD
1000
MTEXTBEGIN
1070
    73
1070
     1
1070
    44
1040
1.0
1070
    74
1070
     0
1000
MTEXTEND
  0
POINT
  5
B20
330
B09
100
AcDbEntity
  8
DEFPOINTS
  6
CONTINUOUS
 62
     0
100
AcDbPoint
 10
101.99637594
 20
-5.0
 30
0.0
  0
POINT
  5
B21
330
B09
100
AcDbEntity
  8
DEFPOINTS
  6
CONTINUOUS
 62
     0
100
AcDbPoint
 10
101.99637594
 20
5.0
 30
0.0
  0
POINT
  5
B22
330
B09
100
AcDbEntity
  8
DEFPOINTS
  6
CONTINUOUS
 62
     0
100
AcDbPoint
 10
114.0
 20
5.0
 30
0.0
  0
ENDBLK
  5
B12
330
B09
100
AcDbEntity
  8
0
100
AcDbBlockEnd
  0
BLOCK
  5
B83
330
B79
100
AcDbEntity
  8
0
100
AcDbBlockBegin
  2
*D15
 70
     1
 10
0.0
 20
0.0
 30
0.0
  3
*D15
  1

  0
LINE
  5
B7A
330
B79
100
AcDbEntity
  8
250
  6
CONTINUOUS
 62
     3
100
AcDbLine
 10
26.0
 20
31.0
 30
0.0
 11
26.0
 21
43.0
 31
0.0
  0
LINE
  5
B7B
330
B79
100
AcDbEntity
  8
250
  6
CONTINUOUS
 62
     3
100
AcDbLine
 10
105.0
 20
14.79999984
 30
0.0
 11
105.0
 21
43.0
 31
0.0
  0
LINE
  5
B7C
330
B79
100
AcDbEntity
  8
250
  6
CONTINUOUS
 62
     3
100
AcDbLine
 10
28.23
 20
42.0
 30
0.0
 11
102.77
 21
42.0
 31
0.0
  0
INSERT
  5
B7D
330
B79
100
AcDbEntity
  8
250
  6
CONTINUOUS
 62
     3
100
AcDbBlockReference
  2
_OPEN
 10
26.0
 20
42.0
 30
0.0
 41
2.23
 42
2.23
 43
2.23
 50
180.0
  0
INSERT
  5
B7E
330
B79
100
AcDbEntity
  8
250
  6
CONTINUOUS
 62
     3
100
AcDbBlockReference
  2
_OPEN
 10
105.0
 20
42.0
 30
0.0
 41
2.23
 42
2.23
 43
2.23
  0
MTEXT
  5
B7F
330
B79
100
AcDbEntity
  8
250
  6
CONTINUOUS
 62
    40
100
AcDbMText
 10
65.5
 20
44.5
 30
0.0
 40
3.0
 41
0.0
 71
     5
 72
     1
  1
\A1;79
1001
ACAD
1000
MTEXTBEGIN
1070
    73
1070
     1
1070
    44
1040
1.0
1070
    74
1070
     0
1000
MTEXTEND
  0
POINT
  5
B80
330
B79
100
AcDbEntity
  8
DEFPOINTS
  6
CONTINUOUS
 62
     0
100
AcDbPoint
 10
26.0
 20
30.5
 30
0.0
  0
POINT
  5
B81
330
B79
100
AcDbEntity
  8
DEFPOINTS
  6
CONTINUOUS
 62
     0
100
AcDbPoint
 10
105.0
 20
14.29999984
 30
0.0
  0
POINT
  5
B82
330
B79
100
AcDbEntity
  8
DEFPOINTS
  6
CONTINUOUS
 62
     0
100
AcDbPoint
 10
105.0
 20
42.0
 30
0.0
  0
ENDBLK
  5
B84
330
B79
100
AcDbEntity
  8
0
100
AcDbBlockEnd
  0
ENDSEC
  0
SECTION
  2
ENTITIES
  0
INSERT
  5
6E6
330
1A
100
AcDbEntity
  8
245
100
AcDbBlockReference
  2
矢印なし
 10
175.62382697
 20
90.55123572
 30
0.0
  0
TEXT
  5
7FA
330
1A
100
AcDbEntity
  8
241
100
AcDbText
 10
-25.0
 20
63.0
 30
0.0
 40
5.0
  1
HSK-F63-MEGA10N-105
  7
YOKO
 11
-25.0
 21
63.0
 31
0.0
100
AcDbText
 73
     1
  0
DIMENSION
  5
7FB
330
1A
100
AcDbEntity
  8
250
  6
CONTINUOUS
100
AcDbDimension
  2
*D4
 10
105.0
 20
49.0
 30
0.0
 11
53.95400258
 21
49.0
 31
0.0
 70
   160
  3
BIGT
100
AcDbAlignedDimension
 13
0.0
 23
30.5
 33
0.0
 14
105.0
 24
14.29999663
 34
0.0
100
AcDbRotatedDimension
  0
DIMENSION
  5
7FC
330
1A
100
AcDbEntity
  8
250
  6
CONTINUOUS
100
AcDbDimension
  2
*D5
 10
105.0
 20
35.0
 30
0.0
 11
66.0
 21
35.0
 31
0.0
 70
   160
  1
（max.<>）
  3
BIGT$0
100
AcDbAlignedDimension
 13
27.0
 23
5.20000381
 33
0.0
 14
105.0
 24
14.29999663
 34
0.0
100
AcDbRotatedDimension
  0
LEADER
  5
A45
330
1A
100
AcDbEntity
  8
250
  6
CONTINUOUS
100
AcDbLeader
  3
BIGT
 76
     2
 10
-10.953318
 20
-18.7023341
 30
0.0
 10
-16.34912835
 20
-28.04815178
 30
0.0
1001
ACAD
1000
DSTYLE
1002
{
1070
     6
1000
OPEN
1070
    41
1040
2.0
1070
    42
1040
2.0
1070
    44
1040
2.0
1070
   140
1040
4.0
1002
}
  0
MTEXT
  5
A46
330
1A
100
AcDbEntity
  8
251
  6
CONTINUOUS
100
AcDbMText
 10
-37.81579501
 20
-27.04815178
 30
0.0
 40
2.8
 41
0.0
 71
     7
 72
     1
  1
HSK-F63
  7
YOKO
1001
ITEMNAME
1000
LNSP3
1001
ACAD
1000
MTEXTBEGIN
1070
    73
1070
     1
1070
    44
1040
1.0
1070
    74
1070
     0
1000
MTEXTEND
  0
LINE
  5
A47
330
1A
100
AcDbEntity
  8
250
  6
CONTINUOUS
100
AcDbLine
 10
-16.34912835
 20
-28.04815178
 30
0.0
 11
-40.61579501
 21
-28.04815178
 31
0.0
1001
ITEMNAME
1000
LNSP2
  0
DIMENSION
  5
ACC
330
1A
100
AcDbEntity
  8
250
  6
CONTINUOUS
100
AcDbDimension
  2
*D12
 10
121.0
 20
14.99999635
 30
0.0
 11
121.0
 21
0.0
 31
0.0
 70
   160
  1
{\H3;\U+2205}<>
  3
BIGT$0
100
AcDbAlignedDimension
 13
104.3
 23
-15.00000365
 33
0.0
 14
104.3
 24
14.99999635
 34
0.0
 50
90.0
100
AcDbRotatedDimension
  0
DIMENSION
  5
AED
330
1A
100
AcDbEntity
  8
250
  6
CONTINUOUS
100
AcDbDimension
  2
*D13
 10
114.0
 20
5.0
 30
0.0
 11
114.0
 21
-1.115
 31
0.0
 70
   160
  1
max.{\H3;\U+2205}<>
  3
BIGT$0
100
AcDbAlignedDimension
 13
101.99637594
 23
-5.0
 33
0.0
 14
101.99637594
 24
5.0
 34
0.0
 50
90.0
100
AcDbRotatedDimension
1001
ACAD
1000
DSTYLE
1002
{
1070
     5
1000

1070
   173
1070
     1
1070
     7
1000
OPEN
1070
    75
1070
     1
1070
     6
1000
NONE
1002
}
  0
DIMENSION
  5
B78
330
1A
100
AcDbEntity
  8
250
  6
CONTINUOUS
100
AcDbDimension
  2
*D15
 10
105.0
 20
42.0
 30
0.0
 11
65.5
 21
44.5
 31
0.0
 70
    32
  3
BIGT$0
100
AcDbAlignedDimension
 13
26.0
 23
30.5
 33
0.0
 14
105.0
 24
14.29999984
 34
0.0
100
AcDbRotatedDimension
  0
INSERT
  5
BEF
330
1A
100
AcDbEntity
  8
245
100
AcDbBlockReference
  2
1
 10
0.0
 20
0.0
 30
0.0
  0
VIEWPORT
  5
22
330
17
100
AcDbEntity
 67
     1
  8
0
100
AcDbViewport
 10
261.51769912
 20
148.5
 30
0.0
 40
523.03539823
 41
297.0
 68
     1
 69
     1
1001
ACAD
1000
MVIEW
1002
{
1070
    16
1010
0.0
1020
0.0
1030
0.0
1010
0.0
1020
0.0
1030
1.0
1040
0.0
1040
297.0
1040
261.51769912
1040
148.5
1040
50.0
1040
0.0
1040
0.0
1070
     0
1070
   100
1070
     1
1070
     1
1070
     0
1070
     0
1070
     0
1070
     0
1040
0.0
1040
0.0
1040
0.0
1040
1.0
1040
1.0
1040
10.0
1040
10.0
1070
     0
1002
{
1002
}
1002
}
  0
ENDSEC
  0
SECTION
  2
OBJECTS
  0
DICTIONARY
  5
C
330
0
100
AcDbDictionary
  3
ACAD_GROUP
350
D
  3
ACAD_LAYOUT
350
565
  3
ACAD_MLINESTYLE
350
E
  3
ACAD_PLOTSETTINGS
350
566
  3
ACAD_PLOTSTYLENAME
350
563
  3
ACDBHEADERROUNDTRIPXREC
350
BF1
  3
GRADE_DWG
350
540
  0
DICTIONARY
  5
9AD
330
1A
100
AcDbDictionary
280
     1
  3
ACAD_LAYOUTSELFREF
360
C13
  0
DICTIONARY
  5
9AB
330
17
100
AcDbDictionary
280
     1
  3
ACAD_LAYOUTSELFREF
360
C12
  0
DICTIONARY
  5
D
102
{ACAD_REACTORS
330
C
102
}
330
C
100
AcDbDictionary
  3
*A1
350
6C7
  3
*A2
350
6C8
  3
*A3
350
6D4
  3
*A4
350
6D5
  3
DREC-1
350
5FC
  3
DREC-2
350
654
  3
DREC-3
350
673
  0
DICTIONARY
  5
565
102
{ACAD_REACTORS
330
C
102
}
330
C
100
AcDbDictionary
  0
DICTIONARY
  5
E
102
{ACAD_REACTORS
330
C
102
}
330
C
100
AcDbDictionary
  3
STANDARD
350
13
  0
DICTIONARY
  5
566
102
{ACAD_REACTORS
330
C
102
}
330
C
100
AcDbDictionary
  3
A3_0_5倍_
350
758
  3
A3_1倍_
350
757
  3
A3_1倍__2000_
350
707
  3
A3_2倍_
350
759
  3
A4_0_5倍_
350
755
  3
A4_1倍_
350
754
  3
A4_1倍__2000_
350
708
  3
A4_2倍_
350
756
  0
ACDBDICTIONARYWDFLT
  5
563
102
{ACAD_REACTORS
330
C
102
}
330
C
100
AcDbDictionary
281
     1
  3
Normal
350
564
100
AcDbDictionaryWithDefault
340
564
  0
DICTIONARY
  5
BF1
102
{ACAD_REACTORS
330
C
102
}
330
C
100
AcDbDictionary
  3
CEPSNTYPE
350
BFB
  3
DIMSTYLEDATA
350
BFF
  3
FINGERPRINTGUID
350
BFC
  3
HYPERLINKBASE
350
BF4
  3
INSUNITS
350
BFA
  3
LAYOUTDICT
350
BF6
  3
LWETCUNION
350
BF9
  3
PLOTSETDICT
350
BF7
  3
PLOTSTYLNAMDICT
350
BF8
  3
PSVPSCALE
350
BFE
  3
PUCSBASE
350
C02
  3
PUCSORGBACK
350
C08
  3
PUCSORGBOTTOM
350
C04
  3
PUCSORGFRONT
350
C07
  3
PUCSORGLEFT
350
C05
  3
PUCSORGRIGHT
350
C06
  3
PUCSORGTOP
350
C03
  3
PUCSORTHOREF
350
C00
  3
PUCSORTHOVIEW
350
C01
  3
STYLESHEET
350
BF5
  3
TSTACKALIGN
350
BF2
  3
TSTACKSIZE
350
BF3
  3
UCSBASE
350
C0B
  3
UCSORGBACK
350
C11
  3
UCSORGBOTTOM
350
C0D
  3
UCSORGFRONT
350
C10
  3
UCSORGLEFT
350
C0E
  3
UCSORGRIGHT
350
C0F
  3
UCSORGTOP
350
C0C
  3
UCSORTHOREF
350
C09
  3
UCSORTHOVIEW
350
C0A
  3
VERSIONGUID
350
BFD
  0
DICTIONARY
  5
540
102
{ACAD_REACTORS
330
C
102
}
330
C
100
AcDbDictionary
  3
VERSION
350
560
  0
XRECORD
  5
C13
102
{ACAD_REACTORS
330
9AD
102
}
330
9AD
100
AcDbXrecord
340
1A
  0
XRECORD
  5
C12
102
{ACAD_REACTORS
330
9AB
102
}
330
9AB
100
AcDbXrecord
340
17
  0
GROUP
  5
6C7
102
{ACAD_REACTORS
330
D
102
}
330
D
100
AcDbGroup
300

 70
     0
 71
     1
1001
GRPNAME
1000
DMA00
  0
GROUP
  5
6C8
102
{ACAD_REACTORS
330
D
102
}
330
D
100
AcDbGroup
300

 70
     0
 71
     1
1001
GRPNAME
1000
DMA00
  0
GROUP
  5
6D4
102
{ACAD_REACTORS
330
D
102
}
330
D
100
AcDbGroup
300

 70
     0
 71
     1
1001
GRPNAME
1000
DMA00
  0
GROUP
  5
6D5
102
{ACAD_REACTORS
330
D
102
}
330
D
100
AcDbGroup
300

 70
     0
 71
     1
1001
GRPNAME
1000
DMA00
  0
GROUP
  5
5FC
102
{ACAD_REACTORS
330
D
102
}
330
D
100
AcDbGroup
300

 70
     0
 71
     1
1001
GRPNAME
1000
DREC-
1001
GPARA
1000
xsiz
1000
44.182
1000
ysiz
1000
40.677
1000
angl
1000
0
1000
ctyp
1000
0
1000
csiz
1000
5
1000
lfnt
1000
cont
1000
hcnt
1000
hoff
1000
vcnt
1000
voff
1000
opnt
1000
4
1000
dxpt
1000
0
1000
dypt
1000
0
  0
GROUP
  5
654
102
{ACAD_REACTORS
330
D
102
}
330
D
100
AcDbGroup
300

 70
     0
 71
     1
1001
GRPNAME
1000
DREC-
1001
GPARA
1000
xsiz
1000
54.592
1000
ysiz
1000
53.036
1000
angl
1000
0
1000
ctyp
1000
0
1000
csiz
1000
5
1000
lfnt
1000
cont
1000
hcnt
1000
hoff
1000
vcnt
1000
voff
1000
opnt
1000
4
1000
dxpt
1000
0
1000
dypt
1000
0
  0
GROUP
  5
673
102
{ACAD_REACTORS
330
D
102
}
330
D
100
AcDbGroup
300

 70
     0
 71
     1
1001
GRPNAME
1000
DREC-
1001
GPARA
1000
xsiz
1000
30.363
1000
ysiz
1000
36.175
1000
angl
1000
0
1000
ctyp
1000
0
1000
csiz
1000
5
1000
lfnt
1000
cont
1000
hcnt
1000
hoff
1000
vcnt
1000
voff
1000
opnt
1000
4
1000
dxpt
1000
0
1000
dypt
1000
0
  0
MLINESTYLE
  5
13
102
{ACAD_REACTORS
330
E
102
}
330
E
100
AcDbMlineStyle
  2
STANDARD
 70
     0
  3

 62
     0
 51
90.0
 52
90.0
 71
     2
 49
0.5
 62
   256
  6
BYLAYER
 49
-0.5
 62
   256
  6
BYLAYER
  0
PLOTSETTINGS
  5
758
102
{ACAD_REACTORS
330
566
102
}
330
566
100
AcDbPlotSettings
  1
A3(0.5倍)
  2
\\AWTECPC05\HP DeskJet 1120C
  4
A3
  6

 40
5.95841646
 41
13.49375153
 42
6.04309082
 43
3.67242432
 44
296.92599487
 45
419.94665527
 46
89.96
 47
127.14
 48
0.0
 49
0.0
140
0.0
141
0.0
142
1.0
143
2.0
 70
  1716
 72
     1
 73
     1
 74
     2
  7
big.ctb
 75
    17
147
0.5
148
0.0
149
0.0
  0
PLOTSETTINGS
  5
757
102
{ACAD_REACTORS
330
566
102
}
330
566
100
AcDbPlotSettings
  1
A3(1倍)
  2
\\AWTECPC05\HP DeskJet 1120C
  4
A3
  6

 40
5.95841646
 41
13.49375153
 42
6.04309082
 43
3.67242432
 44
296.92599487
 45
419.94665527
 46
37.46
 47
52.89
 48
0.0
 49
0.0
140
0.0
141
0.0
142
1.0
143
1.0
 70
  1716
 72
     1
 73
     1
 74
     2
  7
big.ctb
 75
    16
147
1.0
148
0.0
149
0.0
  0
PLOTSETTINGS
  5
707
102
{ACAD_REACTORS
330
566
102
}
330
566
100
AcDbPlotSettings
  1
A3(1倍)(2000)
  2
SII LS-1300 (D-SCAN)
  4
User258
  6

 40
3.17499995
 41
3.17499995
 42
3.17498779
 43
3.17498779
 44
419.98898315
 45
296.98950195
 46
58.32
 47
40.32
 48
0.0
 49
0.0
140
0.0
141
0.0
142
1.0
143
1.0
 70
  1716
 72
     1
 73
     0
 74
     2
  7
big.ctb
 75
    16
147
1.0
148
0.0
149
0.0
  0
PLOTSETTINGS
  5
759
102
{ACAD_REACTORS
330
566
102
}
330
566
100
AcDbPlotSettings
  1
A3(2倍)
  2
\\AWTECPC05\HP DeskJet 1120C
  4
A3
  6

 40
5.95841646
 41
13.49375153
 42
6.04309082
 43
3.67242432
 44
296.92599487
 45
419.94665527
 46
-67.54
 47
-95.61
 48
0.0
 49
0.0
140
0.0
141
0.0
142
1.0
143
0.5
 70
  1716
 72
     1
 73
     1
 74
     2
  7
big.ctb
 75
    27
147
2.0
148
0.0
149
0.0
  0
PLOTSETTINGS
  5
755
102
{ACAD_REACTORS
330
566
102
}
330
566
100
AcDbPlotSettings
  1
A4(0.5倍)
  2
\\AWTECPC05\HP DeskJet 1120C
  4
A4
  6

 40
4.18041658
 41
13.49374962
 42
4.18040466
 43
3.92642212
 44
209.97332764
 45
296.92599487
 46
48.31
 47
65.5
 48
0.0
 49
0.0
140
0.0
141
0.0
142
1.0
143
2.0
 70
  1716
 72
     1
 73
     1
 74
     2
  7
big.ctb
 75
    17
147
0.5
148
0.0
149
0.0
  0
PLOTSETTINGS
  5
754
102
{ACAD_REACTORS
330
566
102
}
330
566
100
AcDbPlotSettings
  1
A4(1倍)
  2
\\AWTECPC05\HP DeskJet 1120C
  4
A4
  6

 40
4.18041658
 41
13.49374962
 42
4.18040466
 43
3.92642212
 44
209.97332764
 45
296.92599487
 46
-4.19
 47
-8.75
 48
0.0
 49
0.0
140
0.0
141
0.0
142
1.0
143
1.0
 70
  1716
 72
     1
 73
     1
 74
     2
  7
big.ctb
 75
    16
147
1.0
148
0.0
149
0.0
  0
PLOTSETTINGS
  5
708
102
{ACAD_REACTORS
330
566
102
}
330
566
100
AcDbPlotSettings
  1
A4(1倍)(2000)
  2
SII LS-1300 (D-SCAN)
  4
User259
  6

 40
3.17499995
 41
3.17499995
 42
3.17498779
 43
3.17500305
 44
296.98950195
 45
209.99449158
 46
-3.18
 47
-3.18
 48
0.0
 49
0.0
140
0.0
141
0.0
142
1.0
143
1.0
 70
  1716
 72
     1
 73
     0
 74
     2
  7
big.ctb
 75
    16
147
1.0
148
0.0
149
0.0
  0
PLOTSETTINGS
  5
756
102
{ACAD_REACTORS
330
566
102
}
330
566
100
AcDbPlotSettings
  1
A4(2倍)
  2
\\AWTECPC05\HP DeskJet 1120C
  4
A4
  6

 40
4.18041658
 41
13.49374962
 42
4.18040466
 43
3.92642212
 44
209.97332764
 45
296.92599487
 46
-109.19
 47
-157.25
 48
0.0
 49
0.0
140
0.0
141
0.0
142
1.0
143
0.5
 70
  1716
 72
     1
 73
     1
 74
     2
  7
big.ctb
 75
    27
147
2.0
148
0.0
149
0.0
  0
ACDBPLACEHOLDER
  5
564
102
{ACAD_REACTORS
330
563
102
}
330
563
100
AcDbPlaceHolder
280
     0
  0
XRECORD
  5
BFB
102
{ACAD_REACTORS
330
BF1
102
}
330
BF1
100
AcDbXrecord
 90
        0
  0
XRECORD
  5
BFF
102
{ACAD_REACTORS
330
BF1
102
}
330
BF1
100
AcDbXrecord
1000
DSTYLE
1002
{
1070
   341
340
594
1070
   343
340
594
1070
   344
340
594
1002
}
  0
XRECORD
  5
BFC
102
{ACAD_REACTORS
330
BF1
102
}
330
BF1
100
AcDbXrecord
  1
{51294030-9CB4-11D3-8E18-00A0C925D94D}
  0
XRECORD
  5
BF4
102
{ACAD_REACTORS
330
BF1
102
}
330
BF1
100
AcDbXrecord
  1

  0
XRECORD
  5
BFA
102
{ACAD_REACTORS
330
BF1
102
}
330
BF1
100
AcDbXrecord
 90
        0
  0
XRECORD
  5
BF6
102
{ACAD_REACTORS
330
BF1
102
}
330
BF1
100
AcDbXrecord
340
565
  0
XRECORD
  5
BF9
102
{ACAD_REACTORS
330
BF1
102
}
330
BF1
100
AcDbXrecord
 90
    10781
  0
XRECORD
  5
BF7
102
{ACAD_REACTORS
330
BF1
102
}
330
BF1
100
AcDbXrecord
340
566
  0
XRECORD
  5
BF8
102
{ACAD_REACTORS
330
BF1
102
}
330
BF1
100
AcDbXrecord
340
563
  0
XRECORD
  5
BFE
102
{ACAD_REACTORS
330
BF1
102
}
330
BF1
100
AcDbXrecord
 40
0.0
  0
XRECORD
  5
C02
102
{ACAD_REACTORS
330
BF1
102
}
330
BF1
100
AcDbXrecord
340
0
  0
XRECORD
  5
C08
102
{ACAD_REACTORS
330
BF1
102
}
330
BF1
100
AcDbXrecord
 10
0.0
 20
0.0
 30
0.0
  0
XRECORD
  5
C04
102
{ACAD_REACTORS
330
BF1
102
}
330
BF1
100
AcDbXrecord
 10
0.0
 20
0.0
 30
0.0
  0
XRECORD
  5
C07
102
{ACAD_REACTORS
330
BF1
102
}
330
BF1
100
AcDbXrecord
 10
0.0
 20
0.0
 30
0.0
  0
XRECORD
  5
C05
102
{ACAD_REACTORS
330
BF1
102
}
330
BF1
100
AcDbXrecord
 10
0.0
 20
0.0
 30
0.0
  0
XRECORD
  5
C06
102
{ACAD_REACTORS
330
BF1
102
}
330
BF1
100
AcDbXrecord
 10
0.0
 20
0.0
 30
0.0
  0
XRECORD
  5
C03
102
{ACAD_REACTORS
330
BF1
102
}
330
BF1
100
AcDbXrecord
 10
0.0
 20
0.0
 30
0.0
  0
XRECORD
  5
C00
102
{ACAD_REACTORS
330
BF1
102
}
330
BF1
100
AcDbXrecord
340
0
  0
XRECORD
  5
C01
102
{ACAD_REACTORS
330
BF1
102
}
330
BF1
100
AcDbXrecord
 70
     0
  0
XRECORD
  5
BF5
102
{ACAD_REACTORS
330
BF1
102
}
330
BF1
100
AcDbXrecord
  1
big.ctb
  0
XRECORD
  5
BF2
102
{ACAD_REACTORS
330
BF1
102
}
330
BF1
100
AcDbXrecord
 90
        1
  0
XRECORD
  5
BF3
102
{ACAD_REACTORS
330
BF1
102
}
330
BF1
100
AcDbXrecord
 90
       70
  0
XRECORD
  5
C0B
102
{ACAD_REACTORS
330
BF1
102
}
330
BF1
100
AcDbXrecord
340
0
  0
XRECORD
  5
C11
102
{ACAD_REACTORS
330
BF1
102
}
330
BF1
100
AcDbXrecord
 10
0.0
 20
0.0
 30
0.0
  0
XRECORD
  5
C0D
102
{ACAD_REACTORS
330
BF1
102
}
330
BF1
100
AcDbXrecord
 10
0.0
 20
0.0
 30
0.0
  0
XRECORD
  5
C10
102
{ACAD_REACTORS
330
BF1
102
}
330
BF1
100
AcDbXrecord
 10
0.0
 20
0.0
 30
0.0
  0
XRECORD
  5
C0E
102
{ACAD_REACTORS
330
BF1
102
}
330
BF1
100
AcDbXrecord
 10
0.0
 20
0.0
 30
0.0
  0
XRECORD
  5
C0F
102
{ACAD_REACTORS
330
BF1
102
}
330
BF1
100
AcDbXrecord
 10
0.0
 20
0.0
 30
0.0
  0
XRECORD
  5
C0C
102
{ACAD_REACTORS
330
BF1
102
}
330
BF1
100
AcDbXrecord
 10
0.0
 20
0.0
 30
0.0
  0
XRECORD
  5
C09
102
{ACAD_REACTORS
330
BF1
102
}
330
BF1
100
AcDbXrecord
340
0
  0
XRECORD
  5
C0A
102
{ACAD_REACTORS
330
BF1
102
}
330
BF1
100
AcDbXrecord
 70
     0
  0
XRECORD
  5
BFD
102
{ACAD_REACTORS
330
BF1
102
}
330
BF1
100
AcDbXrecord
  1
{9EE407D5-EB96-4A01-AEB8-01311B12F923}
  0
XRECORD
  5
560
102
{ACAD_REACTORS
330
540
102
}
330
540
100
AcDbXrecord
  1
2.0.0
  0
ENDSEC
  0
EOF
