  0
SECTION
  2
HEADER
  9
$ACADVER
  1
AC1014
  9
$ACADMAINTVER
 70
     9
  9
$DWGCODEPAGE
  3
ANSI_932
  9
$INSBASE
 10
0.0
 20
0.0
 30
0.0
  9
$EXTMIN
 10
-37.00002133
 20
-24.37678339
 30
-0.00152582
  9
$EXTMAX
 10
78.02302609
 20
54.01344964
 30
0.00000003
  9
$LIMMIN
 10
0.0
 20
0.0
  9
$LIMMAX
 10
297.0
 20
210.0
  9
$ORTHOMODE
 70
     0
  9
$REGENMODE
 70
     1
  9
$FILLMODE
 70
     1
  9
$QTEXTMODE
 70
     0
  9
$MIRRTEXT
 70
     1
  9
$DRAGMODE
 70
     2
  9
$LTSCALE
 40
10.0
  9
$OSMODE
 70
   549
  9
$ATTMODE
 70
     1
  9
$TEXTSIZE
 40
3.0
  9
$TRACEWID
 40
1.0
  9
$TEXTSTYLE
  7
YOKO
  9
$CLAYER
  8
245
  9
$CELTYPE
  6
BYLAYER
  9
$CECOLOR
 62
   256
  9
$CELTSCALE
 40
1.0
  9
$DELOBJ
 70
     1
  9
$DISPSILH
 70
     0
  9
$DIMSCALE
 40
1.0
  9
$DIMASZ
 40
2.23
  9
$DIMEXO
 40
0.5
  9
$DIMDLI
 40
2.5
  9
$DIMRND
 40
0.0
  9
$DIMDLE
 40
0.0
  9
$DIMEXE
 40
1.0
  9
$DIMTP
 40
0.0
  9
$DIMTM
 40
0.0
  9
$DIMTXT
 40
2.8
  9
$DIMCEN
 40
0.0
  9
$DIMTSZ
 40
0.0
  9
$DIMTOL
 70
     0
  9
$DIMLIM
 70
     0
  9
$DIMTIH
 70
     0
  9
$DIMTOH
 70
     0
  9
$DIMSE1
 70
     0
  9
$DIMSE2
 70
     0
  9
$DIMTAD
 70
     3
  9
$DIMZIN
 70
     8
  9
$DIMBLK
  1

  9
$DIMASO
 70
     1
  9
$DIMSHO
 70
     1
  9
$DIMPOST
  1

  9
$DIMAPOST
  1

  9
$DIMALT
 70
     0
  9
$DIMALTD
 70
     2
  9
$DIMALTF
 40
25.4
  9
$DIMLFAC
 40
1.0
  9
$DIMTOFL
 70
     1
  9
$DIMTVP
 40
0.0
  9
$DIMTIX
 70
     1
  9
$DIMSOXD
 70
     0
  9
$DIMSAH
 70
     1
  9
$DIMBLK1
  1
OPEN
  9
$DIMBLK2
  1
OPEN
  9
$DIMSTYLE
  2
BIGT
  9
$DIMCLRD
 70
   256
  9
$DIMCLRE
 70
   256
  9
$DIMCLRT
 70
    40
  9
$DIMTFAC
 40
1.0
  9
$DIMGAP
 40
1.0
  9
$DIMJUST
 70
     0
  9
$DIMSD1
 70
     0
  9
$DIMSD2
 70
     0
  9
$DIMTOLJ
 70
     1
  9
$DIMTZIN
 70
     8
  9
$DIMALTZ
 70
     0
  9
$DIMALTTZ
 70
     0
  9
$DIMFIT
 70
     3
  9
$DIMUPT
 70
     0
  9
$DIMUNIT
 70
     2
  9
$DIMDEC
 70
     3
  9
$DIMTDEC
 70
     3
  9
$DIMALTU
 70
     2
  9
$DIMALTTD
 70
     2
  9
$DIMTXSTY
  7
STANDARD
  9
$DIMAUNIT
 70
     0
  9
$LUNITS
 70
     2
  9
$LUPREC
 70
     3
  9
$SKETCHINC
 40
1.0
  9
$FILLETRAD
 40
3.0
  9
$AUNITS
 70
     0
  9
$AUPREC
 70
     3
  9
$MENU
  1
.
  9
$ELEVATION
 40
0.0
  9
$PELEVATION
 40
0.0
  9
$THICKNESS
 40
0.0
  9
$LIMCHECK
 70
     0
  9
$BLIPMODE
 70
     0
  9
$CHAMFERA
 40
10.0
  9
$CHAMFERB
 40
10.0
  9
$CHAMFERC
 40
0.0
  9
$CHAMFERD
 40
0.0
  9
$SKPOLY
 70
     0
  9
$TDCREATE
 40
2454995.462815752
  9
$TDUPDATE
 40
2455378.438580903
  9
$TDINDWG
 40
0.0151144907
  9
$TDUSRTIMER
 40
0.0151144907
  9
$USRTIMER
 70
     1
  9
$ANGBASE
 50
0.0
  9
$ANGDIR
 70
     0
  9
$PDMODE
 70
     1
  9
$PDSIZE
 40
-5.0
  9
$PLINEWID
 40
0.0
  9
$COORDS
 70
     0
  9
$SPLFRAME
 70
     0
  9
$SPLINETYPE
 70
     6
  9
$SPLINESEGS
 70
     8
  9
$ATTDIA
 70
     0
  9
$ATTREQ
 70
     1
  9
$HANDLING
 70
-16383
  9
$HANDSEED
  5
1B03
  9
$SURFTAB1
 70
     6
  9
$SURFTAB2
 70
     6
  9
$SURFTYPE
 70
     6
  9
$SURFU
 70
     6
  9
$SURFV
 70
     6
  9
$UCSNAME
  2

  9
$UCSORG
 10
0.0
 20
0.0
 30
0.0
  9
$UCSXDIR
 10
1.0
 20
0.0
 30
0.0
  9
$UCSYDIR
 10
0.0
 20
1.0
 30
0.0
  9
$PUCSNAME
  2

  9
$PUCSORG
 10
0.0
 20
0.0
 30
0.0
  9
$PUCSXDIR
 10
1.0
 20
0.0
 30
0.0
  9
$PUCSYDIR
 10
0.0
 20
1.0
 30
0.0
  9
$USERI1
 70
     1
  9
$USERI2
 70
     0
  9
$USERI3
 70
     0
  9
$USERI4
 70
     0
  9
$USERI5
 70
     0
  9
$USERR1
 40
0.0
  9
$USERR2
 40
0.0
  9
$USERR3
 40
0.0
  9
$USERR4
 40
0.0
  9
$USERR5
 40
0.0
  9
$WORLDVIEW
 70
     1
  9
$SHADEDGE
 70
     3
  9
$SHADEDIF
 70
    70
  9
$TILEMODE
 70
     1
  9
$MAXACTVP
 70
    16
  9
$PINSBASE
 10
0.0
 20
0.0
 30
0.0
  9
$PLIMCHECK
 70
     0
  9
$PEXTMIN
 10
1.00000000E+20
 20
1.00000000E+20
 30
1.00000000E+20
  9
$PEXTMAX
 10
-1.00000000E+20
 20
-1.00000000E+20
 30
-1.00000000E+20
  9
$PLIMMIN
 10
0.0
 20
0.0
  9
$PLIMMAX
 10
420.0
 20
297.0
  9
$UNITMODE
 70
     0
  9
$VISRETAIN
 70
     0
  9
$PLINEGEN
 70
     0
  9
$PSLTSCALE
 70
     1
  9
$TREEDEPTH
 70
  3020
  9
$PICKSTYLE
 70
     0
  9
$CMLSTYLE
  2
STANDARD
  9
$CMLJUST
 70
     0
  9
$CMLSCALE
 40
1.0
  9
$PROXYGRAPHICS
 70
     1
  9
$MEASUREMENT
 70
     1
  0
ENDSEC
  0
SECTION
  2
CLASSES
  0
CLASS
  1
XRECORD
  2
AcDbXrecord
  3
AutoCAD 2000
 90
        0
280
     0
281
     0
  0
CLASS
  1
ACDBDICTIONARYWDFLT
  2
AcDbDictionaryWithDefault
  3
AutoCAD 2000
 90
        0
280
     0
281
     0
  0
CLASS
  1
ACDBPLACEHOLDER
  2
AcDbPlaceHolder
  3
AutoCAD 2000
 90
        0
280
     0
281
     0
  0
CLASS
  1
LAYOUT
  2
AcDbLayout
  3
AutoCAD 2000
 90
        0
280
     0
281
     0
  0
CLASS
  1
PLOTSETTINGS
  2
AcDbPlotSettings
  3
AutoCAD 2000
 90
        0
280
     0
281
     0
  0
CLASS
  1
LONG_TRANSACTION
  2
AcDbLongTransaction
  3
AutoCAD 2000
 90
        0
280
     0
281
     0
  0
CLASS
  1
LWPOLYLINE
  2
AcDbPolyline
  3
AutoCAD 2000
 90
        0
280
     0
281
     1
  0
CLASS
  1
HATCH
  2
AcDbHatch
  3
AutoCAD 2000
 90
        0
280
     0
281
     1
  0
CLASS
  1
XRECORD
  2
AcDbXrecord
  3
AutoCAD 2000
 90
        0
280
     0
281
     0
  0
CLASS
  1
LONG_TRANSACTION
  2
AcDbLongTransaction
  3
AutoCAD 2000
 90
        0
280
     0
281
     0
  0
CLASS
  1
LWPOLYLINE
  2
AcDbPolyline
  3
AutoCAD 2000
 90
        0
280
     0
281
     1
  0
CLASS
  1
HATCH
  2
AcDbHatch
  3
AutoCAD 2000
 90
        0
280
     0
281
     1
  0
CLASS
  1
XRECORD
  2
AcDbXrecord
  3
AutoCAD 2000
 90
        0
280
     0
281
     0
  0
CLASS
  1
LONG_TRANSACTION
  2
AcDbLongTransaction
  3
AutoCAD 2000
 90
        0
280
     0
281
     0
  0
CLASS
  1
LWPOLYLINE
  2
AcDbPolyline
  3
AutoCAD 2000
 90
        0
280
     0
281
     1
  0
CLASS
  1
HATCH
  2
AcDbHatch
  3
AutoCAD 2000
 90
        0
280
     0
281
     1
  0
CLASS
  1
XRECORD
  2
AcDbXrecord
  3
AutoCAD 2000
 90
        0
280
     0
281
     0
  0
CLASS
  1
LONG_TRANSACTION
  2
AcDbLongTransaction
  3
AutoCAD 2000
 90
        0
280
     0
281
     0
  0
CLASS
  1
LWPOLYLINE
  2
AcDbPolyline
  3
AutoCAD 2000
 90
        0
280
     0
281
     1
  0
CLASS
  1
HATCH
  2
AcDbHatch
  3
AutoCAD 2000
 90
        0
280
     0
281
     1
  0
CLASS
  1
XRECORD
  2
AcDbXrecord
  3
AutoCAD 2000
 90
        0
280
     0
281
     0
  0
ENDSEC
  0
SECTION
  2
TABLES
  0
TABLE
  2
VPORT
  5
8
330
0
100
AcDbSymbolTable
 70
     4
  0
VPORT
  5
1ADE
330
8
100
AcDbSymbolTableRecord
100
AcDbViewportTableRecord
  2
*ACTIVE
 70
     0
 10
0.0
 20
0.0
 11
1.0
 21
1.0
 12
20.51150238
 22
14.81833312
 13
0.0
 23
0.0
 14
7.0
 24
7.0
 15
7.0
 25
7.0
 16
0.0
 26
0.0
 36
1.0
 17
0.0
 27
0.0
 37
0.0
 40
79.42276599
 41
1.45595855
 42
50.0
 43
0.0
 44
0.0
 50
0.0
 51
0.0
 71
     0
 72
  2000
 73
     1
 74
     0
 75
     0
 76
     0
 77
     0
 78
     0
  0
ENDTAB
  0
TABLE
  2
LTYPE
  5
5
330
0
100
AcDbSymbolTable
 70
     3
  0
LTYPE
  5
14
330
5
100
AcDbSymbolTableRecord
100
AcDbLinetypeTableRecord
  2
BYBLOCK
 70
     0
  3

 72
    65
 73
     0
 40
0.0
  0
LTYPE
  5
15
330
5
100
AcDbSymbolTableRecord
100
AcDbLinetypeTableRecord
  2
BYLAYER
 70
     0
  3

 72
    65
 73
     0
 40
0.0
  0
LTYPE
  5
16
330
5
100
AcDbSymbolTableRecord
100
AcDbLinetypeTableRecord
  2
CONTINUOUS
 70
     0
  3
Solid line
 72
    65
 73
     0
 40
0.0
  0
LTYPE
  5
258
330
5
100
AcDbSymbolTableRecord
100
AcDbLinetypeTableRecord
  2
CENTER2
 70
     0
  3
___ _ ___ _ ___ _ ___ _ ___ _ ___ _ ___ _ ___ _
 72
    65
 73
     4
 40
1.125
 49
0.75
 74
     0
 49
-0.125
 74
     0
 49
0.125
 74
     0
 49
-0.125
 74
     0
  0
LTYPE
  5
25D
330
5
100
AcDbSymbolTableRecord
100
AcDbLinetypeTableRecord
  2
PHANTOM2
 70
     0
  3
___ _ _ ___ _ _ ___ _ _ ___ _ _ ___ _ _ ___ _ _
 72
    65
 73
     6
 40
1.25
 49
0.625
 74
     0
 49
-0.125
 74
     0
 49
0.125
 74
     0
 49
-0.125
 74
     0
 49
0.125
 74
     0
 49
-0.125
 74
     0
  0
ENDTAB
  0
TABLE
  2
LAYER
  5
2
330
0
100
AcDbSymbolTable
 70
    11
  0
LAYER
  5
F
330
2
100
AcDbSymbolTableRecord
100
AcDbLayerTableRecord
  2
0
 70
     0
 62
     7
  6
CONTINUOUS
  0
LAYER
  5
1AA
330
2
100
AcDbSymbolTableRecord
100
AcDbLayerTableRecord
  2
240
 70
     0
 62
     4
  6
CONTINUOUS
  0
LAYER
  5
1AB
330
2
100
AcDbSymbolTableRecord
100
AcDbLayerTableRecord
  2
241
 70
     0
 62
   211
  6
CONTINUOUS
  0
LAYER
  5
1AC
330
2
100
AcDbSymbolTableRecord
100
AcDbLayerTableRecord
  2
242
 70
     0
 62
     3
  6
CONTINUOUS
  0
LAYER
  5
1AF
330
2
100
AcDbSymbolTableRecord
100
AcDbLayerTableRecord
  2
245
 70
     0
 62
     2
  6
CENTER2
  0
LAYER
  5
21A
330
2
100
AcDbSymbolTableRecord
100
AcDbLayerTableRecord
  2
246
 70
     0
 62
     3
  6
PHANTOM2
  0
LAYER
  5
21B
330
2
100
AcDbSymbolTableRecord
100
AcDbLayerTableRecord
  2
247
 70
     0
 62
    60
  6
CONTINUOUS
  0
LAYER
  5
21E
330
2
100
AcDbSymbolTableRecord
100
AcDbLayerTableRecord
  2
250
 70
     0
 62
     3
  6
CONTINUOUS
  0
LAYER
  5
21F
330
2
100
AcDbSymbolTableRecord
100
AcDbLayerTableRecord
  2
251
 70
     0
 62
    40
  6
CONTINUOUS
  0
LAYER
  5
5C4
330
2
100
AcDbSymbolTableRecord
100
AcDbLayerTableRecord
  2
DEFPOINTS
 70
     0
 62
     7
  6
CONTINUOUS
  0
ENDTAB
  0
TABLE
  2
STYLE
  5
3
330
0
100
AcDbSymbolTable
 70
     2
  0
STYLE
  5
10
330
3
100
AcDbSymbolTableRecord
100
AcDbTextStyleTableRecord
  2
STANDARD
 70
     0
 40
0.0
 41
1.0
 50
0.0
 71
     0
 42
3.0
  3
romans.shx
  4
BIGFONT.SHX
  0
STYLE
  5
339
330
3
100
AcDbSymbolTableRecord
100
AcDbTextStyleTableRecord
  2
YOKO
 70
     0
 40
0.0
 41
1.0
 50
0.0
 71
     0
 42
3.0
  3
romans.shx
  4
extfont.shx
  0
ENDTAB
  0
TABLE
  2
VIEW
  5
6
330
0
100
AcDbSymbolTable
 70
     1
  0
VIEW
  5
1ADC
330
6
100
AcDbSymbolTableRecord
100
AcDbViewTableRecord
  2
OLE1
 70
     0
 40
79.42276599
 10
20.51150238
 20
14.81833312
 41
115.63625515
 11
0.0
 21
0.0
 31
1.0
 12
0.0
 22
0.0
 32
0.0
 42
50.0
 43
0.0
 44
0.0
 50
0.0
 71
     0
  0
ENDTAB
  0
TABLE
  2
UCS
  5
7
330
0
100
AcDbSymbolTable
 70
     0
  0
ENDTAB
  0
TABLE
  2
APPID
  5
9
330
0
100
AcDbSymbolTable
 70
    10
  0
APPID
  5
11
330
9
100
AcDbSymbolTableRecord
100
AcDbRegAppTableRecord
  2
ACAD
 70
     0
  0
APPID
  5
1B1
330
9
100
AcDbSymbolTableRecord
100
AcDbRegAppTableRecord
  2
GLOBAL
 70
     0
  0
APPID
  5
2A4
330
9
100
AcDbSymbolTableRecord
100
AcDbRegAppTableRecord
  2
DETAIL
 70
     0
  0
APPID
  5
5FD
330
9
100
AcDbSymbolTableRecord
100
AcDbRegAppTableRecord
  2
GRPNAME
 70
     0
  0
APPID
  5
5FE
330
9
100
AcDbSymbolTableRecord
100
AcDbRegAppTableRecord
  2
GPARA
 70
     0
  0
APPID
  5
6C4
330
9
100
AcDbSymbolTableRecord
100
AcDbRegAppTableRecord
  2
DCO15
 70
     0
  0
APPID
  5
6C5
330
9
100
AcDbSymbolTableRecord
100
AcDbRegAppTableRecord
  2
ITEMNAME
 70
     0
  0
APPID
  5
6C6
330
9
100
AcDbSymbolTableRecord
100
AcDbRegAppTableRecord
  2
GRADE_0
 70
     0
  0
APPID
  5
76D
330
9
100
AcDbSymbolTableRecord
100
AcDbRegAppTableRecord
  2
ACAD_PSEXT
 70
     0
  0
APPID
  5
1028
330
9
100
AcDbSymbolTableRecord
100
AcDbRegAppTableRecord
  2
CONTENTBLOCKICON
 70
     0
  0
ENDTAB
  0
TABLE
  2
DIMSTYLE
  5
A
330
0
100
AcDbSymbolTable
 70
     1
  0
DIMSTYLE
105
725
102
{ACAD_REACTORS
330
BC0
330
D9F
330
1036
330
1045
102
}
330
A
100
AcDbSymbolTableRecord
100
AcDbDimStyleTableRecord
  2
BIGT
 70
     0
  3

  4

  5

  6
OPEN
  7
OPEN
 40
1.0
 41
2.23
 42
0.5
 43
2.5
 44
1.0
 45
0.0
 46
0.0
 47
0.0
 48
0.0
140
2.8
141
0.0
142
0.0
143
25.4
144
1.0
145
0.0
146
1.0
147
1.0
 71
     0
 72
     0
 73
     0
 74
     0
 75
     0
 76
     0
 77
     3
 78
     8
170
     0
171
     2
172
     1
173
     1
174
     1
175
     0
176
   256
177
   256
178
    40
270
     2
271
     3
272
     3
273
     2
274
     2
340
10
275
     0
280
     0
281
     0
282
     0
283
     1
284
     8
285
     0
286
     0
287
     3
288
     0
  0
ENDTAB
  0
TABLE
  2
BLOCK_RECORD
  5
1
330
0
100
AcDbSymbolTable
 70
     7
  0
BLOCK_RECORD
  5
1A
102
{ACAD_XDICTIONARY
360
1026
102
}
330
1
100
AcDbSymbolTableRecord
100
AcDbBlockTableRecord
  2
*MODEL_SPACE
  0
BLOCK_RECORD
  5
17
102
{ACAD_XDICTIONARY
360
1024
102
}
330
1
100
AcDbSymbolTableRecord
100
AcDbBlockTableRecord
  2
*PAPER_SPACE
  0
BLOCK_RECORD
  5
594
330
1
100
AcDbSymbolTableRecord
100
AcDbBlockTableRecord
  2
_OPEN
  0
BLOCK_RECORD
  5
6E3
330
1
100
AcDbSymbolTableRecord
100
AcDbBlockTableRecord
  2
矢印なし
  0
BLOCK_RECORD
  5
D64
330
1
100
AcDbSymbolTableRecord
100
AcDbBlockTableRecord
  2
*D2
  0
BLOCK_RECORD
  5
DA0
330
1
100
AcDbSymbolTableRecord
100
AcDbBlockTableRecord
  2
*D3
  0
BLOCK_RECORD
  5
DE0
330
1
100
AcDbSymbolTableRecord
100
AcDbBlockTableRecord
  2
1
1001
CONTENTBLOCKICON
1071
        0
1004
2800000020000000200000000100080000000000000400000000000000000000000000000000000000000000000080000080000000808000800000008000800080800000C0C0C000C0DCC000F0CAA6000020400000206000002080000020A0000020C0000020E00000400000004020000040400000406000004080000040A0
1004
000040C0000040E00000600000006020000060400000606000006080000060A0000060C0000060E00000800000008020000080400000806000008080000080A0000080C0000080E00000A0000000A0200000A0400000A0600000A0800000A0A00000A0C00000A0E00000C0000000C0200000C0400000C0600000C0800000C0
1004
A00000C0C00000C0E00000E0000000E0200000E0400000E0600000E0800000E0A00000E0C00000E0E00040000000400020004000400040006000400080004000A0004000C0004000E00040200000402020004020400040206000402080004020A0004020C0004020E000404000004040200040404000404060004040800040
1004
40A0004040C0004040E00040600000406020004060400040606000406080004060A0004060C0004060E00040800000408020004080400040806000408080004080A0004080C0004080E00040A0000040A0200040A0400040A0600040A0800040A0A00040A0C00040A0E00040C0000040C0200040C0400040C0600040C08000
1004
40C0A00040C0C00040C0E00040E0000040E0200040E0400040E0600040E0800040E0A00040E0C00040E0E00080000000800020008000400080006000800080008000A0008000C0008000E00080200000802020008020400080206000802080008020A0008020C0008020E00080400000804020008040400080406000804080
1004
008040A0008040C0008040E00080600000806020008060400080606000806080008060A0008060C0008060E00080800000808020008080400080806000808080008080A0008080C0008080E00080A0000080A0200080A0400080A0600080A0800080A0A00080A0C00080A0E00080C0000080C0200080C0400080C0600080C0
1004
800080C0A00080C0C00080C0E00080E0000080E0200080E0400080E0600080E0800080E0A00080E0C00080E0E000C0000000C0002000C0004000C0006000C0008000C000A000C000C000C000E000C0200000C0202000C0204000C0206000C0208000C020A000C020C000C020E000C0400000C0402000C0404000C0406000C0
1004
408000C040A000C040C000C040E000C0600000C0602000C0604000C0606000C0608000C060A000C060C000C060E000C0800000C0802000C0804000C0806000C0808000C080A000C080C000C080E000C0A00000C0A02000C0A04000C0A06000C0A08000C0A0A000C0A0C000C0A0E000C0C00000C0C02000C0C04000C0C06000
1004
C0C08000C0C0A000F0FBFF00A4A0A000808080000000FF0000FF000000FFFF00FF000000FF00FF00FFFF0000FFFFFF0000000000000000000000000000000000000000000000000000000000000000000000000000000000000000000000000000000000000000000000000000000000000000000000000000000000000000
1004
00000000000000000000000000000000000000000000000000000000000000000000000000000000000000000000000000000000000000000000000000000000000000000000000000000000000000000000000000000000000000000000000000000000000000000000000000000000000000000000000000000000000000
1004
000000000000000000000000000000000000000000000000000000000000000000000000000000000000000000000000000000000000000000000000000000000000000000000000000000000000000000000000000000000000FEFEFEFEFEFEFEFE000000000000000000000000000000000000000000000000FE00000000
1004
FEFEFE000000000000000000000000000000000000FEFEFEFEFEFEE700000000E7E7FE000000000000000000000000000000000000FE0000000000E700000000E7E7E7FEFE00000000000000000000000000000000FE0000000000E700000000E7E7E70000FEFEE7FEFEFEFEFEFEFEFEFE00000000FE0000000000E7000000
1004
00E7E7E700000000E7000000E7E7E700E7FE00000000FE0000000000E700000000E7E7E700000000E70000E70000E7E700FE000000FBFEFBFBFBFBFBE7FBFBFBFBE7E7E7FBFBFBFBE7FBFBFBE7E7E7E7E7FEFB000000FE0000000000E700000000E7E7E700000000E7000000000000E7E7FE00000000FE0000000000E70000
1004
0000E7E7E7000000FEFEFEFEFEFEFEFEE7E7FE00000000FE0000000000E700000000E7E7E700FEFE000000000000000000000000000000FEFEFEFEFEFEE700000000E7E7FEFE0000000000000000000000000000000000000000000000FE00000000FEFEFE000000000000000000000000000000000000000000000000FEFE
1004
FEFEFEFEFEFE00000000000000000000000000000000000000000000000000000000000000000000000000000000000000000000000000000000000000000000000000000000000000000000000000000000000000000000000000000000000000000000000000000000000000000000000000000000000000000000000000
1004
00000000000000000000000000000000000000000000000000000000000000000000000000000000000000000000000000000000000000000000000000000000000000000000000000000000000000000000000000000000000000000000000000000000000000000000000000000000000000000000000000000000000000
1004
0000000000000000000000000000000000000000000000000000000000000000000000000000000000000000000000000000000000000000
  0
BLOCK_RECORD
  5
1037
330
1
100
AcDbSymbolTableRecord
100
AcDbBlockTableRecord
  2
*D5
  0
BLOCK_RECORD
  5
1046
330
1
100
AcDbSymbolTableRecord
100
AcDbBlockTableRecord
  2
*D6
  0
ENDTAB
  0
ENDSEC
  0
SECTION
  2
BLOCKS
  0
BLOCK
  5
1B
330
1A
100
AcDbEntity
  8
0
100
AcDbBlockBegin
  2
*MODEL_SPACE
 70
     0
 10
0.0
 20
0.0
 30
0.0
  3
*MODEL_SPACE
  1

  0
ENDBLK
  5
1C
330
1A
100
AcDbEntity
  8
0
100
AcDbBlockEnd
  0
BLOCK
  5
18
330
17
100
AcDbEntity
 67
     1
  8
0
100
AcDbBlockBegin
  2
*PAPER_SPACE
 70
     0
 10
0.0
 20
0.0
 30
0.0
  3
*PAPER_SPACE
  1

  0
ENDBLK
  5
19
330
17
100
AcDbEntity
 67
     1
  8
0
100
AcDbBlockEnd
  0
BLOCK
  5
598
330
594
100
AcDbEntity
  8
0
100
AcDbBlockBegin
  2
_OPEN
 70
     0
 10
0.0
 20
0.0
 30
0.0
  3
_OPEN
  1

  0
LINE
  5
595
330
594
100
AcDbEntity
  8
0
  6
BYBLOCK
 62
     0
100
AcDbLine
 10
-1.0
 20
0.16666667
 30
0.0
 11
0.0
 21
0.0
 31
0.0
  0
LINE
  5
596
330
594
100
AcDbEntity
  8
0
  6
BYBLOCK
 62
     0
100
AcDbLine
 10
-1.0
 20
-0.16666667
 30
0.0
 11
0.0
 21
0.0
 31
0.0
  0
LINE
  5
597
330
594
100
AcDbEntity
  8
0
  6
BYBLOCK
 62
     0
100
AcDbLine
 10
0.0
 20
0.0
 30
0.0
 11
-1.0
 21
0.0
 31
0.0
  0
ENDBLK
  5
599
330
594
100
AcDbEntity
  8
0
100
AcDbBlockEnd
  0
BLOCK
  5
6E4
330
6E3
100
AcDbEntity
  8
0
100
AcDbBlockBegin
  2
矢印なし
 70
     0
 10
0.0
 20
0.0
 30
0.0
  3
矢印なし
  1

  0
ENDBLK
  5
6E5
330
6E3
100
AcDbEntity
  8
0
100
AcDbBlockEnd
  0
BLOCK
  5
D6E
330
D64
100
AcDbEntity
  8
0
100
AcDbBlockBegin
  2
*D2
 70
     1
 10
0.0
 20
0.0
 30
0.0
  3
*D2
  1

  0
LINE
  5
DCE
330
D64
100
AcDbEntity
  8
250
  6
CONTINUOUS
100
AcDbLine
 10
65.5
 20
-8.0
 30
0.0
 11
78.0
 21
-8.0
 31
0.0
  0
LINE
  5
DCF
330
D64
100
AcDbEntity
  8
250
  6
CONTINUOUS
100
AcDbLine
 10
65.5
 20
8.0
 30
0.0
 11
78.0
 21
8.0
 31
0.0
  0
LINE
  5
DD0
330
D64
100
AcDbEntity
  8
250
  6
CONTINUOUS
100
AcDbLine
 10
77.0
 20
-5.77
 30
0.0
 11
77.0
 21
5.77
 31
0.0
  0
INSERT
  5
DD1
330
D64
100
AcDbEntity
  8
250
  6
CONTINUOUS
100
AcDbBlockReference
  2
_OPEN
 10
77.0
 20
-8.0
 30
0.0
 41
2.23
 42
2.23
 43
2.23
 50
270.0
  0
INSERT
  5
DD2
330
D64
100
AcDbEntity
  8
250
  6
CONTINUOUS
100
AcDbBlockReference
  2
_OPEN
 10
77.0
 20
8.0
 30
0.0
 41
2.23
 42
2.23
 43
2.23
 50
90.0
  0
MTEXT
  5
DD3
330
D64
100
AcDbEntity
  8
250
  6
CONTINUOUS
 62
    40
100
AcDbMText
 10
74.6
 20
0.0
 30
0.0
 40
2.8
 41
0.0
 71
     5
 72
     1
  1
\A1;{\H2.8;\U+2205}16
 11
0.0
 21
1.0
 31
0.0
1001
ACAD
1000
MTEXTBEGIN
1070
    73
1070
     1
1070
    44
1040
1.0
1070
    74
1070
     0
1000
MTEXTEND
1000
MTEXTBEGIN
1070
    73
1070
     1
1070
    44
1040
1.0
1070
    74
1070
     0
1000
MTEXTEND
1000
MTEXTBEGIN
1070
    73
1070
     1
1070
    44
1040
1.0
1070
    74
1070
     0
1000
MTEXTEND
1000
MTEXTBEGIN
1070
    73
1070
     1
1070
    44
1040
1.0
1070
    74
1070
     0
1000
MTEXTEND
  0
POINT
  5
DD4
330
D64
100
AcDbEntity
  8
DEFPOINTS
  6
CONTINUOUS
 62
     0
100
AcDbPoint
 10
65.0
 20
-8.0
 30
0.0
  0
POINT
  5
DD5
330
D64
100
AcDbEntity
  8
DEFPOINTS
  6
CONTINUOUS
 62
     0
100
AcDbPoint
 10
65.0
 20
8.0
 30
0.0
  0
POINT
  5
DD6
330
D64
100
AcDbEntity
  8
DEFPOINTS
  6
CONTINUOUS
 62
     0
100
AcDbPoint
 10
77.0
 20
8.0
 30
0.0
  0
ENDBLK
  5
D6F
330
D64
100
AcDbEntity
  8
0
100
AcDbBlockEnd
  0
BLOCK
  5
DAA
330
DA0
100
AcDbEntity
  8
0
100
AcDbBlockBegin
  2
*D3
 70
     1
 10
0.0
 20
0.0
 30
0.0
  3
*D3
  1

  0
LINE
  5
1673
330
DA0
100
AcDbEntity
  8
250
  6
CONTINUOUS
100
AcDbLine
 10
0.0
 20
20.5
 30
0.0
 11
0.0
 21
36.0
 31
0.0
  0
LINE
  5
1674
330
DA0
100
AcDbEntity
  8
250
  6
CONTINUOUS
100
AcDbLine
 10
65.0
 20
8.5
 30
0.0
 11
65.0
 21
36.0
 31
0.0
  0
LINE
  5
1675
330
DA0
100
AcDbEntity
  8
250
  6
CONTINUOUS
100
AcDbLine
 10
2.23
 20
35.0
 30
0.0
 11
62.77
 21
35.0
 31
0.0
  0
INSERT
  5
1676
330
DA0
100
AcDbEntity
  8
250
  6
CONTINUOUS
100
AcDbBlockReference
  2
_OPEN
 10
0.0
 20
35.0
 30
0.0
 41
2.23
 42
2.23
 43
2.23
 50
180.0
  0
INSERT
  5
1677
330
DA0
100
AcDbEntity
  8
250
  6
CONTINUOUS
100
AcDbBlockReference
  2
_OPEN
 10
65.0
 20
35.0
 30
0.0
 41
2.23
 42
2.23
 43
2.23
  0
MTEXT
  5
1678
330
DA0
100
AcDbEntity
  8
250
  6
CONTINUOUS
 62
    40
100
AcDbMText
 10
32.5
 20
37.4
 30
0.0
 40
2.8
 41
0.0
 71
     5
 72
     1
  1
\A1;65
1001
ACAD
1000
MTEXTBEGIN
1070
    73
1070
     1
1070
    44
1040
1.0
1070
    74
1070
     0
1000
MTEXTEND
1000
MTEXTBEGIN
1070
    73
1070
     1
1070
    44
1040
1.0
1070
    74
1070
     0
1000
MTEXTEND
  0
POINT
  5
1679
330
DA0
100
AcDbEntity
  8
DEFPOINTS
  6
CONTINUOUS
 62
     0
100
AcDbPoint
 10
0.0
 20
20.0
 30
0.0
  0
POINT
  5
167A
330
DA0
100
AcDbEntity
  8
DEFPOINTS
  6
CONTINUOUS
 62
     0
100
AcDbPoint
 10
65.0
 20
8.0
 30
0.0
  0
POINT
  5
167B
330
DA0
100
AcDbEntity
  8
DEFPOINTS
  6
CONTINUOUS
 62
     0
100
AcDbPoint
 10
65.0
 20
35.0
 30
0.0
  0
ENDBLK
  5
DAB
330
DA0
100
AcDbEntity
  8
0
100
AcDbBlockEnd
  0
BLOCK
  5
DE1
330
DE0
100
AcDbEntity
  8
0
100
AcDbBlockBegin
  2
1
 70
     0
 10
0.0
 20
0.0
 30
0.0
  3
1
  1

  0
ARC
  5
196A
330
DE0
100
AcDbEntity
  8
240
100
AcDbCircle
 10
50.19914592
 20
-55.34146697
 30
0.0
 40
50.0
100
AcDbArc
 50
111.34868492
 51
125.07467351
  0
LINE
  5
196B
330
DE0
100
AcDbEntity
  8
245
  6
CENTER2
100
AcDbLine
 10
-21.0
 20
0.0
 30
0.0
 11
66.0
 21
0.0
 31
0.0
  0
ARC
  5
196C
330
DE0
100
AcDbEntity
  8
240
100
AcDbCircle
 10
50.09522911
 20
55.37212228
 30
0.0
 40
50.0
100
AcDbArc
 50
234.79565823
 51
248.81272239
  0
LINE
  5
196D
330
DE0
100
AcDbEntity
  8
240
  6
CONTINUOUS
100
AcDbLine
 10
0.0
 20
20.0
 30
0.0
 11
0.0
 21
15.1
 31
0.0
  0
LINE
  5
196E
330
DE0
100
AcDbEntity
  8
245
  6
CENTER2
100
AcDbLine
 10
16.0
 20
-20.0
 30
0.0
 11
16.0
 21
20.0
 31
0.0
  0
LINE
  5
196F
330
DE0
100
AcDbEntity
  8
241
  6
CONTINUOUS
100
AcDbLine
 10
18.02072594
 20
20.0
 30
0.0
 11
18.02072594
 21
0.0
 31
0.0
  0
LINE
  5
1970
330
DE0
100
AcDbEntity
  8
241
  6
CONTINUOUS
100
AcDbLine
 10
13.97927406
 20
20.0
 30
0.0
 11
13.97927406
 21
0.0
 31
0.0
  0
LINE
  5
1971
330
DE0
100
AcDbEntity
  8
240
  6
CONTINUOUS
100
AcDbLine
 10
15.0
 20
18.23205081
 30
0.0
 11
13.97927406
 21
20.0
 31
0.0
  0
LINE
  5
1972
330
DE0
100
AcDbEntity
  8
240
  6
CONTINUOUS
100
AcDbLine
 10
17.0
 20
18.23205081
 30
0.0
 11
18.02072594
 21
20.0
 31
0.0
  0
LINE
  5
1973
330
DE0
100
AcDbEntity
  8
240
  6
CONTINUOUS
100
AcDbLine
 10
20.0
 20
20.0
 30
0.0
 11
20.0
 21
16.96836518
 31
0.0
  0
LINE
  5
1974
330
DE0
100
AcDbEntity
  8
240
  6
CONTINUOUS
100
AcDbLine
 10
0.0
 20
-20.0
 30
0.0
 11
0.0
 21
-15.1
 31
0.0
  0
LINE
  5
1975
330
DE0
100
AcDbEntity
  8
241
  6
CONTINUOUS
100
AcDbLine
 10
13.97927406
 20
-20.0
 30
0.0
 11
13.97927406
 21
0.0
 31
0.0
  0
LINE
  5
1976
330
DE0
100
AcDbEntity
  8
241
  6
CONTINUOUS
100
AcDbLine
 10
18.02072594
 20
-20.0
 30
0.0
 11
18.02072594
 21
0.0
 31
0.0
  0
LINE
  5
1977
330
DE0
100
AcDbEntity
  8
241
  6
CONTINUOUS
100
AcDbLine
 10
15.0
 20
0.0
 30
0.0
 11
15.0
 21
-17.4
 31
0.0
  0
LINE
  5
1978
330
DE0
100
AcDbEntity
  8
241
  6
CONTINUOUS
100
AcDbLine
 10
17.0
 20
0.0
 30
0.0
 11
17.0
 21
-17.4
 31
0.0
  0
LINE
  5
1979
330
DE0
100
AcDbEntity
  8
240
  6
CONTINUOUS
100
AcDbLine
 10
20.0
 20
-20.0
 30
0.0
 11
20.0
 21
-17.0
 31
0.0
  0
LINE
  5
197A
330
DE0
100
AcDbEntity
  8
240
  6
CONTINUOUS
100
AcDbLine
 10
0.0
 20
-20.0
 30
0.0
 11
13.97927406
 21
-20.0
 31
0.0
  0
LINE
  5
197B
330
DE0
100
AcDbEntity
  8
240
  6
CONTINUOUS
100
AcDbLine
 10
18.02072594
 20
-20.0
 30
0.0
 11
20.0
 21
-20.0
 31
0.0
  0
LINE
  5
197C
330
DE0
100
AcDbEntity
  8
240
  6
CONTINUOUS
100
AcDbLine
 10
15.0
 20
-17.4
 30
0.0
 11
17.0
 21
-17.4
 31
0.0
  0
LINE
  5
197D
330
DE0
100
AcDbEntity
  8
240
  6
CONTINUOUS
100
AcDbLine
 10
15.0
 20
-18.23205081
 30
0.0
 11
13.97927406
 21
-20.0
 31
0.0
  0
LINE
  5
197E
330
DE0
100
AcDbEntity
  8
240
  6
CONTINUOUS
100
AcDbLine
 10
15.0
 20
-17.4
 30
0.0
 11
15.0
 21
-18.23205081
 31
0.0
  0
LINE
  5
197F
330
DE0
100
AcDbEntity
  8
240
  6
CONTINUOUS
100
AcDbLine
 10
17.0
 20
-18.23205081
 30
0.0
 11
18.02072594
 21
-20.0
 31
0.0
  0
LINE
  5
1980
330
DE0
100
AcDbEntity
  8
240
  6
CONTINUOUS
100
AcDbLine
 10
17.0
 20
-17.4
 30
0.0
 11
17.0
 21
-18.23205081
 31
0.0
  0
LINE
  5
1981
330
DE0
100
AcDbEntity
  8
240
100
AcDbLine
 10
-2.0
 20
-15.1
 30
0.0
 11
0.0
 21
-15.1
 31
0.0
  0
LINE
  5
1982
330
DE0
100
AcDbEntity
  8
240
100
AcDbLine
 10
-2.0
 20
15.1
 30
0.0
 11
0.0
 21
15.1
 31
0.0
  0
LINE
  5
1983
330
DE0
100
AcDbEntity
  8
240
  6
CONTINUOUS
100
AcDbLine
 10
-20.0
 20
14.2
 30
0.0
 11
-20.0
 21
0.0
 31
0.0
  0
LINE
  5
1984
330
DE0
100
AcDbEntity
  8
241
  6
CONTINUOUS
100
AcDbLine
 10
-2.0
 20
15.1
 30
0.0
 11
-2.0
 21
0.0
 31
0.0
  0
LINE
  5
1985
330
DE0
100
AcDbEntity
  8
240
  6
CONTINUOUS
100
AcDbLine
 10
-20.0
 20
-14.2
 30
0.0
 11
-2.0
 21
-15.1
 31
0.0
  0
LINE
  5
1986
330
DE0
100
AcDbEntity
  8
240
  6
CONTINUOUS
100
AcDbLine
 10
-20.0
 20
-14.2
 30
0.0
 11
-20.0
 21
0.0
 31
0.0
  0
LINE
  5
1987
330
DE0
100
AcDbEntity
  8
241
  6
CONTINUOUS
100
AcDbLine
 10
-2.0
 20
-15.1
 30
0.0
 11
-2.0
 21
0.0
 31
0.0
  0
LINE
  5
1988
330
DE0
100
AcDbEntity
  8
240
  6
CONTINUOUS
100
AcDbLine
 10
-20.0
 20
14.2
 30
0.0
 11
-2.0
 21
15.1
 31
0.0
  0
LINE
  5
1989
330
DE0
100
AcDbEntity
  8
241
100
AcDbLine
 10
0.0
 20
15.1
 30
0.0
 11
0.0
 21
0.0
 31
0.0
  0
LINE
  5
198A
330
DE0
100
AcDbEntity
  8
241
  6
CONTINUOUS
100
AcDbLine
 10
15.0
 20
0.0
 30
0.0
 11
15.0
 21
17.4
 31
0.0
  0
LINE
  5
198B
330
DE0
100
AcDbEntity
  8
241
  6
CONTINUOUS
100
AcDbLine
 10
17.0
 20
0.0
 30
0.0
 11
17.0
 21
17.4
 31
0.0
  0
LINE
  5
198C
330
DE0
100
AcDbEntity
  8
241
100
AcDbLine
 10
20.0
 20
17.0
 30
0.0
 11
20.0
 21
0.0
 31
0.0
  0
LINE
  5
198D
330
DE0
100
AcDbEntity
  8
241
100
AcDbLine
 10
0.0
 20
-15.1
 30
0.0
 11
0.0
 21
0.0
 31
0.0
  0
LINE
  5
198E
330
DE0
100
AcDbEntity
  8
241
100
AcDbLine
 10
20.0
 20
-17.0
 30
0.0
 11
20.0
 21
0.0
 31
0.0
  0
ARC
  5
198F
330
DE0
100
AcDbEntity
  8
240
100
AcDbCircle
 10
23.0
 20
-17.0
 30
0.0
 40
3.0
100
AcDbArc
 50
118.37024259
 51
180.0
  0
LINE
  5
1990
330
DE0
100
AcDbEntity
  8
240
  6
CONTINUOUS
100
AcDbLine
 10
15.0
 20
17.4
 30
0.0
 11
17.0
 21
17.4
 31
0.0
  0
LINE
  5
1991
330
DE0
100
AcDbEntity
  8
240
  6
CONTINUOUS
100
AcDbLine
 10
15.0
 20
17.4
 30
0.0
 11
15.0
 21
18.23205081
 31
0.0
  0
LINE
  5
1992
330
DE0
100
AcDbEntity
  8
240
  6
CONTINUOUS
100
AcDbLine
 10
17.0
 20
17.4
 30
0.0
 11
17.0
 21
18.23205081
 31
0.0
  0
ARC
  5
1993
330
DE0
100
AcDbEntity
  8
240
100
AcDbCircle
 10
23.0
 20
16.96836518
 30
0.0
 40
3.0
100
AcDbArc
 50
180.0
 51
234.79565823
  0
LINE
  5
1994
330
DE0
100
AcDbEntity
  8
240
  6
CONTINUOUS
100
AcDbLine
 10
0.0
 20
20.0
 30
0.0
 11
13.97927406
 21
20.0
 31
0.0
  0
LINE
  5
1995
330
DE0
100
AcDbEntity
  8
240
  6
CONTINUOUS
100
AcDbLine
 10
18.02072594
 20
20.0
 30
0.0
 11
20.0
 21
20.0
 31
0.0
  0
LINE
  5
1996
330
DE0
100
AcDbEntity
  8
241
100
AcDbLine
 10
49.6403085
 20
0.77844074
 30
0.0
 11
53.90902268
 21
0.02575126
 31
0.0
  0
LINE
  5
1997
330
DE0
100
AcDbEntity
  8
240
100
AcDbLine
 10
54.45050451
 20
-7.4
 30
0.0
 11
39.27786286
 21
-7.4
 31
0.0
  0
LINE
  5
1998
330
DE0
100
AcDbEntity
  8
240
100
AcDbLine
 10
54.45050451
 20
7.4
 30
0.0
 11
39.25270288
 21
7.4
 31
0.0
  0
LINE
  5
1999
330
DE0
100
AcDbEntity
  8
241
100
AcDbLine
 10
48.69962837
 20
-4.48958244
 30
0.0
 11
64.28181685
 21
-7.30689
 31
0.0
  0
LINE
  5
199A
330
DE0
100
AcDbEntity
  8
241
  6
CONTINUOUS
100
AcDbLine
 10
36.0
 20
0.0
 30
0.0
 11
36.0
 21
7.4
 31
0.0
1001
GRPNAME
1000
PASTMD3B
  0
ARC
  5
199B
330
DE0
100
AcDbEntity
  8
240
100
AcDbCircle
 10
39.27786286
 20
-27.4
 30
0.0
 40
20.0
100
AcDbArc
 50
90.0
 51
111.34868492
  0
LINE
  5
199C
330
DE0
100
AcDbEntity
  8
241
  6
CONTINUOUS
100
AcDbLine
 10
36.0
 20
0.0
 30
0.0
 11
36.0
 21
-7.4
 31
0.0
1001
GRPNAME
1000
PASTMD3B
  0
ARC
  5
199D
330
DE0
100
AcDbEntity
  8
241
100
AcDbCircle
 10
49.17568132
 20
-1.85659096
 30
0.0
 40
2.67568131511622
100
AcDbArc
 50
80.0
 51
260.0
  0
ARC
  5
199E
330
DE0
100
AcDbEntity
  8
240
100
AcDbCircle
 10
39.25270288
 20
27.4
 30
0.0
 40
20.0
100
AcDbArc
 50
248.81272239
 51
270.0
  0
LINE
  5
199F
330
DE0
100
AcDbEntity
  8
246
100
AcDbLine
 10
65.0
 20
-8.0
 30
0.0
 11
65.0
 21
8.0
 31
0.0
  0
LINE
  5
19A0
330
DE0
100
AcDbEntity
  8
241
100
AcDbLine
 10
54.96190064
 20
2.18447099
 30
0.0
 11
53.86821946
 21
-0.05790774
 31
0.0
  0
LINE
  5
19A1
330
DE0
100
AcDbEntity
  8
241
100
AcDbLine
 10
64.5
 20
0.50264672
 30
0.0
 11
54.96190064
 21
2.18447099
 31
0.0
  0
LINE
  5
19A2
330
DE0
100
AcDbEntity
  8
240
100
AcDbLine
 10
64.5
 20
7.3
 30
0.0
 11
64.5
 21
0.50264672
 31
0.0
  0
LINE
  5
19A3
330
DE0
100
AcDbEntity
  8
242
100
AcDbLine
 10
65.0
 20
-8.0
 30
0.0
 11
56.0
 21
-8.0
 31
0.0
  0
LINE
  5
19A4
330
DE0
100
AcDbEntity
  8
240
100
AcDbLine
 10
64.99051309
 20
-2.97357041
 30
0.0
 11
64.60907584
 21
0.48341371
 31
0.0
  0
LINE
  5
19A5
330
DE0
100
AcDbEntity
  8
240
100
AcDbLine
 10
65.0
 20
-3.83
 30
0.0
 11
64.5
 21
-3.66057103
 31
0.0
  0
LINE
  5
19A6
330
DE0
100
AcDbEntity
  8
241
100
AcDbLine
 10
64.5
 20
-3.66057103
 30
0.0
 11
53.86821946
 21
-0.05790774
 31
0.0
  0
LINE
  5
19A7
330
DE0
100
AcDbEntity
  8
240
100
AcDbLine
 10
64.5
 20
-7.3
 30
0.0
 11
55.00000001
 21
-7.6
 31
0.0
  0
LINE
  5
19A8
330
DE0
100
AcDbEntity
  8
240
100
AcDbLine
 10
54.45050451
 20
-7.4
 30
0.0
 11
55.00000001
 21
-7.6
 31
0.0
  0
LINE
  5
19A9
330
DE0
100
AcDbEntity
  8
240
100
AcDbLine
 10
64.5
 20
-7.3
 30
0.0
 11
64.5
 21
-3.66057103
 31
0.0
  0
LINE
  5
19AA
330
DE0
100
AcDbEntity
  8
247
100
AcDbLine
 10
64.69544263
 20
-1.25512764
 30
0.0
 11
64.69454015
 21
-1.25484608
 31
0.0
  0
LINE
  5
19AB
330
DE0
100
AcDbEntity
  8
240
100
AcDbLine
 10
64.60907584
 20
0.48341371
 30
0.0
 11
64.5
 21
0.50264672
 31
0.0
  0
LINE
  5
19AC
330
DE0
100
AcDbEntity
  8
240
100
AcDbLine
 10
64.99051309
 20
-2.97357041
 30
0.0
 11
65.0
 21
-3.83
 31
0.0
  0
LINE
  5
19AD
330
DE0
100
AcDbEntity
  8
242
100
AcDbLine
 10
65.0
 20
8.0
 30
0.0
 11
56.0
 21
8.0
 31
0.0
  0
LINE
  5
19AE
330
DE0
100
AcDbEntity
  8
240
100
AcDbLine
 10
64.5
 20
7.3
 30
0.0
 11
55.00000001
 21
7.6
 31
0.0
  0
LINE
  5
19AF
330
DE0
100
AcDbEntity
  8
240
100
AcDbLine
 10
55.00000001
 20
7.6
 30
0.0
 11
54.45050451
 21
7.4
 31
0.0
  0
POLYLINE
  5
19B0
330
DE0
100
AcDbEntity
  8
241
100
AcDb3dPolyline
 66
     1
 10
0.0
 20
0.0
 30
0.0
 70
     8
  0
VERTEX
  5
19B1
330
19B0
100
AcDbEntity
  8
241
100
AcDbVertex
100
AcDb3dPolylineVertex
 10
58.9316
 20
5.98201
 30
0.0
 70
    32
  0
VERTEX
  5
19B2
330
19B0
100
AcDbEntity
  8
241
100
AcDbVertex
100
AcDb3dPolylineVertex
 10
58.9267
 20
5.95187
 30
0.0
 70
    32
  0
VERTEX
  5
19B3
330
19B0
100
AcDbEntity
  8
241
100
AcDbVertex
100
AcDb3dPolylineVertex
 10
58.9225
 20
5.92162
 30
0.0
 70
    32
  0
VERTEX
  5
19B4
330
19B0
100
AcDbEntity
  8
241
100
AcDbVertex
100
AcDb3dPolylineVertex
 10
58.9191
 20
5.89128
 30
0.0
 70
    32
  0
VERTEX
  5
19B5
330
19B0
100
AcDbEntity
  8
241
100
AcDbVertex
100
AcDb3dPolylineVertex
 10
58.9164
 20
5.86085
 30
0.0
 70
    32
  0
VERTEX
  5
19B6
330
19B0
100
AcDbEntity
  8
241
100
AcDbVertex
100
AcDb3dPolylineVertex
 10
58.9145
 20
5.83037
 30
0.0
 70
    32
  0
VERTEX
  5
19B7
330
19B0
100
AcDbEntity
  8
241
100
AcDbVertex
100
AcDb3dPolylineVertex
 10
58.9133
 20
5.79986
 30
0.0
 70
    32
  0
VERTEX
  5
19B8
330
19B0
100
AcDbEntity
  8
241
100
AcDbVertex
100
AcDb3dPolylineVertex
 10
58.9128
 20
5.76932
 30
0.0
 70
    32
  0
VERTEX
  5
19B9
330
19B0
100
AcDbEntity
  8
241
100
AcDbVertex
100
AcDb3dPolylineVertex
 10
58.9131
 20
5.73877
 30
0.0
 70
    32
  0
VERTEX
  5
19BA
330
19B0
100
AcDbEntity
  8
241
100
AcDbVertex
100
AcDb3dPolylineVertex
 10
58.9142
 20
5.70825
 30
0.0
 70
    32
  0
VERTEX
  5
19BB
330
19B0
100
AcDbEntity
  8
241
100
AcDbVertex
100
AcDb3dPolylineVertex
 10
58.916
 20
5.67775
 30
0.0
 70
    32
  0
VERTEX
  5
19BC
330
19B0
100
AcDbEntity
  8
241
100
AcDbVertex
100
AcDb3dPolylineVertex
 10
58.9186
 20
5.64731
 30
0.0
 70
    32
  0
VERTEX
  5
19BD
330
19B0
100
AcDbEntity
  8
241
100
AcDbVertex
100
AcDb3dPolylineVertex
 10
58.9219
 20
5.61694
 30
0.0
 70
    32
  0
VERTEX
  5
19BE
330
19B0
100
AcDbEntity
  8
241
100
AcDbVertex
100
AcDb3dPolylineVertex
 10
58.926
 20
5.58666
 30
0.0
 70
    32
  0
VERTEX
  5
19BF
330
19B0
100
AcDbEntity
  8
241
100
AcDbVertex
100
AcDb3dPolylineVertex
 10
58.9308
 20
5.55649
 30
0.0
 70
    32
  0
VERTEX
  5
19C0
330
19B0
100
AcDbEntity
  8
241
100
AcDbVertex
100
AcDb3dPolylineVertex
 10
58.9364
 20
5.52644
 30
0.0
 70
    32
  0
VERTEX
  5
19C1
330
19B0
100
AcDbEntity
  8
241
100
AcDbVertex
100
AcDb3dPolylineVertex
 10
58.9427
 20
5.49654
 30
0.0
 70
    32
  0
VERTEX
  5
19C2
330
19B0
100
AcDbEntity
  8
241
100
AcDbVertex
100
AcDb3dPolylineVertex
 10
58.9497
 20
5.4668
 30
0.0
 70
    32
  0
VERTEX
  5
19C3
330
19B0
100
AcDbEntity
  8
241
100
AcDbVertex
100
AcDb3dPolylineVertex
 10
58.9575
 20
5.43724
 30
0.0
 70
    32
  0
VERTEX
  5
19C4
330
19B0
100
AcDbEntity
  8
241
100
AcDbVertex
100
AcDb3dPolylineVertex
 10
58.9659
 20
5.40787
 30
0.0
 70
    32
  0
VERTEX
  5
19C5
330
19B0
100
AcDbEntity
  8
241
100
AcDbVertex
100
AcDb3dPolylineVertex
 10
58.9751
 20
5.37872
 30
0.0
 70
    32
  0
VERTEX
  5
19C6
330
19B0
100
AcDbEntity
  8
241
100
AcDbVertex
100
AcDb3dPolylineVertex
 10
58.9851
 20
5.3498
 30
0.0
 70
    32
  0
VERTEX
  5
19C7
330
19B0
100
AcDbEntity
  8
241
100
AcDbVertex
100
AcDb3dPolylineVertex
 10
58.9957
 20
5.32114
 30
0.0
 70
    32
  0
VERTEX
  5
19C8
330
19B0
100
AcDbEntity
  8
241
100
AcDbVertex
100
AcDb3dPolylineVertex
 10
59.007
 20
5.29274
 30
0.0
 70
    32
  0
VERTEX
  5
19C9
330
19B0
100
AcDbEntity
  8
241
100
AcDbVertex
100
AcDb3dPolylineVertex
 10
59.0191
 20
5.26462
 30
0.0
 70
    32
  0
VERTEX
  5
19CA
330
19B0
100
AcDbEntity
  8
241
100
AcDbVertex
100
AcDb3dPolylineVertex
 10
59.0318
 20
5.23681
 30
0.0
 70
    32
  0
VERTEX
  5
19CB
330
19B0
100
AcDbEntity
  8
241
100
AcDbVertex
100
AcDb3dPolylineVertex
 10
59.0452
 20
5.20931
 30
0.0
 70
    32
  0
VERTEX
  5
19CC
330
19B0
100
AcDbEntity
  8
241
100
AcDbVertex
100
AcDb3dPolylineVertex
 10
59.0593
 20
5.18215
 30
0.0
 70
    32
  0
VERTEX
  5
19CD
330
19B0
100
AcDbEntity
  8
241
100
AcDbVertex
100
AcDb3dPolylineVertex
 10
59.074
 20
5.15534
 30
0.0
 70
    32
  0
VERTEX
  5
19CE
330
19B0
100
AcDbEntity
  8
241
100
AcDbVertex
100
AcDb3dPolylineVertex
 10
59.0894
 20
5.1289
 30
0.0
 70
    32
  0
VERTEX
  5
19CF
330
19B0
100
AcDbEntity
  8
241
100
AcDbVertex
100
AcDb3dPolylineVertex
 10
59.1054
 20
5.10284
 30
0.0
 70
    32
  0
VERTEX
  5
19D0
330
19B0
100
AcDbEntity
  8
241
100
AcDbVertex
100
AcDb3dPolylineVertex
 10
59.1221
 20
5.07718
 30
0.0
 70
    32
  0
VERTEX
  5
19D1
330
19B0
100
AcDbEntity
  8
241
100
AcDbVertex
100
AcDb3dPolylineVertex
 10
59.1394
 20
5.05193
 30
0.0
 70
    32
  0
VERTEX
  5
19D2
330
19B0
100
AcDbEntity
  8
241
100
AcDbVertex
100
AcDb3dPolylineVertex
 10
59.1573
 20
5.02711
 30
0.0
 70
    32
  0
VERTEX
  5
19D3
330
19B0
100
AcDbEntity
  8
241
100
AcDbVertex
100
AcDb3dPolylineVertex
 10
59.1759
 20
5.00274
 30
0.0
 70
    32
  0
VERTEX
  5
19D4
330
19B0
100
AcDbEntity
  8
241
100
AcDbVertex
100
AcDb3dPolylineVertex
 10
59.195
 20
4.97883
 30
0.0
 70
    32
  0
VERTEX
  5
19D5
330
19B0
100
AcDbEntity
  8
241
100
AcDbVertex
100
AcDb3dPolylineVertex
 10
59.2147
 20
4.95539
 30
0.0
 70
    32
  0
VERTEX
  5
19D6
330
19B0
100
AcDbEntity
  8
241
100
AcDbVertex
100
AcDb3dPolylineVertex
 10
59.235
 20
4.93244
 30
0.0
 70
    32
  0
VERTEX
  5
19D7
330
19B0
100
AcDbEntity
  8
241
100
AcDbVertex
100
AcDb3dPolylineVertex
 10
59.2558
 20
4.90998
 30
0.0
 70
    32
  0
VERTEX
  5
19D8
330
19B0
100
AcDbEntity
  8
241
100
AcDbVertex
100
AcDb3dPolylineVertex
 10
59.2772
 20
4.88805
 30
0.0
 70
    32
  0
VERTEX
  5
19D9
330
19B0
100
AcDbEntity
  8
241
100
AcDbVertex
100
AcDb3dPolylineVertex
 10
59.2991
 20
4.86664
 30
0.0
 70
    32
  0
VERTEX
  5
19DA
330
19B0
100
AcDbEntity
  8
241
100
AcDbVertex
100
AcDb3dPolylineVertex
 10
59.3215
 20
4.84577
 30
0.0
 70
    32
  0
VERTEX
  5
19DB
330
19B0
100
AcDbEntity
  8
241
100
AcDbVertex
100
AcDb3dPolylineVertex
 10
59.3445
 20
4.82546
 30
0.0
 70
    32
  0
VERTEX
  5
19DC
330
19B0
100
AcDbEntity
  8
241
100
AcDbVertex
100
AcDb3dPolylineVertex
 10
59.3679
 20
4.80571
 30
0.0
 70
    32
  0
VERTEX
  5
19DD
330
19B0
100
AcDbEntity
  8
241
100
AcDbVertex
100
AcDb3dPolylineVertex
 10
59.3918
 20
4.78655
 30
0.0
 70
    32
  0
VERTEX
  5
19DE
330
19B0
100
AcDbEntity
  8
241
100
AcDbVertex
100
AcDb3dPolylineVertex
 10
59.4162
 20
4.76797
 30
0.0
 70
    32
  0
VERTEX
  5
19DF
330
19B0
100
AcDbEntity
  8
241
100
AcDbVertex
100
AcDb3dPolylineVertex
 10
59.441
 20
4.74999
 30
0.0
 70
    32
  0
VERTEX
  5
19E0
330
19B0
100
AcDbEntity
  8
241
100
AcDbVertex
100
AcDb3dPolylineVertex
 10
59.4663
 20
4.73262
 30
0.0
 70
    32
  0
VERTEX
  5
19E1
330
19B0
100
AcDbEntity
  8
241
100
AcDbVertex
100
AcDb3dPolylineVertex
 10
59.4919
 20
4.71587
 30
0.0
 70
    32
  0
VERTEX
  5
19E2
330
19B0
100
AcDbEntity
  8
241
100
AcDbVertex
100
AcDb3dPolylineVertex
 10
59.518
 20
4.69976
 30
0.0
 70
    32
  0
VERTEX
  5
19E3
330
19B0
100
AcDbEntity
  8
241
100
AcDbVertex
100
AcDb3dPolylineVertex
 10
59.5445
 20
4.68429
 30
0.0
 70
    32
  0
VERTEX
  5
19E4
330
19B0
100
AcDbEntity
  8
241
100
AcDbVertex
100
AcDb3dPolylineVertex
 10
59.5713
 20
4.66947
 30
0.0
 70
    32
  0
VERTEX
  5
19E5
330
19B0
100
AcDbEntity
  8
241
100
AcDbVertex
100
AcDb3dPolylineVertex
 10
59.5985
 20
4.6553
 30
0.0
 70
    32
  0
VERTEX
  5
19E6
330
19B0
100
AcDbEntity
  8
241
100
AcDbVertex
100
AcDb3dPolylineVertex
 10
59.6261
 20
4.64181
 30
0.0
 70
    32
  0
VERTEX
  5
19E7
330
19B0
100
AcDbEntity
  8
241
100
AcDbVertex
100
AcDb3dPolylineVertex
 10
59.6539
 20
4.62899
 30
0.0
 70
    32
  0
VERTEX
  5
19E8
330
19B0
100
AcDbEntity
  8
241
100
AcDbVertex
100
AcDb3dPolylineVertex
 10
59.6821
 20
4.61686
 30
0.0
 70
    32
  0
VERTEX
  5
19E9
330
19B0
100
AcDbEntity
  8
241
100
AcDbVertex
100
AcDb3dPolylineVertex
 10
59.7106
 20
4.60542
 30
0.0
 70
    32
  0
VERTEX
  5
19EA
330
19B0
100
AcDbEntity
  8
241
100
AcDbVertex
100
AcDb3dPolylineVertex
 10
59.7393
 20
4.59468
 30
0.0
 70
    32
  0
VERTEX
  5
19EB
330
19B0
100
AcDbEntity
  8
241
100
AcDbVertex
100
AcDb3dPolylineVertex
 10
59.7683
 20
4.58464
 30
0.0
 70
    32
  0
VERTEX
  5
19EC
330
19B0
100
AcDbEntity
  8
241
100
AcDbVertex
100
AcDb3dPolylineVertex
 10
59.7975
 20
4.57531
 30
0.0
 70
    32
  0
VERTEX
  5
19ED
330
19B0
100
AcDbEntity
  8
241
100
AcDbVertex
100
AcDb3dPolylineVertex
 10
59.827
 20
4.5667
 30
0.0
 70
    32
  0
VERTEX
  5
19EE
330
19B0
100
AcDbEntity
  8
241
100
AcDbVertex
100
AcDb3dPolylineVertex
 10
59.8566
 20
4.55882
 30
0.0
 70
    32
  0
VERTEX
  5
19EF
330
19B0
100
AcDbEntity
  8
241
100
AcDbVertex
100
AcDb3dPolylineVertex
 10
59.8864
 20
4.55165
 30
0.0
 70
    32
  0
VERTEX
  5
19F0
330
19B0
100
AcDbEntity
  8
241
100
AcDbVertex
100
AcDb3dPolylineVertex
 10
59.9164
 20
4.54522
 30
0.0
 70
    32
  0
VERTEX
  5
19F1
330
19B0
100
AcDbEntity
  8
241
100
AcDbVertex
100
AcDb3dPolylineVertex
 10
59.9466
 20
4.53953
 30
0.0
 70
    32
  0
VERTEX
  5
19F2
330
19B0
100
AcDbEntity
  8
241
100
AcDbVertex
100
AcDb3dPolylineVertex
 10
59.9769
 20
4.53457
 30
0.0
 70
    32
  0
VERTEX
  5
19F3
330
19B0
100
AcDbEntity
  8
241
100
AcDbVertex
100
AcDb3dPolylineVertex
 10
60.0072
 20
4.53035
 30
0.0
 70
    32
  0
VERTEX
  5
19F4
330
19B0
100
AcDbEntity
  8
241
100
AcDbVertex
100
AcDb3dPolylineVertex
 10
60.0377
 20
4.52688
 30
0.0
 70
    32
  0
VERTEX
  5
19F5
330
19B0
100
AcDbEntity
  8
241
100
AcDbVertex
100
AcDb3dPolylineVertex
 10
60.0683
 20
4.52415
 30
0.0
 70
    32
  0
VERTEX
  5
19F6
330
19B0
100
AcDbEntity
  8
241
100
AcDbVertex
100
AcDb3dPolylineVertex
 10
60.0989
 20
4.52217
 30
0.0
 70
    32
  0
VERTEX
  5
19F7
330
19B0
100
AcDbEntity
  8
241
100
AcDbVertex
100
AcDb3dPolylineVertex
 10
60.1295
 20
4.52094
 30
0.0
 70
    32
  0
VERTEX
  5
19F8
330
19B0
100
AcDbEntity
  8
241
100
AcDbVertex
100
AcDb3dPolylineVertex
 10
60.1602
 20
4.52046
 30
0.0
 70
    32
  0
VERTEX
  5
19F9
330
19B0
100
AcDbEntity
  8
241
100
AcDbVertex
100
AcDb3dPolylineVertex
 10
60.1909
 20
4.52073
 30
0.0
 70
    32
  0
VERTEX
  5
19FA
330
19B0
100
AcDbEntity
  8
241
100
AcDbVertex
100
AcDb3dPolylineVertex
 10
60.2215
 20
4.52174
 30
0.0
 70
    32
  0
VERTEX
  5
19FB
330
19B0
100
AcDbEntity
  8
241
100
AcDbVertex
100
AcDb3dPolylineVertex
 10
60.2522
 20
4.52351
 30
0.0
 70
    32
  0
VERTEX
  5
19FC
330
19B0
100
AcDbEntity
  8
241
100
AcDbVertex
100
AcDb3dPolylineVertex
 10
60.2827
 20
4.52602
 30
0.0
 70
    32
  0
VERTEX
  5
19FD
330
19B0
100
AcDbEntity
  8
241
100
AcDbVertex
100
AcDb3dPolylineVertex
 10
60.3132
 20
4.52928
 30
0.0
 70
    32
  0
VERTEX
  5
19FE
330
19B0
100
AcDbEntity
  8
241
100
AcDbVertex
100
AcDb3dPolylineVertex
 10
60.3436
 20
4.53329
 30
0.0
 70
    32
  0
VERTEX
  5
19FF
330
19B0
100
AcDbEntity
  8
241
100
AcDbVertex
100
AcDb3dPolylineVertex
 10
60.3739
 20
4.53804
 30
0.0
 70
    32
  0
VERTEX
  5
1A00
330
19B0
100
AcDbEntity
  8
241
100
AcDbVertex
100
AcDb3dPolylineVertex
 10
60.4041
 20
4.54352
 30
0.0
 70
    32
  0
VERTEX
  5
1A01
330
19B0
100
AcDbEntity
  8
241
100
AcDbVertex
100
AcDb3dPolylineVertex
 10
60.4341
 20
4.54974
 30
0.0
 70
    32
  0
VERTEX
  5
1A02
330
19B0
100
AcDbEntity
  8
241
100
AcDbVertex
100
AcDb3dPolylineVertex
 10
60.464
 20
4.5567
 30
0.0
 70
    32
  0
VERTEX
  5
1A03
330
19B0
100
AcDbEntity
  8
241
100
AcDbVertex
100
AcDb3dPolylineVertex
 10
60.4937
 20
4.56438
 30
0.0
 70
    32
  0
VERTEX
  5
1A04
330
19B0
100
AcDbEntity
  8
241
100
AcDbVertex
100
AcDb3dPolylineVertex
 10
60.5231
 20
4.57278
 30
0.0
 70
    32
  0
VERTEX
  5
1A05
330
19B0
100
AcDbEntity
  8
241
100
AcDbVertex
100
AcDb3dPolylineVertex
 10
60.5524
 20
4.5819
 30
0.0
 70
    32
  0
VERTEX
  5
1A06
330
19B0
100
AcDbEntity
  8
241
100
AcDbVertex
100
AcDb3dPolylineVertex
 10
60.5814
 20
4.59174
 30
0.0
 70
    32
  0
VERTEX
  5
1A07
330
19B0
100
AcDbEntity
  8
241
100
AcDbVertex
100
AcDb3dPolylineVertex
 10
60.6102
 20
4.60228
 30
0.0
 70
    32
  0
VERTEX
  5
1A08
330
19B0
100
AcDbEntity
  8
241
100
AcDbVertex
100
AcDb3dPolylineVertex
 10
60.6387
 20
4.61352
 30
0.0
 70
    32
  0
VERTEX
  5
1A09
330
19B0
100
AcDbEntity
  8
241
100
AcDbVertex
100
AcDb3dPolylineVertex
 10
60.6669
 20
4.62546
 30
0.0
 70
    32
  0
VERTEX
  5
1A0A
330
19B0
100
AcDbEntity
  8
241
100
AcDbVertex
100
AcDb3dPolylineVertex
 10
60.6948
 20
4.63808
 30
0.0
 70
    32
  0
VERTEX
  5
1A0B
330
19B0
100
AcDbEntity
  8
241
100
AcDbVertex
100
AcDb3dPolylineVertex
 10
60.7224
 20
4.65138
 30
0.0
 70
    32
  0
VERTEX
  5
1A0C
330
19B0
100
AcDbEntity
  8
241
100
AcDbVertex
100
AcDb3dPolylineVertex
 10
60.7497
 20
4.66535
 30
0.0
 70
    32
  0
VERTEX
  5
1A0D
330
19B0
100
AcDbEntity
  8
241
100
AcDbVertex
100
AcDb3dPolylineVertex
 10
60.7766
 20
4.67998
 30
0.0
 70
    32
  0
VERTEX
  5
1A0E
330
19B0
100
AcDbEntity
  8
241
100
AcDbVertex
100
AcDb3dPolylineVertex
 10
60.8031
 20
4.69527
 30
0.0
 70
    32
  0
VERTEX
  5
1A0F
330
19B0
100
AcDbEntity
  8
241
100
AcDbVertex
100
AcDb3dPolylineVertex
 10
60.8292
 20
4.7112
 30
0.0
 70
    32
  0
VERTEX
  5
1A10
330
19B0
100
AcDbEntity
  8
241
100
AcDbVertex
100
AcDb3dPolylineVertex
 10
60.855
 20
4.72777
 30
0.0
 70
    32
  0
VERTEX
  5
1A11
330
19B0
100
AcDbEntity
  8
241
100
AcDbVertex
100
AcDb3dPolylineVertex
 10
60.8803
 20
4.74496
 30
0.0
 70
    32
  0
VERTEX
  5
1A12
330
19B0
100
AcDbEntity
  8
241
100
AcDbVertex
100
AcDb3dPolylineVertex
 10
60.9052
 20
4.76277
 30
0.0
 70
    32
  0
VERTEX
  5
1A13
330
19B0
100
AcDbEntity
  8
241
100
AcDbVertex
100
AcDb3dPolylineVertex
 10
60.9297
 20
4.78118
 30
0.0
 70
    32
  0
VERTEX
  5
1A14
330
19B0
100
AcDbEntity
  8
241
100
AcDbVertex
100
AcDb3dPolylineVertex
 10
60.9537
 20
4.80018
 30
0.0
 70
    32
  0
VERTEX
  5
1A15
330
19B0
100
AcDbEntity
  8
241
100
AcDbVertex
100
AcDb3dPolylineVertex
 10
60.9772
 20
4.81976
 30
0.0
 70
    32
  0
VERTEX
  5
1A16
330
19B0
100
AcDbEntity
  8
241
100
AcDbVertex
100
AcDb3dPolylineVertex
 10
61.0002
 20
4.83991
 30
0.0
 70
    32
  0
VERTEX
  5
1A17
330
19B0
100
AcDbEntity
  8
241
100
AcDbVertex
100
AcDb3dPolylineVertex
 10
61.0227
 20
4.86062
 30
0.0
 70
    32
  0
VERTEX
  5
1A18
330
19B0
100
AcDbEntity
  8
241
100
AcDbVertex
100
AcDb3dPolylineVertex
 10
61.0447
 20
4.88188
 30
0.0
 70
    32
  0
VERTEX
  5
1A19
330
19B0
100
AcDbEntity
  8
241
100
AcDbVertex
100
AcDb3dPolylineVertex
 10
61.0662
 20
4.90366
 30
0.0
 70
    32
  0
VERTEX
  5
1A1A
330
19B0
100
AcDbEntity
  8
241
100
AcDbVertex
100
AcDb3dPolylineVertex
 10
61.0871
 20
4.92597
 30
0.0
 70
    32
  0
VERTEX
  5
1A1B
330
19B0
100
AcDbEntity
  8
241
100
AcDbVertex
100
AcDb3dPolylineVertex
 10
61.1074
 20
4.94878
 30
0.0
 70
    32
  0
VERTEX
  5
1A1C
330
19B0
100
AcDbEntity
  8
241
100
AcDbVertex
100
AcDb3dPolylineVertex
 10
61.1272
 20
4.97208
 30
0.0
 70
    32
  0
VERTEX
  5
1A1D
330
19B0
100
AcDbEntity
  8
241
100
AcDbVertex
100
AcDb3dPolylineVertex
 10
61.1465
 20
4.99586
 30
0.0
 70
    32
  0
VERTEX
  5
1A1E
330
19B0
100
AcDbEntity
  8
241
100
AcDbVertex
100
AcDb3dPolylineVertex
 10
61.1651
 20
5.0201
 30
0.0
 70
    32
  0
VERTEX
  5
1A1F
330
19B0
100
AcDbEntity
  8
241
100
AcDbVertex
100
AcDb3dPolylineVertex
 10
61.1831
 20
5.0448
 30
0.0
 70
    32
  0
VERTEX
  5
1A20
330
19B0
100
AcDbEntity
  8
241
100
AcDbVertex
100
AcDb3dPolylineVertex
 10
61.2005
 20
5.06992
 30
0.0
 70
    32
  0
VERTEX
  5
1A21
330
19B0
100
AcDbEntity
  8
241
100
AcDbVertex
100
AcDb3dPolylineVertex
 10
61.2173
 20
5.09546
 30
0.0
 70
    32
  0
VERTEX
  5
1A22
330
19B0
100
AcDbEntity
  8
241
100
AcDbVertex
100
AcDb3dPolylineVertex
 10
61.2334
 20
5.12141
 30
0.0
 70
    32
  0
VERTEX
  5
1A23
330
19B0
100
AcDbEntity
  8
241
100
AcDbVertex
100
AcDb3dPolylineVertex
 10
61.2489
 20
5.14775
 30
0.0
 70
    32
  0
VERTEX
  5
1A24
330
19B0
100
AcDbEntity
  8
241
100
AcDbVertex
100
AcDb3dPolylineVertex
 10
61.2638
 20
5.17445
 30
0.0
 70
    32
  0
VERTEX
  5
1A25
330
19B0
100
AcDbEntity
  8
241
100
AcDbVertex
100
AcDb3dPolylineVertex
 10
61.2779
 20
5.20152
 30
0.0
 70
    32
  0
VERTEX
  5
1A26
330
19B0
100
AcDbEntity
  8
241
100
AcDbVertex
100
AcDb3dPolylineVertex
 10
61.2914
 20
5.22892
 30
0.0
 70
    32
  0
VERTEX
  5
1A27
330
19B0
100
AcDbEntity
  8
241
100
AcDbVertex
100
AcDb3dPolylineVertex
 10
61.3043
 20
5.25664
 30
0.0
 70
    32
  0
VERTEX
  5
1A28
330
19B0
100
AcDbEntity
  8
241
100
AcDbVertex
100
AcDb3dPolylineVertex
 10
61.3164
 20
5.28467
 30
0.0
 70
    32
  0
VERTEX
  5
1A29
330
19B0
100
AcDbEntity
  8
241
100
AcDbVertex
100
AcDb3dPolylineVertex
 10
61.3279
 20
5.31299
 30
0.0
 70
    32
  0
VERTEX
  5
1A2A
330
19B0
100
AcDbEntity
  8
241
100
AcDbVertex
100
AcDb3dPolylineVertex
 10
61.3386
 20
5.34159
 30
0.0
 70
    32
  0
VERTEX
  5
1A2B
330
19B0
100
AcDbEntity
  8
241
100
AcDbVertex
100
AcDb3dPolylineVertex
 10
61.3486
 20
5.37043
 30
0.0
 70
    32
  0
VERTEX
  5
1A2C
330
19B0
100
AcDbEntity
  8
241
100
AcDbVertex
100
AcDb3dPolylineVertex
 10
61.358
 20
5.39952
 30
0.0
 70
    32
  0
VERTEX
  5
1A2D
330
19B0
100
AcDbEntity
  8
241
100
AcDbVertex
100
AcDb3dPolylineVertex
 10
61.3666
 20
5.42882
 30
0.0
 70
    32
  0
VERTEX
  5
1A2E
330
19B0
100
AcDbEntity
  8
241
100
AcDbVertex
100
AcDb3dPolylineVertex
 10
61.3744
 20
5.45833
 30
0.0
 70
    32
  0
VERTEX
  5
1A2F
330
19B0
100
AcDbEntity
  8
241
100
AcDbVertex
100
AcDb3dPolylineVertex
 10
61.3816
 20
5.48802
 30
0.0
 70
    32
  0
VERTEX
  5
1A30
330
19B0
100
AcDbEntity
  8
241
100
AcDbVertex
100
AcDb3dPolylineVertex
 10
61.388
 20
5.51788
 30
0.0
 70
    32
  0
VERTEX
  5
1A31
330
19B0
100
AcDbEntity
  8
241
100
AcDbVertex
100
AcDb3dPolylineVertex
 10
61.3937
 20
5.54789
 30
0.0
 70
    32
  0
SEQEND
  5
1A32
330
19B0
100
AcDbEntity
  8
241
  0
POLYLINE
  5
1A33
330
DE0
100
AcDbEntity
  8
241
100
AcDb3dPolyline
 66
     1
 10
0.0
 20
0.0
 30
0.0
 70
     8
  0
VERTEX
  5
1A34
330
1A33
100
AcDbEntity
  8
241
100
AcDbVertex
100
AcDb3dPolylineVertex
 10
61.3937
 20
5.54789
 30
0.0
 70
    32
  0
VERTEX
  5
1A35
330
1A33
100
AcDbEntity
  8
241
100
AcDbVertex
100
AcDb3dPolylineVertex
 10
61.3967
 20
5.56711
 30
0.0
 70
    32
  0
VERTEX
  5
1A36
330
1A33
100
AcDbEntity
  8
241
100
AcDbVertex
100
AcDb3dPolylineVertex
 10
61.3989
 20
5.58644
 30
0.0
 70
    32
  0
VERTEX
  5
1A37
330
1A33
100
AcDbEntity
  8
241
100
AcDbVertex
100
AcDb3dPolylineVertex
 10
61.4005
 20
5.60589
 30
0.0
 70
    32
  0
VERTEX
  5
1A38
330
1A33
100
AcDbEntity
  8
241
100
AcDbVertex
100
AcDb3dPolylineVertex
 10
61.4012
 20
5.62543
 30
0.0
 70
    32
  0
VERTEX
  5
1A39
330
1A33
100
AcDbEntity
  8
241
100
AcDbVertex
100
AcDb3dPolylineVertex
 10
61.4013
 20
5.64505
 30
0.0
 70
    32
  0
VERTEX
  5
1A3A
330
1A33
100
AcDbEntity
  8
241
100
AcDbVertex
100
AcDb3dPolylineVertex
 10
61.4005
 20
5.66474
 30
0.0
 70
    32
  0
VERTEX
  5
1A3B
330
1A33
100
AcDbEntity
  8
241
100
AcDbVertex
100
AcDb3dPolylineVertex
 10
61.3991
 20
5.6845
 30
0.0
 70
    32
  0
VERTEX
  5
1A3C
330
1A33
100
AcDbEntity
  8
241
100
AcDbVertex
100
AcDb3dPolylineVertex
 10
61.3969
 20
5.7043
 30
0.0
 70
    32
  0
VERTEX
  5
1A3D
330
1A33
100
AcDbEntity
  8
241
100
AcDbVertex
100
AcDb3dPolylineVertex
 10
61.3939
 20
5.72414
 30
0.0
 70
    32
  0
VERTEX
  5
1A3E
330
1A33
100
AcDbEntity
  8
241
100
AcDbVertex
100
AcDb3dPolylineVertex
 10
61.3902
 20
5.74401
 30
0.0
 70
    32
  0
VERTEX
  5
1A3F
330
1A33
100
AcDbEntity
  8
241
100
AcDbVertex
100
AcDb3dPolylineVertex
 10
61.3858
 20
5.76388
 30
0.0
 70
    32
  0
VERTEX
  5
1A40
330
1A33
100
AcDbEntity
  8
241
100
AcDbVertex
100
AcDb3dPolylineVertex
 10
61.3806
 20
5.78376
 30
0.0
 70
    32
  0
VERTEX
  5
1A41
330
1A33
100
AcDbEntity
  8
241
100
AcDbVertex
100
AcDb3dPolylineVertex
 10
61.3747
 20
5.80363
 30
0.0
 70
    32
  0
VERTEX
  5
1A42
330
1A33
100
AcDbEntity
  8
241
100
AcDbVertex
100
AcDb3dPolylineVertex
 10
61.3681
 20
5.82347
 30
0.0
 70
    32
  0
VERTEX
  5
1A43
330
1A33
100
AcDbEntity
  8
241
100
AcDbVertex
100
AcDb3dPolylineVertex
 10
61.3607
 20
5.84328
 30
0.0
 70
    32
  0
VERTEX
  5
1A44
330
1A33
100
AcDbEntity
  8
241
100
AcDbVertex
100
AcDb3dPolylineVertex
 10
61.3526
 20
5.86304
 30
0.0
 70
    32
  0
VERTEX
  5
1A45
330
1A33
100
AcDbEntity
  8
241
100
AcDbVertex
100
AcDb3dPolylineVertex
 10
61.3438
 20
5.88274
 30
0.0
 70
    32
  0
VERTEX
  5
1A46
330
1A33
100
AcDbEntity
  8
241
100
AcDbVertex
100
AcDb3dPolylineVertex
 10
61.3343
 20
5.90237
 30
0.0
 70
    32
  0
VERTEX
  5
1A47
330
1A33
100
AcDbEntity
  8
241
100
AcDbVertex
100
AcDb3dPolylineVertex
 10
61.3241
 20
5.92192
 30
0.0
 70
    32
  0
VERTEX
  5
1A48
330
1A33
100
AcDbEntity
  8
241
100
AcDbVertex
100
AcDb3dPolylineVertex
 10
61.3132
 20
5.94138
 30
0.0
 70
    32
  0
VERTEX
  5
1A49
330
1A33
100
AcDbEntity
  8
241
100
AcDbVertex
100
AcDb3dPolylineVertex
 10
61.3016
 20
5.96072
 30
0.0
 70
    32
  0
VERTEX
  5
1A4A
330
1A33
100
AcDbEntity
  8
241
100
AcDbVertex
100
AcDb3dPolylineVertex
 10
61.2893
 20
5.97995
 30
0.0
 70
    32
  0
VERTEX
  5
1A4B
330
1A33
100
AcDbEntity
  8
241
100
AcDbVertex
100
AcDb3dPolylineVertex
 10
61.2763
 20
5.99905
 30
0.0
 70
    32
  0
VERTEX
  5
1A4C
330
1A33
100
AcDbEntity
  8
241
100
AcDbVertex
100
AcDb3dPolylineVertex
 10
61.2626
 20
6.01801
 30
0.0
 70
    32
  0
VERTEX
  5
1A4D
330
1A33
100
AcDbEntity
  8
241
100
AcDbVertex
100
AcDb3dPolylineVertex
 10
61.2483
 20
6.03682
 30
0.0
 70
    32
  0
VERTEX
  5
1A4E
330
1A33
100
AcDbEntity
  8
241
100
AcDbVertex
100
AcDb3dPolylineVertex
 10
61.2334
 20
6.05546
 30
0.0
 70
    32
  0
VERTEX
  5
1A4F
330
1A33
100
AcDbEntity
  8
241
100
AcDbVertex
100
AcDb3dPolylineVertex
 10
61.2178
 20
6.07393
 30
0.0
 70
    32
  0
VERTEX
  5
1A50
330
1A33
100
AcDbEntity
  8
241
100
AcDbVertex
100
AcDb3dPolylineVertex
 10
61.2015
 20
6.09221
 30
0.0
 70
    32
  0
VERTEX
  5
1A51
330
1A33
100
AcDbEntity
  8
241
100
AcDbVertex
100
AcDb3dPolylineVertex
 10
61.1847
 20
6.1103
 30
0.0
 70
    32
  0
VERTEX
  5
1A52
330
1A33
100
AcDbEntity
  8
241
100
AcDbVertex
100
AcDb3dPolylineVertex
 10
61.1672
 20
6.12817
 30
0.0
 70
    32
  0
VERTEX
  5
1A53
330
1A33
100
AcDbEntity
  8
241
100
AcDbVertex
100
AcDb3dPolylineVertex
 10
61.1491
 20
6.14583
 30
0.0
 70
    32
  0
VERTEX
  5
1A54
330
1A33
100
AcDbEntity
  8
241
100
AcDbVertex
100
AcDb3dPolylineVertex
 10
61.1304
 20
6.16326
 30
0.0
 70
    32
  0
VERTEX
  5
1A55
330
1A33
100
AcDbEntity
  8
241
100
AcDbVertex
100
AcDb3dPolylineVertex
 10
61.1111
 20
6.18045
 30
0.0
 70
    32
  0
VERTEX
  5
1A56
330
1A33
100
AcDbEntity
  8
241
100
AcDbVertex
100
AcDb3dPolylineVertex
 10
61.0913
 20
6.19738
 30
0.0
 70
    32
  0
VERTEX
  5
1A57
330
1A33
100
AcDbEntity
  8
241
100
AcDbVertex
100
AcDb3dPolylineVertex
 10
61.0709
 20
6.21406
 30
0.0
 70
    32
  0
VERTEX
  5
1A58
330
1A33
100
AcDbEntity
  8
241
100
AcDbVertex
100
AcDb3dPolylineVertex
 10
61.05
 20
6.23047
 30
0.0
 70
    32
  0
VERTEX
  5
1A59
330
1A33
100
AcDbEntity
  8
241
100
AcDbVertex
100
AcDb3dPolylineVertex
 10
61.0285
 20
6.2466
 30
0.0
 70
    32
  0
VERTEX
  5
1A5A
330
1A33
100
AcDbEntity
  8
241
100
AcDbVertex
100
AcDb3dPolylineVertex
 10
61.0065
 20
6.26243
 30
0.0
 70
    32
  0
VERTEX
  5
1A5B
330
1A33
100
AcDbEntity
  8
241
100
AcDbVertex
100
AcDb3dPolylineVertex
 10
60.984
 20
6.27797
 30
0.0
 70
    32
  0
VERTEX
  5
1A5C
330
1A33
100
AcDbEntity
  8
241
100
AcDbVertex
100
AcDb3dPolylineVertex
 10
60.961
 20
6.2932
 30
0.0
 70
    32
  0
VERTEX
  5
1A5D
330
1A33
100
AcDbEntity
  8
241
100
AcDbVertex
100
AcDb3dPolylineVertex
 10
60.9375
 20
6.30811
 30
0.0
 70
    32
  0
VERTEX
  5
1A5E
330
1A33
100
AcDbEntity
  8
241
100
AcDbVertex
100
AcDb3dPolylineVertex
 10
60.9135
 20
6.32269
 30
0.0
 70
    32
  0
VERTEX
  5
1A5F
330
1A33
100
AcDbEntity
  8
241
100
AcDbVertex
100
AcDb3dPolylineVertex
 10
60.8891
 20
6.33694
 30
0.0
 70
    32
  0
VERTEX
  5
1A60
330
1A33
100
AcDbEntity
  8
241
100
AcDbVertex
100
AcDb3dPolylineVertex
 10
60.8643
 20
6.35084
 30
0.0
 70
    32
  0
VERTEX
  5
1A61
330
1A33
100
AcDbEntity
  8
241
100
AcDbVertex
100
AcDb3dPolylineVertex
 10
60.839
 20
6.36439
 30
0.0
 70
    32
  0
VERTEX
  5
1A62
330
1A33
100
AcDbEntity
  8
241
100
AcDbVertex
100
AcDb3dPolylineVertex
 10
60.8134
 20
6.37757
 30
0.0
 70
    32
  0
VERTEX
  5
1A63
330
1A33
100
AcDbEntity
  8
241
100
AcDbVertex
100
AcDb3dPolylineVertex
 10
60.7873
 20
6.39039
 30
0.0
 70
    32
  0
VERTEX
  5
1A64
330
1A33
100
AcDbEntity
  8
241
100
AcDbVertex
100
AcDb3dPolylineVertex
 10
60.7609
 20
6.40284
 30
0.0
 70
    32
  0
VERTEX
  5
1A65
330
1A33
100
AcDbEntity
  8
241
100
AcDbVertex
100
AcDb3dPolylineVertex
 10
60.7341
 20
6.41489
 30
0.0
 70
    32
  0
VERTEX
  5
1A66
330
1A33
100
AcDbEntity
  8
241
100
AcDbVertex
100
AcDb3dPolylineVertex
 10
60.7069
 20
6.42656
 30
0.0
 70
    32
  0
VERTEX
  5
1A67
330
1A33
100
AcDbEntity
  8
241
100
AcDbVertex
100
AcDb3dPolylineVertex
 10
60.6795
 20
6.43783
 30
0.0
 70
    32
  0
VERTEX
  5
1A68
330
1A33
100
AcDbEntity
  8
241
100
AcDbVertex
100
AcDb3dPolylineVertex
 10
60.6517
 20
6.44869
 30
0.0
 70
    32
  0
VERTEX
  5
1A69
330
1A33
100
AcDbEntity
  8
241
100
AcDbVertex
100
AcDb3dPolylineVertex
 10
60.6236
 20
6.45914
 30
0.0
 70
    32
  0
VERTEX
  5
1A6A
330
1A33
100
AcDbEntity
  8
241
100
AcDbVertex
100
AcDb3dPolylineVertex
 10
60.5952
 20
6.46917
 30
0.0
 70
    32
  0
VERTEX
  5
1A6B
330
1A33
100
AcDbEntity
  8
241
100
AcDbVertex
100
AcDb3dPolylineVertex
 10
60.5666
 20
6.47878
 30
0.0
 70
    32
  0
VERTEX
  5
1A6C
330
1A33
100
AcDbEntity
  8
241
100
AcDbVertex
100
AcDb3dPolylineVertex
 10
60.5378
 20
6.48796
 30
0.0
 70
    32
  0
VERTEX
  5
1A6D
330
1A33
100
AcDbEntity
  8
241
100
AcDbVertex
100
AcDb3dPolylineVertex
 10
60.5087
 20
6.4967
 30
0.0
 70
    32
  0
VERTEX
  5
1A6E
330
1A33
100
AcDbEntity
  8
241
100
AcDbVertex
100
AcDb3dPolylineVertex
 10
60.4794
 20
6.50501
 30
0.0
 70
    32
  0
VERTEX
  5
1A6F
330
1A33
100
AcDbEntity
  8
241
100
AcDbVertex
100
AcDb3dPolylineVertex
 10
60.4499
 20
6.51286
 30
0.0
 70
    32
  0
VERTEX
  5
1A70
330
1A33
100
AcDbEntity
  8
241
100
AcDbVertex
100
AcDb3dPolylineVertex
 10
60.4202
 20
6.52027
 30
0.0
 70
    32
  0
VERTEX
  5
1A71
330
1A33
100
AcDbEntity
  8
241
100
AcDbVertex
100
AcDb3dPolylineVertex
 10
60.3904
 20
6.52722
 30
0.0
 70
    32
  0
VERTEX
  5
1A72
330
1A33
100
AcDbEntity
  8
241
100
AcDbVertex
100
AcDb3dPolylineVertex
 10
60.3605
 20
6.53371
 30
0.0
 70
    32
  0
VERTEX
  5
1A73
330
1A33
100
AcDbEntity
  8
241
100
AcDbVertex
100
AcDb3dPolylineVertex
 10
60.3304
 20
6.53974
 30
0.0
 70
    32
  0
VERTEX
  5
1A74
330
1A33
100
AcDbEntity
  8
241
100
AcDbVertex
100
AcDb3dPolylineVertex
 10
60.3003
 20
6.5453
 30
0.0
 70
    32
  0
VERTEX
  5
1A75
330
1A33
100
AcDbEntity
  8
241
100
AcDbVertex
100
AcDb3dPolylineVertex
 10
60.27
 20
6.55039
 30
0.0
 70
    32
  0
VERTEX
  5
1A76
330
1A33
100
AcDbEntity
  8
241
100
AcDbVertex
100
AcDb3dPolylineVertex
 10
60.2397
 20
6.55501
 30
0.0
 70
    32
  0
VERTEX
  5
1A77
330
1A33
100
AcDbEntity
  8
241
100
AcDbVertex
100
AcDb3dPolylineVertex
 10
60.2093
 20
6.55915
 30
0.0
 70
    32
  0
VERTEX
  5
1A78
330
1A33
100
AcDbEntity
  8
241
100
AcDbVertex
100
AcDb3dPolylineVertex
 10
60.1789
 20
6.56282
 30
0.0
 70
    32
  0
VERTEX
  5
1A79
330
1A33
100
AcDbEntity
  8
241
100
AcDbVertex
100
AcDb3dPolylineVertex
 10
60.1485
 20
6.566
 30
0.0
 70
    32
  0
VERTEX
  5
1A7A
330
1A33
100
AcDbEntity
  8
241
100
AcDbVertex
100
AcDb3dPolylineVertex
 10
60.1181
 20
6.5687
 30
0.0
 70
    32
  0
VERTEX
  5
1A7B
330
1A33
100
AcDbEntity
  8
241
100
AcDbVertex
100
AcDb3dPolylineVertex
 10
60.0878
 20
6.57092
 30
0.0
 70
    32
  0
VERTEX
  5
1A7C
330
1A33
100
AcDbEntity
  8
241
100
AcDbVertex
100
AcDb3dPolylineVertex
 10
60.0575
 20
6.57265
 30
0.0
 70
    32
  0
VERTEX
  5
1A7D
330
1A33
100
AcDbEntity
  8
241
100
AcDbVertex
100
AcDb3dPolylineVertex
 10
60.0272
 20
6.5739
 30
0.0
 70
    32
  0
VERTEX
  5
1A7E
330
1A33
100
AcDbEntity
  8
241
100
AcDbVertex
100
AcDb3dPolylineVertex
 10
59.997
 20
6.57466
 30
0.0
 70
    32
  0
VERTEX
  5
1A7F
330
1A33
100
AcDbEntity
  8
241
100
AcDbVertex
100
AcDb3dPolylineVertex
 10
59.9669
 20
6.57493
 30
0.0
 70
    32
  0
VERTEX
  5
1A80
330
1A33
100
AcDbEntity
  8
241
100
AcDbVertex
100
AcDb3dPolylineVertex
 10
59.937
 20
6.57471
 30
0.0
 70
    32
  0
VERTEX
  5
1A81
330
1A33
100
AcDbEntity
  8
241
100
AcDbVertex
100
AcDb3dPolylineVertex
 10
59.9072
 20
6.574
 30
0.0
 70
    32
  0
VERTEX
  5
1A82
330
1A33
100
AcDbEntity
  8
241
100
AcDbVertex
100
AcDb3dPolylineVertex
 10
59.8775
 20
6.57281
 30
0.0
 70
    32
  0
VERTEX
  5
1A83
330
1A33
100
AcDbEntity
  8
241
100
AcDbVertex
100
AcDb3dPolylineVertex
 10
59.848
 20
6.57113
 30
0.0
 70
    32
  0
VERTEX
  5
1A84
330
1A33
100
AcDbEntity
  8
241
100
AcDbVertex
100
AcDb3dPolylineVertex
 10
59.8187
 20
6.56897
 30
0.0
 70
    32
  0
VERTEX
  5
1A85
330
1A33
100
AcDbEntity
  8
241
100
AcDbVertex
100
AcDb3dPolylineVertex
 10
59.7896
 20
6.56632
 30
0.0
 70
    32
  0
VERTEX
  5
1A86
330
1A33
100
AcDbEntity
  8
241
100
AcDbVertex
100
AcDb3dPolylineVertex
 10
59.7607
 20
6.56318
 30
0.0
 70
    32
  0
VERTEX
  5
1A87
330
1A33
100
AcDbEntity
  8
241
100
AcDbVertex
100
AcDb3dPolylineVertex
 10
59.7321
 20
6.55957
 30
0.0
 70
    32
  0
VERTEX
  5
1A88
330
1A33
100
AcDbEntity
  8
241
100
AcDbVertex
100
AcDb3dPolylineVertex
 10
59.7037
 20
6.55548
 30
0.0
 70
    32
  0
VERTEX
  5
1A89
330
1A33
100
AcDbEntity
  8
241
100
AcDbVertex
100
AcDb3dPolylineVertex
 10
59.6756
 20
6.55091
 30
0.0
 70
    32
  0
VERTEX
  5
1A8A
330
1A33
100
AcDbEntity
  8
241
100
AcDbVertex
100
AcDb3dPolylineVertex
 10
59.6478
 20
6.54587
 30
0.0
 70
    32
  0
VERTEX
  5
1A8B
330
1A33
100
AcDbEntity
  8
241
100
AcDbVertex
100
AcDb3dPolylineVertex
 10
59.6203
 20
6.54036
 30
0.0
 70
    32
  0
VERTEX
  5
1A8C
330
1A33
100
AcDbEntity
  8
241
100
AcDbVertex
100
AcDb3dPolylineVertex
 10
59.5932
 20
6.53438
 30
0.0
 70
    32
  0
VERTEX
  5
1A8D
330
1A33
100
AcDbEntity
  8
241
100
AcDbVertex
100
AcDb3dPolylineVertex
 10
59.5663
 20
6.52794
 30
0.0
 70
    32
  0
VERTEX
  5
1A8E
330
1A33
100
AcDbEntity
  8
241
100
AcDbVertex
100
AcDb3dPolylineVertex
 10
59.5399
 20
6.52104
 30
0.0
 70
    32
  0
VERTEX
  5
1A8F
330
1A33
100
AcDbEntity
  8
241
100
AcDbVertex
100
AcDb3dPolylineVertex
 10
59.5138
 20
6.51368
 30
0.0
 70
    32
  0
VERTEX
  5
1A90
330
1A33
100
AcDbEntity
  8
241
100
AcDbVertex
100
AcDb3dPolylineVertex
 10
59.4881
 20
6.50587
 30
0.0
 70
    32
  0
VERTEX
  5
1A91
330
1A33
100
AcDbEntity
  8
241
100
AcDbVertex
100
AcDb3dPolylineVertex
 10
59.4628
 20
6.49762
 30
0.0
 70
    32
  0
VERTEX
  5
1A92
330
1A33
100
AcDbEntity
  8
241
100
AcDbVertex
100
AcDb3dPolylineVertex
 10
59.4379
 20
6.48892
 30
0.0
 70
    32
  0
VERTEX
  5
1A93
330
1A33
100
AcDbEntity
  8
241
100
AcDbVertex
100
AcDb3dPolylineVertex
 10
59.4135
 20
6.47979
 30
0.0
 70
    32
  0
VERTEX
  5
1A94
330
1A33
100
AcDbEntity
  8
241
100
AcDbVertex
100
AcDb3dPolylineVertex
 10
59.3895
 20
6.47023
 30
0.0
 70
    32
  0
VERTEX
  5
1A95
330
1A33
100
AcDbEntity
  8
241
100
AcDbVertex
100
AcDb3dPolylineVertex
 10
59.366
 20
6.46024
 30
0.0
 70
    32
  0
VERTEX
  5
1A96
330
1A33
100
AcDbEntity
  8
241
100
AcDbVertex
100
AcDb3dPolylineVertex
 10
59.3429
 20
6.44983
 30
0.0
 70
    32
  0
VERTEX
  5
1A97
330
1A33
100
AcDbEntity
  8
241
100
AcDbVertex
100
AcDb3dPolylineVertex
 10
59.3204
 20
6.43901
 30
0.0
 70
    32
  0
VERTEX
  5
1A98
330
1A33
100
AcDbEntity
  8
241
100
AcDbVertex
100
AcDb3dPolylineVertex
 10
59.2984
 20
6.42779
 30
0.0
 70
    32
  0
VERTEX
  5
1A99
330
1A33
100
AcDbEntity
  8
241
100
AcDbVertex
100
AcDb3dPolylineVertex
 10
59.2768
 20
6.41617
 30
0.0
 70
    32
  0
VERTEX
  5
1A9A
330
1A33
100
AcDbEntity
  8
241
100
AcDbVertex
100
AcDb3dPolylineVertex
 10
59.2559
 20
6.40415
 30
0.0
 70
    32
  0
VERTEX
  5
1A9B
330
1A33
100
AcDbEntity
  8
241
100
AcDbVertex
100
AcDb3dPolylineVertex
 10
59.2354
 20
6.39175
 30
0.0
 70
    32
  0
VERTEX
  5
1A9C
330
1A33
100
AcDbEntity
  8
241
100
AcDbVertex
100
AcDb3dPolylineVertex
 10
59.2156
 20
6.37897
 30
0.0
 70
    32
  0
VERTEX
  5
1A9D
330
1A33
100
AcDbEntity
  8
241
100
AcDbVertex
100
AcDb3dPolylineVertex
 10
59.1962
 20
6.36582
 30
0.0
 70
    32
  0
VERTEX
  5
1A9E
330
1A33
100
AcDbEntity
  8
241
100
AcDbVertex
100
AcDb3dPolylineVertex
 10
59.1775
 20
6.35231
 30
0.0
 70
    32
  0
VERTEX
  5
1A9F
330
1A33
100
AcDbEntity
  8
241
100
AcDbVertex
100
AcDb3dPolylineVertex
 10
59.1594
 20
6.33845
 30
0.0
 70
    32
  0
VERTEX
  5
1AA0
330
1A33
100
AcDbEntity
  8
241
100
AcDbVertex
100
AcDb3dPolylineVertex
 10
59.1419
 20
6.32424
 30
0.0
 70
    32
  0
VERTEX
  5
1AA1
330
1A33
100
AcDbEntity
  8
241
100
AcDbVertex
100
AcDb3dPolylineVertex
 10
59.125
 20
6.30969
 30
0.0
 70
    32
  0
VERTEX
  5
1AA2
330
1A33
100
AcDbEntity
  8
241
100
AcDbVertex
100
AcDb3dPolylineVertex
 10
59.1087
 20
6.29481
 30
0.0
 70
    32
  0
VERTEX
  5
1AA3
330
1A33
100
AcDbEntity
  8
241
100
AcDbVertex
100
AcDb3dPolylineVertex
 10
59.093
 20
6.27962
 30
0.0
 70
    32
  0
VERTEX
  5
1AA4
330
1A33
100
AcDbEntity
  8
241
100
AcDbVertex
100
AcDb3dPolylineVertex
 10
59.078
 20
6.26412
 30
0.0
 70
    32
  0
VERTEX
  5
1AA5
330
1A33
100
AcDbEntity
  8
241
100
AcDbVertex
100
AcDb3dPolylineVertex
 10
59.0637
 20
6.24831
 30
0.0
 70
    32
  0
VERTEX
  5
1AA6
330
1A33
100
AcDbEntity
  8
241
100
AcDbVertex
100
AcDb3dPolylineVertex
 10
59.05
 20
6.23222
 30
0.0
 70
    32
  0
VERTEX
  5
1AA7
330
1A33
100
AcDbEntity
  8
241
100
AcDbVertex
100
AcDb3dPolylineVertex
 10
59.0369
 20
6.21584
 30
0.0
 70
    32
  0
VERTEX
  5
1AA8
330
1A33
100
AcDbEntity
  8
241
100
AcDbVertex
100
AcDb3dPolylineVertex
 10
59.0246
 20
6.19919
 30
0.0
 70
    32
  0
VERTEX
  5
1AA9
330
1A33
100
AcDbEntity
  8
241
100
AcDbVertex
100
AcDb3dPolylineVertex
 10
59.0129
 20
6.18228
 30
0.0
 70
    32
  0
VERTEX
  5
1AAA
330
1A33
100
AcDbEntity
  8
241
100
AcDbVertex
100
AcDb3dPolylineVertex
 10
59.002
 20
6.16512
 30
0.0
 70
    32
  0
VERTEX
  5
1AAB
330
1A33
100
AcDbEntity
  8
241
100
AcDbVertex
100
AcDb3dPolylineVertex
 10
58.9917
 20
6.14771
 30
0.0
 70
    32
  0
VERTEX
  5
1AAC
330
1A33
100
AcDbEntity
  8
241
100
AcDbVertex
100
AcDb3dPolylineVertex
 10
58.9821
 20
6.13008
 30
0.0
 70
    32
  0
VERTEX
  5
1AAD
330
1A33
100
AcDbEntity
  8
241
100
AcDbVertex
100
AcDb3dPolylineVertex
 10
58.9733
 20
6.11223
 30
0.0
 70
    32
  0
VERTEX
  5
1AAE
330
1A33
100
AcDbEntity
  8
241
100
AcDbVertex
100
AcDb3dPolylineVertex
 10
58.9652
 20
6.09416
 30
0.0
 70
    32
  0
VERTEX
  5
1AAF
330
1A33
100
AcDbEntity
  8
241
100
AcDbVertex
100
AcDb3dPolylineVertex
 10
58.9577
 20
6.0759
 30
0.0
 70
    32
  0
VERTEX
  5
1AB0
330
1A33
100
AcDbEntity
  8
241
100
AcDbVertex
100
AcDb3dPolylineVertex
 10
58.9511
 20
6.05746
 30
0.0
 70
    32
  0
VERTEX
  5
1AB1
330
1A33
100
AcDbEntity
  8
241
100
AcDbVertex
100
AcDb3dPolylineVertex
 10
58.9451
 20
6.03883
 30
0.0
 70
    32
  0
VERTEX
  5
1AB2
330
1A33
100
AcDbEntity
  8
241
100
AcDbVertex
100
AcDb3dPolylineVertex
 10
58.9399
 20
6.02004
 30
0.0
 70
    32
  0
VERTEX
  5
1AB3
330
1A33
100
AcDbEntity
  8
241
100
AcDbVertex
100
AcDb3dPolylineVertex
 10
58.9354
 20
6.0011
 30
0.0
 70
    32
  0
VERTEX
  5
1AB4
330
1A33
100
AcDbEntity
  8
241
100
AcDbVertex
100
AcDb3dPolylineVertex
 10
58.9316
 20
5.98201
 30
0.0
 70
    32
  0
SEQEND
  5
1AB5
330
1A33
100
AcDbEntity
  8
241
  0
ENDBLK
  5
DE2
330
DE0
100
AcDbEntity
  8
0
100
AcDbBlockEnd
  0
BLOCK
  5
1041
330
1037
100
AcDbEntity
  8
0
100
AcDbBlockBegin
  2
*D5
 70
     1
 10
0.0
 20
0.0
 30
0.0
  3
*D5
  1

  0
LINE
  5
1038
330
1037
100
AcDbEntity
  8
250
  6
CONTINUOUS
100
AcDbLine
 10
56.0
 20
8.5
 30
0.0
 11
56.0
 21
22.0
 31
0.0
  0
LINE
  5
1039
330
1037
100
AcDbEntity
  8
250
  6
CONTINUOUS
100
AcDbLine
 10
65.0
 20
8.5
 30
0.0
 11
65.0
 21
22.0
 31
0.0
  0
LINE
  5
103A
330
1037
100
AcDbEntity
  8
250
  6
CONTINUOUS
100
AcDbLine
 10
58.23
 20
21.0
 30
0.0
 11
62.77
 21
21.0
 31
0.0
  0
INSERT
  5
103B
330
1037
100
AcDbEntity
  8
250
  6
CONTINUOUS
100
AcDbBlockReference
  2
_OPEN
 10
56.0
 20
21.0
 30
0.0
 41
2.23
 42
2.23
 43
2.23
 50
180.0
  0
INSERT
  5
103C
330
1037
100
AcDbEntity
  8
250
  6
CONTINUOUS
100
AcDbBlockReference
  2
_OPEN
 10
65.0
 20
21.0
 30
0.0
 41
2.23
 42
2.23
 43
2.23
  0
MTEXT
  5
103D
330
1037
100
AcDbEntity
  8
250
  6
CONTINUOUS
 62
    40
100
AcDbMText
 10
60.5
 20
23.4
 30
0.0
 40
2.8
 41
0.0
 71
     5
 72
     1
  1
\A1;9
1001
ACAD
1000
MTEXTBEGIN
1070
    73
1070
     1
1070
    44
1040
1.0
1070
    74
1070
     0
1000
MTEXTEND
1000
MTEXTBEGIN
1070
    73
1070
     1
1070
    44
1040
1.0
1070
    74
1070
     0
1000
MTEXTEND
1000
MTEXTBEGIN
1070
    73
1070
     1
1070
    44
1040
1.0
1070
    74
1070
     0
1000
MTEXTEND
  0
POINT
  5
103E
330
1037
100
AcDbEntity
  8
DEFPOINTS
  6
CONTINUOUS
 62
     0
100
AcDbPoint
 10
56.0
 20
8.0
 30
0.0
  0
POINT
  5
103F
330
1037
100
AcDbEntity
  8
DEFPOINTS
  6
CONTINUOUS
 62
     0
100
AcDbPoint
 10
65.0
 20
8.0
 30
0.0
  0
POINT
  5
1040
330
1037
100
AcDbEntity
  8
DEFPOINTS
  6
CONTINUOUS
 62
     0
100
AcDbPoint
 10
65.0
 20
21.0
 30
0.0
  0
ENDBLK
  5
1042
330
1037
100
AcDbEntity
  8
0
100
AcDbBlockEnd
  0
BLOCK
  5
1050
330
1046
100
AcDbEntity
  8
0
100
AcDbBlockBegin
  2
*D6
 70
     1
 10
0.0
 20
0.0
 30
0.0
  3
*D6
  1

  0
LINE
  5
1241
330
1046
100
AcDbEntity
  8
250
  6
CONTINUOUS
100
AcDbLine
 10
37.0
 20
8.02727171
 30
0.0
 11
37.0
 21
28.99280535
 31
0.0
  0
LINE
  5
1242
330
1046
100
AcDbEntity
  8
250
  6
CONTINUOUS
100
AcDbLine
 10
65.0
 20
8.5
 30
0.0
 11
65.0
 21
28.99280535
 31
0.0
  0
LINE
  5
1243
330
1046
100
AcDbEntity
  8
250
  6
CONTINUOUS
100
AcDbLine
 10
39.23
 20
27.99280535
 30
0.0
 11
62.77
 21
27.99280535
 31
0.0
  0
INSERT
  5
1244
330
1046
100
AcDbEntity
  8
250
  6
CONTINUOUS
100
AcDbBlockReference
  2
_OPEN
 10
37.0
 20
27.99280535
 30
0.0
 41
2.23
 42
2.23
 43
2.23
 50
180.0
  0
INSERT
  5
1245
330
1046
100
AcDbEntity
  8
250
  6
CONTINUOUS
100
AcDbBlockReference
  2
_OPEN
 10
65.0
 20
27.99280535
 30
0.0
 41
2.23
 42
2.23
 43
2.23
  0
MTEXT
  5
1246
330
1046
100
AcDbEntity
  8
250
  6
CONTINUOUS
 62
    40
100
AcDbMText
 10
51.03699265
 20
30.39280535
 30
0.0
 40
2.8
 41
0.0
 71
     5
 72
     1
  1
\A1;28
1001
ACAD
1000
MTEXTBEGIN
1070
    73
1070
     1
1070
    44
1040
1.0
1070
    74
1070
     0
1000
MTEXTEND
1000
MTEXTBEGIN
1070
    73
1070
     1
1070
    44
1040
1.0
1070
    74
1070
     0
1000
MTEXTEND
1000
MTEXTBEGIN
1070
    73
1070
     1
1070
    44
1040
1.0
1070
    74
1070
     0
1000
MTEXTEND
  0
POINT
  5
1247
330
1046
100
AcDbEntity
  8
DEFPOINTS
  6
CONTINUOUS
 62
     0
100
AcDbPoint
 10
37.0
 20
7.52727171
 30
0.0
  0
POINT
  5
1248
330
1046
100
AcDbEntity
  8
DEFPOINTS
  6
CONTINUOUS
 62
     0
100
AcDbPoint
 10
65.0
 20
8.0
 30
0.0
  0
POINT
  5
1249
330
1046
100
AcDbEntity
  8
DEFPOINTS
  6
CONTINUOUS
 62
     0
100
AcDbPoint
 10
65.0
 20
27.99280535
 30
0.0
  0
ENDBLK
  5
1051
330
1046
100
AcDbEntity
  8
0
100
AcDbBlockEnd
  0
ENDSEC
  0
SECTION
  2
ENTITIES
  0
INSERT
  5
6E6
330
1A
100
AcDbEntity
  8
245
100
AcDbBlockReference
  2
矢印なし
 10
175.62382697
 20
90.55123572
 30
0.0
  0
DIMENSION
  5
BC0
330
1A
100
AcDbEntity
  8
250
  6
CONTINUOUS
100
AcDbDimension
  2
*D2
 10
77.0
 20
8.0
 30
0.0
 11
77.0
 21
0.0
 31
0.0
 70
   160
  1
{\H2.8;\U+2205}<>
  3
BIGT
100
AcDbAlignedDimension
 13
65.0
 23
-8.0
 33
0.0
 14
65.0
 24
8.0
 34
0.0
 50
90.0
100
AcDbRotatedDimension
  0
DIMENSION
  5
D9F
330
1A
100
AcDbEntity
  8
250
  6
CONTINUOUS
100
AcDbDimension
  2
*D3
 10
65.0
 20
35.0
 30
0.0
 11
32.5
 21
35.0
 31
0.0
 70
   160
  3
BIGT
100
AcDbAlignedDimension
 13
0.0
 23
20.0
 33
0.0
 14
65.0
 24
8.0
 34
0.0
100
AcDbRotatedDimension
  0
TEXT
  5
DBB
330
1A
100
AcDbEntity
  8
241
100
AcDbText
 10
-20.0
 20
49.0
 30
0.0
 40
5.0
  1
HSK-E40-FCM16092-65
  7
YOKO
 11
-20.0
 21
49.0
 31
0.0
100
AcDbText
 73
     1
  0
DIMENSION
  5
1036
330
1A
100
AcDbEntity
  8
250
  6
CONTINUOUS
100
AcDbDimension
  2
*D5
 10
65.0
 20
21.0
 30
0.0
 11
60.5
 21
23.4
 31
0.0
 70
    32
  3
BIGT
100
AcDbAlignedDimension
 13
56.0
 23
8.0
 33
0.0
 14
65.0
 24
8.0
 34
0.0
100
AcDbRotatedDimension
  0
DIMENSION
  5
1045
330
1A
100
AcDbEntity
  8
250
  6
CONTINUOUS
100
AcDbDimension
  2
*D6
 10
65.0
 20
27.99280535
 30
0.0
 11
51.03699265
 21
27.99280535
 31
0.0
 70
   160
  3
BIGT
100
AcDbAlignedDimension
 13
37.0
 23
7.52727171
 33
0.0
 14
65.0
 24
8.0
 34
0.0
100
AcDbRotatedDimension
  0
MTEXT
  5
1650
330
1A
100
AcDbEntity
  8
251
  6
CONTINUOUS
100
AcDbMText
 10
-34.18982955
 20
-23.36963154
 30
0.0
 40
2.8
 41
0.0
 71
     7
 72
     1
  1
HSK-E40
  7
YOKO
1001
ITEMNAME
1000
LNSP3
1001
ACAD
1000
MTEXTBEGIN
1070
    73
1070
     1
1070
    44
1040
1.0
1070
    74
1070
     0
1000
MTEXTEND
1000
MTEXTBEGIN
1070
    73
1070
     1
1070
    44
1040
1.0
1070
    74
1070
     0
1000
MTEXTEND
1000
MTEXTBEGIN
1070
    73
1070
     1
1070
    44
1040
1.0
1070
    74
1070
     0
1000
MTEXTEND
  0
LINE
  5
1651
330
1A
100
AcDbEntity
  8
250
  6
CONTINUOUS
100
AcDbLine
 10
-12.58982955
 20
-24.36963154
 30
0.0
 11
-36.98982955
 21
-24.36963154
 31
0.0
1001
ITEMNAME
1000
LNSP2
  0
LEADER
  5
1653
330
1A
100
AcDbEntity
  8
250
  6
CONTINUOUS
100
AcDbLeader
  3
BIGT
 76
     2
 10
-7.09103963
 20
-14.84544802
 30
0.0
 10
-12.58982955
 20
-24.36963154
 30
0.0
1001
ACAD
1000
DSTYLE
1002
{
1070
     6
1000
OPEN
1070
   343
1005
594
1002
}
  0
INSERT
  5
1AB6
330
1A
100
AcDbEntity
  8
245
100
AcDbBlockReference
  2
1
 10
0.0
 20
0.0
 30
0.0
  0
VIEWPORT
  5
22
330
17
100
AcDbEntity
 67
     1
  8
0
100
AcDbViewport
 10
261.51769912
 20
148.5
 30
0.0
 40
523.03539823
 41
297.0
 68
     1
 69
     1
1001
ACAD
1000
MVIEW
1002
{
1070
    16
1010
0.0
1020
0.0
1030
0.0
1010
0.0
1020
0.0
1030
1.0
1040
0.0
1040
297.0
1040
261.51769912
1040
148.5
1040
50.0
1040
0.0
1040
0.0
1070
     0
1070
   100
1070
     1
1070
     1
1070
     0
1070
     0
1070
     0
1070
     0
1040
0.0
1040
0.0
1040
0.0
1040
1.0
1040
1.0
1040
10.0
1040
10.0
1070
     0
1002
{
1002
}
1002
}
  0
ENDSEC
  0
SECTION
  2
OBJECTS
  0
DICTIONARY
  5
C
330
0
100
AcDbDictionary
  3
ACAD_GROUP
350
D
  3
ACAD_LAYOUT
350
565
  3
ACAD_MLINESTYLE
350
E
  3
ACAD_PLOTSETTINGS
350
566
  3
ACAD_PLOTSTYLENAME
350
563
  3
ACDBHEADERROUNDTRIPXREC
350
1ADF
  3
GRADE_DWG
350
540
  0
DICTIONARY
  5
1026
330
1A
100
AcDbDictionary
280
     1
  3
ACAD_LAYOUTSELFREF
360
1B01
  0
DICTIONARY
  5
1024
330
17
100
AcDbDictionary
280
     1
  3
ACAD_LAYOUTSELFREF
360
1B00
  0
DICTIONARY
  5
D
102
{ACAD_REACTORS
330
C
102
}
330
C
100
AcDbDictionary
  3
*A1
350
6C7
  3
*A2
350
6C8
  3
*A3
350
6D4
  3
*A4
350
6D5
  3
DREC-1
350
5FC
  3
DREC-2
350
654
  3
DREC-3
350
673
  3
LNSP-1
350
DC3
  0
DICTIONARY
  5
565
102
{ACAD_REACTORS
330
C
102
}
330
C
100
AcDbDictionary
  0
DICTIONARY
  5
E
102
{ACAD_REACTORS
330
C
102
}
330
C
100
AcDbDictionary
  3
STANDARD
350
13
  0
DICTIONARY
  5
566
102
{ACAD_REACTORS
330
C
102
}
330
C
100
AcDbDictionary
  3
A3_0_5倍_
350
758
  3
A3_1倍_
350
757
  3
A3_1倍__2000_
350
707
  3
A3_2倍_
350
759
  3
A4_0_5倍_
350
755
  3
A4_1倍_
350
754
  3
A4_1倍__2000_
350
708
  3
A4_2倍_
350
756
  0
ACDBDICTIONARYWDFLT
  5
563
102
{ACAD_REACTORS
330
C
102
}
330
C
100
AcDbDictionary
281
     1
  3
Normal
350
564
100
AcDbDictionaryWithDefault
340
564
  0
DICTIONARY
  5
1ADF
102
{ACAD_REACTORS
330
C
102
}
330
C
100
AcDbDictionary
  3
CEPSNTYPE
350
1AE9
  3
DIMSTYLEDATA
350
1AED
  3
FINGERPRINTGUID
350
1AEA
  3
HYPERLINKBASE
350
1AE2
  3
INSUNITS
350
1AE8
  3
LAYOUTDICT
350
1AE4
  3
LWETCUNION
350
1AE7
  3
PLOTSETDICT
350
1AE5
  3
PLOTSTYLNAMDICT
350
1AE6
  3
PSVPSCALE
350
1AEC
  3
PUCSBASE
350
1AF0
  3
PUCSORGBACK
350
1AF6
  3
PUCSORGBOTTOM
350
1AF2
  3
PUCSORGFRONT
350
1AF5
  3
PUCSORGLEFT
350
1AF3
  3
PUCSORGRIGHT
350
1AF4
  3
PUCSORGTOP
350
1AF1
  3
PUCSORTHOREF
350
1AEE
  3
PUCSORTHOVIEW
350
1AEF
  3
STYLESHEET
350
1AE3
  3
TSTACKALIGN
350
1AE0
  3
TSTACKSIZE
350
1AE1
  3
UCSBASE
350
1AF9
  3
UCSORGBACK
350
1AFF
  3
UCSORGBOTTOM
350
1AFB
  3
UCSORGFRONT
350
1AFE
  3
UCSORGLEFT
350
1AFC
  3
UCSORGRIGHT
350
1AFD
  3
UCSORGTOP
350
1AFA
  3
UCSORTHOREF
350
1AF7
  3
UCSORTHOVIEW
350
1AF8
  3
VERSIONGUID
350
1AEB
  0
DICTIONARY
  5
540
102
{ACAD_REACTORS
330
C
102
}
330
C
100
AcDbDictionary
  3
VERSION
350
560
  0
XRECORD
  5
1B01
102
{ACAD_REACTORS
330
1026
102
}
330
1026
100
AcDbXrecord
340
1A
  0
XRECORD
  5
1B00
102
{ACAD_REACTORS
330
1024
102
}
330
1024
100
AcDbXrecord
340
17
  0
GROUP
  5
6C7
102
{ACAD_REACTORS
330
D
102
}
330
D
100
AcDbGroup
300

 70
     0
 71
     1
1001
GRPNAME
1000
DMA00
  0
GROUP
  5
6C8
102
{ACAD_REACTORS
330
D
102
}
330
D
100
AcDbGroup
300

 70
     0
 71
     1
1001
GRPNAME
1000
DMA00
  0
GROUP
  5
6D4
102
{ACAD_REACTORS
330
D
102
}
330
D
100
AcDbGroup
300

 70
     0
 71
     1
1001
GRPNAME
1000
DMA00
  0
GROUP
  5
6D5
102
{ACAD_REACTORS
330
D
102
}
330
D
100
AcDbGroup
300

 70
     0
 71
     1
1001
GRPNAME
1000
DMA00
  0
GROUP
  5
5FC
102
{ACAD_REACTORS
330
D
102
}
330
D
100
AcDbGroup
300

 70
     0
 71
     1
1001
GRPNAME
1000
DREC-
1001
GPARA
1000
xsiz
1000
44.182
1000
ysiz
1000
40.677
1000
angl
1000
0
1000
ctyp
1000
0
1000
csiz
1000
5
1000
lfnt
1000
cont
1000
hcnt
1000
hoff
1000
vcnt
1000
voff
1000
opnt
1000
4
1000
dxpt
1000
0
1000
dypt
1000
0
  0
GROUP
  5
654
102
{ACAD_REACTORS
330
D
102
}
330
D
100
AcDbGroup
300

 70
     0
 71
     1
1001
GRPNAME
1000
DREC-
1001
GPARA
1000
xsiz
1000
54.592
1000
ysiz
1000
53.036
1000
angl
1000
0
1000
ctyp
1000
0
1000
csiz
1000
5
1000
lfnt
1000
cont
1000
hcnt
1000
hoff
1000
vcnt
1000
voff
1000
opnt
1000
4
1000
dxpt
1000
0
1000
dypt
1000
0
  0
GROUP
  5
673
102
{ACAD_REACTORS
330
D
102
}
330
D
100
AcDbGroup
300

 70
     0
 71
     1
1001
GRPNAME
1000
DREC-
1001
GPARA
1000
xsiz
1000
30.363
1000
ysiz
1000
36.175
1000
angl
1000
0
1000
ctyp
1000
0
1000
csiz
1000
5
1000
lfnt
1000
cont
1000
hcnt
1000
hoff
1000
vcnt
1000
voff
1000
opnt
1000
4
1000
dxpt
1000
0
1000
dypt
1000
0
  0
GROUP
  5
DC3
102
{ACAD_REACTORS
330
D
102
}
330
D
100
AcDbGroup
300

 70
     0
 71
     1
1001
GRPNAME
1000
LNSP
  0
MLINESTYLE
  5
13
102
{ACAD_REACTORS
330
E
102
}
330
E
100
AcDbMlineStyle
  2
STANDARD
 70
     0
  3

 62
     0
 51
90.0
 52
90.0
 71
     2
 49
0.5
 62
   256
  6
BYLAYER
 49
-0.5
 62
   256
  6
BYLAYER
  0
PLOTSETTINGS
  5
758
102
{ACAD_REACTORS
330
566
102
}
330
566
100
AcDbPlotSettings
  1
A3(0.5倍)
  2
\\AWTECPC05\HP DeskJet 1120C
  4
A3
  6

 40
5.95841646
 41
13.49375153
 42
6.04309082
 43
3.67242432
 44
296.92599487
 45
419.94665527
 46
89.96
 47
127.14
 48
0.0
 49
0.0
140
0.0
141
0.0
142
1.0
143
2.0
 70
  1716
 72
     1
 73
     1
 74
     2
  7
big.ctb
 75
    17
147
0.5
148
0.0
149
0.0
  0
PLOTSETTINGS
  5
757
102
{ACAD_REACTORS
330
566
102
}
330
566
100
AcDbPlotSettings
  1
A3(1倍)
  2
\\AWTECPC05\HP DeskJet 1120C
  4
A3
  6

 40
5.95841646
 41
13.49375153
 42
6.04309082
 43
3.67242432
 44
296.92599487
 45
419.94665527
 46
37.46
 47
52.89
 48
0.0
 49
0.0
140
0.0
141
0.0
142
1.0
143
1.0
 70
  1716
 72
     1
 73
     1
 74
     2
  7
big.ctb
 75
    16
147
1.0
148
0.0
149
0.0
  0
PLOTSETTINGS
  5
707
102
{ACAD_REACTORS
330
566
102
}
330
566
100
AcDbPlotSettings
  1
A3(1倍)(2000)
  2
SII LS-1300 (D-SCAN)
  4
User258
  6

 40
3.17499995
 41
3.17499995
 42
3.17498779
 43
3.17498779
 44
419.98898315
 45
296.98950195
 46
58.32
 47
40.32
 48
0.0
 49
0.0
140
0.0
141
0.0
142
1.0
143
1.0
 70
  1716
 72
     1
 73
     0
 74
     2
  7
big.ctb
 75
    16
147
1.0
148
0.0
149
0.0
  0
PLOTSETTINGS
  5
759
102
{ACAD_REACTORS
330
566
102
}
330
566
100
AcDbPlotSettings
  1
A3(2倍)
  2
\\AWTECPC05\HP DeskJet 1120C
  4
A3
  6

 40
5.95841646
 41
13.49375153
 42
6.04309082
 43
3.67242432
 44
296.92599487
 45
419.94665527
 46
-67.54
 47
-95.61
 48
0.0
 49
0.0
140
0.0
141
0.0
142
1.0
143
0.5
 70
  1716
 72
     1
 73
     1
 74
     2
  7
big.ctb
 75
    27
147
2.0
148
0.0
149
0.0
  0
PLOTSETTINGS
  5
755
102
{ACAD_REACTORS
330
566
102
}
330
566
100
AcDbPlotSettings
  1
A4(0.5倍)
  2
\\AWTECPC05\HP DeskJet 1120C
  4
A4
  6

 40
4.18041658
 41
13.49374962
 42
4.18040466
 43
3.92642212
 44
209.97332764
 45
296.92599487
 46
48.31
 47
65.5
 48
0.0
 49
0.0
140
0.0
141
0.0
142
1.0
143
2.0
 70
  1716
 72
     1
 73
     1
 74
     2
  7
big.ctb
 75
    17
147
0.5
148
0.0
149
0.0
  0
PLOTSETTINGS
  5
754
102
{ACAD_REACTORS
330
566
102
}
330
566
100
AcDbPlotSettings
  1
A4(1倍)
  2
\\AWTECPC05\HP DeskJet 1120C
  4
A4
  6

 40
4.18041658
 41
13.49374962
 42
4.18040466
 43
3.92642212
 44
209.97332764
 45
296.92599487
 46
-4.19
 47
-8.75
 48
0.0
 49
0.0
140
0.0
141
0.0
142
1.0
143
1.0
 70
  1716
 72
     1
 73
     1
 74
     2
  7
big.ctb
 75
    16
147
1.0
148
0.0
149
0.0
  0
PLOTSETTINGS
  5
708
102
{ACAD_REACTORS
330
566
102
}
330
566
100
AcDbPlotSettings
  1
A4(1倍)(2000)
  2
SII LS-1300 (D-SCAN)
  4
User259
  6

 40
3.17499995
 41
3.17499995
 42
3.17498779
 43
3.17500305
 44
296.98950195
 45
209.99449158
 46
-3.18
 47
-3.18
 48
0.0
 49
0.0
140
0.0
141
0.0
142
1.0
143
1.0
 70
  1716
 72
     1
 73
     0
 74
     2
  7
big.ctb
 75
    16
147
1.0
148
0.0
149
0.0
  0
PLOTSETTINGS
  5
756
102
{ACAD_REACTORS
330
566
102
}
330
566
100
AcDbPlotSettings
  1
A4(2倍)
  2
\\AWTECPC05\HP DeskJet 1120C
  4
A4
  6

 40
4.18041658
 41
13.49374962
 42
4.18040466
 43
3.92642212
 44
209.97332764
 45
296.92599487
 46
-109.19
 47
-157.25
 48
0.0
 49
0.0
140
0.0
141
0.0
142
1.0
143
0.5
 70
  1716
 72
     1
 73
     1
 74
     2
  7
big.ctb
 75
    27
147
2.0
148
0.0
149
0.0
  0
ACDBPLACEHOLDER
  5
564
102
{ACAD_REACTORS
330
563
102
}
330
563
100
AcDbPlaceHolder
280
     0
  0
XRECORD
  5
1AE9
102
{ACAD_REACTORS
330
1ADF
102
}
330
1ADF
100
AcDbXrecord
 90
        0
  0
XRECORD
  5
1AED
102
{ACAD_REACTORS
330
1ADF
102
}
330
1ADF
100
AcDbXrecord
1000
DSTYLE
1002
{
1070
   341
340
594
1070
   343
340
594
1070
   344
340
594
1002
}
  0
XRECORD
  5
1AEA
102
{ACAD_REACTORS
330
1ADF
102
}
330
1ADF
100
AcDbXrecord
  1
{51294030-9CB4-11D3-8E18-00A0C925D94D}
  0
XRECORD
  5
1AE2
102
{ACAD_REACTORS
330
1ADF
102
}
330
1ADF
100
AcDbXrecord
  1

  0
XRECORD
  5
1AE8
102
{ACAD_REACTORS
330
1ADF
102
}
330
1ADF
100
AcDbXrecord
 90
        0
  0
XRECORD
  5
1AE4
102
{ACAD_REACTORS
330
1ADF
102
}
330
1ADF
100
AcDbXrecord
340
565
  0
XRECORD
  5
1AE7
102
{ACAD_REACTORS
330
1ADF
102
}
330
1ADF
100
AcDbXrecord
 90
    10781
  0
XRECORD
  5
1AE5
102
{ACAD_REACTORS
330
1ADF
102
}
330
1ADF
100
AcDbXrecord
340
566
  0
XRECORD
  5
1AE6
102
{ACAD_REACTORS
330
1ADF
102
}
330
1ADF
100
AcDbXrecord
340
563
  0
XRECORD
  5
1AEC
102
{ACAD_REACTORS
330
1ADF
102
}
330
1ADF
100
AcDbXrecord
 40
0.0
  0
XRECORD
  5
1AF0
102
{ACAD_REACTORS
330
1ADF
102
}
330
1ADF
100
AcDbXrecord
340
0
  0
XRECORD
  5
1AF6
102
{ACAD_REACTORS
330
1ADF
102
}
330
1ADF
100
AcDbXrecord
 10
0.0
 20
0.0
 30
0.0
  0
XRECORD
  5
1AF2
102
{ACAD_REACTORS
330
1ADF
102
}
330
1ADF
100
AcDbXrecord
 10
0.0
 20
0.0
 30
0.0
  0
XRECORD
  5
1AF5
102
{ACAD_REACTORS
330
1ADF
102
}
330
1ADF
100
AcDbXrecord
 10
0.0
 20
0.0
 30
0.0
  0
XRECORD
  5
1AF3
102
{ACAD_REACTORS
330
1ADF
102
}
330
1ADF
100
AcDbXrecord
 10
0.0
 20
0.0
 30
0.0
  0
XRECORD
  5
1AF4
102
{ACAD_REACTORS
330
1ADF
102
}
330
1ADF
100
AcDbXrecord
 10
0.0
 20
0.0
 30
0.0
  0
XRECORD
  5
1AF1
102
{ACAD_REACTORS
330
1ADF
102
}
330
1ADF
100
AcDbXrecord
 10
0.0
 20
0.0
 30
0.0
  0
XRECORD
  5
1AEE
102
{ACAD_REACTORS
330
1ADF
102
}
330
1ADF
100
AcDbXrecord
340
0
  0
XRECORD
  5
1AEF
102
{ACAD_REACTORS
330
1ADF
102
}
330
1ADF
100
AcDbXrecord
 70
     0
  0
XRECORD
  5
1AE3
102
{ACAD_REACTORS
330
1ADF
102
}
330
1ADF
100
AcDbXrecord
  1
big.ctb
  0
XRECORD
  5
1AE0
102
{ACAD_REACTORS
330
1ADF
102
}
330
1ADF
100
AcDbXrecord
 90
        1
  0
XRECORD
  5
1AE1
102
{ACAD_REACTORS
330
1ADF
102
}
330
1ADF
100
AcDbXrecord
 90
       70
  0
XRECORD
  5
1AF9
102
{ACAD_REACTORS
330
1ADF
102
}
330
1ADF
100
AcDbXrecord
340
0
  0
XRECORD
  5
1AFF
102
{ACAD_REACTORS
330
1ADF
102
}
330
1ADF
100
AcDbXrecord
 10
0.0
 20
0.0
 30
0.0
  0
XRECORD
  5
1AFB
102
{ACAD_REACTORS
330
1ADF
102
}
330
1ADF
100
AcDbXrecord
 10
0.0
 20
0.0
 30
0.0
  0
XRECORD
  5
1AFE
102
{ACAD_REACTORS
330
1ADF
102
}
330
1ADF
100
AcDbXrecord
 10
0.0
 20
0.0
 30
0.0
  0
XRECORD
  5
1AFC
102
{ACAD_REACTORS
330
1ADF
102
}
330
1ADF
100
AcDbXrecord
 10
0.0
 20
0.0
 30
0.0
  0
XRECORD
  5
1AFD
102
{ACAD_REACTORS
330
1ADF
102
}
330
1ADF
100
AcDbXrecord
 10
0.0
 20
0.0
 30
0.0
  0
XRECORD
  5
1AFA
102
{ACAD_REACTORS
330
1ADF
102
}
330
1ADF
100
AcDbXrecord
 10
0.0
 20
0.0
 30
0.0
  0
XRECORD
  5
1AF7
102
{ACAD_REACTORS
330
1ADF
102
}
330
1ADF
100
AcDbXrecord
340
0
  0
XRECORD
  5
1AF8
102
{ACAD_REACTORS
330
1ADF
102
}
330
1ADF
100
AcDbXrecord
 70
     0
  0
XRECORD
  5
1AEB
102
{ACAD_REACTORS
330
1ADF
102
}
330
1ADF
100
AcDbXrecord
  1
{49B67B81-1D59-4790-A262-FCF6C6A468F7}
  0
XRECORD
  5
560
102
{ACAD_REACTORS
330
540
102
}
330
540
100
AcDbXrecord
  1
2.0.0
  0
ENDSEC
  0
EOF
