  0
SECTION
  2
HEADER
  9
$ACADVER
  1
AC1014
  9
$ACADMAINTVER
 70
     9
  9
$DWGCODEPAGE
  3
ANSI_932
  9
$INSBASE
 10
0.0
 20
0.0
 30
0.0
  9
$EXTMIN
 10
-37.47072524
 20
-20.9540437
 30
-0.00152582
  9
$EXTMAX
 10
79.24546213
 20
54.00082995
 30
0.00000003
  9
$LIMMIN
 10
0.0
 20
0.0
  9
$LIMMAX
 10
297.0
 20
210.0
  9
$ORTHOMODE
 70
     0
  9
$REGENMODE
 70
     1
  9
$FILLMODE
 70
     1
  9
$QTEXTMODE
 70
     0
  9
$MIRRTEXT
 70
     1
  9
$DRAGMODE
 70
     2
  9
$LTSCALE
 40
10.0
  9
$OSMODE
 70
   549
  9
$ATTMODE
 70
     1
  9
$TEXTSIZE
 40
3.0
  9
$TRACEWID
 40
1.0
  9
$TEXTSTYLE
  7
YOKO
  9
$CLAYER
  8
245
  9
$CELTYPE
  6
BYLAYER
  9
$CECOLOR
 62
   256
  9
$CELTSCALE
 40
1.0
  9
$DELOBJ
 70
     1
  9
$DISPSILH
 70
     0
  9
$DIMSCALE
 40
1.0
  9
$DIMASZ
 40
2.23
  9
$DIMEXO
 40
0.5
  9
$DIMDLI
 40
2.5
  9
$DIMRND
 40
0.0
  9
$DIMDLE
 40
0.0
  9
$DIMEXE
 40
1.0
  9
$DIMTP
 40
0.0
  9
$DIMTM
 40
0.0
  9
$DIMTXT
 40
2.8
  9
$DIMCEN
 40
0.0
  9
$DIMTSZ
 40
0.0
  9
$DIMTOL
 70
     0
  9
$DIMLIM
 70
     0
  9
$DIMTIH
 70
     0
  9
$DIMTOH
 70
     0
  9
$DIMSE1
 70
     0
  9
$DIMSE2
 70
     0
  9
$DIMTAD
 70
     3
  9
$DIMZIN
 70
     8
  9
$DIMBLK
  1

  9
$DIMASO
 70
     1
  9
$DIMSHO
 70
     1
  9
$DIMPOST
  1

  9
$DIMAPOST
  1

  9
$DIMALT
 70
     0
  9
$DIMALTD
 70
     2
  9
$DIMALTF
 40
25.4
  9
$DIMLFAC
 40
1.0
  9
$DIMTOFL
 70
     1
  9
$DIMTVP
 40
0.0
  9
$DIMTIX
 70
     1
  9
$DIMSOXD
 70
     0
  9
$DIMSAH
 70
     1
  9
$DIMBLK1
  1
OPEN
  9
$DIMBLK2
  1
OPEN
  9
$DIMSTYLE
  2
BIGT
  9
$DIMCLRD
 70
   256
  9
$DIMCLRE
 70
   256
  9
$DIMCLRT
 70
    40
  9
$DIMTFAC
 40
1.0
  9
$DIMGAP
 40
1.0
  9
$DIMJUST
 70
     0
  9
$DIMSD1
 70
     0
  9
$DIMSD2
 70
     0
  9
$DIMTOLJ
 70
     1
  9
$DIMTZIN
 70
     8
  9
$DIMALTZ
 70
     0
  9
$DIMALTTZ
 70
     0
  9
$DIMFIT
 70
     3
  9
$DIMUPT
 70
     0
  9
$DIMUNIT
 70
     2
  9
$DIMDEC
 70
     3
  9
$DIMTDEC
 70
     3
  9
$DIMALTU
 70
     2
  9
$DIMALTTD
 70
     2
  9
$DIMTXSTY
  7
STANDARD
  9
$DIMAUNIT
 70
     0
  9
$LUNITS
 70
     2
  9
$LUPREC
 70
     3
  9
$SKETCHINC
 40
1.0
  9
$FILLETRAD
 40
0.0
  9
$AUNITS
 70
     0
  9
$AUPREC
 70
     3
  9
$MENU
  1
.
  9
$ELEVATION
 40
0.0
  9
$PELEVATION
 40
0.0
  9
$THICKNESS
 40
0.0
  9
$LIMCHECK
 70
     0
  9
$BLIPMODE
 70
     0
  9
$CHAMFERA
 40
10.0
  9
$CHAMFERB
 40
10.0
  9
$CHAMFERC
 40
0.0
  9
$CHAMFERD
 40
0.0
  9
$SKPOLY
 70
     0
  9
$TDCREATE
 40
2454995.460155335
  9
$TDUPDATE
 40
2455378.437995509
  9
$TDINDWG
 40
0.0075486458
  9
$TDUSRTIMER
 40
0.0075484722
  9
$USRTIMER
 70
     1
  9
$ANGBASE
 50
0.0
  9
$ANGDIR
 70
     0
  9
$PDMODE
 70
     1
  9
$PDSIZE
 40
-5.0
  9
$PLINEWID
 40
0.0
  9
$COORDS
 70
     0
  9
$SPLFRAME
 70
     0
  9
$SPLINETYPE
 70
     6
  9
$SPLINESEGS
 70
     8
  9
$ATTDIA
 70
     0
  9
$ATTREQ
 70
     1
  9
$HANDLING
 70
-16383
  9
$HANDSEED
  5
1893
  9
$SURFTAB1
 70
     6
  9
$SURFTAB2
 70
     6
  9
$SURFTYPE
 70
     6
  9
$SURFU
 70
     6
  9
$SURFV
 70
     6
  9
$UCSNAME
  2

  9
$UCSORG
 10
0.0
 20
0.0
 30
0.0
  9
$UCSXDIR
 10
1.0
 20
0.0
 30
0.0
  9
$UCSYDIR
 10
0.0
 20
1.0
 30
0.0
  9
$PUCSNAME
  2

  9
$PUCSORG
 10
0.0
 20
0.0
 30
0.0
  9
$PUCSXDIR
 10
1.0
 20
0.0
 30
0.0
  9
$PUCSYDIR
 10
0.0
 20
1.0
 30
0.0
  9
$USERI1
 70
     1
  9
$USERI2
 70
     0
  9
$USERI3
 70
     0
  9
$USERI4
 70
     0
  9
$USERI5
 70
     0
  9
$USERR1
 40
0.0
  9
$USERR2
 40
0.0
  9
$USERR3
 40
0.0
  9
$USERR4
 40
0.0
  9
$USERR5
 40
0.0
  9
$WORLDVIEW
 70
     1
  9
$SHADEDGE
 70
     3
  9
$SHADEDIF
 70
    70
  9
$TILEMODE
 70
     1
  9
$MAXACTVP
 70
    16
  9
$PINSBASE
 10
0.0
 20
0.0
 30
0.0
  9
$PLIMCHECK
 70
     0
  9
$PEXTMIN
 10
1.00000000E+20
 20
1.00000000E+20
 30
1.00000000E+20
  9
$PEXTMAX
 10
-1.00000000E+20
 20
-1.00000000E+20
 30
-1.00000000E+20
  9
$PLIMMIN
 10
0.0
 20
0.0
  9
$PLIMMAX
 10
420.0
 20
297.0
  9
$UNITMODE
 70
     0
  9
$VISRETAIN
 70
     0
  9
$PLINEGEN
 70
     0
  9
$PSLTSCALE
 70
     1
  9
$TREEDEPTH
 70
  3020
  9
$PICKSTYLE
 70
     0
  9
$CMLSTYLE
  2
STANDARD
  9
$CMLJUST
 70
     0
  9
$CMLSCALE
 40
1.0
  9
$PROXYGRAPHICS
 70
     1
  9
$MEASUREMENT
 70
     1
  0
ENDSEC
  0
SECTION
  2
CLASSES
  0
CLASS
  1
XRECORD
  2
AcDbXrecord
  3
AutoCAD 2000
 90
        0
280
     0
281
     0
  0
CLASS
  1
ACDBDICTIONARYWDFLT
  2
AcDbDictionaryWithDefault
  3
AutoCAD 2000
 90
        0
280
     0
281
     0
  0
CLASS
  1
ACDBPLACEHOLDER
  2
AcDbPlaceHolder
  3
AutoCAD 2000
 90
        0
280
     0
281
     0
  0
CLASS
  1
LAYOUT
  2
AcDbLayout
  3
AutoCAD 2000
 90
        0
280
     0
281
     0
  0
CLASS
  1
PLOTSETTINGS
  2
AcDbPlotSettings
  3
AutoCAD 2000
 90
        0
280
     0
281
     0
  0
CLASS
  1
LONG_TRANSACTION
  2
AcDbLongTransaction
  3
AutoCAD 2000
 90
        0
280
     0
281
     0
  0
CLASS
  1
LWPOLYLINE
  2
AcDbPolyline
  3
AutoCAD 2000
 90
        0
280
     0
281
     1
  0
CLASS
  1
HATCH
  2
AcDbHatch
  3
AutoCAD 2000
 90
        0
280
     0
281
     1
  0
CLASS
  1
XRECORD
  2
AcDbXrecord
  3
AutoCAD 2000
 90
        0
280
     0
281
     0
  0
CLASS
  1
LONG_TRANSACTION
  2
AcDbLongTransaction
  3
AutoCAD 2000
 90
        0
280
     0
281
     0
  0
CLASS
  1
LWPOLYLINE
  2
AcDbPolyline
  3
AutoCAD 2000
 90
        0
280
     0
281
     1
  0
CLASS
  1
HATCH
  2
AcDbHatch
  3
AutoCAD 2000
 90
        0
280
     0
281
     1
  0
CLASS
  1
XRECORD
  2
AcDbXrecord
  3
AutoCAD 2000
 90
        0
280
     0
281
     0
  0
CLASS
  1
LONG_TRANSACTION
  2
AcDbLongTransaction
  3
AutoCAD 2000
 90
        0
280
     0
281
     0
  0
CLASS
  1
LWPOLYLINE
  2
AcDbPolyline
  3
AutoCAD 2000
 90
        0
280
     0
281
     1
  0
CLASS
  1
HATCH
  2
AcDbHatch
  3
AutoCAD 2000
 90
        0
280
     0
281
     1
  0
CLASS
  1
XRECORD
  2
AcDbXrecord
  3
AutoCAD 2000
 90
        0
280
     0
281
     0
  0
CLASS
  1
LONG_TRANSACTION
  2
AcDbLongTransaction
  3
AutoCAD 2000
 90
        0
280
     0
281
     0
  0
CLASS
  1
LWPOLYLINE
  2
AcDbPolyline
  3
AutoCAD 2000
 90
        0
280
     0
281
     1
  0
CLASS
  1
HATCH
  2
AcDbHatch
  3
AutoCAD 2000
 90
        0
280
     0
281
     1
  0
CLASS
  1
XRECORD
  2
AcDbXrecord
  3
AutoCAD 2000
 90
        0
280
     0
281
     0
  0
ENDSEC
  0
SECTION
  2
TABLES
  0
TABLE
  2
VPORT
  5
8
330
0
100
AcDbSymbolTable
 70
     4
  0
VPORT
  5
186E
330
8
100
AcDbSymbolTableRecord
100
AcDbViewportTableRecord
  2
*ACTIVE
 70
     0
 10
0.0
 20
0.0
 11
1.0
 21
1.0
 12
20.88736844
 22
16.52339313
 13
0.0
 23
0.0
 14
7.0
 24
7.0
 15
7.0
 25
7.0
 16
0.0
 26
0.0
 36
1.0
 17
0.0
 27
0.0
 37
0.0
 40
80.59186958
 41
1.45595855
 42
50.0
 43
0.0
 44
0.0
 50
0.0
 51
0.0
 71
     0
 72
  2000
 73
     1
 74
     0
 75
     0
 76
     0
 77
     0
 78
     0
  0
ENDTAB
  0
TABLE
  2
LTYPE
  5
5
330
0
100
AcDbSymbolTable
 70
     3
  0
LTYPE
  5
14
330
5
100
AcDbSymbolTableRecord
100
AcDbLinetypeTableRecord
  2
BYBLOCK
 70
     0
  3

 72
    65
 73
     0
 40
0.0
  0
LTYPE
  5
15
330
5
100
AcDbSymbolTableRecord
100
AcDbLinetypeTableRecord
  2
BYLAYER
 70
     0
  3

 72
    65
 73
     0
 40
0.0
  0
LTYPE
  5
16
330
5
100
AcDbSymbolTableRecord
100
AcDbLinetypeTableRecord
  2
CONTINUOUS
 70
     0
  3
Solid line
 72
    65
 73
     0
 40
0.0
  0
LTYPE
  5
258
330
5
100
AcDbSymbolTableRecord
100
AcDbLinetypeTableRecord
  2
CENTER2
 70
     0
  3
___ _ ___ _ ___ _ ___ _ ___ _ ___ _ ___ _ ___ _
 72
    65
 73
     4
 40
1.125
 49
0.75
 74
     0
 49
-0.125
 74
     0
 49
0.125
 74
     0
 49
-0.125
 74
     0
  0
LTYPE
  5
25D
330
5
100
AcDbSymbolTableRecord
100
AcDbLinetypeTableRecord
  2
PHANTOM2
 70
     0
  3
___ _ _ ___ _ _ ___ _ _ ___ _ _ ___ _ _ ___ _ _
 72
    65
 73
     6
 40
1.25
 49
0.625
 74
     0
 49
-0.125
 74
     0
 49
0.125
 74
     0
 49
-0.125
 74
     0
 49
0.125
 74
     0
 49
-0.125
 74
     0
  0
ENDTAB
  0
TABLE
  2
LAYER
  5
2
330
0
100
AcDbSymbolTable
 70
    11
  0
LAYER
  5
F
330
2
100
AcDbSymbolTableRecord
100
AcDbLayerTableRecord
  2
0
 70
     0
 62
     7
  6
CONTINUOUS
  0
LAYER
  5
1AA
330
2
100
AcDbSymbolTableRecord
100
AcDbLayerTableRecord
  2
240
 70
     0
 62
     4
  6
CONTINUOUS
  0
LAYER
  5
1AB
330
2
100
AcDbSymbolTableRecord
100
AcDbLayerTableRecord
  2
241
 70
     0
 62
   211
  6
CONTINUOUS
  0
LAYER
  5
1AC
330
2
100
AcDbSymbolTableRecord
100
AcDbLayerTableRecord
  2
242
 70
     0
 62
     3
  6
CONTINUOUS
  0
LAYER
  5
1AF
330
2
100
AcDbSymbolTableRecord
100
AcDbLayerTableRecord
  2
245
 70
     0
 62
     2
  6
CENTER2
  0
LAYER
  5
21A
330
2
100
AcDbSymbolTableRecord
100
AcDbLayerTableRecord
  2
246
 70
     0
 62
     3
  6
PHANTOM2
  0
LAYER
  5
21B
330
2
100
AcDbSymbolTableRecord
100
AcDbLayerTableRecord
  2
247
 70
     0
 62
    60
  6
CONTINUOUS
  0
LAYER
  5
21E
330
2
100
AcDbSymbolTableRecord
100
AcDbLayerTableRecord
  2
250
 70
     0
 62
     3
  6
CONTINUOUS
  0
LAYER
  5
21F
330
2
100
AcDbSymbolTableRecord
100
AcDbLayerTableRecord
  2
251
 70
     0
 62
    40
  6
CONTINUOUS
  0
LAYER
  5
5C4
330
2
100
AcDbSymbolTableRecord
100
AcDbLayerTableRecord
  2
DEFPOINTS
 70
     0
 62
     7
  6
CONTINUOUS
  0
ENDTAB
  0
TABLE
  2
STYLE
  5
3
330
0
100
AcDbSymbolTable
 70
     2
  0
STYLE
  5
10
330
3
100
AcDbSymbolTableRecord
100
AcDbTextStyleTableRecord
  2
STANDARD
 70
     0
 40
0.0
 41
1.0
 50
0.0
 71
     0
 42
3.0
  3
romans.shx
  4
BIGFONT.SHX
  0
STYLE
  5
339
330
3
100
AcDbSymbolTableRecord
100
AcDbTextStyleTableRecord
  2
YOKO
 70
     0
 40
0.0
 41
1.0
 50
0.0
 71
     0
 42
3.0
  3
romans.shx
  4
extfont.shx
  0
ENDTAB
  0
TABLE
  2
VIEW
  5
6
330
0
100
AcDbSymbolTable
 70
     1
  0
VIEW
  5
186C
330
6
100
AcDbSymbolTableRecord
100
AcDbViewTableRecord
  2
OLE1
 70
     0
 40
80.59186958
 10
20.88736844
 20
16.52339313
 41
117.33842151
 11
0.0
 21
0.0
 31
1.0
 12
0.0
 22
0.0
 32
0.0
 42
50.0
 43
0.0
 44
0.0
 50
0.0
 71
     0
  0
ENDTAB
  0
TABLE
  2
UCS
  5
7
330
0
100
AcDbSymbolTable
 70
     0
  0
ENDTAB
  0
TABLE
  2
APPID
  5
9
330
0
100
AcDbSymbolTable
 70
     9
  0
APPID
  5
11
330
9
100
AcDbSymbolTableRecord
100
AcDbRegAppTableRecord
  2
ACAD
 70
     0
  0
APPID
  5
1B1
330
9
100
AcDbSymbolTableRecord
100
AcDbRegAppTableRecord
  2
GLOBAL
 70
     0
  0
APPID
  5
2A4
330
9
100
AcDbSymbolTableRecord
100
AcDbRegAppTableRecord
  2
DETAIL
 70
     0
  0
APPID
  5
5FD
330
9
100
AcDbSymbolTableRecord
100
AcDbRegAppTableRecord
  2
GRPNAME
 70
     0
  0
APPID
  5
5FE
330
9
100
AcDbSymbolTableRecord
100
AcDbRegAppTableRecord
  2
GPARA
 70
     0
  0
APPID
  5
6C4
330
9
100
AcDbSymbolTableRecord
100
AcDbRegAppTableRecord
  2
DCO15
 70
     0
  0
APPID
  5
6C5
330
9
100
AcDbSymbolTableRecord
100
AcDbRegAppTableRecord
  2
ITEMNAME
 70
     0
  0
APPID
  5
6C6
330
9
100
AcDbSymbolTableRecord
100
AcDbRegAppTableRecord
  2
GRADE_0
 70
     0
  0
APPID
  5
DB6
330
9
100
AcDbSymbolTableRecord
100
AcDbRegAppTableRecord
  2
CONTENTBLOCKICON
 70
     0
  0
ENDTAB
  0
TABLE
  2
DIMSTYLE
  5
A
330
0
100
AcDbSymbolTable
 70
     1
  0
DIMSTYLE
105
725
102
{ACAD_REACTORS
330
96C
330
96F
330
F91
330
FB5
102
}
330
A
100
AcDbSymbolTableRecord
100
AcDbDimStyleTableRecord
  2
BIGT
 70
     0
  3

  4

  5

  6
OPEN
  7
OPEN
 40
1.0
 41
2.23
 42
0.5
 43
2.5
 44
1.0
 45
0.0
 46
0.0
 47
0.0
 48
0.0
140
2.8
141
0.0
142
0.0
143
25.4
144
1.0
145
0.0
146
1.0
147
1.0
 71
     0
 72
     0
 73
     0
 74
     0
 75
     0
 76
     0
 77
     3
 78
     8
170
     0
171
     2
172
     1
173
     1
174
     1
175
     0
176
   256
177
   256
178
    40
270
     2
271
     3
272
     3
273
     2
274
     2
340
10
275
     0
280
     0
281
     0
282
     0
283
     1
284
     8
285
     0
286
     0
287
     3
288
     0
  0
ENDTAB
  0
TABLE
  2
BLOCK_RECORD
  5
1
330
0
100
AcDbSymbolTable
 70
     7
  0
BLOCK_RECORD
  5
1A
102
{ACAD_XDICTIONARY
360
DB4
102
}
330
1
100
AcDbSymbolTableRecord
100
AcDbBlockTableRecord
  2
*MODEL_SPACE
  0
BLOCK_RECORD
  5
17
102
{ACAD_XDICTIONARY
360
DB2
102
}
330
1
100
AcDbSymbolTableRecord
100
AcDbBlockTableRecord
  2
*PAPER_SPACE
  0
BLOCK_RECORD
  5
594
330
1
100
AcDbSymbolTableRecord
100
AcDbBlockTableRecord
  2
_OPEN
  0
BLOCK_RECORD
  5
6E3
330
1
100
AcDbSymbolTableRecord
100
AcDbBlockTableRecord
  2
矢印なし
  0
BLOCK_RECORD
  5
B3C
330
1
100
AcDbSymbolTableRecord
100
AcDbBlockTableRecord
  2
*D2
  0
BLOCK_RECORD
  5
B48
330
1
100
AcDbSymbolTableRecord
100
AcDbBlockTableRecord
  2
*D3
  0
BLOCK_RECORD
  5
B98
330
1
100
AcDbSymbolTableRecord
100
AcDbBlockTableRecord
  2
1
1001
CONTENTBLOCKICON
1071
        0
1004
2800000020000000200000000100080000000000000400000000000000000000000000000000000000000000000080000080000000808000800000008000800080800000C0C0C000C0DCC000F0CAA6000020400000206000002080000020A0000020C0000020E00000400000004020000040400000406000004080000040A0
1004
000040C0000040E00000600000006020000060400000606000006080000060A0000060C0000060E00000800000008020000080400000806000008080000080A0000080C0000080E00000A0000000A0200000A0400000A0600000A0800000A0A00000A0C00000A0E00000C0000000C0200000C0400000C0600000C0800000C0
1004
A00000C0C00000C0E00000E0000000E0200000E0400000E0600000E0800000E0A00000E0C00000E0E00040000000400020004000400040006000400080004000A0004000C0004000E00040200000402020004020400040206000402080004020A0004020C0004020E000404000004040200040404000404060004040800040
1004
40A0004040C0004040E00040600000406020004060400040606000406080004060A0004060C0004060E00040800000408020004080400040806000408080004080A0004080C0004080E00040A0000040A0200040A0400040A0600040A0800040A0A00040A0C00040A0E00040C0000040C0200040C0400040C0600040C08000
1004
40C0A00040C0C00040C0E00040E0000040E0200040E0400040E0600040E0800040E0A00040E0C00040E0E00080000000800020008000400080006000800080008000A0008000C0008000E00080200000802020008020400080206000802080008020A0008020C0008020E00080400000804020008040400080406000804080
1004
008040A0008040C0008040E00080600000806020008060400080606000806080008060A0008060C0008060E00080800000808020008080400080806000808080008080A0008080C0008080E00080A0000080A0200080A0400080A0600080A0800080A0A00080A0C00080A0E00080C0000080C0200080C0400080C0600080C0
1004
800080C0A00080C0C00080C0E00080E0000080E0200080E0400080E0600080E0800080E0A00080E0C00080E0E000C0000000C0002000C0004000C0006000C0008000C000A000C000C000C000E000C0200000C0202000C0204000C0206000C0208000C020A000C020C000C020E000C0400000C0402000C0404000C0406000C0
1004
408000C040A000C040C000C040E000C0600000C0602000C0604000C0606000C0608000C060A000C060C000C060E000C0800000C0802000C0804000C0806000C0808000C080A000C080C000C080E000C0A00000C0A02000C0A04000C0A06000C0A08000C0A0A000C0A0C000C0A0E000C0C00000C0C02000C0C04000C0C06000
1004
C0C08000C0C0A000F0FBFF00A4A0A000808080000000FF0000FF000000FFFF00FF000000FF00FF00FFFF0000FFFFFF0000000000000000000000000000000000000000000000000000000000000000000000000000000000000000000000000000000000000000000000000000000000000000000000000000000000000000
1004
00000000000000000000000000000000000000000000000000000000000000000000000000000000000000000000000000000000000000000000000000000000000000000000000000000000000000000000000000000000000000000000000000000000000000000000000000000000000000000000000000000000000000
1004
000000000000000000000000000000000000000000000000000000000000000000000000000000000000000000000000000000000000000000000000000000000000000000000000000000000000000000000000000000000000FEFEFEFEFEFEFBFEFE0000000000000000000000000000000000000000000000FE00000000
1004
E7FEFEFE0000000000000000000000000000000000FEFEFEFEFEFEE700000000E7E7E7FE0000000000000000000000000000000000FE0000000000E700000000E7E7E7FEFE0000000000000000FAFAFAFA00000000FE0000000000E700000000E7E7E7E700FEFEFEFEFEFEFEFEFEFEFEFE00000000FE0000000000E7000000
1004
00E7E7E7E7000000E700E7E7E7E7E700E7FE00000000FE0000000000E700000000E7E7E7E7000000E700E70000E7E7E7003E000000FBFEFBFBFBFBFBE7FBFBFBFBE7E7E7E7FBFBFBE7FBE7E7E7E7E7E7E7FEFB000000FE0000000000E700000000E7E7E7E7000000E7000000000000E7E7FA00000000FE0000000000E70000
1004
0000E7E7E7E70000FEFEFEFEFEFEFEFEE7E7FA00000000FE0000000000E700000000E7E7E7FEFEFE00000000000000FAFAFAFA00000000FEFEFEFEFEFEFE00000000E7E7E7FE0000000000000000000000000000000000000000000000FE00000000E7FEFEFE0000000000000000000000000000000000000000000000FEFE
1004
FEFEFEFEFBFEFE000000000000000000000000000000000000000000000000000000000000000000000000000000000000000000000000000000000000000000000000000000000000000000000000000000000000000000000000000000000000000000000000000000000000000000000000000000000000000000000000
1004
00000000000000000000000000000000000000000000000000000000000000000000000000000000000000000000000000000000000000000000000000000000000000000000000000000000000000000000000000000000000000000000000000000000000000000000000000000000000000000000000000000000000000
1004
0000000000000000000000000000000000000000000000000000000000000000000000000000000000000000000000000000000000000000
  0
BLOCK_RECORD
  5
F92
330
1
100
AcDbSymbolTableRecord
100
AcDbBlockTableRecord
  2
*D5
  0
BLOCK_RECORD
  5
FB6
330
1
100
AcDbSymbolTableRecord
100
AcDbBlockTableRecord
  2
*D6
  0
ENDTAB
  0
ENDSEC
  0
SECTION
  2
BLOCKS
  0
BLOCK
  5
1B
330
1A
100
AcDbEntity
  8
0
100
AcDbBlockBegin
  2
*MODEL_SPACE
 70
     0
 10
0.0
 20
0.0
 30
0.0
  3
*MODEL_SPACE
  1

  0
ENDBLK
  5
1C
330
1A
100
AcDbEntity
  8
0
100
AcDbBlockEnd
  0
BLOCK
  5
18
330
17
100
AcDbEntity
 67
     1
  8
0
100
AcDbBlockBegin
  2
*PAPER_SPACE
 70
     0
 10
0.0
 20
0.0
 30
0.0
  3
*PAPER_SPACE
  1

  0
ENDBLK
  5
19
330
17
100
AcDbEntity
 67
     1
  8
0
100
AcDbBlockEnd
  0
BLOCK
  5
598
330
594
100
AcDbEntity
  8
0
100
AcDbBlockBegin
  2
_OPEN
 70
     0
 10
0.0
 20
0.0
 30
0.0
  3
_OPEN
  1

  0
LINE
  5
595
330
594
100
AcDbEntity
  8
0
  6
BYBLOCK
 62
     0
100
AcDbLine
 10
-1.0
 20
0.16666667
 30
0.0
 11
0.0
 21
0.0
 31
0.0
  0
LINE
  5
596
330
594
100
AcDbEntity
  8
0
  6
BYBLOCK
 62
     0
100
AcDbLine
 10
-1.0
 20
-0.16666667
 30
0.0
 11
0.0
 21
0.0
 31
0.0
  0
LINE
  5
597
330
594
100
AcDbEntity
  8
0
  6
BYBLOCK
 62
     0
100
AcDbLine
 10
0.0
 20
0.0
 30
0.0
 11
-1.0
 21
0.0
 31
0.0
  0
ENDBLK
  5
599
330
594
100
AcDbEntity
  8
0
100
AcDbBlockEnd
  0
BLOCK
  5
6E4
330
6E3
100
AcDbEntity
  8
0
100
AcDbBlockBegin
  2
矢印なし
 70
     0
 10
0.0
 20
0.0
 30
0.0
  3
矢印なし
  1

  0
ENDBLK
  5
6E5
330
6E3
100
AcDbEntity
  8
0
100
AcDbBlockEnd
  0
BLOCK
  5
B46
330
B3C
100
AcDbEntity
  8
0
100
AcDbBlockBegin
  2
*D2
 70
     1
 10
0.0
 20
0.0
 30
0.0
  3
*D2
  1

  0
LINE
  5
141D
330
B3C
100
AcDbEntity
  8
250
  6
CONTINUOUS
100
AcDbLine
 10
55.5
 20
-8.0
 30
0.0
 11
67.5
 21
-8.0
 31
0.0
  0
LINE
  5
141E
330
B3C
100
AcDbEntity
  8
250
  6
CONTINUOUS
100
AcDbLine
 10
55.5
 20
8.0
 30
0.0
 11
67.5
 21
8.0
 31
0.0
  0
LINE
  5
141F
330
B3C
100
AcDbEntity
  8
250
  6
CONTINUOUS
100
AcDbLine
 10
66.5
 20
-5.77
 30
0.0
 11
66.5
 21
5.77
 31
0.0
  0
INSERT
  5
1420
330
B3C
100
AcDbEntity
  8
250
  6
CONTINUOUS
100
AcDbBlockReference
  2
_OPEN
 10
66.5
 20
-8.0
 30
0.0
 41
2.23
 42
2.23
 43
2.23
 50
270.0
  0
INSERT
  5
1421
330
B3C
100
AcDbEntity
  8
250
  6
CONTINUOUS
100
AcDbBlockReference
  2
_OPEN
 10
66.5
 20
8.0
 30
0.0
 41
2.23
 42
2.23
 43
2.23
 50
90.0
  0
MTEXT
  5
1422
330
B3C
100
AcDbEntity
  8
250
  6
CONTINUOUS
 62
    40
100
AcDbMText
 10
64.1
 20
0.0
 30
0.0
 40
2.8
 41
0.0
 71
     5
 72
     1
  1
\A1;{\H2.8;\U+2205}16
 11
0.0
 21
1.0
 31
0.0
1001
ACAD
1000
MTEXTBEGIN
1070
    73
1070
     1
1070
    44
1040
1.0
1070
    74
1070
     0
1000
MTEXTEND
1000
MTEXTBEGIN
1070
    73
1070
     1
1070
    44
1040
1.0
1070
    74
1070
     0
1000
MTEXTEND
  0
POINT
  5
1423
330
B3C
100
AcDbEntity
  8
DEFPOINTS
  6
CONTINUOUS
 62
     0
100
AcDbPoint
 10
55.0
 20
-8.0
 30
0.0
  0
POINT
  5
1424
330
B3C
100
AcDbEntity
  8
DEFPOINTS
  6
CONTINUOUS
 62
     0
100
AcDbPoint
 10
55.0
 20
8.0
 30
0.0
  0
POINT
  5
1425
330
B3C
100
AcDbEntity
  8
DEFPOINTS
  6
CONTINUOUS
 62
     0
100
AcDbPoint
 10
66.5
 20
8.0
 30
0.0
  0
ENDBLK
  5
B47
330
B3C
100
AcDbEntity
  8
0
100
AcDbBlockEnd
  0
BLOCK
  5
B52
330
B48
100
AcDbEntity
  8
0
100
AcDbBlockBegin
  2
*D3
 70
     1
 10
0.0
 20
0.0
 30
0.0
  3
*D3
  1

  0
LINE
  5
13E6
330
B48
100
AcDbEntity
  8
250
  6
CONTINUOUS
100
AcDbLine
 10
0.0
 20
16.5
 30
0.0
 11
0.0
 21
36.0
 31
0.0
  0
LINE
  5
13E7
330
B48
100
AcDbEntity
  8
250
  6
CONTINUOUS
100
AcDbLine
 10
55.0
 20
8.5
 30
0.0
 11
55.0
 21
36.0
 31
0.0
  0
LINE
  5
13E8
330
B48
100
AcDbEntity
  8
250
  6
CONTINUOUS
100
AcDbLine
 10
2.23
 20
35.0
 30
0.0
 11
52.77
 21
35.0
 31
0.0
  0
INSERT
  5
13E9
330
B48
100
AcDbEntity
  8
250
  6
CONTINUOUS
100
AcDbBlockReference
  2
_OPEN
 10
0.0
 20
35.0
 30
0.0
 41
2.23
 42
2.23
 43
2.23
 50
180.0
  0
INSERT
  5
13EA
330
B48
100
AcDbEntity
  8
250
  6
CONTINUOUS
100
AcDbBlockReference
  2
_OPEN
 10
55.0
 20
35.0
 30
0.0
 41
2.23
 42
2.23
 43
2.23
  0
MTEXT
  5
13EB
330
B48
100
AcDbEntity
  8
250
  6
CONTINUOUS
 62
    40
100
AcDbMText
 10
27.5
 20
37.4
 30
0.0
 40
2.8
 41
0.0
 71
     5
 72
     1
  1
\A1;55
1001
ACAD
1000
MTEXTBEGIN
1070
    73
1070
     1
1070
    44
1040
1.0
1070
    74
1070
     0
1000
MTEXTEND
1000
MTEXTBEGIN
1070
    73
1070
     1
1070
    44
1040
1.0
1070
    74
1070
     0
1000
MTEXTEND
  0
POINT
  5
13EC
330
B48
100
AcDbEntity
  8
DEFPOINTS
  6
CONTINUOUS
 62
     0
100
AcDbPoint
 10
0.0
 20
16.0
 30
0.0
  0
POINT
  5
13ED
330
B48
100
AcDbEntity
  8
DEFPOINTS
  6
CONTINUOUS
 62
     0
100
AcDbPoint
 10
55.0
 20
8.0
 30
0.0
  0
POINT
  5
13EE
330
B48
100
AcDbEntity
  8
DEFPOINTS
  6
CONTINUOUS
 62
     0
100
AcDbPoint
 10
55.0
 20
35.0
 30
0.0
  0
ENDBLK
  5
B53
330
B48
100
AcDbEntity
  8
0
100
AcDbBlockEnd
  0
BLOCK
  5
B99
330
B98
100
AcDbEntity
  8
0
100
AcDbBlockBegin
  2
1
 70
     0
 10
0.0
 20
0.0
 30
0.0
  3
1
  1

  0
ARC
  5
16FA
330
B98
100
AcDbEntity
  8
240
100
AcDbCircle
 10
33.4536803
 20
-32.35770049
 30
0.0
 40
25.0
100
AcDbArc
 50
97.45807874
 51
118.37024259
  0
ARC
  5
16FB
330
B98
100
AcDbEntity
  8
240
100
AcDbCircle
 10
33.61371981
 20
33.06865483
 30
0.0
 40
25.72579868439121
100
AcDbArc
 50
242.15806377
 51
262.39402979
  0
LINE
  5
16FC
330
B98
100
AcDbEntity
  8
245
  6
CENTER2
100
AcDbLine
 10
56.0
 20
0.0
 30
0.0
 11
-17.0
 21
0.0
 31
0.0
  0
LINE
  5
16FD
330
B98
100
AcDbEntity
  8
245
  6
CENTER2
100
AcDbLine
 10
16.0
 20
-16.0
 30
0.0
 11
16.0
 21
16.0
 31
0.0
  0
LINE
  5
16FE
330
B98
100
AcDbEntity
  8
240
  6
CONTINUOUS
100
AcDbLine
 10
0.0
 20
-16.0
 30
0.0
 11
0.0
 21
-12.11
 31
0.0
  0
LINE
  5
16FF
330
B98
100
AcDbEntity
  8
241
  6
CONTINUOUS
100
AcDbLine
 10
13.97927406
 20
-16.0
 30
0.0
 11
13.97927406
 21
0.0
 31
0.0
  0
LINE
  5
1700
330
B98
100
AcDbEntity
  8
241
  6
CONTINUOUS
100
AcDbLine
 10
18.02072594
 20
-16.0
 30
0.0
 11
18.02072594
 21
0.0
 31
0.0
  0
LINE
  5
1701
330
B98
100
AcDbEntity
  8
240
  6
CONTINUOUS
100
AcDbLine
 10
15.0
 20
-13.25
 30
0.0
 11
15.0
 21
-14.23205081
 31
0.0
  0
LINE
  5
1702
330
B98
100
AcDbEntity
  8
240
  6
CONTINUOUS
100
AcDbLine
 10
17.0
 20
-13.25
 30
0.0
 11
17.0
 21
-14.23205081
 31
0.0
  0
LINE
  5
1703
330
B98
100
AcDbEntity
  8
240
  6
CONTINUOUS
100
AcDbLine
 10
20.0
 20
-16.0
 30
0.0
 11
20.0
 21
-13.0
 31
0.0
  0
LINE
  5
1704
330
B98
100
AcDbEntity
  8
240
  6
CONTINUOUS
100
AcDbLine
 10
0.0
 20
-16.0
 30
0.0
 11
13.97927406
 21
-16.0
 31
0.0
  0
LINE
  5
1705
330
B98
100
AcDbEntity
  8
240
  6
CONTINUOUS
100
AcDbLine
 10
18.02072594
 20
-16.0
 30
0.0
 11
20.0
 21
-16.0
 31
0.0
  0
LINE
  5
1706
330
B98
100
AcDbEntity
  8
240
  6
CONTINUOUS
100
AcDbLine
 10
15.0
 20
-14.23205081
 30
0.0
 11
13.97927406
 21
-16.0
 31
0.0
  0
LINE
  5
1707
330
B98
100
AcDbEntity
  8
240
  6
CONTINUOUS
100
AcDbLine
 10
17.0
 20
-14.23205081
 30
0.0
 11
18.02072594
 21
-16.0
 31
0.0
  0
LINE
  5
1708
330
B98
100
AcDbEntity
  8
240
100
AcDbLine
 10
-1.0
 20
12.11
 30
0.0
 11
0.0
 21
12.11
 31
0.0
  0
LINE
  5
1709
330
B98
100
AcDbEntity
  8
240
100
AcDbLine
 10
-1.0
 20
-12.11
 30
0.0
 11
0.0
 21
-12.11
 31
0.0
  0
LINE
  5
170A
330
B98
100
AcDbEntity
  8
240
  6
CONTINUOUS
100
AcDbLine
 10
-16.0
 20
11.36
 30
0.0
 11
-16.0
 21
0.0
 31
0.0
  0
LINE
  5
170B
330
B98
100
AcDbEntity
  8
241
  6
CONTINUOUS
100
AcDbLine
 10
-1.0
 20
12.11
 30
0.0
 11
-1.0
 21
0.0
 31
0.0
  0
LINE
  5
170C
330
B98
100
AcDbEntity
  8
240
  6
CONTINUOUS
100
AcDbLine
 10
-16.0
 20
-11.36
 30
0.0
 11
-1.0
 21
-12.11
 31
0.0
  0
LINE
  5
170D
330
B98
100
AcDbEntity
  8
240
  6
CONTINUOUS
100
AcDbLine
 10
-16.0
 20
-11.36
 30
0.0
 11
-16.0
 21
0.0
 31
0.0
  0
LINE
  5
170E
330
B98
100
AcDbEntity
  8
241
  6
CONTINUOUS
100
AcDbLine
 10
-1.0
 20
-12.11
 30
0.0
 11
-1.0
 21
0.0
 31
0.0
  0
LINE
  5
170F
330
B98
100
AcDbEntity
  8
240
  6
CONTINUOUS
100
AcDbLine
 10
-16.0
 20
11.36
 30
0.0
 11
-1.0
 21
12.11
 31
0.0
  0
LINE
  5
1710
330
B98
100
AcDbEntity
  8
241
  6
CONTINUOUS
100
AcDbLine
 10
15.0
 20
13.25
 30
0.0
 11
15.0
 21
0.0
 31
0.0
  0
LINE
  5
1711
330
B98
100
AcDbEntity
  8
241
  6
CONTINUOUS
100
AcDbLine
 10
13.97927406
 20
16.0
 30
0.0
 11
13.97927406
 21
0.0
 31
0.0
  0
LINE
  5
1712
330
B98
100
AcDbEntity
  8
241
  6
CONTINUOUS
100
AcDbLine
 10
17.0
 20
13.25
 30
0.0
 11
17.0
 21
0.0
 31
0.0
  0
LINE
  5
1713
330
B98
100
AcDbEntity
  8
241
  6
CONTINUOUS
100
AcDbLine
 10
18.02072594
 20
16.0
 30
0.0
 11
18.02072594
 21
0.0
 31
0.0
  0
LINE
  5
1714
330
B98
100
AcDbEntity
  8
241
100
AcDbLine
 10
20.0
 20
13.0
 30
0.0
 11
20.0
 21
0.0
 31
0.0
  0
LINE
  5
1715
330
B98
100
AcDbEntity
  8
241
  6
CONTINUOUS
100
AcDbLine
 10
0.0
 20
0.0
 30
0.0
 11
0.0
 21
12.11
 31
0.0
  0
LINE
  5
1716
330
B98
100
AcDbEntity
  8
241
  6
CONTINUOUS
100
AcDbLine
 10
0.0
 20
0.0
 30
0.0
 11
0.0
 21
-12.11
 31
0.0
  0
LINE
  5
1717
330
B98
100
AcDbEntity
  8
241
  6
CONTINUOUS
100
AcDbLine
 10
15.0
 20
-13.25
 30
0.0
 11
15.0
 21
0.0
 31
0.0
  0
LINE
  5
1718
330
B98
100
AcDbEntity
  8
241
  6
CONTINUOUS
100
AcDbLine
 10
17.0
 20
-13.25
 30
0.0
 11
17.0
 21
0.0
 31
0.0
  0
LINE
  5
1719
330
B98
100
AcDbEntity
  8
241
100
AcDbLine
 10
20.0
 20
-13.0
 30
0.0
 11
20.0
 21
0.0
 31
0.0
  0
LINE
  5
171A
330
B98
100
AcDbEntity
  8
240
  6
CONTINUOUS
100
AcDbLine
 10
15.0
 20
-13.25
 30
0.0
 11
17.0
 21
-13.25
 31
0.0
  0
ARC
  5
171B
330
B98
100
AcDbEntity
  8
240
100
AcDbCircle
 10
23.0
 20
-13.0
 30
0.0
 40
3.0
100
AcDbArc
 50
118.37024259
 51
180.0
  0
LINE
  5
171C
330
B98
100
AcDbEntity
  8
240
  6
CONTINUOUS
100
AcDbLine
 10
0.0
 20
16.0
 30
0.0
 11
13.97927406
 21
16.0
 31
0.0
  0
LINE
  5
171D
330
B98
100
AcDbEntity
  8
240
  6
CONTINUOUS
100
AcDbLine
 10
0.0
 20
16.0
 30
0.0
 11
0.0
 21
12.11
 31
0.0
  0
LINE
  5
171E
330
B98
100
AcDbEntity
  8
240
  6
CONTINUOUS
100
AcDbLine
 10
17.0
 20
13.25
 30
0.0
 11
17.0
 21
14.23205081
 31
0.0
  0
LINE
  5
171F
330
B98
100
AcDbEntity
  8
240
  6
CONTINUOUS
100
AcDbLine
 10
15.0
 20
13.25
 30
0.0
 11
15.0
 21
14.23205081
 31
0.0
  0
LINE
  5
1720
330
B98
100
AcDbEntity
  8
240
  6
CONTINUOUS
100
AcDbLine
 10
20.0
 20
12.97360873
 30
0.0
 11
20.0
 21
16.0
 31
0.0
  0
LINE
  5
1721
330
B98
100
AcDbEntity
  8
240
  6
CONTINUOUS
100
AcDbLine
 10
15.0
 20
13.25
 30
0.0
 11
17.0
 21
13.25
 31
0.0
  0
ARC
  5
1722
330
B98
100
AcDbEntity
  8
240
100
AcDbCircle
 10
23.0
 20
12.97360873
 30
0.0
 40
3.0
100
AcDbArc
 50
180.0
 51
242.15806377
  0
LINE
  5
1723
330
B98
100
AcDbEntity
  8
240
  6
CONTINUOUS
100
AcDbLine
 10
18.02072594
 20
16.0
 30
0.0
 11
20.0
 21
16.0
 31
0.0
  0
LINE
  5
1724
330
B98
100
AcDbEntity
  8
240
  6
CONTINUOUS
100
AcDbLine
 10
15.0
 20
14.23205081
 30
0.0
 11
13.97927406
 21
16.0
 31
0.0
  0
LINE
  5
1725
330
B98
100
AcDbEntity
  8
240
  6
CONTINUOUS
100
AcDbLine
 10
17.0
 20
14.23205081
 30
0.0
 11
18.02072594
 21
16.0
 31
0.0
  0
LINE
  5
1726
330
B98
100
AcDbEntity
  8
241
100
AcDbLine
 10
38.69962837
 20
-4.48958244
 30
0.0
 11
54.28181682
 21
-7.30689
 31
0.0
  0
LINE
  5
1727
330
B98
100
AcDbEntity
  8
240
100
AcDbLine
 10
54.5
 20
7.3
 30
0.0
 11
45.00000001
 21
7.6
 31
0.0
  0
POLYLINE
  5
1728
330
B98
100
AcDbEntity
  8
241
100
AcDb3dPolyline
 66
     1
 10
0.0
 20
0.0
 30
0.0
 70
     8
  0
VERTEX
  5
1729
330
1728
100
AcDbEntity
  8
241
100
AcDbVertex
100
AcDb3dPolylineVertex
 10
48.9316
 20
5.98201
 30
0.0
 70
    32
  0
VERTEX
  5
172A
330
1728
100
AcDbEntity
  8
241
100
AcDbVertex
100
AcDb3dPolylineVertex
 10
48.9267
 20
5.95187
 30
0.0
 70
    32
  0
VERTEX
  5
172B
330
1728
100
AcDbEntity
  8
241
100
AcDbVertex
100
AcDb3dPolylineVertex
 10
48.9225
 20
5.92162
 30
0.0
 70
    32
  0
VERTEX
  5
172C
330
1728
100
AcDbEntity
  8
241
100
AcDbVertex
100
AcDb3dPolylineVertex
 10
48.9191
 20
5.89128
 30
0.0
 70
    32
  0
VERTEX
  5
172D
330
1728
100
AcDbEntity
  8
241
100
AcDbVertex
100
AcDb3dPolylineVertex
 10
48.9164
 20
5.86085
 30
0.0
 70
    32
  0
VERTEX
  5
172E
330
1728
100
AcDbEntity
  8
241
100
AcDbVertex
100
AcDb3dPolylineVertex
 10
48.9145
 20
5.83037
 30
0.0
 70
    32
  0
VERTEX
  5
172F
330
1728
100
AcDbEntity
  8
241
100
AcDbVertex
100
AcDb3dPolylineVertex
 10
48.9133
 20
5.79986
 30
0.0
 70
    32
  0
VERTEX
  5
1730
330
1728
100
AcDbEntity
  8
241
100
AcDbVertex
100
AcDb3dPolylineVertex
 10
48.9128
 20
5.76932
 30
0.0
 70
    32
  0
VERTEX
  5
1731
330
1728
100
AcDbEntity
  8
241
100
AcDbVertex
100
AcDb3dPolylineVertex
 10
48.9131
 20
5.73877
 30
0.0
 70
    32
  0
VERTEX
  5
1732
330
1728
100
AcDbEntity
  8
241
100
AcDbVertex
100
AcDb3dPolylineVertex
 10
48.9142
 20
5.70825
 30
0.0
 70
    32
  0
VERTEX
  5
1733
330
1728
100
AcDbEntity
  8
241
100
AcDbVertex
100
AcDb3dPolylineVertex
 10
48.916
 20
5.67775
 30
0.0
 70
    32
  0
VERTEX
  5
1734
330
1728
100
AcDbEntity
  8
241
100
AcDbVertex
100
AcDb3dPolylineVertex
 10
48.9186
 20
5.64731
 30
0.0
 70
    32
  0
VERTEX
  5
1735
330
1728
100
AcDbEntity
  8
241
100
AcDbVertex
100
AcDb3dPolylineVertex
 10
48.9219
 20
5.61694
 30
0.0
 70
    32
  0
VERTEX
  5
1736
330
1728
100
AcDbEntity
  8
241
100
AcDbVertex
100
AcDb3dPolylineVertex
 10
48.926
 20
5.58666
 30
0.0
 70
    32
  0
VERTEX
  5
1737
330
1728
100
AcDbEntity
  8
241
100
AcDbVertex
100
AcDb3dPolylineVertex
 10
48.9308
 20
5.55649
 30
0.0
 70
    32
  0
VERTEX
  5
1738
330
1728
100
AcDbEntity
  8
241
100
AcDbVertex
100
AcDb3dPolylineVertex
 10
48.9364
 20
5.52644
 30
0.0
 70
    32
  0
VERTEX
  5
1739
330
1728
100
AcDbEntity
  8
241
100
AcDbVertex
100
AcDb3dPolylineVertex
 10
48.9427
 20
5.49654
 30
0.0
 70
    32
  0
VERTEX
  5
173A
330
1728
100
AcDbEntity
  8
241
100
AcDbVertex
100
AcDb3dPolylineVertex
 10
48.9497
 20
5.4668
 30
0.0
 70
    32
  0
VERTEX
  5
173B
330
1728
100
AcDbEntity
  8
241
100
AcDbVertex
100
AcDb3dPolylineVertex
 10
48.9575
 20
5.43724
 30
0.0
 70
    32
  0
VERTEX
  5
173C
330
1728
100
AcDbEntity
  8
241
100
AcDbVertex
100
AcDb3dPolylineVertex
 10
48.9659
 20
5.40787
 30
0.0
 70
    32
  0
VERTEX
  5
173D
330
1728
100
AcDbEntity
  8
241
100
AcDbVertex
100
AcDb3dPolylineVertex
 10
48.9751
 20
5.37872
 30
0.0
 70
    32
  0
VERTEX
  5
173E
330
1728
100
AcDbEntity
  8
241
100
AcDbVertex
100
AcDb3dPolylineVertex
 10
48.9851
 20
5.3498
 30
0.0
 70
    32
  0
VERTEX
  5
173F
330
1728
100
AcDbEntity
  8
241
100
AcDbVertex
100
AcDb3dPolylineVertex
 10
48.9957
 20
5.32114
 30
0.0
 70
    32
  0
VERTEX
  5
1740
330
1728
100
AcDbEntity
  8
241
100
AcDbVertex
100
AcDb3dPolylineVertex
 10
49.007
 20
5.29274
 30
0.0
 70
    32
  0
VERTEX
  5
1741
330
1728
100
AcDbEntity
  8
241
100
AcDbVertex
100
AcDb3dPolylineVertex
 10
49.0191
 20
5.26462
 30
0.0
 70
    32
  0
VERTEX
  5
1742
330
1728
100
AcDbEntity
  8
241
100
AcDbVertex
100
AcDb3dPolylineVertex
 10
49.0318
 20
5.23681
 30
0.0
 70
    32
  0
VERTEX
  5
1743
330
1728
100
AcDbEntity
  8
241
100
AcDbVertex
100
AcDb3dPolylineVertex
 10
49.0452
 20
5.20931
 30
0.0
 70
    32
  0
VERTEX
  5
1744
330
1728
100
AcDbEntity
  8
241
100
AcDbVertex
100
AcDb3dPolylineVertex
 10
49.0593
 20
5.18215
 30
0.0
 70
    32
  0
VERTEX
  5
1745
330
1728
100
AcDbEntity
  8
241
100
AcDbVertex
100
AcDb3dPolylineVertex
 10
49.074
 20
5.15534
 30
0.0
 70
    32
  0
VERTEX
  5
1746
330
1728
100
AcDbEntity
  8
241
100
AcDbVertex
100
AcDb3dPolylineVertex
 10
49.0894
 20
5.1289
 30
0.0
 70
    32
  0
VERTEX
  5
1747
330
1728
100
AcDbEntity
  8
241
100
AcDbVertex
100
AcDb3dPolylineVertex
 10
49.1054
 20
5.10284
 30
0.0
 70
    32
  0
VERTEX
  5
1748
330
1728
100
AcDbEntity
  8
241
100
AcDbVertex
100
AcDb3dPolylineVertex
 10
49.1221
 20
5.07718
 30
0.0
 70
    32
  0
VERTEX
  5
1749
330
1728
100
AcDbEntity
  8
241
100
AcDbVertex
100
AcDb3dPolylineVertex
 10
49.1394
 20
5.05193
 30
0.0
 70
    32
  0
VERTEX
  5
174A
330
1728
100
AcDbEntity
  8
241
100
AcDbVertex
100
AcDb3dPolylineVertex
 10
49.1573
 20
5.02711
 30
0.0
 70
    32
  0
VERTEX
  5
174B
330
1728
100
AcDbEntity
  8
241
100
AcDbVertex
100
AcDb3dPolylineVertex
 10
49.1759
 20
5.00274
 30
0.0
 70
    32
  0
VERTEX
  5
174C
330
1728
100
AcDbEntity
  8
241
100
AcDbVertex
100
AcDb3dPolylineVertex
 10
49.195
 20
4.97883
 30
0.0
 70
    32
  0
VERTEX
  5
174D
330
1728
100
AcDbEntity
  8
241
100
AcDbVertex
100
AcDb3dPolylineVertex
 10
49.2147
 20
4.95539
 30
0.0
 70
    32
  0
VERTEX
  5
174E
330
1728
100
AcDbEntity
  8
241
100
AcDbVertex
100
AcDb3dPolylineVertex
 10
49.235
 20
4.93244
 30
0.0
 70
    32
  0
VERTEX
  5
174F
330
1728
100
AcDbEntity
  8
241
100
AcDbVertex
100
AcDb3dPolylineVertex
 10
49.2558
 20
4.90998
 30
0.0
 70
    32
  0
VERTEX
  5
1750
330
1728
100
AcDbEntity
  8
241
100
AcDbVertex
100
AcDb3dPolylineVertex
 10
49.2772
 20
4.88805
 30
0.0
 70
    32
  0
VERTEX
  5
1751
330
1728
100
AcDbEntity
  8
241
100
AcDbVertex
100
AcDb3dPolylineVertex
 10
49.2991
 20
4.86664
 30
0.0
 70
    32
  0
VERTEX
  5
1752
330
1728
100
AcDbEntity
  8
241
100
AcDbVertex
100
AcDb3dPolylineVertex
 10
49.3215
 20
4.84577
 30
0.0
 70
    32
  0
VERTEX
  5
1753
330
1728
100
AcDbEntity
  8
241
100
AcDbVertex
100
AcDb3dPolylineVertex
 10
49.3445
 20
4.82546
 30
0.0
 70
    32
  0
VERTEX
  5
1754
330
1728
100
AcDbEntity
  8
241
100
AcDbVertex
100
AcDb3dPolylineVertex
 10
49.3679
 20
4.80571
 30
0.0
 70
    32
  0
VERTEX
  5
1755
330
1728
100
AcDbEntity
  8
241
100
AcDbVertex
100
AcDb3dPolylineVertex
 10
49.3918
 20
4.78655
 30
0.0
 70
    32
  0
VERTEX
  5
1756
330
1728
100
AcDbEntity
  8
241
100
AcDbVertex
100
AcDb3dPolylineVertex
 10
49.4162
 20
4.76797
 30
0.0
 70
    32
  0
VERTEX
  5
1757
330
1728
100
AcDbEntity
  8
241
100
AcDbVertex
100
AcDb3dPolylineVertex
 10
49.441
 20
4.74999
 30
0.0
 70
    32
  0
VERTEX
  5
1758
330
1728
100
AcDbEntity
  8
241
100
AcDbVertex
100
AcDb3dPolylineVertex
 10
49.4663
 20
4.73262
 30
0.0
 70
    32
  0
VERTEX
  5
1759
330
1728
100
AcDbEntity
  8
241
100
AcDbVertex
100
AcDb3dPolylineVertex
 10
49.4919
 20
4.71587
 30
0.0
 70
    32
  0
VERTEX
  5
175A
330
1728
100
AcDbEntity
  8
241
100
AcDbVertex
100
AcDb3dPolylineVertex
 10
49.518
 20
4.69976
 30
0.0
 70
    32
  0
VERTEX
  5
175B
330
1728
100
AcDbEntity
  8
241
100
AcDbVertex
100
AcDb3dPolylineVertex
 10
49.5445
 20
4.68429
 30
0.0
 70
    32
  0
VERTEX
  5
175C
330
1728
100
AcDbEntity
  8
241
100
AcDbVertex
100
AcDb3dPolylineVertex
 10
49.5713
 20
4.66947
 30
0.0
 70
    32
  0
VERTEX
  5
175D
330
1728
100
AcDbEntity
  8
241
100
AcDbVertex
100
AcDb3dPolylineVertex
 10
49.5985
 20
4.6553
 30
0.0
 70
    32
  0
VERTEX
  5
175E
330
1728
100
AcDbEntity
  8
241
100
AcDbVertex
100
AcDb3dPolylineVertex
 10
49.6261
 20
4.64181
 30
0.0
 70
    32
  0
VERTEX
  5
175F
330
1728
100
AcDbEntity
  8
241
100
AcDbVertex
100
AcDb3dPolylineVertex
 10
49.6539
 20
4.62899
 30
0.0
 70
    32
  0
VERTEX
  5
1760
330
1728
100
AcDbEntity
  8
241
100
AcDbVertex
100
AcDb3dPolylineVertex
 10
49.6821
 20
4.61686
 30
0.0
 70
    32
  0
VERTEX
  5
1761
330
1728
100
AcDbEntity
  8
241
100
AcDbVertex
100
AcDb3dPolylineVertex
 10
49.7106
 20
4.60542
 30
0.0
 70
    32
  0
VERTEX
  5
1762
330
1728
100
AcDbEntity
  8
241
100
AcDbVertex
100
AcDb3dPolylineVertex
 10
49.7393
 20
4.59468
 30
0.0
 70
    32
  0
VERTEX
  5
1763
330
1728
100
AcDbEntity
  8
241
100
AcDbVertex
100
AcDb3dPolylineVertex
 10
49.7683
 20
4.58464
 30
0.0
 70
    32
  0
VERTEX
  5
1764
330
1728
100
AcDbEntity
  8
241
100
AcDbVertex
100
AcDb3dPolylineVertex
 10
49.7975
 20
4.57531
 30
0.0
 70
    32
  0
VERTEX
  5
1765
330
1728
100
AcDbEntity
  8
241
100
AcDbVertex
100
AcDb3dPolylineVertex
 10
49.827
 20
4.5667
 30
0.0
 70
    32
  0
VERTEX
  5
1766
330
1728
100
AcDbEntity
  8
241
100
AcDbVertex
100
AcDb3dPolylineVertex
 10
49.8566
 20
4.55882
 30
0.0
 70
    32
  0
VERTEX
  5
1767
330
1728
100
AcDbEntity
  8
241
100
AcDbVertex
100
AcDb3dPolylineVertex
 10
49.8864
 20
4.55165
 30
0.0
 70
    32
  0
VERTEX
  5
1768
330
1728
100
AcDbEntity
  8
241
100
AcDbVertex
100
AcDb3dPolylineVertex
 10
49.9164
 20
4.54522
 30
0.0
 70
    32
  0
VERTEX
  5
1769
330
1728
100
AcDbEntity
  8
241
100
AcDbVertex
100
AcDb3dPolylineVertex
 10
49.9466
 20
4.53953
 30
0.0
 70
    32
  0
VERTEX
  5
176A
330
1728
100
AcDbEntity
  8
241
100
AcDbVertex
100
AcDb3dPolylineVertex
 10
49.9769
 20
4.53457
 30
0.0
 70
    32
  0
VERTEX
  5
176B
330
1728
100
AcDbEntity
  8
241
100
AcDbVertex
100
AcDb3dPolylineVertex
 10
50.0072
 20
4.53035
 30
0.0
 70
    32
  0
VERTEX
  5
176C
330
1728
100
AcDbEntity
  8
241
100
AcDbVertex
100
AcDb3dPolylineVertex
 10
50.0377
 20
4.52688
 30
0.0
 70
    32
  0
VERTEX
  5
176D
330
1728
100
AcDbEntity
  8
241
100
AcDbVertex
100
AcDb3dPolylineVertex
 10
50.0683
 20
4.52415
 30
0.0
 70
    32
  0
VERTEX
  5
176E
330
1728
100
AcDbEntity
  8
241
100
AcDbVertex
100
AcDb3dPolylineVertex
 10
50.0989
 20
4.52217
 30
0.0
 70
    32
  0
VERTEX
  5
176F
330
1728
100
AcDbEntity
  8
241
100
AcDbVertex
100
AcDb3dPolylineVertex
 10
50.1295
 20
4.52094
 30
0.0
 70
    32
  0
VERTEX
  5
1770
330
1728
100
AcDbEntity
  8
241
100
AcDbVertex
100
AcDb3dPolylineVertex
 10
50.1602
 20
4.52046
 30
0.0
 70
    32
  0
VERTEX
  5
1771
330
1728
100
AcDbEntity
  8
241
100
AcDbVertex
100
AcDb3dPolylineVertex
 10
50.1909
 20
4.52073
 30
0.0
 70
    32
  0
VERTEX
  5
1772
330
1728
100
AcDbEntity
  8
241
100
AcDbVertex
100
AcDb3dPolylineVertex
 10
50.2215
 20
4.52174
 30
0.0
 70
    32
  0
VERTEX
  5
1773
330
1728
100
AcDbEntity
  8
241
100
AcDbVertex
100
AcDb3dPolylineVertex
 10
50.2522
 20
4.52351
 30
0.0
 70
    32
  0
VERTEX
  5
1774
330
1728
100
AcDbEntity
  8
241
100
AcDbVertex
100
AcDb3dPolylineVertex
 10
50.2827
 20
4.52602
 30
0.0
 70
    32
  0
VERTEX
  5
1775
330
1728
100
AcDbEntity
  8
241
100
AcDbVertex
100
AcDb3dPolylineVertex
 10
50.3132
 20
4.52928
 30
0.0
 70
    32
  0
VERTEX
  5
1776
330
1728
100
AcDbEntity
  8
241
100
AcDbVertex
100
AcDb3dPolylineVertex
 10
50.3436
 20
4.53329
 30
0.0
 70
    32
  0
VERTEX
  5
1777
330
1728
100
AcDbEntity
  8
241
100
AcDbVertex
100
AcDb3dPolylineVertex
 10
50.3739
 20
4.53804
 30
0.0
 70
    32
  0
VERTEX
  5
1778
330
1728
100
AcDbEntity
  8
241
100
AcDbVertex
100
AcDb3dPolylineVertex
 10
50.4041
 20
4.54352
 30
0.0
 70
    32
  0
VERTEX
  5
1779
330
1728
100
AcDbEntity
  8
241
100
AcDbVertex
100
AcDb3dPolylineVertex
 10
50.4341
 20
4.54974
 30
0.0
 70
    32
  0
VERTEX
  5
177A
330
1728
100
AcDbEntity
  8
241
100
AcDbVertex
100
AcDb3dPolylineVertex
 10
50.464
 20
4.5567
 30
0.0
 70
    32
  0
VERTEX
  5
177B
330
1728
100
AcDbEntity
  8
241
100
AcDbVertex
100
AcDb3dPolylineVertex
 10
50.4937
 20
4.56438
 30
0.0
 70
    32
  0
VERTEX
  5
177C
330
1728
100
AcDbEntity
  8
241
100
AcDbVertex
100
AcDb3dPolylineVertex
 10
50.5231
 20
4.57278
 30
0.0
 70
    32
  0
VERTEX
  5
177D
330
1728
100
AcDbEntity
  8
241
100
AcDbVertex
100
AcDb3dPolylineVertex
 10
50.5524
 20
4.5819
 30
0.0
 70
    32
  0
VERTEX
  5
177E
330
1728
100
AcDbEntity
  8
241
100
AcDbVertex
100
AcDb3dPolylineVertex
 10
50.5814
 20
4.59174
 30
0.0
 70
    32
  0
VERTEX
  5
177F
330
1728
100
AcDbEntity
  8
241
100
AcDbVertex
100
AcDb3dPolylineVertex
 10
50.6102
 20
4.60228
 30
0.0
 70
    32
  0
VERTEX
  5
1780
330
1728
100
AcDbEntity
  8
241
100
AcDbVertex
100
AcDb3dPolylineVertex
 10
50.6387
 20
4.61352
 30
0.0
 70
    32
  0
VERTEX
  5
1781
330
1728
100
AcDbEntity
  8
241
100
AcDbVertex
100
AcDb3dPolylineVertex
 10
50.6669
 20
4.62546
 30
0.0
 70
    32
  0
VERTEX
  5
1782
330
1728
100
AcDbEntity
  8
241
100
AcDbVertex
100
AcDb3dPolylineVertex
 10
50.6948
 20
4.63808
 30
0.0
 70
    32
  0
VERTEX
  5
1783
330
1728
100
AcDbEntity
  8
241
100
AcDbVertex
100
AcDb3dPolylineVertex
 10
50.7224
 20
4.65138
 30
0.0
 70
    32
  0
VERTEX
  5
1784
330
1728
100
AcDbEntity
  8
241
100
AcDbVertex
100
AcDb3dPolylineVertex
 10
50.7497
 20
4.66535
 30
0.0
 70
    32
  0
VERTEX
  5
1785
330
1728
100
AcDbEntity
  8
241
100
AcDbVertex
100
AcDb3dPolylineVertex
 10
50.7766
 20
4.67998
 30
0.0
 70
    32
  0
VERTEX
  5
1786
330
1728
100
AcDbEntity
  8
241
100
AcDbVertex
100
AcDb3dPolylineVertex
 10
50.8031
 20
4.69527
 30
0.0
 70
    32
  0
VERTEX
  5
1787
330
1728
100
AcDbEntity
  8
241
100
AcDbVertex
100
AcDb3dPolylineVertex
 10
50.8292
 20
4.7112
 30
0.0
 70
    32
  0
VERTEX
  5
1788
330
1728
100
AcDbEntity
  8
241
100
AcDbVertex
100
AcDb3dPolylineVertex
 10
50.855
 20
4.72777
 30
0.0
 70
    32
  0
VERTEX
  5
1789
330
1728
100
AcDbEntity
  8
241
100
AcDbVertex
100
AcDb3dPolylineVertex
 10
50.8803
 20
4.74496
 30
0.0
 70
    32
  0
VERTEX
  5
178A
330
1728
100
AcDbEntity
  8
241
100
AcDbVertex
100
AcDb3dPolylineVertex
 10
50.9052
 20
4.76277
 30
0.0
 70
    32
  0
VERTEX
  5
178B
330
1728
100
AcDbEntity
  8
241
100
AcDbVertex
100
AcDb3dPolylineVertex
 10
50.9297
 20
4.78118
 30
0.0
 70
    32
  0
VERTEX
  5
178C
330
1728
100
AcDbEntity
  8
241
100
AcDbVertex
100
AcDb3dPolylineVertex
 10
50.9537
 20
4.80018
 30
0.0
 70
    32
  0
VERTEX
  5
178D
330
1728
100
AcDbEntity
  8
241
100
AcDbVertex
100
AcDb3dPolylineVertex
 10
50.9772
 20
4.81976
 30
0.0
 70
    32
  0
VERTEX
  5
178E
330
1728
100
AcDbEntity
  8
241
100
AcDbVertex
100
AcDb3dPolylineVertex
 10
51.0002
 20
4.83991
 30
0.0
 70
    32
  0
VERTEX
  5
178F
330
1728
100
AcDbEntity
  8
241
100
AcDbVertex
100
AcDb3dPolylineVertex
 10
51.0227
 20
4.86062
 30
0.0
 70
    32
  0
VERTEX
  5
1790
330
1728
100
AcDbEntity
  8
241
100
AcDbVertex
100
AcDb3dPolylineVertex
 10
51.0447
 20
4.88188
 30
0.0
 70
    32
  0
VERTEX
  5
1791
330
1728
100
AcDbEntity
  8
241
100
AcDbVertex
100
AcDb3dPolylineVertex
 10
51.0662
 20
4.90366
 30
0.0
 70
    32
  0
VERTEX
  5
1792
330
1728
100
AcDbEntity
  8
241
100
AcDbVertex
100
AcDb3dPolylineVertex
 10
51.0871
 20
4.92597
 30
0.0
 70
    32
  0
VERTEX
  5
1793
330
1728
100
AcDbEntity
  8
241
100
AcDbVertex
100
AcDb3dPolylineVertex
 10
51.1074
 20
4.94878
 30
0.0
 70
    32
  0
VERTEX
  5
1794
330
1728
100
AcDbEntity
  8
241
100
AcDbVertex
100
AcDb3dPolylineVertex
 10
51.1272
 20
4.97208
 30
0.0
 70
    32
  0
VERTEX
  5
1795
330
1728
100
AcDbEntity
  8
241
100
AcDbVertex
100
AcDb3dPolylineVertex
 10
51.1465
 20
4.99586
 30
0.0
 70
    32
  0
VERTEX
  5
1796
330
1728
100
AcDbEntity
  8
241
100
AcDbVertex
100
AcDb3dPolylineVertex
 10
51.1651
 20
5.0201
 30
0.0
 70
    32
  0
VERTEX
  5
1797
330
1728
100
AcDbEntity
  8
241
100
AcDbVertex
100
AcDb3dPolylineVertex
 10
51.1831
 20
5.0448
 30
0.0
 70
    32
  0
VERTEX
  5
1798
330
1728
100
AcDbEntity
  8
241
100
AcDbVertex
100
AcDb3dPolylineVertex
 10
51.2005
 20
5.06992
 30
0.0
 70
    32
  0
VERTEX
  5
1799
330
1728
100
AcDbEntity
  8
241
100
AcDbVertex
100
AcDb3dPolylineVertex
 10
51.2173
 20
5.09546
 30
0.0
 70
    32
  0
VERTEX
  5
179A
330
1728
100
AcDbEntity
  8
241
100
AcDbVertex
100
AcDb3dPolylineVertex
 10
51.2334
 20
5.12141
 30
0.0
 70
    32
  0
VERTEX
  5
179B
330
1728
100
AcDbEntity
  8
241
100
AcDbVertex
100
AcDb3dPolylineVertex
 10
51.2489
 20
5.14775
 30
0.0
 70
    32
  0
VERTEX
  5
179C
330
1728
100
AcDbEntity
  8
241
100
AcDbVertex
100
AcDb3dPolylineVertex
 10
51.2638
 20
5.17445
 30
0.0
 70
    32
  0
VERTEX
  5
179D
330
1728
100
AcDbEntity
  8
241
100
AcDbVertex
100
AcDb3dPolylineVertex
 10
51.2779
 20
5.20152
 30
0.0
 70
    32
  0
VERTEX
  5
179E
330
1728
100
AcDbEntity
  8
241
100
AcDbVertex
100
AcDb3dPolylineVertex
 10
51.2914
 20
5.22892
 30
0.0
 70
    32
  0
VERTEX
  5
179F
330
1728
100
AcDbEntity
  8
241
100
AcDbVertex
100
AcDb3dPolylineVertex
 10
51.3043
 20
5.25664
 30
0.0
 70
    32
  0
VERTEX
  5
17A0
330
1728
100
AcDbEntity
  8
241
100
AcDbVertex
100
AcDb3dPolylineVertex
 10
51.3164
 20
5.28467
 30
0.0
 70
    32
  0
VERTEX
  5
17A1
330
1728
100
AcDbEntity
  8
241
100
AcDbVertex
100
AcDb3dPolylineVertex
 10
51.3279
 20
5.31299
 30
0.0
 70
    32
  0
VERTEX
  5
17A2
330
1728
100
AcDbEntity
  8
241
100
AcDbVertex
100
AcDb3dPolylineVertex
 10
51.3386
 20
5.34159
 30
0.0
 70
    32
  0
VERTEX
  5
17A3
330
1728
100
AcDbEntity
  8
241
100
AcDbVertex
100
AcDb3dPolylineVertex
 10
51.3486
 20
5.37043
 30
0.0
 70
    32
  0
VERTEX
  5
17A4
330
1728
100
AcDbEntity
  8
241
100
AcDbVertex
100
AcDb3dPolylineVertex
 10
51.358
 20
5.39952
 30
0.0
 70
    32
  0
VERTEX
  5
17A5
330
1728
100
AcDbEntity
  8
241
100
AcDbVertex
100
AcDb3dPolylineVertex
 10
51.3666
 20
5.42882
 30
0.0
 70
    32
  0
VERTEX
  5
17A6
330
1728
100
AcDbEntity
  8
241
100
AcDbVertex
100
AcDb3dPolylineVertex
 10
51.3744
 20
5.45833
 30
0.0
 70
    32
  0
VERTEX
  5
17A7
330
1728
100
AcDbEntity
  8
241
100
AcDbVertex
100
AcDb3dPolylineVertex
 10
51.3816
 20
5.48802
 30
0.0
 70
    32
  0
VERTEX
  5
17A8
330
1728
100
AcDbEntity
  8
241
100
AcDbVertex
100
AcDb3dPolylineVertex
 10
51.388
 20
5.51788
 30
0.0
 70
    32
  0
VERTEX
  5
17A9
330
1728
100
AcDbEntity
  8
241
100
AcDbVertex
100
AcDb3dPolylineVertex
 10
51.3937
 20
5.54789
 30
0.0
 70
    32
  0
SEQEND
  5
17AA
330
1728
100
AcDbEntity
  8
241
  0
LINE
  5
17AB
330
B98
100
AcDbEntity
  8
242
100
AcDbLine
 10
55.0
 20
8.0
 30
0.0
 11
46.0
 21
8.0
 31
0.0
  0
LINE
  5
17AC
330
B98
100
AcDbEntity
  8
242
100
AcDbLine
 10
55.0
 20
-8.0
 30
0.0
 11
46.0
 21
-8.0
 31
0.0
  0
LINE
  5
17AD
330
B98
100
AcDbEntity
  8
240
100
AcDbLine
 10
54.5
 20
-7.3
 30
0.0
 11
45.00000001
 21
-7.6
 31
0.0
  0
LINE
  5
17AE
330
B98
100
AcDbEntity
  8
241
100
AcDbLine
 10
54.5
 20
-3.66057103
 30
0.0
 11
43.86821946
 21
-0.05790774
 31
0.0
  0
LINE
  5
17AF
330
B98
100
AcDbEntity
  8
241
100
AcDbLine
 10
54.5
 20
0.50264672
 30
0.0
 11
44.96190064
 21
2.18447099
 31
0.0
  0
POLYLINE
  5
17B0
330
B98
100
AcDbEntity
  8
241
100
AcDb3dPolyline
 66
     1
 10
0.0
 20
0.0
 30
0.0
 70
     8
  0
VERTEX
  5
17B1
330
17B0
100
AcDbEntity
  8
241
100
AcDbVertex
100
AcDb3dPolylineVertex
 10
51.3937
 20
5.54789
 30
0.0
 70
    32
  0
VERTEX
  5
17B2
330
17B0
100
AcDbEntity
  8
241
100
AcDbVertex
100
AcDb3dPolylineVertex
 10
51.3967
 20
5.56711
 30
0.0
 70
    32
  0
VERTEX
  5
17B3
330
17B0
100
AcDbEntity
  8
241
100
AcDbVertex
100
AcDb3dPolylineVertex
 10
51.3989
 20
5.58644
 30
0.0
 70
    32
  0
VERTEX
  5
17B4
330
17B0
100
AcDbEntity
  8
241
100
AcDbVertex
100
AcDb3dPolylineVertex
 10
51.4005
 20
5.60589
 30
0.0
 70
    32
  0
VERTEX
  5
17B5
330
17B0
100
AcDbEntity
  8
241
100
AcDbVertex
100
AcDb3dPolylineVertex
 10
51.4012
 20
5.62543
 30
0.0
 70
    32
  0
VERTEX
  5
17B6
330
17B0
100
AcDbEntity
  8
241
100
AcDbVertex
100
AcDb3dPolylineVertex
 10
51.4013
 20
5.64505
 30
0.0
 70
    32
  0
VERTEX
  5
17B7
330
17B0
100
AcDbEntity
  8
241
100
AcDbVertex
100
AcDb3dPolylineVertex
 10
51.4005
 20
5.66474
 30
0.0
 70
    32
  0
VERTEX
  5
17B8
330
17B0
100
AcDbEntity
  8
241
100
AcDbVertex
100
AcDb3dPolylineVertex
 10
51.3991
 20
5.6845
 30
0.0
 70
    32
  0
VERTEX
  5
17B9
330
17B0
100
AcDbEntity
  8
241
100
AcDbVertex
100
AcDb3dPolylineVertex
 10
51.3969
 20
5.7043
 30
0.0
 70
    32
  0
VERTEX
  5
17BA
330
17B0
100
AcDbEntity
  8
241
100
AcDbVertex
100
AcDb3dPolylineVertex
 10
51.3939
 20
5.72414
 30
0.0
 70
    32
  0
VERTEX
  5
17BB
330
17B0
100
AcDbEntity
  8
241
100
AcDbVertex
100
AcDb3dPolylineVertex
 10
51.3902
 20
5.74401
 30
0.0
 70
    32
  0
VERTEX
  5
17BC
330
17B0
100
AcDbEntity
  8
241
100
AcDbVertex
100
AcDb3dPolylineVertex
 10
51.3858
 20
5.76388
 30
0.0
 70
    32
  0
VERTEX
  5
17BD
330
17B0
100
AcDbEntity
  8
241
100
AcDbVertex
100
AcDb3dPolylineVertex
 10
51.3806
 20
5.78376
 30
0.0
 70
    32
  0
VERTEX
  5
17BE
330
17B0
100
AcDbEntity
  8
241
100
AcDbVertex
100
AcDb3dPolylineVertex
 10
51.3747
 20
5.80363
 30
0.0
 70
    32
  0
VERTEX
  5
17BF
330
17B0
100
AcDbEntity
  8
241
100
AcDbVertex
100
AcDb3dPolylineVertex
 10
51.3681
 20
5.82347
 30
0.0
 70
    32
  0
VERTEX
  5
17C0
330
17B0
100
AcDbEntity
  8
241
100
AcDbVertex
100
AcDb3dPolylineVertex
 10
51.3607
 20
5.84328
 30
0.0
 70
    32
  0
VERTEX
  5
17C1
330
17B0
100
AcDbEntity
  8
241
100
AcDbVertex
100
AcDb3dPolylineVertex
 10
51.3526
 20
5.86304
 30
0.0
 70
    32
  0
VERTEX
  5
17C2
330
17B0
100
AcDbEntity
  8
241
100
AcDbVertex
100
AcDb3dPolylineVertex
 10
51.3438
 20
5.88274
 30
0.0
 70
    32
  0
VERTEX
  5
17C3
330
17B0
100
AcDbEntity
  8
241
100
AcDbVertex
100
AcDb3dPolylineVertex
 10
51.3343
 20
5.90237
 30
0.0
 70
    32
  0
VERTEX
  5
17C4
330
17B0
100
AcDbEntity
  8
241
100
AcDbVertex
100
AcDb3dPolylineVertex
 10
51.3241
 20
5.92192
 30
0.0
 70
    32
  0
VERTEX
  5
17C5
330
17B0
100
AcDbEntity
  8
241
100
AcDbVertex
100
AcDb3dPolylineVertex
 10
51.3132
 20
5.94138
 30
0.0
 70
    32
  0
VERTEX
  5
17C6
330
17B0
100
AcDbEntity
  8
241
100
AcDbVertex
100
AcDb3dPolylineVertex
 10
51.3016
 20
5.96072
 30
0.0
 70
    32
  0
VERTEX
  5
17C7
330
17B0
100
AcDbEntity
  8
241
100
AcDbVertex
100
AcDb3dPolylineVertex
 10
51.2893
 20
5.97995
 30
0.0
 70
    32
  0
VERTEX
  5
17C8
330
17B0
100
AcDbEntity
  8
241
100
AcDbVertex
100
AcDb3dPolylineVertex
 10
51.2763
 20
5.99905
 30
0.0
 70
    32
  0
VERTEX
  5
17C9
330
17B0
100
AcDbEntity
  8
241
100
AcDbVertex
100
AcDb3dPolylineVertex
 10
51.2626
 20
6.01801
 30
0.0
 70
    32
  0
VERTEX
  5
17CA
330
17B0
100
AcDbEntity
  8
241
100
AcDbVertex
100
AcDb3dPolylineVertex
 10
51.2483
 20
6.03682
 30
0.0
 70
    32
  0
VERTEX
  5
17CB
330
17B0
100
AcDbEntity
  8
241
100
AcDbVertex
100
AcDb3dPolylineVertex
 10
51.2334
 20
6.05546
 30
0.0
 70
    32
  0
VERTEX
  5
17CC
330
17B0
100
AcDbEntity
  8
241
100
AcDbVertex
100
AcDb3dPolylineVertex
 10
51.2178
 20
6.07393
 30
0.0
 70
    32
  0
VERTEX
  5
17CD
330
17B0
100
AcDbEntity
  8
241
100
AcDbVertex
100
AcDb3dPolylineVertex
 10
51.2015
 20
6.09221
 30
0.0
 70
    32
  0
VERTEX
  5
17CE
330
17B0
100
AcDbEntity
  8
241
100
AcDbVertex
100
AcDb3dPolylineVertex
 10
51.1847
 20
6.1103
 30
0.0
 70
    32
  0
VERTEX
  5
17CF
330
17B0
100
AcDbEntity
  8
241
100
AcDbVertex
100
AcDb3dPolylineVertex
 10
51.1672
 20
6.12817
 30
0.0
 70
    32
  0
VERTEX
  5
17D0
330
17B0
100
AcDbEntity
  8
241
100
AcDbVertex
100
AcDb3dPolylineVertex
 10
51.1491
 20
6.14583
 30
0.0
 70
    32
  0
VERTEX
  5
17D1
330
17B0
100
AcDbEntity
  8
241
100
AcDbVertex
100
AcDb3dPolylineVertex
 10
51.1304
 20
6.16326
 30
0.0
 70
    32
  0
VERTEX
  5
17D2
330
17B0
100
AcDbEntity
  8
241
100
AcDbVertex
100
AcDb3dPolylineVertex
 10
51.1111
 20
6.18045
 30
0.0
 70
    32
  0
VERTEX
  5
17D3
330
17B0
100
AcDbEntity
  8
241
100
AcDbVertex
100
AcDb3dPolylineVertex
 10
51.0913
 20
6.19738
 30
0.0
 70
    32
  0
VERTEX
  5
17D4
330
17B0
100
AcDbEntity
  8
241
100
AcDbVertex
100
AcDb3dPolylineVertex
 10
51.0709
 20
6.21406
 30
0.0
 70
    32
  0
VERTEX
  5
17D5
330
17B0
100
AcDbEntity
  8
241
100
AcDbVertex
100
AcDb3dPolylineVertex
 10
51.05
 20
6.23047
 30
0.0
 70
    32
  0
VERTEX
  5
17D6
330
17B0
100
AcDbEntity
  8
241
100
AcDbVertex
100
AcDb3dPolylineVertex
 10
51.0285
 20
6.2466
 30
0.0
 70
    32
  0
VERTEX
  5
17D7
330
17B0
100
AcDbEntity
  8
241
100
AcDbVertex
100
AcDb3dPolylineVertex
 10
51.0065
 20
6.26243
 30
0.0
 70
    32
  0
VERTEX
  5
17D8
330
17B0
100
AcDbEntity
  8
241
100
AcDbVertex
100
AcDb3dPolylineVertex
 10
50.984
 20
6.27797
 30
0.0
 70
    32
  0
VERTEX
  5
17D9
330
17B0
100
AcDbEntity
  8
241
100
AcDbVertex
100
AcDb3dPolylineVertex
 10
50.961
 20
6.2932
 30
0.0
 70
    32
  0
VERTEX
  5
17DA
330
17B0
100
AcDbEntity
  8
241
100
AcDbVertex
100
AcDb3dPolylineVertex
 10
50.9375
 20
6.30811
 30
0.0
 70
    32
  0
VERTEX
  5
17DB
330
17B0
100
AcDbEntity
  8
241
100
AcDbVertex
100
AcDb3dPolylineVertex
 10
50.9135
 20
6.32269
 30
0.0
 70
    32
  0
VERTEX
  5
17DC
330
17B0
100
AcDbEntity
  8
241
100
AcDbVertex
100
AcDb3dPolylineVertex
 10
50.8891
 20
6.33694
 30
0.0
 70
    32
  0
VERTEX
  5
17DD
330
17B0
100
AcDbEntity
  8
241
100
AcDbVertex
100
AcDb3dPolylineVertex
 10
50.8643
 20
6.35084
 30
0.0
 70
    32
  0
VERTEX
  5
17DE
330
17B0
100
AcDbEntity
  8
241
100
AcDbVertex
100
AcDb3dPolylineVertex
 10
50.839
 20
6.36439
 30
0.0
 70
    32
  0
VERTEX
  5
17DF
330
17B0
100
AcDbEntity
  8
241
100
AcDbVertex
100
AcDb3dPolylineVertex
 10
50.8134
 20
6.37757
 30
0.0
 70
    32
  0
VERTEX
  5
17E0
330
17B0
100
AcDbEntity
  8
241
100
AcDbVertex
100
AcDb3dPolylineVertex
 10
50.7873
 20
6.39039
 30
0.0
 70
    32
  0
VERTEX
  5
17E1
330
17B0
100
AcDbEntity
  8
241
100
AcDbVertex
100
AcDb3dPolylineVertex
 10
50.7609
 20
6.40284
 30
0.0
 70
    32
  0
VERTEX
  5
17E2
330
17B0
100
AcDbEntity
  8
241
100
AcDbVertex
100
AcDb3dPolylineVertex
 10
50.7341
 20
6.41489
 30
0.0
 70
    32
  0
VERTEX
  5
17E3
330
17B0
100
AcDbEntity
  8
241
100
AcDbVertex
100
AcDb3dPolylineVertex
 10
50.7069
 20
6.42656
 30
0.0
 70
    32
  0
VERTEX
  5
17E4
330
17B0
100
AcDbEntity
  8
241
100
AcDbVertex
100
AcDb3dPolylineVertex
 10
50.6795
 20
6.43783
 30
0.0
 70
    32
  0
VERTEX
  5
17E5
330
17B0
100
AcDbEntity
  8
241
100
AcDbVertex
100
AcDb3dPolylineVertex
 10
50.6517
 20
6.44869
 30
0.0
 70
    32
  0
VERTEX
  5
17E6
330
17B0
100
AcDbEntity
  8
241
100
AcDbVertex
100
AcDb3dPolylineVertex
 10
50.6236
 20
6.45914
 30
0.0
 70
    32
  0
VERTEX
  5
17E7
330
17B0
100
AcDbEntity
  8
241
100
AcDbVertex
100
AcDb3dPolylineVertex
 10
50.5952
 20
6.46917
 30
0.0
 70
    32
  0
VERTEX
  5
17E8
330
17B0
100
AcDbEntity
  8
241
100
AcDbVertex
100
AcDb3dPolylineVertex
 10
50.5666
 20
6.47878
 30
0.0
 70
    32
  0
VERTEX
  5
17E9
330
17B0
100
AcDbEntity
  8
241
100
AcDbVertex
100
AcDb3dPolylineVertex
 10
50.5378
 20
6.48796
 30
0.0
 70
    32
  0
VERTEX
  5
17EA
330
17B0
100
AcDbEntity
  8
241
100
AcDbVertex
100
AcDb3dPolylineVertex
 10
50.5087
 20
6.4967
 30
0.0
 70
    32
  0
VERTEX
  5
17EB
330
17B0
100
AcDbEntity
  8
241
100
AcDbVertex
100
AcDb3dPolylineVertex
 10
50.4794
 20
6.50501
 30
0.0
 70
    32
  0
VERTEX
  5
17EC
330
17B0
100
AcDbEntity
  8
241
100
AcDbVertex
100
AcDb3dPolylineVertex
 10
50.4499
 20
6.51286
 30
0.0
 70
    32
  0
VERTEX
  5
17ED
330
17B0
100
AcDbEntity
  8
241
100
AcDbVertex
100
AcDb3dPolylineVertex
 10
50.4202
 20
6.52027
 30
0.0
 70
    32
  0
VERTEX
  5
17EE
330
17B0
100
AcDbEntity
  8
241
100
AcDbVertex
100
AcDb3dPolylineVertex
 10
50.3904
 20
6.52722
 30
0.0
 70
    32
  0
VERTEX
  5
17EF
330
17B0
100
AcDbEntity
  8
241
100
AcDbVertex
100
AcDb3dPolylineVertex
 10
50.3605
 20
6.53371
 30
0.0
 70
    32
  0
VERTEX
  5
17F0
330
17B0
100
AcDbEntity
  8
241
100
AcDbVertex
100
AcDb3dPolylineVertex
 10
50.3304
 20
6.53974
 30
0.0
 70
    32
  0
VERTEX
  5
17F1
330
17B0
100
AcDbEntity
  8
241
100
AcDbVertex
100
AcDb3dPolylineVertex
 10
50.3003
 20
6.5453
 30
0.0
 70
    32
  0
VERTEX
  5
17F2
330
17B0
100
AcDbEntity
  8
241
100
AcDbVertex
100
AcDb3dPolylineVertex
 10
50.27
 20
6.55039
 30
0.0
 70
    32
  0
VERTEX
  5
17F3
330
17B0
100
AcDbEntity
  8
241
100
AcDbVertex
100
AcDb3dPolylineVertex
 10
50.2397
 20
6.55501
 30
0.0
 70
    32
  0
VERTEX
  5
17F4
330
17B0
100
AcDbEntity
  8
241
100
AcDbVertex
100
AcDb3dPolylineVertex
 10
50.2093
 20
6.55915
 30
0.0
 70
    32
  0
VERTEX
  5
17F5
330
17B0
100
AcDbEntity
  8
241
100
AcDbVertex
100
AcDb3dPolylineVertex
 10
50.1789
 20
6.56282
 30
0.0
 70
    32
  0
VERTEX
  5
17F6
330
17B0
100
AcDbEntity
  8
241
100
AcDbVertex
100
AcDb3dPolylineVertex
 10
50.1485
 20
6.566
 30
0.0
 70
    32
  0
VERTEX
  5
17F7
330
17B0
100
AcDbEntity
  8
241
100
AcDbVertex
100
AcDb3dPolylineVertex
 10
50.1181
 20
6.5687
 30
0.0
 70
    32
  0
VERTEX
  5
17F8
330
17B0
100
AcDbEntity
  8
241
100
AcDbVertex
100
AcDb3dPolylineVertex
 10
50.0878
 20
6.57092
 30
0.0
 70
    32
  0
VERTEX
  5
17F9
330
17B0
100
AcDbEntity
  8
241
100
AcDbVertex
100
AcDb3dPolylineVertex
 10
50.0575
 20
6.57265
 30
0.0
 70
    32
  0
VERTEX
  5
17FA
330
17B0
100
AcDbEntity
  8
241
100
AcDbVertex
100
AcDb3dPolylineVertex
 10
50.0272
 20
6.5739
 30
0.0
 70
    32
  0
VERTEX
  5
17FB
330
17B0
100
AcDbEntity
  8
241
100
AcDbVertex
100
AcDb3dPolylineVertex
 10
49.997
 20
6.57466
 30
0.0
 70
    32
  0
VERTEX
  5
17FC
330
17B0
100
AcDbEntity
  8
241
100
AcDbVertex
100
AcDb3dPolylineVertex
 10
49.9669
 20
6.57493
 30
0.0
 70
    32
  0
VERTEX
  5
17FD
330
17B0
100
AcDbEntity
  8
241
100
AcDbVertex
100
AcDb3dPolylineVertex
 10
49.937
 20
6.57471
 30
0.0
 70
    32
  0
VERTEX
  5
17FE
330
17B0
100
AcDbEntity
  8
241
100
AcDbVertex
100
AcDb3dPolylineVertex
 10
49.9072
 20
6.574
 30
0.0
 70
    32
  0
VERTEX
  5
17FF
330
17B0
100
AcDbEntity
  8
241
100
AcDbVertex
100
AcDb3dPolylineVertex
 10
49.8775
 20
6.57281
 30
0.0
 70
    32
  0
VERTEX
  5
1800
330
17B0
100
AcDbEntity
  8
241
100
AcDbVertex
100
AcDb3dPolylineVertex
 10
49.848
 20
6.57113
 30
0.0
 70
    32
  0
VERTEX
  5
1801
330
17B0
100
AcDbEntity
  8
241
100
AcDbVertex
100
AcDb3dPolylineVertex
 10
49.8187
 20
6.56897
 30
0.0
 70
    32
  0
VERTEX
  5
1802
330
17B0
100
AcDbEntity
  8
241
100
AcDbVertex
100
AcDb3dPolylineVertex
 10
49.7896
 20
6.56632
 30
0.0
 70
    32
  0
VERTEX
  5
1803
330
17B0
100
AcDbEntity
  8
241
100
AcDbVertex
100
AcDb3dPolylineVertex
 10
49.7607
 20
6.56318
 30
0.0
 70
    32
  0
VERTEX
  5
1804
330
17B0
100
AcDbEntity
  8
241
100
AcDbVertex
100
AcDb3dPolylineVertex
 10
49.7321
 20
6.55957
 30
0.0
 70
    32
  0
VERTEX
  5
1805
330
17B0
100
AcDbEntity
  8
241
100
AcDbVertex
100
AcDb3dPolylineVertex
 10
49.7037
 20
6.55548
 30
0.0
 70
    32
  0
VERTEX
  5
1806
330
17B0
100
AcDbEntity
  8
241
100
AcDbVertex
100
AcDb3dPolylineVertex
 10
49.6756
 20
6.55091
 30
0.0
 70
    32
  0
VERTEX
  5
1807
330
17B0
100
AcDbEntity
  8
241
100
AcDbVertex
100
AcDb3dPolylineVertex
 10
49.6478
 20
6.54587
 30
0.0
 70
    32
  0
VERTEX
  5
1808
330
17B0
100
AcDbEntity
  8
241
100
AcDbVertex
100
AcDb3dPolylineVertex
 10
49.6203
 20
6.54036
 30
0.0
 70
    32
  0
VERTEX
  5
1809
330
17B0
100
AcDbEntity
  8
241
100
AcDbVertex
100
AcDb3dPolylineVertex
 10
49.5932
 20
6.53438
 30
0.0
 70
    32
  0
VERTEX
  5
180A
330
17B0
100
AcDbEntity
  8
241
100
AcDbVertex
100
AcDb3dPolylineVertex
 10
49.5663
 20
6.52794
 30
0.0
 70
    32
  0
VERTEX
  5
180B
330
17B0
100
AcDbEntity
  8
241
100
AcDbVertex
100
AcDb3dPolylineVertex
 10
49.5399
 20
6.52104
 30
0.0
 70
    32
  0
VERTEX
  5
180C
330
17B0
100
AcDbEntity
  8
241
100
AcDbVertex
100
AcDb3dPolylineVertex
 10
49.5138
 20
6.51368
 30
0.0
 70
    32
  0
VERTEX
  5
180D
330
17B0
100
AcDbEntity
  8
241
100
AcDbVertex
100
AcDb3dPolylineVertex
 10
49.4881
 20
6.50587
 30
0.0
 70
    32
  0
VERTEX
  5
180E
330
17B0
100
AcDbEntity
  8
241
100
AcDbVertex
100
AcDb3dPolylineVertex
 10
49.4628
 20
6.49762
 30
0.0
 70
    32
  0
VERTEX
  5
180F
330
17B0
100
AcDbEntity
  8
241
100
AcDbVertex
100
AcDb3dPolylineVertex
 10
49.4379
 20
6.48892
 30
0.0
 70
    32
  0
VERTEX
  5
1810
330
17B0
100
AcDbEntity
  8
241
100
AcDbVertex
100
AcDb3dPolylineVertex
 10
49.4135
 20
6.47979
 30
0.0
 70
    32
  0
VERTEX
  5
1811
330
17B0
100
AcDbEntity
  8
241
100
AcDbVertex
100
AcDb3dPolylineVertex
 10
49.3895
 20
6.47023
 30
0.0
 70
    32
  0
VERTEX
  5
1812
330
17B0
100
AcDbEntity
  8
241
100
AcDbVertex
100
AcDb3dPolylineVertex
 10
49.366
 20
6.46024
 30
0.0
 70
    32
  0
VERTEX
  5
1813
330
17B0
100
AcDbEntity
  8
241
100
AcDbVertex
100
AcDb3dPolylineVertex
 10
49.3429
 20
6.44983
 30
0.0
 70
    32
  0
VERTEX
  5
1814
330
17B0
100
AcDbEntity
  8
241
100
AcDbVertex
100
AcDb3dPolylineVertex
 10
49.3204
 20
6.43901
 30
0.0
 70
    32
  0
VERTEX
  5
1815
330
17B0
100
AcDbEntity
  8
241
100
AcDbVertex
100
AcDb3dPolylineVertex
 10
49.2984
 20
6.42779
 30
0.0
 70
    32
  0
VERTEX
  5
1816
330
17B0
100
AcDbEntity
  8
241
100
AcDbVertex
100
AcDb3dPolylineVertex
 10
49.2768
 20
6.41617
 30
0.0
 70
    32
  0
VERTEX
  5
1817
330
17B0
100
AcDbEntity
  8
241
100
AcDbVertex
100
AcDb3dPolylineVertex
 10
49.2559
 20
6.40415
 30
0.0
 70
    32
  0
VERTEX
  5
1818
330
17B0
100
AcDbEntity
  8
241
100
AcDbVertex
100
AcDb3dPolylineVertex
 10
49.2354
 20
6.39175
 30
0.0
 70
    32
  0
VERTEX
  5
1819
330
17B0
100
AcDbEntity
  8
241
100
AcDbVertex
100
AcDb3dPolylineVertex
 10
49.2156
 20
6.37897
 30
0.0
 70
    32
  0
VERTEX
  5
181A
330
17B0
100
AcDbEntity
  8
241
100
AcDbVertex
100
AcDb3dPolylineVertex
 10
49.1962
 20
6.36582
 30
0.0
 70
    32
  0
VERTEX
  5
181B
330
17B0
100
AcDbEntity
  8
241
100
AcDbVertex
100
AcDb3dPolylineVertex
 10
49.1775
 20
6.35231
 30
0.0
 70
    32
  0
VERTEX
  5
181C
330
17B0
100
AcDbEntity
  8
241
100
AcDbVertex
100
AcDb3dPolylineVertex
 10
49.1594
 20
6.33845
 30
0.0
 70
    32
  0
VERTEX
  5
181D
330
17B0
100
AcDbEntity
  8
241
100
AcDbVertex
100
AcDb3dPolylineVertex
 10
49.1419
 20
6.32424
 30
0.0
 70
    32
  0
VERTEX
  5
181E
330
17B0
100
AcDbEntity
  8
241
100
AcDbVertex
100
AcDb3dPolylineVertex
 10
49.125
 20
6.30969
 30
0.0
 70
    32
  0
VERTEX
  5
181F
330
17B0
100
AcDbEntity
  8
241
100
AcDbVertex
100
AcDb3dPolylineVertex
 10
49.1087
 20
6.29481
 30
0.0
 70
    32
  0
VERTEX
  5
1820
330
17B0
100
AcDbEntity
  8
241
100
AcDbVertex
100
AcDb3dPolylineVertex
 10
49.093
 20
6.27962
 30
0.0
 70
    32
  0
VERTEX
  5
1821
330
17B0
100
AcDbEntity
  8
241
100
AcDbVertex
100
AcDb3dPolylineVertex
 10
49.078
 20
6.26412
 30
0.0
 70
    32
  0
VERTEX
  5
1822
330
17B0
100
AcDbEntity
  8
241
100
AcDbVertex
100
AcDb3dPolylineVertex
 10
49.0637
 20
6.24831
 30
0.0
 70
    32
  0
VERTEX
  5
1823
330
17B0
100
AcDbEntity
  8
241
100
AcDbVertex
100
AcDb3dPolylineVertex
 10
49.05
 20
6.23222
 30
0.0
 70
    32
  0
VERTEX
  5
1824
330
17B0
100
AcDbEntity
  8
241
100
AcDbVertex
100
AcDb3dPolylineVertex
 10
49.0369
 20
6.21584
 30
0.0
 70
    32
  0
VERTEX
  5
1825
330
17B0
100
AcDbEntity
  8
241
100
AcDbVertex
100
AcDb3dPolylineVertex
 10
49.0246
 20
6.19919
 30
0.0
 70
    32
  0
VERTEX
  5
1826
330
17B0
100
AcDbEntity
  8
241
100
AcDbVertex
100
AcDb3dPolylineVertex
 10
49.0129
 20
6.18228
 30
0.0
 70
    32
  0
VERTEX
  5
1827
330
17B0
100
AcDbEntity
  8
241
100
AcDbVertex
100
AcDb3dPolylineVertex
 10
49.002
 20
6.16512
 30
0.0
 70
    32
  0
VERTEX
  5
1828
330
17B0
100
AcDbEntity
  8
241
100
AcDbVertex
100
AcDb3dPolylineVertex
 10
48.9917
 20
6.14771
 30
0.0
 70
    32
  0
VERTEX
  5
1829
330
17B0
100
AcDbEntity
  8
241
100
AcDbVertex
100
AcDb3dPolylineVertex
 10
48.9821
 20
6.13008
 30
0.0
 70
    32
  0
VERTEX
  5
182A
330
17B0
100
AcDbEntity
  8
241
100
AcDbVertex
100
AcDb3dPolylineVertex
 10
48.9733
 20
6.11223
 30
0.0
 70
    32
  0
VERTEX
  5
182B
330
17B0
100
AcDbEntity
  8
241
100
AcDbVertex
100
AcDb3dPolylineVertex
 10
48.9652
 20
6.09416
 30
0.0
 70
    32
  0
VERTEX
  5
182C
330
17B0
100
AcDbEntity
  8
241
100
AcDbVertex
100
AcDb3dPolylineVertex
 10
48.9577
 20
6.0759
 30
0.0
 70
    32
  0
VERTEX
  5
182D
330
17B0
100
AcDbEntity
  8
241
100
AcDbVertex
100
AcDb3dPolylineVertex
 10
48.9511
 20
6.05746
 30
0.0
 70
    32
  0
VERTEX
  5
182E
330
17B0
100
AcDbEntity
  8
241
100
AcDbVertex
100
AcDb3dPolylineVertex
 10
48.9451
 20
6.03883
 30
0.0
 70
    32
  0
VERTEX
  5
182F
330
17B0
100
AcDbEntity
  8
241
100
AcDbVertex
100
AcDb3dPolylineVertex
 10
48.9399
 20
6.02004
 30
0.0
 70
    32
  0
VERTEX
  5
1830
330
17B0
100
AcDbEntity
  8
241
100
AcDbVertex
100
AcDb3dPolylineVertex
 10
48.9354
 20
6.0011
 30
0.0
 70
    32
  0
VERTEX
  5
1831
330
17B0
100
AcDbEntity
  8
241
100
AcDbVertex
100
AcDb3dPolylineVertex
 10
48.9316
 20
5.98201
 30
0.0
 70
    32
  0
SEQEND
  5
1832
330
17B0
100
AcDbEntity
  8
241
  0
LINE
  5
1833
330
B98
100
AcDbEntity
  8
241
  6
CONTINUOUS
100
AcDbLine
 10
32.0
 20
0.0
 30
0.0
 11
32.0
 21
7.41619416
 31
0.0
1001
GRPNAME
1000
PASTMD3B
  0
ARC
  5
1834
330
B98
100
AcDbEntity
  8
241
100
AcDbCircle
 10
39.17568132
 20
-1.85659096
 30
0.0
 40
2.67568131511622
100
AcDbArc
 50
80.0
 51
260.0
  0
LINE
  5
1835
330
B98
100
AcDbEntity
  8
240
100
AcDbLine
 10
44.45050451
 20
-7.4
 30
0.0
 11
32.80467654
 21
-7.4
 31
0.0
  0
LINE
  5
1836
330
B98
100
AcDbEntity
  8
241
  6
CONTINUOUS
100
AcDbLine
 10
32.0
 20
0.0
 30
0.0
 11
32.0
 21
-7.4
 31
0.0
1001
GRPNAME
1000
PASTMD3B
  0
ARC
  5
1837
330
B98
100
AcDbEntity
  8
240
100
AcDbCircle
 10
32.80467654
 20
-27.4
 30
0.0
 40
20.0
100
AcDbArc
 50
90.0
 51
97.45807874
  0
LINE
  5
1838
330
B98
100
AcDbEntity
  8
240
100
AcDbLine
 10
44.45050451
 20
-7.4
 30
0.0
 11
45.00000001
 21
-7.6
 31
0.0
  0
LINE
  5
1839
330
B98
100
AcDbEntity
  8
241
100
AcDbLine
 10
44.96190064
 20
2.18447099
 30
0.0
 11
43.86821946
 21
-0.05790774
 31
0.0
  0
LINE
  5
183A
330
B98
100
AcDbEntity
  8
241
100
AcDbLine
 10
39.6403085
 20
0.77844074
 30
0.0
 11
43.90902268
 21
0.02575126
 31
0.0
  0
LINE
  5
183B
330
B98
100
AcDbEntity
  8
240
100
AcDbLine
 10
44.45050451
 20
7.4
 30
0.0
 11
32.80467654
 21
7.4
 31
0.0
  0
ARC
  5
183C
330
B98
100
AcDbEntity
  8
240
100
AcDbCircle
 10
32.80467654
 20
27.4
 30
0.0
 40
20.0
100
AcDbArc
 50
262.54192126
 51
270.0
  0
LINE
  5
183D
330
B98
100
AcDbEntity
  8
240
100
AcDbLine
 10
45.00000001
 20
7.6
 30
0.0
 11
44.45050451
 21
7.4
 31
0.0
  0
LINE
  5
183E
330
B98
100
AcDbEntity
  8
240
100
AcDbLine
 10
54.5
 20
7.3
 30
0.0
 11
54.5
 21
0.50264672
 31
0.0
  0
LINE
  5
183F
330
B98
100
AcDbEntity
  8
246
100
AcDbLine
 10
55.0
 20
-8.0
 30
0.0
 11
55.0
 21
8.0
 31
0.0
  0
LINE
  5
1840
330
B98
100
AcDbEntity
  8
240
100
AcDbLine
 10
54.5
 20
-7.3
 30
0.0
 11
54.5
 21
-3.66057103
 31
0.0
  0
LINE
  5
1841
330
B98
100
AcDbEntity
  8
240
100
AcDbLine
 10
54.99051309
 20
-2.97357041
 30
0.0
 11
54.60907584
 21
0.48341371
 31
0.0
  0
LINE
  5
1842
330
B98
100
AcDbEntity
  8
240
100
AcDbLine
 10
55.0
 20
-3.83
 30
0.0
 11
54.5
 21
-3.66057103
 31
0.0
  0
LINE
  5
1843
330
B98
100
AcDbEntity
  8
247
100
AcDbLine
 10
54.69544263
 20
-1.25512764
 30
0.0
 11
54.69454015
 21
-1.25484608
 31
0.0
  0
LINE
  5
1844
330
B98
100
AcDbEntity
  8
240
100
AcDbLine
 10
54.99051309
 20
-2.97357041
 30
0.0
 11
55.0
 21
-3.83
 31
0.0
  0
LINE
  5
1845
330
B98
100
AcDbEntity
  8
240
100
AcDbLine
 10
54.60907584
 20
0.48341371
 30
0.0
 11
54.5
 21
0.50264672
 31
0.0
  0
ENDBLK
  5
B9A
330
B98
100
AcDbEntity
  8
0
100
AcDbBlockEnd
  0
BLOCK
  5
F9C
330
F92
100
AcDbEntity
  8
0
100
AcDbBlockBegin
  2
*D5
 70
     1
 10
0.0
 20
0.0
 30
0.0
  3
*D5
  1

  0
LINE
  5
F93
330
F92
100
AcDbEntity
  8
250
  6
CONTINUOUS
100
AcDbLine
 10
46.0
 20
8.5
 30
0.0
 11
46.0
 21
22.0
 31
0.0
  0
LINE
  5
F94
330
F92
100
AcDbEntity
  8
250
  6
CONTINUOUS
100
AcDbLine
 10
55.0
 20
8.5
 30
0.0
 11
55.0
 21
22.0
 31
0.0
  0
LINE
  5
F95
330
F92
100
AcDbEntity
  8
250
  6
CONTINUOUS
100
AcDbLine
 10
48.23
 20
21.0
 30
0.0
 11
52.77
 21
21.0
 31
0.0
  0
INSERT
  5
F96
330
F92
100
AcDbEntity
  8
250
  6
CONTINUOUS
100
AcDbBlockReference
  2
_OPEN
 10
46.0
 20
21.0
 30
0.0
 41
2.23
 42
2.23
 43
2.23
 50
180.0
  0
INSERT
  5
F97
330
F92
100
AcDbEntity
  8
250
  6
CONTINUOUS
100
AcDbBlockReference
  2
_OPEN
 10
55.0
 20
21.0
 30
0.0
 41
2.23
 42
2.23
 43
2.23
  0
MTEXT
  5
F98
330
F92
100
AcDbEntity
  8
250
  6
CONTINUOUS
 62
    40
100
AcDbMText
 10
50.5
 20
23.4
 30
0.0
 40
2.8
 41
0.0
 71
     5
 72
     1
  1
\A1;9
1001
ACAD
1000
MTEXTBEGIN
1070
    73
1070
     1
1070
    44
1040
1.0
1070
    74
1070
     0
1000
MTEXTEND
1000
MTEXTBEGIN
1070
    73
1070
     1
1070
    44
1040
1.0
1070
    74
1070
     0
1000
MTEXTEND
1000
MTEXTBEGIN
1070
    73
1070
     1
1070
    44
1040
1.0
1070
    74
1070
     0
1000
MTEXTEND
  0
POINT
  5
F99
330
F92
100
AcDbEntity
  8
DEFPOINTS
  6
CONTINUOUS
 62
     0
100
AcDbPoint
 10
46.0
 20
8.0
 30
0.0
  0
POINT
  5
F9A
330
F92
100
AcDbEntity
  8
DEFPOINTS
  6
CONTINUOUS
 62
     0
100
AcDbPoint
 10
55.0
 20
8.0
 30
0.0
  0
POINT
  5
F9B
330
F92
100
AcDbEntity
  8
DEFPOINTS
  6
CONTINUOUS
 62
     0
100
AcDbPoint
 10
55.0
 20
21.0
 30
0.0
  0
ENDBLK
  5
F9D
330
F92
100
AcDbEntity
  8
0
100
AcDbBlockEnd
  0
BLOCK
  5
FC0
330
FB6
100
AcDbEntity
  8
0
100
AcDbBlockBegin
  2
*D6
 70
     1
 10
0.0
 20
0.0
 30
0.0
  3
*D6
  1

  0
LINE
  5
FB7
330
FB6
100
AcDbEntity
  8
250
  6
CONTINUOUS
100
AcDbLine
 10
32.0
 20
7.9
 30
0.0
 11
32.0
 21
29.0
 31
0.0
  0
LINE
  5
FB8
330
FB6
100
AcDbEntity
  8
250
  6
CONTINUOUS
100
AcDbLine
 10
55.0
 20
8.5
 30
0.0
 11
55.0
 21
29.0
 31
0.0
  0
LINE
  5
FB9
330
FB6
100
AcDbEntity
  8
250
  6
CONTINUOUS
100
AcDbLine
 10
34.23
 20
28.0
 30
0.0
 11
52.77
 21
28.0
 31
0.0
  0
INSERT
  5
FBA
330
FB6
100
AcDbEntity
  8
250
  6
CONTINUOUS
100
AcDbBlockReference
  2
_OPEN
 10
32.0
 20
28.0
 30
0.0
 41
2.23
 42
2.23
 43
2.23
 50
180.0
  0
INSERT
  5
FBB
330
FB6
100
AcDbEntity
  8
250
  6
CONTINUOUS
100
AcDbBlockReference
  2
_OPEN
 10
55.0
 20
28.0
 30
0.0
 41
2.23
 42
2.23
 43
2.23
  0
MTEXT
  5
FBC
330
FB6
100
AcDbEntity
  8
250
  6
CONTINUOUS
 62
    40
100
AcDbMText
 10
43.5
 20
30.4
 30
0.0
 40
2.8
 41
0.0
 71
     5
 72
     1
  1
\A1;23
1001
ACAD
1000
MTEXTBEGIN
1070
    73
1070
     1
1070
    44
1040
1.0
1070
    74
1070
     0
1000
MTEXTEND
1000
MTEXTBEGIN
1070
    73
1070
     1
1070
    44
1040
1.0
1070
    74
1070
     0
1000
MTEXTEND
1000
MTEXTBEGIN
1070
    73
1070
     1
1070
    44
1040
1.0
1070
    74
1070
     0
1000
MTEXTEND
  0
POINT
  5
FBD
330
FB6
100
AcDbEntity
  8
DEFPOINTS
  6
CONTINUOUS
 62
     0
100
AcDbPoint
 10
32.0
 20
7.4
 30
0.0
  0
POINT
  5
FBE
330
FB6
100
AcDbEntity
  8
DEFPOINTS
  6
CONTINUOUS
 62
     0
100
AcDbPoint
 10
55.0
 20
8.0
 30
0.0
  0
POINT
  5
FBF
330
FB6
100
AcDbEntity
  8
DEFPOINTS
  6
CONTINUOUS
 62
     0
100
AcDbPoint
 10
55.0
 20
28.0
 30
0.0
  0
ENDBLK
  5
FC1
330
FB6
100
AcDbEntity
  8
0
100
AcDbBlockEnd
  0
ENDSEC
  0
SECTION
  2
ENTITIES
  0
INSERT
  5
6E6
330
1A
100
AcDbEntity
  8
245
100
AcDbBlockReference
  2
矢印なし
 10
175.62382697
 20
90.55123572
 30
0.0
  0
TEXT
  5
96B
330
1A
100
AcDbEntity
  8
241
100
AcDbText
 10
-16.0
 20
49.0
 30
0.0
 40
5.0
  1
HSK-E32-FCM16092-55
  7
YOKO
 11
-16.0
 21
49.0
 31
0.0
100
AcDbText
 73
     1
  0
DIMENSION
  5
96C
330
1A
100
AcDbEntity
  8
250
  6
CONTINUOUS
100
AcDbDimension
  2
*D2
 10
66.5
 20
8.0
 30
0.0
 11
64.1
 21
0.0
 31
0.0
 70
    32
  1
{\H2.8;\U+2205}<>
  3
BIGT
100
AcDbAlignedDimension
 13
55.0
 23
-8.0
 33
0.0
 14
55.0
 24
8.0
 34
0.0
 50
90.0
100
AcDbRotatedDimension
  0
DIMENSION
  5
96F
330
1A
100
AcDbEntity
  8
250
  6
CONTINUOUS
100
AcDbDimension
  2
*D3
 10
55.0
 20
35.0
 30
0.0
 11
27.5
 21
35.0
 31
0.0
 70
   160
  3
BIGT
100
AcDbAlignedDimension
 13
0.0
 23
16.0
 33
0.0
 14
55.0
 24
8.0
 34
0.0
100
AcDbRotatedDimension
  0
DIMENSION
  5
F91
330
1A
100
AcDbEntity
  8
250
  6
CONTINUOUS
100
AcDbDimension
  2
*D5
 10
55.0
 20
21.0
 30
0.0
 11
50.5
 21
23.4
 31
0.0
 70
    32
  3
BIGT
100
AcDbAlignedDimension
 13
46.0
 23
8.0
 33
0.0
 14
55.0
 24
8.0
 34
0.0
100
AcDbRotatedDimension
  0
DIMENSION
  5
FB5
330
1A
100
AcDbEntity
  8
250
  6
CONTINUOUS
100
AcDbDimension
  2
*D6
 10
55.0
 20
28.0
 30
0.0
 11
43.5
 21
30.4
 31
0.0
 70
    32
  3
BIGT
100
AcDbAlignedDimension
 13
32.0
 23
7.4
 33
0.0
 14
55.0
 24
8.0
 34
0.0
100
AcDbRotatedDimension
  0
LINE
  5
13C8
330
1A
100
AcDbEntity
  8
250
  6
CONTINUOUS
100
AcDbLine
 10
-13.06051909
 20
-20.94699629
 30
0.0
 11
-37.46051909
 21
-20.94699629
 31
0.0
1001
ITEMNAME
1000
LNSP2
  0
MTEXT
  5
13C9
330
1A
100
AcDbEntity
  8
251
  6
CONTINUOUS
100
AcDbMText
 10
-34.66051909
 20
-19.94699629
 30
0.0
 40
2.8
 41
0.0
 71
     7
 72
     1
  1
HSK-E32
  7
YOKO
1001
ITEMNAME
1000
LNSP3
1001
ACAD
1000
MTEXTBEGIN
1070
    73
1070
     1
1070
    44
1040
1.0
1070
    74
1070
     0
1000
MTEXTEND
1000
MTEXTBEGIN
1070
    73
1070
     1
1070
    44
1040
1.0
1070
    74
1070
     0
1000
MTEXTEND
  0
LEADER
  5
13CA
330
1A
100
AcDbEntity
  8
250
  6
CONTINUOUS
100
AcDbLeader
  3
BIGT
 76
     2
 10
-7.76323901
 20
-11.77183805
 30
0.0
 10
-13.06051909
 20
-20.94699629
 30
0.0
1001
ACAD
1000
DSTYLE
1002
{
1070
     6
1000
OPEN
1070
    41
1040
2.0
1070
    42
1040
2.0
1070
    44
1040
2.0
1070
   140
1040
4.0
1070
   343
1005
594
1002
}
  0
INSERT
  5
1846
330
1A
100
AcDbEntity
  8
245
100
AcDbBlockReference
  2
1
 10
0.0
 20
0.0
 30
0.0
  0
VIEWPORT
  5
22
330
17
100
AcDbEntity
 67
     1
  8
0
100
AcDbViewport
 10
261.51769912
 20
148.5
 30
0.0
 40
523.03539823
 41
297.0
 68
     1
 69
     1
1001
ACAD
1000
MVIEW
1002
{
1070
    16
1010
0.0
1020
0.0
1030
0.0
1010
0.0
1020
0.0
1030
1.0
1040
0.0
1040
297.0
1040
261.51769912
1040
148.5
1040
50.0
1040
0.0
1040
0.0
1070
     0
1070
   100
1070
     1
1070
     1
1070
     0
1070
     0
1070
     0
1070
     0
1040
0.0
1040
0.0
1040
0.0
1040
1.0
1040
1.0
1040
10.0
1040
10.0
1070
     0
1002
{
1002
}
1002
}
  0
ENDSEC
  0
SECTION
  2
OBJECTS
  0
DICTIONARY
  5
C
330
0
100
AcDbDictionary
  3
ACAD_GROUP
350
D
  3
ACAD_LAYOUT
350
565
  3
ACAD_MLINESTYLE
350
E
  3
ACAD_PLOTSETTINGS
350
566
  3
ACAD_PLOTSTYLENAME
350
563
  3
ACDBHEADERROUNDTRIPXREC
350
186F
  3
GRADE_DWG
350
540
  0
DICTIONARY
  5
DB4
330
1A
100
AcDbDictionary
280
     1
  3
ACAD_LAYOUTSELFREF
360
1891
  0
DICTIONARY
  5
DB2
330
17
100
AcDbDictionary
280
     1
  3
ACAD_LAYOUTSELFREF
360
1890
  0
DICTIONARY
  5
D
102
{ACAD_REACTORS
330
C
102
}
330
C
100
AcDbDictionary
  3
*A1
350
6C7
  3
*A2
350
6C8
  3
*A3
350
6D4
  3
*A4
350
6D5
  3
DREC-1
350
5FC
  3
DREC-2
350
654
  3
DREC-3
350
673
  0
DICTIONARY
  5
565
102
{ACAD_REACTORS
330
C
102
}
330
C
100
AcDbDictionary
  0
DICTIONARY
  5
E
102
{ACAD_REACTORS
330
C
102
}
330
C
100
AcDbDictionary
  3
STANDARD
350
13
  0
DICTIONARY
  5
566
102
{ACAD_REACTORS
330
C
102
}
330
C
100
AcDbDictionary
  3
A3_0_5倍_
350
758
  3
A3_1倍_
350
757
  3
A3_1倍__2000_
350
707
  3
A3_2倍_
350
759
  3
A4_0_5倍_
350
755
  3
A4_1倍_
350
754
  3
A4_1倍__2000_
350
708
  3
A4_2倍_
350
756
  0
ACDBDICTIONARYWDFLT
  5
563
102
{ACAD_REACTORS
330
C
102
}
330
C
100
AcDbDictionary
281
     1
  3
Normal
350
564
100
AcDbDictionaryWithDefault
340
564
  0
DICTIONARY
  5
186F
102
{ACAD_REACTORS
330
C
102
}
330
C
100
AcDbDictionary
  3
CEPSNTYPE
350
1879
  3
DIMSTYLEDATA
350
187D
  3
FINGERPRINTGUID
350
187A
  3
HYPERLINKBASE
350
1872
  3
INSUNITS
350
1878
  3
LAYOUTDICT
350
1874
  3
LWETCUNION
350
1877
  3
PLOTSETDICT
350
1875
  3
PLOTSTYLNAMDICT
350
1876
  3
PSVPSCALE
350
187C
  3
PUCSBASE
350
1880
  3
PUCSORGBACK
350
1886
  3
PUCSORGBOTTOM
350
1882
  3
PUCSORGFRONT
350
1885
  3
PUCSORGLEFT
350
1883
  3
PUCSORGRIGHT
350
1884
  3
PUCSORGTOP
350
1881
  3
PUCSORTHOREF
350
187E
  3
PUCSORTHOVIEW
350
187F
  3
STYLESHEET
350
1873
  3
TSTACKALIGN
350
1870
  3
TSTACKSIZE
350
1871
  3
UCSBASE
350
1889
  3
UCSORGBACK
350
188F
  3
UCSORGBOTTOM
350
188B
  3
UCSORGFRONT
350
188E
  3
UCSORGLEFT
350
188C
  3
UCSORGRIGHT
350
188D
  3
UCSORGTOP
350
188A
  3
UCSORTHOREF
350
1887
  3
UCSORTHOVIEW
350
1888
  3
VERSIONGUID
350
187B
  0
DICTIONARY
  5
540
102
{ACAD_REACTORS
330
C
102
}
330
C
100
AcDbDictionary
  3
VERSION
350
560
  0
XRECORD
  5
1891
102
{ACAD_REACTORS
330
DB4
102
}
330
DB4
100
AcDbXrecord
340
1A
  0
XRECORD
  5
1890
102
{ACAD_REACTORS
330
DB2
102
}
330
DB2
100
AcDbXrecord
340
17
  0
GROUP
  5
6C7
102
{ACAD_REACTORS
330
D
102
}
330
D
100
AcDbGroup
300

 70
     0
 71
     1
1001
GRPNAME
1000
DMA00
  0
GROUP
  5
6C8
102
{ACAD_REACTORS
330
D
102
}
330
D
100
AcDbGroup
300

 70
     0
 71
     1
1001
GRPNAME
1000
DMA00
  0
GROUP
  5
6D4
102
{ACAD_REACTORS
330
D
102
}
330
D
100
AcDbGroup
300

 70
     0
 71
     1
1001
GRPNAME
1000
DMA00
  0
GROUP
  5
6D5
102
{ACAD_REACTORS
330
D
102
}
330
D
100
AcDbGroup
300

 70
     0
 71
     1
1001
GRPNAME
1000
DMA00
  0
GROUP
  5
5FC
102
{ACAD_REACTORS
330
D
102
}
330
D
100
AcDbGroup
300

 70
     0
 71
     1
1001
GRPNAME
1000
DREC-
1001
GPARA
1000
xsiz
1000
44.182
1000
ysiz
1000
40.677
1000
angl
1000
0
1000
ctyp
1000
0
1000
csiz
1000
5
1000
lfnt
1000
cont
1000
hcnt
1000
hoff
1000
vcnt
1000
voff
1000
opnt
1000
4
1000
dxpt
1000
0
1000
dypt
1000
0
  0
GROUP
  5
654
102
{ACAD_REACTORS
330
D
102
}
330
D
100
AcDbGroup
300

 70
     0
 71
     1
1001
GRPNAME
1000
DREC-
1001
GPARA
1000
xsiz
1000
54.592
1000
ysiz
1000
53.036
1000
angl
1000
0
1000
ctyp
1000
0
1000
csiz
1000
5
1000
lfnt
1000
cont
1000
hcnt
1000
hoff
1000
vcnt
1000
voff
1000
opnt
1000
4
1000
dxpt
1000
0
1000
dypt
1000
0
  0
GROUP
  5
673
102
{ACAD_REACTORS
330
D
102
}
330
D
100
AcDbGroup
300

 70
     0
 71
     1
1001
GRPNAME
1000
DREC-
1001
GPARA
1000
xsiz
1000
30.363
1000
ysiz
1000
36.175
1000
angl
1000
0
1000
ctyp
1000
0
1000
csiz
1000
5
1000
lfnt
1000
cont
1000
hcnt
1000
hoff
1000
vcnt
1000
voff
1000
opnt
1000
4
1000
dxpt
1000
0
1000
dypt
1000
0
  0
MLINESTYLE
  5
13
102
{ACAD_REACTORS
330
E
102
}
330
E
100
AcDbMlineStyle
  2
STANDARD
 70
     0
  3

 62
     0
 51
90.0
 52
90.0
 71
     2
 49
0.5
 62
   256
  6
BYLAYER
 49
-0.5
 62
   256
  6
BYLAYER
  0
PLOTSETTINGS
  5
758
102
{ACAD_REACTORS
330
566
102
}
330
566
100
AcDbPlotSettings
  1
A3(0.5倍)
  2
\\AWTECPC05\HP DeskJet 1120C
  4
A3
  6

 40
5.95841646
 41
13.49375153
 42
6.04309082
 43
3.67242432
 44
296.92599487
 45
419.94665527
 46
89.96
 47
127.14
 48
0.0
 49
0.0
140
0.0
141
0.0
142
1.0
143
2.0
 70
  1716
 72
     1
 73
     1
 74
     2
  7
big.ctb
 75
    17
147
0.5
148
0.0
149
0.0
  0
PLOTSETTINGS
  5
757
102
{ACAD_REACTORS
330
566
102
}
330
566
100
AcDbPlotSettings
  1
A3(1倍)
  2
\\AWTECPC05\HP DeskJet 1120C
  4
A3
  6

 40
5.95841646
 41
13.49375153
 42
6.04309082
 43
3.67242432
 44
296.92599487
 45
419.94665527
 46
37.46
 47
52.89
 48
0.0
 49
0.0
140
0.0
141
0.0
142
1.0
143
1.0
 70
  1716
 72
     1
 73
     1
 74
     2
  7
big.ctb
 75
    16
147
1.0
148
0.0
149
0.0
  0
PLOTSETTINGS
  5
707
102
{ACAD_REACTORS
330
566
102
}
330
566
100
AcDbPlotSettings
  1
A3(1倍)(2000)
  2
SII LS-1300 (D-SCAN)
  4
User258
  6

 40
3.17499995
 41
3.17499995
 42
3.17498779
 43
3.17498779
 44
419.98898315
 45
296.98950195
 46
58.32
 47
40.32
 48
0.0
 49
0.0
140
0.0
141
0.0
142
1.0
143
1.0
 70
  1716
 72
     1
 73
     0
 74
     2
  7
big.ctb
 75
    16
147
1.0
148
0.0
149
0.0
  0
PLOTSETTINGS
  5
759
102
{ACAD_REACTORS
330
566
102
}
330
566
100
AcDbPlotSettings
  1
A3(2倍)
  2
\\AWTECPC05\HP DeskJet 1120C
  4
A3
  6

 40
5.95841646
 41
13.49375153
 42
6.04309082
 43
3.67242432
 44
296.92599487
 45
419.94665527
 46
-67.54
 47
-95.61
 48
0.0
 49
0.0
140
0.0
141
0.0
142
1.0
143
0.5
 70
  1716
 72
     1
 73
     1
 74
     2
  7
big.ctb
 75
    27
147
2.0
148
0.0
149
0.0
  0
PLOTSETTINGS
  5
755
102
{ACAD_REACTORS
330
566
102
}
330
566
100
AcDbPlotSettings
  1
A4(0.5倍)
  2
\\AWTECPC05\HP DeskJet 1120C
  4
A4
  6

 40
4.18041658
 41
13.49374962
 42
4.18040466
 43
3.92642212
 44
209.97332764
 45
296.92599487
 46
48.31
 47
65.5
 48
0.0
 49
0.0
140
0.0
141
0.0
142
1.0
143
2.0
 70
  1716
 72
     1
 73
     1
 74
     2
  7
big.ctb
 75
    17
147
0.5
148
0.0
149
0.0
  0
PLOTSETTINGS
  5
754
102
{ACAD_REACTORS
330
566
102
}
330
566
100
AcDbPlotSettings
  1
A4(1倍)
  2
\\AWTECPC05\HP DeskJet 1120C
  4
A4
  6

 40
4.18041658
 41
13.49374962
 42
4.18040466
 43
3.92642212
 44
209.97332764
 45
296.92599487
 46
-4.19
 47
-8.75
 48
0.0
 49
0.0
140
0.0
141
0.0
142
1.0
143
1.0
 70
  1716
 72
     1
 73
     1
 74
     2
  7
big.ctb
 75
    16
147
1.0
148
0.0
149
0.0
  0
PLOTSETTINGS
  5
708
102
{ACAD_REACTORS
330
566
102
}
330
566
100
AcDbPlotSettings
  1
A4(1倍)(2000)
  2
SII LS-1300 (D-SCAN)
  4
User259
  6

 40
3.17499995
 41
3.17499995
 42
3.17498779
 43
3.17500305
 44
296.98950195
 45
209.99449158
 46
-3.18
 47
-3.18
 48
0.0
 49
0.0
140
0.0
141
0.0
142
1.0
143
1.0
 70
  1716
 72
     1
 73
     0
 74
     2
  7
big.ctb
 75
    16
147
1.0
148
0.0
149
0.0
  0
PLOTSETTINGS
  5
756
102
{ACAD_REACTORS
330
566
102
}
330
566
100
AcDbPlotSettings
  1
A4(2倍)
  2
\\AWTECPC05\HP DeskJet 1120C
  4
A4
  6

 40
4.18041658
 41
13.49374962
 42
4.18040466
 43
3.92642212
 44
209.97332764
 45
296.92599487
 46
-109.19
 47
-157.25
 48
0.0
 49
0.0
140
0.0
141
0.0
142
1.0
143
0.5
 70
  1716
 72
     1
 73
     1
 74
     2
  7
big.ctb
 75
    27
147
2.0
148
0.0
149
0.0
  0
ACDBPLACEHOLDER
  5
564
102
{ACAD_REACTORS
330
563
102
}
330
563
100
AcDbPlaceHolder
280
     0
  0
XRECORD
  5
1879
102
{ACAD_REACTORS
330
186F
102
}
330
186F
100
AcDbXrecord
 90
        0
  0
XRECORD
  5
187D
102
{ACAD_REACTORS
330
186F
102
}
330
186F
100
AcDbXrecord
1000
DSTYLE
1002
{
1070
   341
340
594
1070
   343
340
594
1070
   344
340
594
1002
}
  0
XRECORD
  5
187A
102
{ACAD_REACTORS
330
186F
102
}
330
186F
100
AcDbXrecord
  1
{51294030-9CB4-11D3-8E18-00A0C925D94D}
  0
XRECORD
  5
1872
102
{ACAD_REACTORS
330
186F
102
}
330
186F
100
AcDbXrecord
  1

  0
XRECORD
  5
1878
102
{ACAD_REACTORS
330
186F
102
}
330
186F
100
AcDbXrecord
 90
        0
  0
XRECORD
  5
1874
102
{ACAD_REACTORS
330
186F
102
}
330
186F
100
AcDbXrecord
340
565
  0
XRECORD
  5
1877
102
{ACAD_REACTORS
330
186F
102
}
330
186F
100
AcDbXrecord
 90
    10781
  0
XRECORD
  5
1875
102
{ACAD_REACTORS
330
186F
102
}
330
186F
100
AcDbXrecord
340
566
  0
XRECORD
  5
1876
102
{ACAD_REACTORS
330
186F
102
}
330
186F
100
AcDbXrecord
340
563
  0
XRECORD
  5
187C
102
{ACAD_REACTORS
330
186F
102
}
330
186F
100
AcDbXrecord
 40
0.0
  0
XRECORD
  5
1880
102
{ACAD_REACTORS
330
186F
102
}
330
186F
100
AcDbXrecord
340
0
  0
XRECORD
  5
1886
102
{ACAD_REACTORS
330
186F
102
}
330
186F
100
AcDbXrecord
 10
0.0
 20
0.0
 30
0.0
  0
XRECORD
  5
1882
102
{ACAD_REACTORS
330
186F
102
}
330
186F
100
AcDbXrecord
 10
0.0
 20
0.0
 30
0.0
  0
XRECORD
  5
1885
102
{ACAD_REACTORS
330
186F
102
}
330
186F
100
AcDbXrecord
 10
0.0
 20
0.0
 30
0.0
  0
XRECORD
  5
1883
102
{ACAD_REACTORS
330
186F
102
}
330
186F
100
AcDbXrecord
 10
0.0
 20
0.0
 30
0.0
  0
XRECORD
  5
1884
102
{ACAD_REACTORS
330
186F
102
}
330
186F
100
AcDbXrecord
 10
0.0
 20
0.0
 30
0.0
  0
XRECORD
  5
1881
102
{ACAD_REACTORS
330
186F
102
}
330
186F
100
AcDbXrecord
 10
0.0
 20
0.0
 30
0.0
  0
XRECORD
  5
187E
102
{ACAD_REACTORS
330
186F
102
}
330
186F
100
AcDbXrecord
340
0
  0
XRECORD
  5
187F
102
{ACAD_REACTORS
330
186F
102
}
330
186F
100
AcDbXrecord
 70
     0
  0
XRECORD
  5
1873
102
{ACAD_REACTORS
330
186F
102
}
330
186F
100
AcDbXrecord
  1
big.ctb
  0
XRECORD
  5
1870
102
{ACAD_REACTORS
330
186F
102
}
330
186F
100
AcDbXrecord
 90
        1
  0
XRECORD
  5
1871
102
{ACAD_REACTORS
330
186F
102
}
330
186F
100
AcDbXrecord
 90
       70
  0
XRECORD
  5
1889
102
{ACAD_REACTORS
330
186F
102
}
330
186F
100
AcDbXrecord
340
0
  0
XRECORD
  5
188F
102
{ACAD_REACTORS
330
186F
102
}
330
186F
100
AcDbXrecord
 10
0.0
 20
0.0
 30
0.0
  0
XRECORD
  5
188B
102
{ACAD_REACTORS
330
186F
102
}
330
186F
100
AcDbXrecord
 10
0.0
 20
0.0
 30
0.0
  0
XRECORD
  5
188E
102
{ACAD_REACTORS
330
186F
102
}
330
186F
100
AcDbXrecord
 10
0.0
 20
0.0
 30
0.0
  0
XRECORD
  5
188C
102
{ACAD_REACTORS
330
186F
102
}
330
186F
100
AcDbXrecord
 10
0.0
 20
0.0
 30
0.0
  0
XRECORD
  5
188D
102
{ACAD_REACTORS
330
186F
102
}
330
186F
100
AcDbXrecord
 10
0.0
 20
0.0
 30
0.0
  0
XRECORD
  5
188A
102
{ACAD_REACTORS
330
186F
102
}
330
186F
100
AcDbXrecord
 10
0.0
 20
0.0
 30
0.0
  0
XRECORD
  5
1887
102
{ACAD_REACTORS
330
186F
102
}
330
186F
100
AcDbXrecord
340
0
  0
XRECORD
  5
1888
102
{ACAD_REACTORS
330
186F
102
}
330
186F
100
AcDbXrecord
 70
     0
  0
XRECORD
  5
187B
102
{ACAD_REACTORS
330
186F
102
}
330
186F
100
AcDbXrecord
  1
{018B9B28-2E37-4DDC-BE8E-D6927B437028}
  0
XRECORD
  5
560
102
{ACAD_REACTORS
330
540
102
}
330
540
100
AcDbXrecord
  1
2.0.0
  0
ENDSEC
  0
EOF
