  0
SECTION
  2
HEADER
  9
$ACADVER
  1
AC1014
  9
$ACADMAINTVER
 70
     9
  9
$DWGCODEPAGE
  3
ANSI_932
  9
$INSBASE
 10
0.0
 20
0.0
 30
0.0
  9
$EXTMIN
 10
-35.10403672
 20
-17.4793599
 30
-0.00152582
  9
$EXTMAX
 10
82.24685494
 20
47.00539419
 30
0.00000003
  9
$LIMMIN
 10
0.0
 20
0.0
  9
$LIMMAX
 10
297.0
 20
210.0
  9
$ORTHOMODE
 70
     0
  9
$REGENMODE
 70
     1
  9
$FILLMODE
 70
     1
  9
$QTEXTMODE
 70
     0
  9
$MIRRTEXT
 70
     1
  9
$DRAGMODE
 70
     2
  9
$LTSCALE
 40
10.0
  9
$OSMODE
 70
   549
  9
$ATTMODE
 70
     1
  9
$TEXTSIZE
 40
3.0
  9
$TRACEWID
 40
1.0
  9
$TEXTSTYLE
  7
YOKO
  9
$CLAYER
  8
245
  9
$CELTYPE
  6
BYLAYER
  9
$CECOLOR
 62
   256
  9
$CELTSCALE
 40
1.0
  9
$DELOBJ
 70
     1
  9
$DISPSILH
 70
     0
  9
$DIMSCALE
 40
1.0
  9
$DIMASZ
 40
2.23
  9
$DIMEXO
 40
0.5
  9
$DIMDLI
 40
2.5
  9
$DIMRND
 40
0.0
  9
$DIMDLE
 40
0.0
  9
$DIMEXE
 40
1.0
  9
$DIMTP
 40
0.0
  9
$DIMTM
 40
0.0
  9
$DIMTXT
 40
2.8
  9
$DIMCEN
 40
0.0
  9
$DIMTSZ
 40
0.0
  9
$DIMTOL
 70
     0
  9
$DIMLIM
 70
     0
  9
$DIMTIH
 70
     0
  9
$DIMTOH
 70
     0
  9
$DIMSE1
 70
     0
  9
$DIMSE2
 70
     0
  9
$DIMTAD
 70
     3
  9
$DIMZIN
 70
     8
  9
$DIMBLK
  1

  9
$DIMASO
 70
     1
  9
$DIMSHO
 70
     1
  9
$DIMPOST
  1

  9
$DIMAPOST
  1

  9
$DIMALT
 70
     0
  9
$DIMALTD
 70
     2
  9
$DIMALTF
 40
25.4
  9
$DIMLFAC
 40
1.0
  9
$DIMTOFL
 70
     1
  9
$DIMTVP
 40
0.0
  9
$DIMTIX
 70
     1
  9
$DIMSOXD
 70
     0
  9
$DIMSAH
 70
     1
  9
$DIMBLK1
  1
OPEN
  9
$DIMBLK2
  1
OPEN
  9
$DIMSTYLE
  2
BIGT
  9
$DIMCLRD
 70
   256
  9
$DIMCLRE
 70
   256
  9
$DIMCLRT
 70
    40
  9
$DIMTFAC
 40
1.0
  9
$DIMGAP
 40
1.0
  9
$DIMJUST
 70
     0
  9
$DIMSD1
 70
     0
  9
$DIMSD2
 70
     0
  9
$DIMTOLJ
 70
     1
  9
$DIMTZIN
 70
     8
  9
$DIMALTZ
 70
     0
  9
$DIMALTTZ
 70
     0
  9
$DIMFIT
 70
     3
  9
$DIMUPT
 70
     0
  9
$DIMUNIT
 70
     2
  9
$DIMDEC
 70
     3
  9
$DIMTDEC
 70
     3
  9
$DIMALTU
 70
     2
  9
$DIMALTTD
 70
     2
  9
$DIMTXSTY
  7
STANDARD
  9
$DIMAUNIT
 70
     0
  9
$LUNITS
 70
     2
  9
$LUPREC
 70
     3
  9
$SKETCHINC
 40
1.0
  9
$FILLETRAD
 40
0.0
  9
$AUNITS
 70
     0
  9
$AUPREC
 70
     3
  9
$MENU
  1
.
  9
$ELEVATION
 40
0.0
  9
$PELEVATION
 40
0.0
  9
$THICKNESS
 40
0.0
  9
$LIMCHECK
 70
     0
  9
$BLIPMODE
 70
     0
  9
$CHAMFERA
 40
10.0
  9
$CHAMFERB
 40
10.0
  9
$CHAMFERC
 40
0.0
  9
$CHAMFERD
 40
0.0
  9
$SKPOLY
 70
     0
  9
$TDCREATE
 40
2454995.456785659
  9
$TDUPDATE
 40
2455372.678346354
  9
$TDINDWG
 40
0.0050123032
  9
$TDUSRTIMER
 40
0.0050123032
  9
$USRTIMER
 70
     1
  9
$ANGBASE
 50
0.0
  9
$ANGDIR
 70
     0
  9
$PDMODE
 70
     1
  9
$PDSIZE
 40
-5.0
  9
$PLINEWID
 40
0.0
  9
$COORDS
 70
     0
  9
$SPLFRAME
 70
     0
  9
$SPLINETYPE
 70
     6
  9
$SPLINESEGS
 70
     8
  9
$ATTDIA
 70
     0
  9
$ATTREQ
 70
     1
  9
$HANDLING
 70
-16383
  9
$HANDSEED
  5
19A2
  9
$SURFTAB1
 70
     6
  9
$SURFTAB2
 70
     6
  9
$SURFTYPE
 70
     6
  9
$SURFU
 70
     6
  9
$SURFV
 70
     6
  9
$UCSNAME
  2

  9
$UCSORG
 10
0.0
 20
0.0
 30
0.0
  9
$UCSXDIR
 10
1.0
 20
0.0
 30
0.0
  9
$UCSYDIR
 10
0.0
 20
1.0
 30
0.0
  9
$PUCSNAME
  2

  9
$PUCSORG
 10
0.0
 20
0.0
 30
0.0
  9
$PUCSXDIR
 10
1.0
 20
0.0
 30
0.0
  9
$PUCSYDIR
 10
0.0
 20
1.0
 30
0.0
  9
$USERI1
 70
     1
  9
$USERI2
 70
     0
  9
$USERI3
 70
     0
  9
$USERI4
 70
     0
  9
$USERI5
 70
     0
  9
$USERR1
 40
0.0
  9
$USERR2
 40
0.0
  9
$USERR3
 40
0.0
  9
$USERR4
 40
0.0
  9
$USERR5
 40
0.0
  9
$WORLDVIEW
 70
     1
  9
$SHADEDGE
 70
     3
  9
$SHADEDIF
 70
    70
  9
$TILEMODE
 70
     1
  9
$MAXACTVP
 70
    16
  9
$PINSBASE
 10
0.0
 20
0.0
 30
0.0
  9
$PLIMCHECK
 70
     0
  9
$PEXTMIN
 10
1.00000000E+20
 20
1.00000000E+20
 30
1.00000000E+20
  9
$PEXTMAX
 10
-1.00000000E+20
 20
-1.00000000E+20
 30
-1.00000000E+20
  9
$PLIMMIN
 10
0.0
 20
0.0
  9
$PLIMMAX
 10
420.0
 20
297.0
  9
$UNITMODE
 70
     0
  9
$VISRETAIN
 70
     0
  9
$PLINEGEN
 70
     0
  9
$PSLTSCALE
 70
     1
  9
$TREEDEPTH
 70
  3020
  9
$PICKSTYLE
 70
     0
  9
$CMLSTYLE
  2
STANDARD
  9
$CMLJUST
 70
     0
  9
$CMLSCALE
 40
1.0
  9
$PROXYGRAPHICS
 70
     1
  9
$MEASUREMENT
 70
     1
  0
ENDSEC
  0
SECTION
  2
CLASSES
  0
CLASS
  1
XRECORD
  2
AcDbXrecord
  3
AutoCAD 2000
 90
        0
280
     0
281
     0
  0
CLASS
  1
ACDBDICTIONARYWDFLT
  2
AcDbDictionaryWithDefault
  3
AutoCAD 2000
 90
        0
280
     0
281
     0
  0
CLASS
  1
ACDBPLACEHOLDER
  2
AcDbPlaceHolder
  3
AutoCAD 2000
 90
        0
280
     0
281
     0
  0
CLASS
  1
LAYOUT
  2
AcDbLayout
  3
AutoCAD 2000
 90
        0
280
     0
281
     0
  0
CLASS
  1
PLOTSETTINGS
  2
AcDbPlotSettings
  3
AutoCAD 2000
 90
        0
280
     0
281
     0
  0
CLASS
  1
LONG_TRANSACTION
  2
AcDbLongTransaction
  3
AutoCAD 2000
 90
        0
280
     0
281
     0
  0
CLASS
  1
LWPOLYLINE
  2
AcDbPolyline
  3
AutoCAD 2000
 90
        0
280
     0
281
     1
  0
CLASS
  1
HATCH
  2
AcDbHatch
  3
AutoCAD 2000
 90
        0
280
     0
281
     1
  0
CLASS
  1
XRECORD
  2
AcDbXrecord
  3
AutoCAD 2000
 90
        0
280
     0
281
     0
  0
CLASS
  1
LONG_TRANSACTION
  2
AcDbLongTransaction
  3
AutoCAD 2000
 90
        0
280
     0
281
     0
  0
CLASS
  1
LWPOLYLINE
  2
AcDbPolyline
  3
AutoCAD 2000
 90
        0
280
     0
281
     1
  0
CLASS
  1
HATCH
  2
AcDbHatch
  3
AutoCAD 2000
 90
        0
280
     0
281
     1
  0
CLASS
  1
XRECORD
  2
AcDbXrecord
  3
AutoCAD 2000
 90
        0
280
     0
281
     0
  0
CLASS
  1
LONG_TRANSACTION
  2
AcDbLongTransaction
  3
AutoCAD 2000
 90
        0
280
     0
281
     0
  0
CLASS
  1
LWPOLYLINE
  2
AcDbPolyline
  3
AutoCAD 2000
 90
        0
280
     0
281
     1
  0
CLASS
  1
HATCH
  2
AcDbHatch
  3
AutoCAD 2000
 90
        0
280
     0
281
     1
  0
CLASS
  1
XRECORD
  2
AcDbXrecord
  3
AutoCAD 2000
 90
        0
280
     0
281
     0
  0
ENDSEC
  0
SECTION
  2
TABLES
  0
TABLE
  2
VPORT
  5
8
330
0
100
AcDbSymbolTable
 70
     2
  0
VPORT
  5
197D
330
8
100
AcDbSymbolTableRecord
100
AcDbViewportTableRecord
  2
*ACTIVE
 70
     0
 10
0.0
 20
0.0
 11
1.0
 21
1.0
 12
23.57140911
 22
14.76301714
 13
0.0
 23
0.0
 14
7.0
 24
7.0
 15
7.0
 25
7.0
 16
0.0
 26
0.0
 36
1.0
 17
0.0
 27
0.0
 37
0.0
 40
81.03012931
 41
1.45595855
 42
50.0
 43
0.0
 44
0.0
 50
0.0
 51
0.0
 71
     0
 72
  2000
 73
     1
 74
     0
 75
     0
 76
     0
 77
     0
 78
     0
  0
ENDTAB
  0
TABLE
  2
LTYPE
  5
5
330
0
100
AcDbSymbolTable
 70
     3
  0
LTYPE
  5
14
330
5
100
AcDbSymbolTableRecord
100
AcDbLinetypeTableRecord
  2
BYBLOCK
 70
     0
  3

 72
    65
 73
     0
 40
0.0
  0
LTYPE
  5
15
330
5
100
AcDbSymbolTableRecord
100
AcDbLinetypeTableRecord
  2
BYLAYER
 70
     0
  3

 72
    65
 73
     0
 40
0.0
  0
LTYPE
  5
16
330
5
100
AcDbSymbolTableRecord
100
AcDbLinetypeTableRecord
  2
CONTINUOUS
 70
     0
  3
Solid line
 72
    65
 73
     0
 40
0.0
  0
LTYPE
  5
258
330
5
100
AcDbSymbolTableRecord
100
AcDbLinetypeTableRecord
  2
CENTER2
 70
     0
  3
___ _ ___ _ ___ _ ___ _ ___ _ ___ _ ___ _ ___ _
 72
    65
 73
     4
 40
1.125
 49
0.75
 74
     0
 49
-0.125
 74
     0
 49
0.125
 74
     0
 49
-0.125
 74
     0
  0
LTYPE
  5
25D
330
5
100
AcDbSymbolTableRecord
100
AcDbLinetypeTableRecord
  2
PHANTOM2
 70
     0
  3
___ _ _ ___ _ _ ___ _ _ ___ _ _ ___ _ _ ___ _ _
 72
    65
 73
     6
 40
1.25
 49
0.625
 74
     0
 49
-0.125
 74
     0
 49
0.125
 74
     0
 49
-0.125
 74
     0
 49
0.125
 74
     0
 49
-0.125
 74
     0
  0
ENDTAB
  0
TABLE
  2
LAYER
  5
2
330
0
100
AcDbSymbolTable
 70
    11
  0
LAYER
  5
F
330
2
100
AcDbSymbolTableRecord
100
AcDbLayerTableRecord
  2
0
 70
     0
 62
     7
  6
CONTINUOUS
  0
LAYER
  5
1AA
330
2
100
AcDbSymbolTableRecord
100
AcDbLayerTableRecord
  2
240
 70
     0
 62
     4
  6
CONTINUOUS
  0
LAYER
  5
1AB
330
2
100
AcDbSymbolTableRecord
100
AcDbLayerTableRecord
  2
241
 70
     0
 62
   211
  6
CONTINUOUS
  0
LAYER
  5
1AC
330
2
100
AcDbSymbolTableRecord
100
AcDbLayerTableRecord
  2
242
 70
     0
 62
     3
  6
CONTINUOUS
  0
LAYER
  5
1AF
330
2
100
AcDbSymbolTableRecord
100
AcDbLayerTableRecord
  2
245
 70
     0
 62
     2
  6
CENTER2
  0
LAYER
  5
21A
330
2
100
AcDbSymbolTableRecord
100
AcDbLayerTableRecord
  2
246
 70
     0
 62
     3
  6
PHANTOM2
  0
LAYER
  5
21B
330
2
100
AcDbSymbolTableRecord
100
AcDbLayerTableRecord
  2
247
 70
     0
 62
    60
  6
CONTINUOUS
  0
LAYER
  5
21E
330
2
100
AcDbSymbolTableRecord
100
AcDbLayerTableRecord
  2
250
 70
     0
 62
     3
  6
CONTINUOUS
  0
LAYER
  5
21F
330
2
100
AcDbSymbolTableRecord
100
AcDbLayerTableRecord
  2
251
 70
     0
 62
    40
  6
CONTINUOUS
  0
LAYER
  5
5C4
330
2
100
AcDbSymbolTableRecord
100
AcDbLayerTableRecord
  2
DEFPOINTS
 70
     0
 62
     7
  6
CONTINUOUS
  0
ENDTAB
  0
TABLE
  2
STYLE
  5
3
330
0
100
AcDbSymbolTable
 70
     2
  0
STYLE
  5
10
330
3
100
AcDbSymbolTableRecord
100
AcDbTextStyleTableRecord
  2
STANDARD
 70
     0
 40
0.0
 41
1.0
 50
0.0
 71
     0
 42
3.0
  3
romans.shx
  4
BIGFONT.SHX
  0
STYLE
  5
339
330
3
100
AcDbSymbolTableRecord
100
AcDbTextStyleTableRecord
  2
YOKO
 70
     0
 40
0.0
 41
1.0
 50
0.0
 71
     0
 42
3.0
  3
romans.shx
  4
extfont.shx
  0
ENDTAB
  0
TABLE
  2
VIEW
  5
6
330
0
100
AcDbSymbolTable
 70
     1
  0
VIEW
  5
15B8
330
6
100
AcDbSymbolTableRecord
100
AcDbViewTableRecord
  2
OLE1
 70
     0
 40
82.37684754
 10
23.58407652
 20
12.93310591
 41
117.95105303
 11
0.0
 21
0.0
 31
1.0
 12
0.0
 22
0.0
 32
0.0
 42
50.0
 43
0.0
 44
0.0
 50
0.0
 71
     0
  0
ENDTAB
  0
TABLE
  2
UCS
  5
7
330
0
100
AcDbSymbolTable
 70
     0
  0
ENDTAB
  0
TABLE
  2
APPID
  5
9
330
0
100
AcDbSymbolTable
 70
     9
  0
APPID
  5
11
330
9
100
AcDbSymbolTableRecord
100
AcDbRegAppTableRecord
  2
ACAD
 70
     0
  0
APPID
  5
1B1
330
9
100
AcDbSymbolTableRecord
100
AcDbRegAppTableRecord
  2
GLOBAL
 70
     0
  0
APPID
  5
2A4
330
9
100
AcDbSymbolTableRecord
100
AcDbRegAppTableRecord
  2
DETAIL
 70
     0
  0
APPID
  5
5FD
330
9
100
AcDbSymbolTableRecord
100
AcDbRegAppTableRecord
  2
GRPNAME
 70
     0
  0
APPID
  5
5FE
330
9
100
AcDbSymbolTableRecord
100
AcDbRegAppTableRecord
  2
GPARA
 70
     0
  0
APPID
  5
6C4
330
9
100
AcDbSymbolTableRecord
100
AcDbRegAppTableRecord
  2
DCO15
 70
     0
  0
APPID
  5
6C5
330
9
100
AcDbSymbolTableRecord
100
AcDbRegAppTableRecord
  2
ITEMNAME
 70
     0
  0
APPID
  5
6C6
330
9
100
AcDbSymbolTableRecord
100
AcDbRegAppTableRecord
  2
GRADE_0
 70
     0
  0
APPID
  5
1196
330
9
100
AcDbSymbolTableRecord
100
AcDbRegAppTableRecord
  2
CONTENTBLOCKICON
 70
     0
  0
ENDTAB
  0
TABLE
  2
DIMSTYLE
  5
A
330
0
100
AcDbSymbolTable
 70
     4
  0
DIMSTYLE
105
725
102
{ACAD_REACTORS
330
966
330
995
330
11A4
330
13B8
102
}
330
A
100
AcDbSymbolTableRecord
100
AcDbDimStyleTableRecord
  2
BIGT
 70
     0
  3

  4

  5

  6
OPEN
  7
OPEN
 40
1.0
 41
2.23
 42
0.5
 43
2.5
 44
1.0
 45
0.0
 46
0.0
 47
0.0
 48
0.0
140
2.8
141
0.0
142
0.0
143
25.4
144
1.0
145
0.0
146
1.0
147
1.0
 71
     0
 72
     0
 73
     0
 74
     0
 75
     0
 76
     0
 77
     3
 78
     8
170
     0
171
     2
172
     1
173
     1
174
     1
175
     0
176
   256
177
   256
178
    40
270
     2
271
     3
272
     3
273
     2
274
     2
340
10
275
     0
280
     0
281
     0
282
     0
283
     1
284
     8
285
     0
286
     0
287
     3
288
     0
  0
ENDTAB
  0
TABLE
  2
BLOCK_RECORD
  5
1
330
0
100
AcDbSymbolTable
 70
     8
  0
BLOCK_RECORD
  5
1A
102
{ACAD_XDICTIONARY
360
1194
102
}
330
1
100
AcDbSymbolTableRecord
100
AcDbBlockTableRecord
  2
*MODEL_SPACE
  0
BLOCK_RECORD
  5
17
102
{ACAD_XDICTIONARY
360
1192
102
}
330
1
100
AcDbSymbolTableRecord
100
AcDbBlockTableRecord
  2
*PAPER_SPACE
  0
BLOCK_RECORD
  5
594
330
1
100
AcDbSymbolTableRecord
100
AcDbBlockTableRecord
  2
_OPEN
  0
BLOCK_RECORD
  5
6E3
330
1
100
AcDbSymbolTableRecord
100
AcDbBlockTableRecord
  2
矢印なし
  0
BLOCK_RECORD
  5
B36
330
1
100
AcDbSymbolTableRecord
100
AcDbBlockTableRecord
  2
*D2
  0
BLOCK_RECORD
  5
B4E
330
1
100
AcDbSymbolTableRecord
100
AcDbBlockTableRecord
  2
*D3
  0
BLOCK_RECORD
  5
B99
330
1
100
AcDbSymbolTableRecord
100
AcDbBlockTableRecord
  2
1
1001
CONTENTBLOCKICON
1071
        0
1004
2800000020000000200000000100080000000000000400000000000000000000000000000000000000000000000080000080000000808000800000008000800080800000C0C0C000C0DCC000F0CAA6000020400000206000002080000020A0000020C0000020E00000400000004020000040400000406000004080000040A0
1004
000040C0000040E00000600000006020000060400000606000006080000060A0000060C0000060E00000800000008020000080400000806000008080000080A0000080C0000080E00000A0000000A0200000A0400000A0600000A0800000A0A00000A0C00000A0E00000C0000000C0200000C0400000C0600000C0800000C0
1004
A00000C0C00000C0E00000E0000000E0200000E0400000E0600000E0800000E0A00000E0C00000E0E00040000000400020004000400040006000400080004000A0004000C0004000E00040200000402020004020400040206000402080004020A0004020C0004020E000404000004040200040404000404060004040800040
1004
40A0004040C0004040E00040600000406020004060400040606000406080004060A0004060C0004060E00040800000408020004080400040806000408080004080A0004080C0004080E00040A0000040A0200040A0400040A0600040A0800040A0A00040A0C00040A0E00040C0000040C0200040C0400040C0600040C08000
1004
40C0A00040C0C00040C0E00040E0000040E0200040E0400040E0600040E0800040E0A00040E0C00040E0E00080000000800020008000400080006000800080008000A0008000C0008000E00080200000802020008020400080206000802080008020A0008020C0008020E00080400000804020008040400080406000804080
1004
008040A0008040C0008040E00080600000806020008060400080606000806080008060A0008060C0008060E00080800000808020008080400080806000808080008080A0008080C0008080E00080A0000080A0200080A0400080A0600080A0800080A0A00080A0C00080A0E00080C0000080C0200080C0400080C0600080C0
1004
800080C0A00080C0C00080C0E00080E0000080E0200080E0400080E0600080E0800080E0A00080E0C00080E0E000C0000000C0002000C0004000C0006000C0008000C000A000C000C000C000E000C0200000C0202000C0204000C0206000C0208000C020A000C020C000C020E000C0400000C0402000C0404000C0406000C0
1004
408000C040A000C040C000C040E000C0600000C0602000C0604000C0606000C0608000C060A000C060C000C060E000C0800000C0802000C0804000C0806000C0808000C080A000C080C000C080E000C0A00000C0A02000C0A04000C0A06000C0A08000C0A0A000C0A0C000C0A0E000C0C00000C0C02000C0C04000C0C06000
1004
C0C08000C0C0A000F0FBFF00A4A0A000808080000000FF0000FF000000FFFF00FF000000FF00FF00FFFF0000FFFFFF0000000000000000000000000000000000000000000000000000000000000000000000000000000000000000000000000000000000000000000000000000000000000000000000000000000000000000
1004
00000000000000000000000000000000000000000000000000000000000000000000000000000000000000000000000000000000000000000000000000000000000000000000000000000000000000000000000000000000000000000000000000000000000000000000000000000000000000000000000000000000000000
1004
0000000000000000000000000000000000000000000000000000000000000000000000000000000000000000000000000000000000000000000000000000000000000000000000000000000000000000000000000000000000000000000000000000000000000000000000000000000000000000000000000000FEFEFEFEFE
1004
FE0000000000000000000000000000000000000000FEFEFEFEFEFEFEE7E7E700FE0000000000000000000000000000000000000000FE0000000000E7E7E7E700FEFEFEFEFEFEFEE7FEFEFEFEFAFAFAFAFE00000000FE0000000000E7E7E7E700E7000000000000E7E7E7E7E7E7000000FE00000000FE0000000000E7E7E7E7
1004
00E7000000000000E7E70000000000E7E7FE00000000FE0000000000E7E7E7E700E7000000000000E7E70000E7E7E700003E000000FBFEFBFBFBFBFBE7E7E7E7FBE7FBFBFBFBFBFBE7E7E7E7E7FBFBE7E7FEFB000000FE0000000000E7E7FBE700E7000000000000E7000000E7E7E70000FA00000000FE0000000000E7E7FB
1004
E700E7000000000000E70000000000E7E700FA00000000FE0000000000E7E7FBE700FEFEFEFEFEFEFEFEFEFEFEFEFAFAFAFAFA00000000FEFEFEFEFEFEFEE7FBE700FE0000000000000000000000000000000000000000000000000000FEFEFEFEFEFE00000000000000000000000000000000000000000000000000000000
1004
00000000000000000000000000000000000000000000000000000000000000000000000000000000000000000000000000000000000000000000000000000000000000000000000000000000000000000000000000000000000000000000000000000000000000000000000000000000000000000000000000000000000000
1004
00000000000000000000000000000000000000000000000000000000000000000000000000000000000000000000000000000000000000000000000000000000000000000000000000000000000000000000000000000000000000000000000000000000000000000000000000000000000000000000000000000000000000
1004
0000000000000000000000000000000000000000000000000000000000000000000000000000000000000000000000000000000000000000
  0
BLOCK_RECORD
  5
11A5
330
1
100
AcDbSymbolTableRecord
100
AcDbBlockTableRecord
  2
*D5
  0
BLOCK_RECORD
  5
13B9
330
1
100
AcDbSymbolTableRecord
100
AcDbBlockTableRecord
  2
*D6
  0
ENDTAB
  0
ENDSEC
  0
SECTION
  2
BLOCKS
  0
BLOCK
  5
1B
330
1A
100
AcDbEntity
  8
0
100
AcDbBlockBegin
  2
*MODEL_SPACE
 70
     0
 10
0.0
 20
0.0
 30
0.0
  3
*MODEL_SPACE
  1

  0
ENDBLK
  5
1C
330
1A
100
AcDbEntity
  8
0
100
AcDbBlockEnd
  0
BLOCK
  5
18
330
17
100
AcDbEntity
 67
     1
  8
0
100
AcDbBlockBegin
  2
*PAPER_SPACE
 70
     0
 10
0.0
 20
0.0
 30
0.0
  3
*PAPER_SPACE
  1

  0
ENDBLK
  5
19
330
17
100
AcDbEntity
 67
     1
  8
0
100
AcDbBlockEnd
  0
BLOCK
  5
598
330
594
100
AcDbEntity
  8
0
100
AcDbBlockBegin
  2
_OPEN
 70
     0
 10
0.0
 20
0.0
 30
0.0
  3
_OPEN
  1

  0
LINE
  5
595
330
594
100
AcDbEntity
  8
0
  6
BYBLOCK
 62
     0
100
AcDbLine
 10
-1.0
 20
0.16666667
 30
0.0
 11
0.0
 21
0.0
 31
0.0
  0
LINE
  5
596
330
594
100
AcDbEntity
  8
0
  6
BYBLOCK
 62
     0
100
AcDbLine
 10
-1.0
 20
-0.16666667
 30
0.0
 11
0.0
 21
0.0
 31
0.0
  0
LINE
  5
597
330
594
100
AcDbEntity
  8
0
  6
BYBLOCK
 62
     0
100
AcDbLine
 10
0.0
 20
0.0
 30
0.0
 11
-1.0
 21
0.0
 31
0.0
  0
ENDBLK
  5
599
330
594
100
AcDbEntity
  8
0
100
AcDbBlockEnd
  0
BLOCK
  5
6E4
330
6E3
100
AcDbEntity
  8
0
100
AcDbBlockBegin
  2
矢印なし
 70
     0
 10
0.0
 20
0.0
 30
0.0
  3
矢印なし
  1

  0
ENDBLK
  5
6E5
330
6E3
100
AcDbEntity
  8
0
100
AcDbBlockEnd
  0
BLOCK
  5
B40
330
B36
100
AcDbEntity
  8
0
100
AcDbBlockBegin
  2
*D2
 70
     1
 10
0.0
 20
0.0
 30
0.0
  3
*D2
  1

  0
LINE
  5
180C
330
B36
100
AcDbEntity
  8
250
  6
CONTINUOUS
100
AcDbLine
 10
0.0
 20
13.0
 30
0.0
 11
0.0
 21
29.0
 31
0.0
  0
LINE
  5
180D
330
B36
100
AcDbEntity
  8
250
  6
CONTINUOUS
100
AcDbLine
 10
45.0
 20
8.5
 30
0.0
 11
45.0
 21
29.0
 31
0.0
  0
LINE
  5
180E
330
B36
100
AcDbEntity
  8
250
  6
CONTINUOUS
100
AcDbLine
 10
2.23
 20
28.0
 30
0.0
 11
42.77
 21
28.0
 31
0.0
  0
INSERT
  5
180F
330
B36
100
AcDbEntity
  8
250
  6
CONTINUOUS
100
AcDbBlockReference
  2
_OPEN
 10
0.0
 20
28.0
 30
0.0
 41
2.23
 42
2.23
 43
2.23
 50
180.0
  0
INSERT
  5
1810
330
B36
100
AcDbEntity
  8
250
  6
CONTINUOUS
100
AcDbBlockReference
  2
_OPEN
 10
45.0
 20
28.0
 30
0.0
 41
2.23
 42
2.23
 43
2.23
  0
MTEXT
  5
1811
330
B36
100
AcDbEntity
  8
250
  6
CONTINUOUS
 62
    40
100
AcDbMText
 10
22.5
 20
30.4
 30
0.0
 40
2.8
 41
0.0
 71
     5
 72
     1
  1
\A1;45
1001
ACAD
1000
MTEXTBEGIN
1070
    73
1070
     1
1070
    44
1040
1.0
1070
    74
1070
     0
1000
MTEXTEND
  0
POINT
  5
1812
330
B36
100
AcDbEntity
  8
DEFPOINTS
  6
CONTINUOUS
 62
     0
100
AcDbPoint
 10
0.0
 20
12.5
 30
0.0
  0
POINT
  5
1813
330
B36
100
AcDbEntity
  8
DEFPOINTS
  6
CONTINUOUS
 62
     0
100
AcDbPoint
 10
45.0
 20
8.0
 30
0.0
  0
POINT
  5
1814
330
B36
100
AcDbEntity
  8
DEFPOINTS
  6
CONTINUOUS
 62
     0
100
AcDbPoint
 10
45.0
 20
28.0
 30
0.0
  0
ENDBLK
  5
B41
330
B36
100
AcDbEntity
  8
0
100
AcDbBlockEnd
  0
BLOCK
  5
B58
330
B4E
100
AcDbEntity
  8
0
100
AcDbBlockBegin
  2
*D3
 70
     1
 10
0.0
 20
0.0
 30
0.0
  3
*D3
  1

  0
LINE
  5
B87
330
B4E
100
AcDbEntity
  8
250
  6
CONTINUOUS
100
AcDbLine
 10
45.5
 20
-8.0
 30
0.0
 11
57.0
 21
-8.0
 31
0.0
  0
LINE
  5
B88
330
B4E
100
AcDbEntity
  8
250
  6
CONTINUOUS
100
AcDbLine
 10
45.5
 20
8.0
 30
0.0
 11
57.0
 21
8.0
 31
0.0
  0
LINE
  5
B89
330
B4E
100
AcDbEntity
  8
250
  6
CONTINUOUS
100
AcDbLine
 10
56.0
 20
-5.77
 30
0.0
 11
56.0
 21
5.77
 31
0.0
  0
INSERT
  5
B8A
330
B4E
100
AcDbEntity
  8
250
  6
CONTINUOUS
100
AcDbBlockReference
  2
_OPEN
 10
56.0
 20
-8.0
 30
0.0
 41
2.23
 42
2.23
 43
2.23
 50
270.0
  0
INSERT
  5
B8B
330
B4E
100
AcDbEntity
  8
250
  6
CONTINUOUS
100
AcDbBlockReference
  2
_OPEN
 10
56.0
 20
8.0
 30
0.0
 41
2.23
 42
2.23
 43
2.23
 50
90.0
  0
MTEXT
  5
B8C
330
B4E
100
AcDbEntity
  8
250
  6
CONTINUOUS
 62
    40
100
AcDbMText
 10
53.6
 20
0.0
 30
0.0
 40
2.8
 41
0.0
 71
     5
 72
     1
  1
\A1;{\H2.8;\U+2205}16
 11
0.0
 21
1.0
 31
0.0
1001
ACAD
1000
MTEXTBEGIN
1070
    73
1070
     1
1070
    44
1040
1.0
1070
    74
1070
     0
1000
MTEXTEND
1000
MTEXTBEGIN
1070
    73
1070
     1
1070
    44
1040
1.0
1070
    74
1070
     0
1000
MTEXTEND
1000
MTEXTBEGIN
1070
    73
1070
     1
1070
    44
1040
1.0
1070
    74
1070
     0
1000
MTEXTEND
  0
POINT
  5
B8D
330
B4E
100
AcDbEntity
  8
DEFPOINTS
  6
CONTINUOUS
 62
     0
100
AcDbPoint
 10
45.0
 20
-8.0
 30
0.0
  0
POINT
  5
B8E
330
B4E
100
AcDbEntity
  8
DEFPOINTS
  6
CONTINUOUS
 62
     0
100
AcDbPoint
 10
45.0
 20
8.0
 30
0.0
  0
POINT
  5
B8F
330
B4E
100
AcDbEntity
  8
DEFPOINTS
  6
CONTINUOUS
 62
     0
100
AcDbPoint
 10
56.0
 20
8.0
 30
0.0
  0
ENDBLK
  5
B59
330
B4E
100
AcDbEntity
  8
0
100
AcDbBlockEnd
  0
BLOCK
  5
B9A
330
B99
100
AcDbEntity
  8
0
100
AcDbBlockBegin
  2
1
 70
     0
 10
0.0
 20
0.0
 30
0.0
  3
1
  1

  0
LINE
  5
1832
330
B99
100
AcDbEntity
  8
240
100
AcDbLine
 10
34.45050451
 20
7.4
 30
0.0
 11
24.59541905
 21
7.4
 31
0.0
  0
LINE
  5
1833
330
B99
100
AcDbEntity
  8
240
100
AcDbLine
 10
34.45050451
 20
-7.4
 30
0.0
 11
24.59541905
 21
-7.4
 31
0.0
  0
LINE
  5
1834
330
B99
100
AcDbEntity
  8
245
  6
CENTER2
100
AcDbLine
 10
-14.0
 20
0.0
 30
0.0
 11
46.0
 21
0.0
 31
0.0
  0
ARC
  5
1835
330
B99
100
AcDbEntity
  8
241
100
AcDbCircle
 10
29.17568132
 20
-1.85659096
 30
0.0
 40
2.67568131511622
100
AcDbArc
 50
80.0
 51
260.0
  0
LINE
  5
1836
330
B99
100
AcDbEntity
  8
240
  6
CONTINUOUS
100
AcDbLine
 10
0.0
 20
-12.5
 30
0.0
 11
2.91228676
 21
-12.5
 31
0.0
  0
LINE
  5
1837
330
B99
100
AcDbEntity
  8
240
  6
CONTINUOUS
100
AcDbLine
 10
0.0
 20
12.5
 30
0.0
 11
2.91228676
 21
12.5
 31
0.0
  0
LINE
  5
1838
330
B99
100
AcDbEntity
  8
240
  6
CONTINUOUS
100
AcDbLine
 10
-13.0
 20
8.975
 30
0.0
 11
-13.0
 21
0.0
 31
0.0
  0
LINE
  5
1839
330
B99
100
AcDbEntity
  8
241
  6
CONTINUOUS
100
AcDbLine
 10
-1.0
 20
9.575
 30
0.0
 11
-1.0
 21
0.0
 31
0.0
  0
LINE
  5
183A
330
B99
100
AcDbEntity
  8
241
100
AcDbLine
 10
0.0
 20
9.575
 30
0.0
 11
0.0
 21
0.0
 31
0.0
  0
LINE
  5
183B
330
B99
100
AcDbEntity
  8
240
  6
CONTINUOUS
100
AcDbLine
 10
-13.0
 20
-8.975
 30
0.0
 11
-1.0
 21
-9.575
 31
0.0
  0
LINE
  5
183C
330
B99
100
AcDbEntity
  8
240
  6
CONTINUOUS
100
AcDbLine
 10
-13.0
 20
-8.975
 30
0.0
 11
-13.0
 21
0.0
 31
0.0
  0
LINE
  5
183D
330
B99
100
AcDbEntity
  8
241
  6
CONTINUOUS
100
AcDbLine
 10
-1.0
 20
-9.575
 30
0.0
 11
-1.0
 21
0.0
 31
0.0
  0
LINE
  5
183E
330
B99
100
AcDbEntity
  8
241
100
AcDbLine
 10
0.0
 20
-9.575
 30
0.0
 11
0.0
 21
0.0
 31
0.0
  0
LINE
  5
183F
330
B99
100
AcDbEntity
  8
240
100
AcDbLine
 10
-1.0
 20
-9.575
 30
0.0
 11
0.0
 21
-9.575
 31
0.0
  0
LINE
  5
1840
330
B99
100
AcDbEntity
  8
240
  6
CONTINUOUS
100
AcDbLine
 10
0.0
 20
-12.5
 30
0.0
 11
0.0
 21
-9.575
 31
0.0
  0
LINE
  5
1841
330
B99
100
AcDbEntity
  8
240
  6
CONTINUOUS
100
AcDbLine
 10
-13.0
 20
8.975
 30
0.0
 11
-1.0
 21
9.575
 31
0.0
  0
LINE
  5
1842
330
B99
100
AcDbEntity
  8
240
100
AcDbLine
 10
-1.0
 20
9.575
 30
0.0
 11
0.0
 21
9.575
 31
0.0
  0
LINE
  5
1843
330
B99
100
AcDbEntity
  8
240
  6
CONTINUOUS
100
AcDbLine
 10
0.0
 20
12.5
 30
0.0
 11
0.0
 21
9.575
 31
0.0
  0
LINE
  5
1844
330
B99
100
AcDbEntity
  8
241
  6
CONTINUOUS
100
AcDbLine
 10
24.59541905
 20
7.4
 30
0.0
 11
24.59541905
 21
0.0
 31
0.0
1001
GRPNAME
1000
PASTMD0Q
  0
LINE
  5
1845
330
B99
100
AcDbEntity
  8
241
100
AcDbLine
 10
10.0
 20
9.50004013
 30
0.0
 11
10.0
 21
0.0
 31
0.0
  0
LINE
  5
1846
330
B99
100
AcDbEntity
  8
241
  6
CONTINUOUS
100
AcDbLine
 10
6.08771324
 20
12.5
 30
0.0
 11
6.08771324
 21
0.0
 31
0.0
  0
LINE
  5
1847
330
B99
100
AcDbEntity
  8
241
  6
CONTINUOUS
100
AcDbLine
 10
5.5
 20
11.0
 30
0.0
 11
5.5
 21
0.0
 31
0.0
  0
LINE
  5
1848
330
B99
100
AcDbEntity
  8
241
  6
CONTINUOUS
100
AcDbLine
 10
3.5
 20
11.0
 30
0.0
 11
3.5
 21
0.0
 31
0.0
  0
LINE
  5
1849
330
B99
100
AcDbEntity
  8
241
  6
CONTINUOUS
100
AcDbLine
 10
2.91228676
 20
12.5
 30
0.0
 11
2.91228676
 21
0.0
 31
0.0
  0
LINE
  5
184A
330
B99
100
AcDbEntity
  8
245
  6
CENTER2
100
AcDbLine
 10
4.5
 20
-12.5
 30
0.0
 11
4.5
 21
12.5
 31
0.0
  0
LINE
  5
184B
330
B99
100
AcDbEntity
  8
240
100
AcDbLine
 10
24.59541905
 20
-7.4
 30
0.0
 11
11.43151989
 21
-8.00160412
 31
0.0
  0
LINE
  5
184C
330
B99
100
AcDbEntity
  8
241
100
AcDbLine
 10
10.0
 20
-9.50004013
 30
0.0
 11
10.0
 21
0.0
 31
0.0
  0
LINE
  5
184D
330
B99
100
AcDbEntity
  8
241
  6
CONTINUOUS
100
AcDbLine
 10
6.08771324
 20
-12.5
 30
0.0
 11
6.08771324
 21
0.0
 31
0.0
  0
LINE
  5
184E
330
B99
100
AcDbEntity
  8
241
  6
CONTINUOUS
100
AcDbLine
 10
5.5
 20
-11.0
 30
0.0
 11
5.5
 21
0.0
 31
0.0
  0
LINE
  5
184F
330
B99
100
AcDbEntity
  8
241
  6
CONTINUOUS
100
AcDbLine
 10
3.5
 20
-11.0
 30
0.0
 11
3.5
 21
0.0
 31
0.0
  0
LINE
  5
1850
330
B99
100
AcDbEntity
  8
241
  6
CONTINUOUS
100
AcDbLine
 10
2.91228676
 20
-12.5
 30
0.0
 11
2.91228676
 21
0.0
 31
0.0
  0
LINE
  5
1851
330
B99
100
AcDbEntity
  8
240
  6
CONTINUOUS
100
AcDbLine
 10
6.08771324
 20
-12.5
 30
0.0
 11
10.0
 21
-12.5
 31
0.0
  0
LINE
  5
1852
330
B99
100
AcDbEntity
  8
240
  6
CONTINUOUS
100
AcDbLine
 10
3.5
 20
-11.0
 30
0.0
 11
5.5
 21
-11.0
 31
0.0
  0
LINE
  5
1853
330
B99
100
AcDbEntity
  8
240
  6
CONTINUOUS
100
AcDbLine
 10
3.5
 20
-11.0
 30
0.0
 11
3.5
 21
-11.48205081
 31
0.0
  0
LINE
  5
1854
330
B99
100
AcDbEntity
  8
240
  6
CONTINUOUS
100
AcDbLine
 10
3.5
 20
-11.48205081
 30
0.0
 11
2.91228676
 21
-12.5
 31
0.0
  0
LINE
  5
1855
330
B99
100
AcDbEntity
  8
240
  6
CONTINUOUS
100
AcDbLine
 10
5.5
 20
-11.0
 30
0.0
 11
5.5
 21
-11.48205081
 31
0.0
  0
LINE
  5
1856
330
B99
100
AcDbEntity
  8
240
  6
CONTINUOUS
100
AcDbLine
 10
5.5
 20
-11.48205081
 30
0.0
 11
6.08771324
 21
-12.5
 31
0.0
  0
ARC
  5
1857
330
B99
100
AcDbEntity
  8
240
100
AcDbCircle
 10
11.5
 20
-9.50004013
 30
0.0
 40
1.5
100
AcDbArc
 50
92.61665707
 51
180.0
  0
LINE
  5
1858
330
B99
100
AcDbEntity
  8
240
  6
CONTINUOUS
100
AcDbLine
 10
10.0
 20
-12.5
 30
0.0
 11
10.0
 21
-9.50004013
 31
0.0
  0
LINE
  5
1859
330
B99
100
AcDbEntity
  8
241
  6
CONTINUOUS
100
AcDbLine
 10
24.59541905
 20
-7.4
 30
0.0
 11
24.59541905
 21
0.0
 31
0.0
1001
GRPNAME
1000
PASTMD0Q
  0
LINE
  5
185A
330
B99
100
AcDbEntity
  8
240
100
AcDbLine
 10
24.59541905
 20
7.4
 30
0.0
 11
11.43177869
 21
7.99931405
 31
0.0
  0
LINE
  5
185B
330
B99
100
AcDbEntity
  8
240
  6
CONTINUOUS
100
AcDbLine
 10
6.08771324
 20
12.5
 30
0.0
 11
10.0
 21
12.5
 31
0.0
  0
LINE
  5
185C
330
B99
100
AcDbEntity
  8
240
  6
CONTINUOUS
100
AcDbLine
 10
3.5
 20
11.0
 30
0.0
 11
5.5
 21
11.0
 31
0.0
  0
LINE
  5
185D
330
B99
100
AcDbEntity
  8
240
  6
CONTINUOUS
100
AcDbLine
 10
3.5
 20
11.0
 30
0.0
 11
3.5
 21
11.48205081
 31
0.0
  0
LINE
  5
185E
330
B99
100
AcDbEntity
  8
240
  6
CONTINUOUS
100
AcDbLine
 10
3.5
 20
11.48205081
 30
0.0
 11
2.91228676
 21
12.5
 31
0.0
  0
LINE
  5
185F
330
B99
100
AcDbEntity
  8
240
  6
CONTINUOUS
100
AcDbLine
 10
5.5
 20
11.0
 30
0.0
 11
5.5
 21
11.48205081
 31
0.0
  0
LINE
  5
1860
330
B99
100
AcDbEntity
  8
240
  6
CONTINUOUS
100
AcDbLine
 10
5.5
 20
11.48205081
 30
0.0
 11
6.08771324
 21
12.5
 31
0.0
  0
ARC
  5
1861
330
B99
100
AcDbEntity
  8
240
100
AcDbCircle
 10
11.5
 20
9.49776186
 30
0.0
 40
1.5
100
AcDbArc
 50
180.0
 51
267.3932386
  0
LINE
  5
1862
330
B99
100
AcDbEntity
  8
240
  6
CONTINUOUS
100
AcDbLine
 10
10.0
 20
12.5
 30
0.0
 11
10.0
 21
9.49776186
 31
0.0
  0
LINE
  5
1863
330
B99
100
AcDbEntity
  8
240
100
AcDbLine
 10
44.5
 20
7.3
 30
0.0
 11
44.5
 21
0.50264672
 31
0.0
  0
LINE
  5
1864
330
B99
100
AcDbEntity
  8
246
100
AcDbLine
 10
45.0
 20
-8.0
 30
0.0
 11
45.0
 21
8.0
 31
0.0
  0
LINE
  5
1865
330
B99
100
AcDbEntity
  8
241
100
AcDbLine
 10
44.5
 20
0.50264672
 30
0.0
 11
34.96190064
 21
2.18447099
 31
0.0
  0
LINE
  5
1866
330
B99
100
AcDbEntity
  8
241
100
AcDbLine
 10
33.86821946
 20
-0.05790774
 30
0.0
 11
44.5
 21
-3.66057103
 31
0.0
  0
LINE
  5
1867
330
B99
100
AcDbEntity
  8
241
100
AcDbLine
 10
28.69962837
 20
-4.48958244
 30
0.0
 11
44.28181685
 21
-7.30689
 31
0.0
  0
LINE
  5
1868
330
B99
100
AcDbEntity
  8
240
100
AcDbLine
 10
44.5
 20
-7.3
 30
0.0
 11
35.00000001
 21
-7.6
 31
0.0
  0
LINE
  5
1869
330
B99
100
AcDbEntity
  8
242
100
AcDbLine
 10
45.0
 20
-8.0
 30
0.0
 11
36.0
 21
-8.0
 31
0.0
  0
LINE
  5
186A
330
B99
100
AcDbEntity
  8
240
100
AcDbLine
 10
34.45050451
 20
-7.4
 30
0.0
 11
35.00000001
 21
-7.6
 31
0.0
  0
LINE
  5
186B
330
B99
100
AcDbEntity
  8
241
100
AcDbLine
 10
29.6403085
 20
0.77844074
 30
0.0
 11
33.90902268
 21
0.02575126
 31
0.0
  0
LINE
  5
186C
330
B99
100
AcDbEntity
  8
241
100
AcDbLine
 10
34.96190064
 20
2.18447099
 30
0.0
 11
33.86821946
 21
-0.05790774
 31
0.0
  0
LINE
  5
186D
330
B99
100
AcDbEntity
  8
240
100
AcDbLine
 10
44.5
 20
-7.3
 30
0.0
 11
44.5
 21
-3.66057103
 31
0.0
  0
LINE
  5
186E
330
B99
100
AcDbEntity
  8
240
100
AcDbLine
 10
44.99051309
 20
-2.97357041
 30
0.0
 11
44.60907584
 21
0.48341371
 31
0.0
  0
LINE
  5
186F
330
B99
100
AcDbEntity
  8
240
100
AcDbLine
 10
44.5
 20
-3.66057103
 30
0.0
 11
45.0
 21
-3.83
 31
0.0
  0
LINE
  5
1870
330
B99
100
AcDbEntity
  8
240
100
AcDbLine
 10
44.99051309
 20
-2.97357041
 30
0.0
 11
45.0
 21
-3.83
 31
0.0
  0
LINE
  5
1871
330
B99
100
AcDbEntity
  8
247
100
AcDbLine
 10
44.69544263
 20
-1.25512764
 30
0.0
 11
44.69454015
 21
-1.25484608
 31
0.0
  0
LINE
  5
1872
330
B99
100
AcDbEntity
  8
240
100
AcDbLine
 10
44.60907584
 20
0.48341371
 30
0.0
 11
44.5
 21
0.50264672
 31
0.0
  0
LINE
  5
1873
330
B99
100
AcDbEntity
  8
240
100
AcDbLine
 10
44.5
 20
7.3
 30
0.0
 11
35.00000001
 21
7.6
 31
0.0
  0
POLYLINE
  5
1874
330
B99
100
AcDbEntity
  8
241
100
AcDb3dPolyline
 66
     1
 10
0.0
 20
0.0
 30
0.0
 70
     8
  0
VERTEX
  5
1875
330
1874
100
AcDbEntity
  8
241
100
AcDbVertex
100
AcDb3dPolylineVertex
 10
41.3937
 20
5.54789
 30
0.0
 70
    32
  0
VERTEX
  5
1876
330
1874
100
AcDbEntity
  8
241
100
AcDbVertex
100
AcDb3dPolylineVertex
 10
41.3967
 20
5.56711
 30
0.0
 70
    32
  0
VERTEX
  5
1877
330
1874
100
AcDbEntity
  8
241
100
AcDbVertex
100
AcDb3dPolylineVertex
 10
41.3989
 20
5.58644
 30
0.0
 70
    32
  0
VERTEX
  5
1878
330
1874
100
AcDbEntity
  8
241
100
AcDbVertex
100
AcDb3dPolylineVertex
 10
41.4005
 20
5.60589
 30
0.0
 70
    32
  0
VERTEX
  5
1879
330
1874
100
AcDbEntity
  8
241
100
AcDbVertex
100
AcDb3dPolylineVertex
 10
41.4012
 20
5.62543
 30
0.0
 70
    32
  0
VERTEX
  5
187A
330
1874
100
AcDbEntity
  8
241
100
AcDbVertex
100
AcDb3dPolylineVertex
 10
41.4013
 20
5.64505
 30
0.0
 70
    32
  0
VERTEX
  5
187B
330
1874
100
AcDbEntity
  8
241
100
AcDbVertex
100
AcDb3dPolylineVertex
 10
41.4005
 20
5.66474
 30
0.0
 70
    32
  0
VERTEX
  5
187C
330
1874
100
AcDbEntity
  8
241
100
AcDbVertex
100
AcDb3dPolylineVertex
 10
41.3991
 20
5.6845
 30
0.0
 70
    32
  0
VERTEX
  5
187D
330
1874
100
AcDbEntity
  8
241
100
AcDbVertex
100
AcDb3dPolylineVertex
 10
41.3969
 20
5.7043
 30
0.0
 70
    32
  0
VERTEX
  5
187E
330
1874
100
AcDbEntity
  8
241
100
AcDbVertex
100
AcDb3dPolylineVertex
 10
41.3939
 20
5.72414
 30
0.0
 70
    32
  0
VERTEX
  5
187F
330
1874
100
AcDbEntity
  8
241
100
AcDbVertex
100
AcDb3dPolylineVertex
 10
41.3902
 20
5.74401
 30
0.0
 70
    32
  0
VERTEX
  5
1880
330
1874
100
AcDbEntity
  8
241
100
AcDbVertex
100
AcDb3dPolylineVertex
 10
41.3858
 20
5.76388
 30
0.0
 70
    32
  0
VERTEX
  5
1881
330
1874
100
AcDbEntity
  8
241
100
AcDbVertex
100
AcDb3dPolylineVertex
 10
41.3806
 20
5.78376
 30
0.0
 70
    32
  0
VERTEX
  5
1882
330
1874
100
AcDbEntity
  8
241
100
AcDbVertex
100
AcDb3dPolylineVertex
 10
41.3747
 20
5.80363
 30
0.0
 70
    32
  0
VERTEX
  5
1883
330
1874
100
AcDbEntity
  8
241
100
AcDbVertex
100
AcDb3dPolylineVertex
 10
41.3681
 20
5.82347
 30
0.0
 70
    32
  0
VERTEX
  5
1884
330
1874
100
AcDbEntity
  8
241
100
AcDbVertex
100
AcDb3dPolylineVertex
 10
41.3607
 20
5.84328
 30
0.0
 70
    32
  0
VERTEX
  5
1885
330
1874
100
AcDbEntity
  8
241
100
AcDbVertex
100
AcDb3dPolylineVertex
 10
41.3526
 20
5.86304
 30
0.0
 70
    32
  0
VERTEX
  5
1886
330
1874
100
AcDbEntity
  8
241
100
AcDbVertex
100
AcDb3dPolylineVertex
 10
41.3438
 20
5.88274
 30
0.0
 70
    32
  0
VERTEX
  5
1887
330
1874
100
AcDbEntity
  8
241
100
AcDbVertex
100
AcDb3dPolylineVertex
 10
41.3343
 20
5.90237
 30
0.0
 70
    32
  0
VERTEX
  5
1888
330
1874
100
AcDbEntity
  8
241
100
AcDbVertex
100
AcDb3dPolylineVertex
 10
41.3241
 20
5.92192
 30
0.0
 70
    32
  0
VERTEX
  5
1889
330
1874
100
AcDbEntity
  8
241
100
AcDbVertex
100
AcDb3dPolylineVertex
 10
41.3132
 20
5.94138
 30
0.0
 70
    32
  0
VERTEX
  5
188A
330
1874
100
AcDbEntity
  8
241
100
AcDbVertex
100
AcDb3dPolylineVertex
 10
41.3016
 20
5.96072
 30
0.0
 70
    32
  0
VERTEX
  5
188B
330
1874
100
AcDbEntity
  8
241
100
AcDbVertex
100
AcDb3dPolylineVertex
 10
41.2893
 20
5.97995
 30
0.0
 70
    32
  0
VERTEX
  5
188C
330
1874
100
AcDbEntity
  8
241
100
AcDbVertex
100
AcDb3dPolylineVertex
 10
41.2763
 20
5.99905
 30
0.0
 70
    32
  0
VERTEX
  5
188D
330
1874
100
AcDbEntity
  8
241
100
AcDbVertex
100
AcDb3dPolylineVertex
 10
41.2626
 20
6.01801
 30
0.0
 70
    32
  0
VERTEX
  5
188E
330
1874
100
AcDbEntity
  8
241
100
AcDbVertex
100
AcDb3dPolylineVertex
 10
41.2483
 20
6.03682
 30
0.0
 70
    32
  0
VERTEX
  5
188F
330
1874
100
AcDbEntity
  8
241
100
AcDbVertex
100
AcDb3dPolylineVertex
 10
41.2334
 20
6.05546
 30
0.0
 70
    32
  0
VERTEX
  5
1890
330
1874
100
AcDbEntity
  8
241
100
AcDbVertex
100
AcDb3dPolylineVertex
 10
41.2178
 20
6.07393
 30
0.0
 70
    32
  0
VERTEX
  5
1891
330
1874
100
AcDbEntity
  8
241
100
AcDbVertex
100
AcDb3dPolylineVertex
 10
41.2015
 20
6.09221
 30
0.0
 70
    32
  0
VERTEX
  5
1892
330
1874
100
AcDbEntity
  8
241
100
AcDbVertex
100
AcDb3dPolylineVertex
 10
41.1847
 20
6.1103
 30
0.0
 70
    32
  0
VERTEX
  5
1893
330
1874
100
AcDbEntity
  8
241
100
AcDbVertex
100
AcDb3dPolylineVertex
 10
41.1672
 20
6.12817
 30
0.0
 70
    32
  0
VERTEX
  5
1894
330
1874
100
AcDbEntity
  8
241
100
AcDbVertex
100
AcDb3dPolylineVertex
 10
41.1491
 20
6.14583
 30
0.0
 70
    32
  0
VERTEX
  5
1895
330
1874
100
AcDbEntity
  8
241
100
AcDbVertex
100
AcDb3dPolylineVertex
 10
41.1304
 20
6.16326
 30
0.0
 70
    32
  0
VERTEX
  5
1896
330
1874
100
AcDbEntity
  8
241
100
AcDbVertex
100
AcDb3dPolylineVertex
 10
41.1111
 20
6.18045
 30
0.0
 70
    32
  0
VERTEX
  5
1897
330
1874
100
AcDbEntity
  8
241
100
AcDbVertex
100
AcDb3dPolylineVertex
 10
41.0913
 20
6.19738
 30
0.0
 70
    32
  0
VERTEX
  5
1898
330
1874
100
AcDbEntity
  8
241
100
AcDbVertex
100
AcDb3dPolylineVertex
 10
41.0709
 20
6.21406
 30
0.0
 70
    32
  0
VERTEX
  5
1899
330
1874
100
AcDbEntity
  8
241
100
AcDbVertex
100
AcDb3dPolylineVertex
 10
41.05
 20
6.23047
 30
0.0
 70
    32
  0
VERTEX
  5
189A
330
1874
100
AcDbEntity
  8
241
100
AcDbVertex
100
AcDb3dPolylineVertex
 10
41.0285
 20
6.2466
 30
0.0
 70
    32
  0
VERTEX
  5
189B
330
1874
100
AcDbEntity
  8
241
100
AcDbVertex
100
AcDb3dPolylineVertex
 10
41.0065
 20
6.26243
 30
0.0
 70
    32
  0
VERTEX
  5
189C
330
1874
100
AcDbEntity
  8
241
100
AcDbVertex
100
AcDb3dPolylineVertex
 10
40.984
 20
6.27797
 30
0.0
 70
    32
  0
VERTEX
  5
189D
330
1874
100
AcDbEntity
  8
241
100
AcDbVertex
100
AcDb3dPolylineVertex
 10
40.961
 20
6.2932
 30
0.0
 70
    32
  0
VERTEX
  5
189E
330
1874
100
AcDbEntity
  8
241
100
AcDbVertex
100
AcDb3dPolylineVertex
 10
40.9375
 20
6.30811
 30
0.0
 70
    32
  0
VERTEX
  5
189F
330
1874
100
AcDbEntity
  8
241
100
AcDbVertex
100
AcDb3dPolylineVertex
 10
40.9135
 20
6.32269
 30
0.0
 70
    32
  0
VERTEX
  5
18A0
330
1874
100
AcDbEntity
  8
241
100
AcDbVertex
100
AcDb3dPolylineVertex
 10
40.8891
 20
6.33694
 30
0.0
 70
    32
  0
VERTEX
  5
18A1
330
1874
100
AcDbEntity
  8
241
100
AcDbVertex
100
AcDb3dPolylineVertex
 10
40.8643
 20
6.35084
 30
0.0
 70
    32
  0
VERTEX
  5
18A2
330
1874
100
AcDbEntity
  8
241
100
AcDbVertex
100
AcDb3dPolylineVertex
 10
40.839
 20
6.36439
 30
0.0
 70
    32
  0
VERTEX
  5
18A3
330
1874
100
AcDbEntity
  8
241
100
AcDbVertex
100
AcDb3dPolylineVertex
 10
40.8134
 20
6.37757
 30
0.0
 70
    32
  0
VERTEX
  5
18A4
330
1874
100
AcDbEntity
  8
241
100
AcDbVertex
100
AcDb3dPolylineVertex
 10
40.7873
 20
6.39039
 30
0.0
 70
    32
  0
VERTEX
  5
18A5
330
1874
100
AcDbEntity
  8
241
100
AcDbVertex
100
AcDb3dPolylineVertex
 10
40.7609
 20
6.40284
 30
0.0
 70
    32
  0
VERTEX
  5
18A6
330
1874
100
AcDbEntity
  8
241
100
AcDbVertex
100
AcDb3dPolylineVertex
 10
40.7341
 20
6.41489
 30
0.0
 70
    32
  0
VERTEX
  5
18A7
330
1874
100
AcDbEntity
  8
241
100
AcDbVertex
100
AcDb3dPolylineVertex
 10
40.7069
 20
6.42656
 30
0.0
 70
    32
  0
VERTEX
  5
18A8
330
1874
100
AcDbEntity
  8
241
100
AcDbVertex
100
AcDb3dPolylineVertex
 10
40.6795
 20
6.43783
 30
0.0
 70
    32
  0
VERTEX
  5
18A9
330
1874
100
AcDbEntity
  8
241
100
AcDbVertex
100
AcDb3dPolylineVertex
 10
40.6517
 20
6.44869
 30
0.0
 70
    32
  0
VERTEX
  5
18AA
330
1874
100
AcDbEntity
  8
241
100
AcDbVertex
100
AcDb3dPolylineVertex
 10
40.6236
 20
6.45914
 30
0.0
 70
    32
  0
VERTEX
  5
18AB
330
1874
100
AcDbEntity
  8
241
100
AcDbVertex
100
AcDb3dPolylineVertex
 10
40.5952
 20
6.46917
 30
0.0
 70
    32
  0
VERTEX
  5
18AC
330
1874
100
AcDbEntity
  8
241
100
AcDbVertex
100
AcDb3dPolylineVertex
 10
40.5666
 20
6.47878
 30
0.0
 70
    32
  0
VERTEX
  5
18AD
330
1874
100
AcDbEntity
  8
241
100
AcDbVertex
100
AcDb3dPolylineVertex
 10
40.5378
 20
6.48796
 30
0.0
 70
    32
  0
VERTEX
  5
18AE
330
1874
100
AcDbEntity
  8
241
100
AcDbVertex
100
AcDb3dPolylineVertex
 10
40.5087
 20
6.4967
 30
0.0
 70
    32
  0
VERTEX
  5
18AF
330
1874
100
AcDbEntity
  8
241
100
AcDbVertex
100
AcDb3dPolylineVertex
 10
40.4794
 20
6.50501
 30
0.0
 70
    32
  0
VERTEX
  5
18B0
330
1874
100
AcDbEntity
  8
241
100
AcDbVertex
100
AcDb3dPolylineVertex
 10
40.4499
 20
6.51286
 30
0.0
 70
    32
  0
VERTEX
  5
18B1
330
1874
100
AcDbEntity
  8
241
100
AcDbVertex
100
AcDb3dPolylineVertex
 10
40.4202
 20
6.52027
 30
0.0
 70
    32
  0
VERTEX
  5
18B2
330
1874
100
AcDbEntity
  8
241
100
AcDbVertex
100
AcDb3dPolylineVertex
 10
40.3904
 20
6.52722
 30
0.0
 70
    32
  0
VERTEX
  5
18B3
330
1874
100
AcDbEntity
  8
241
100
AcDbVertex
100
AcDb3dPolylineVertex
 10
40.3605
 20
6.53371
 30
0.0
 70
    32
  0
VERTEX
  5
18B4
330
1874
100
AcDbEntity
  8
241
100
AcDbVertex
100
AcDb3dPolylineVertex
 10
40.3304
 20
6.53974
 30
0.0
 70
    32
  0
VERTEX
  5
18B5
330
1874
100
AcDbEntity
  8
241
100
AcDbVertex
100
AcDb3dPolylineVertex
 10
40.3003
 20
6.5453
 30
0.0
 70
    32
  0
VERTEX
  5
18B6
330
1874
100
AcDbEntity
  8
241
100
AcDbVertex
100
AcDb3dPolylineVertex
 10
40.27
 20
6.55039
 30
0.0
 70
    32
  0
VERTEX
  5
18B7
330
1874
100
AcDbEntity
  8
241
100
AcDbVertex
100
AcDb3dPolylineVertex
 10
40.2397
 20
6.55501
 30
0.0
 70
    32
  0
VERTEX
  5
18B8
330
1874
100
AcDbEntity
  8
241
100
AcDbVertex
100
AcDb3dPolylineVertex
 10
40.2093
 20
6.55915
 30
0.0
 70
    32
  0
VERTEX
  5
18B9
330
1874
100
AcDbEntity
  8
241
100
AcDbVertex
100
AcDb3dPolylineVertex
 10
40.1789
 20
6.56282
 30
0.0
 70
    32
  0
VERTEX
  5
18BA
330
1874
100
AcDbEntity
  8
241
100
AcDbVertex
100
AcDb3dPolylineVertex
 10
40.1485
 20
6.566
 30
0.0
 70
    32
  0
VERTEX
  5
18BB
330
1874
100
AcDbEntity
  8
241
100
AcDbVertex
100
AcDb3dPolylineVertex
 10
40.1181
 20
6.5687
 30
0.0
 70
    32
  0
VERTEX
  5
18BC
330
1874
100
AcDbEntity
  8
241
100
AcDbVertex
100
AcDb3dPolylineVertex
 10
40.0878
 20
6.57092
 30
0.0
 70
    32
  0
VERTEX
  5
18BD
330
1874
100
AcDbEntity
  8
241
100
AcDbVertex
100
AcDb3dPolylineVertex
 10
40.0575
 20
6.57265
 30
0.0
 70
    32
  0
VERTEX
  5
18BE
330
1874
100
AcDbEntity
  8
241
100
AcDbVertex
100
AcDb3dPolylineVertex
 10
40.0272
 20
6.5739
 30
0.0
 70
    32
  0
VERTEX
  5
18BF
330
1874
100
AcDbEntity
  8
241
100
AcDbVertex
100
AcDb3dPolylineVertex
 10
39.997
 20
6.57466
 30
0.0
 70
    32
  0
VERTEX
  5
18C0
330
1874
100
AcDbEntity
  8
241
100
AcDbVertex
100
AcDb3dPolylineVertex
 10
39.9669
 20
6.57493
 30
0.0
 70
    32
  0
VERTEX
  5
18C1
330
1874
100
AcDbEntity
  8
241
100
AcDbVertex
100
AcDb3dPolylineVertex
 10
39.937
 20
6.57471
 30
0.0
 70
    32
  0
VERTEX
  5
18C2
330
1874
100
AcDbEntity
  8
241
100
AcDbVertex
100
AcDb3dPolylineVertex
 10
39.9072
 20
6.574
 30
0.0
 70
    32
  0
VERTEX
  5
18C3
330
1874
100
AcDbEntity
  8
241
100
AcDbVertex
100
AcDb3dPolylineVertex
 10
39.8775
 20
6.57281
 30
0.0
 70
    32
  0
VERTEX
  5
18C4
330
1874
100
AcDbEntity
  8
241
100
AcDbVertex
100
AcDb3dPolylineVertex
 10
39.848
 20
6.57113
 30
0.0
 70
    32
  0
VERTEX
  5
18C5
330
1874
100
AcDbEntity
  8
241
100
AcDbVertex
100
AcDb3dPolylineVertex
 10
39.8187
 20
6.56897
 30
0.0
 70
    32
  0
VERTEX
  5
18C6
330
1874
100
AcDbEntity
  8
241
100
AcDbVertex
100
AcDb3dPolylineVertex
 10
39.7896
 20
6.56632
 30
0.0
 70
    32
  0
VERTEX
  5
18C7
330
1874
100
AcDbEntity
  8
241
100
AcDbVertex
100
AcDb3dPolylineVertex
 10
39.7607
 20
6.56318
 30
0.0
 70
    32
  0
VERTEX
  5
18C8
330
1874
100
AcDbEntity
  8
241
100
AcDbVertex
100
AcDb3dPolylineVertex
 10
39.7321
 20
6.55957
 30
0.0
 70
    32
  0
VERTEX
  5
18C9
330
1874
100
AcDbEntity
  8
241
100
AcDbVertex
100
AcDb3dPolylineVertex
 10
39.7037
 20
6.55548
 30
0.0
 70
    32
  0
VERTEX
  5
18CA
330
1874
100
AcDbEntity
  8
241
100
AcDbVertex
100
AcDb3dPolylineVertex
 10
39.6756
 20
6.55091
 30
0.0
 70
    32
  0
VERTEX
  5
18CB
330
1874
100
AcDbEntity
  8
241
100
AcDbVertex
100
AcDb3dPolylineVertex
 10
39.6478
 20
6.54587
 30
0.0
 70
    32
  0
VERTEX
  5
18CC
330
1874
100
AcDbEntity
  8
241
100
AcDbVertex
100
AcDb3dPolylineVertex
 10
39.6203
 20
6.54036
 30
0.0
 70
    32
  0
VERTEX
  5
18CD
330
1874
100
AcDbEntity
  8
241
100
AcDbVertex
100
AcDb3dPolylineVertex
 10
39.5932
 20
6.53438
 30
0.0
 70
    32
  0
VERTEX
  5
18CE
330
1874
100
AcDbEntity
  8
241
100
AcDbVertex
100
AcDb3dPolylineVertex
 10
39.5663
 20
6.52794
 30
0.0
 70
    32
  0
VERTEX
  5
18CF
330
1874
100
AcDbEntity
  8
241
100
AcDbVertex
100
AcDb3dPolylineVertex
 10
39.5399
 20
6.52104
 30
0.0
 70
    32
  0
VERTEX
  5
18D0
330
1874
100
AcDbEntity
  8
241
100
AcDbVertex
100
AcDb3dPolylineVertex
 10
39.5138
 20
6.51368
 30
0.0
 70
    32
  0
VERTEX
  5
18D1
330
1874
100
AcDbEntity
  8
241
100
AcDbVertex
100
AcDb3dPolylineVertex
 10
39.4881
 20
6.50587
 30
0.0
 70
    32
  0
VERTEX
  5
18D2
330
1874
100
AcDbEntity
  8
241
100
AcDbVertex
100
AcDb3dPolylineVertex
 10
39.4628
 20
6.49762
 30
0.0
 70
    32
  0
VERTEX
  5
18D3
330
1874
100
AcDbEntity
  8
241
100
AcDbVertex
100
AcDb3dPolylineVertex
 10
39.4379
 20
6.48892
 30
0.0
 70
    32
  0
VERTEX
  5
18D4
330
1874
100
AcDbEntity
  8
241
100
AcDbVertex
100
AcDb3dPolylineVertex
 10
39.4135
 20
6.47979
 30
0.0
 70
    32
  0
VERTEX
  5
18D5
330
1874
100
AcDbEntity
  8
241
100
AcDbVertex
100
AcDb3dPolylineVertex
 10
39.3895
 20
6.47023
 30
0.0
 70
    32
  0
VERTEX
  5
18D6
330
1874
100
AcDbEntity
  8
241
100
AcDbVertex
100
AcDb3dPolylineVertex
 10
39.366
 20
6.46024
 30
0.0
 70
    32
  0
VERTEX
  5
18D7
330
1874
100
AcDbEntity
  8
241
100
AcDbVertex
100
AcDb3dPolylineVertex
 10
39.3429
 20
6.44983
 30
0.0
 70
    32
  0
VERTEX
  5
18D8
330
1874
100
AcDbEntity
  8
241
100
AcDbVertex
100
AcDb3dPolylineVertex
 10
39.3204
 20
6.43901
 30
0.0
 70
    32
  0
VERTEX
  5
18D9
330
1874
100
AcDbEntity
  8
241
100
AcDbVertex
100
AcDb3dPolylineVertex
 10
39.2984
 20
6.42779
 30
0.0
 70
    32
  0
VERTEX
  5
18DA
330
1874
100
AcDbEntity
  8
241
100
AcDbVertex
100
AcDb3dPolylineVertex
 10
39.2768
 20
6.41617
 30
0.0
 70
    32
  0
VERTEX
  5
18DB
330
1874
100
AcDbEntity
  8
241
100
AcDbVertex
100
AcDb3dPolylineVertex
 10
39.2559
 20
6.40415
 30
0.0
 70
    32
  0
VERTEX
  5
18DC
330
1874
100
AcDbEntity
  8
241
100
AcDbVertex
100
AcDb3dPolylineVertex
 10
39.2354
 20
6.39175
 30
0.0
 70
    32
  0
VERTEX
  5
18DD
330
1874
100
AcDbEntity
  8
241
100
AcDbVertex
100
AcDb3dPolylineVertex
 10
39.2156
 20
6.37897
 30
0.0
 70
    32
  0
VERTEX
  5
18DE
330
1874
100
AcDbEntity
  8
241
100
AcDbVertex
100
AcDb3dPolylineVertex
 10
39.1962
 20
6.36582
 30
0.0
 70
    32
  0
VERTEX
  5
18DF
330
1874
100
AcDbEntity
  8
241
100
AcDbVertex
100
AcDb3dPolylineVertex
 10
39.1775
 20
6.35231
 30
0.0
 70
    32
  0
VERTEX
  5
18E0
330
1874
100
AcDbEntity
  8
241
100
AcDbVertex
100
AcDb3dPolylineVertex
 10
39.1594
 20
6.33845
 30
0.0
 70
    32
  0
VERTEX
  5
18E1
330
1874
100
AcDbEntity
  8
241
100
AcDbVertex
100
AcDb3dPolylineVertex
 10
39.1419
 20
6.32424
 30
0.0
 70
    32
  0
VERTEX
  5
18E2
330
1874
100
AcDbEntity
  8
241
100
AcDbVertex
100
AcDb3dPolylineVertex
 10
39.125
 20
6.30969
 30
0.0
 70
    32
  0
VERTEX
  5
18E3
330
1874
100
AcDbEntity
  8
241
100
AcDbVertex
100
AcDb3dPolylineVertex
 10
39.1087
 20
6.29481
 30
0.0
 70
    32
  0
VERTEX
  5
18E4
330
1874
100
AcDbEntity
  8
241
100
AcDbVertex
100
AcDb3dPolylineVertex
 10
39.093
 20
6.27962
 30
0.0
 70
    32
  0
VERTEX
  5
18E5
330
1874
100
AcDbEntity
  8
241
100
AcDbVertex
100
AcDb3dPolylineVertex
 10
39.078
 20
6.26412
 30
0.0
 70
    32
  0
VERTEX
  5
18E6
330
1874
100
AcDbEntity
  8
241
100
AcDbVertex
100
AcDb3dPolylineVertex
 10
39.0637
 20
6.24831
 30
0.0
 70
    32
  0
VERTEX
  5
18E7
330
1874
100
AcDbEntity
  8
241
100
AcDbVertex
100
AcDb3dPolylineVertex
 10
39.05
 20
6.23222
 30
0.0
 70
    32
  0
VERTEX
  5
18E8
330
1874
100
AcDbEntity
  8
241
100
AcDbVertex
100
AcDb3dPolylineVertex
 10
39.0369
 20
6.21584
 30
0.0
 70
    32
  0
VERTEX
  5
18E9
330
1874
100
AcDbEntity
  8
241
100
AcDbVertex
100
AcDb3dPolylineVertex
 10
39.0246
 20
6.19919
 30
0.0
 70
    32
  0
VERTEX
  5
18EA
330
1874
100
AcDbEntity
  8
241
100
AcDbVertex
100
AcDb3dPolylineVertex
 10
39.0129
 20
6.18228
 30
0.0
 70
    32
  0
VERTEX
  5
18EB
330
1874
100
AcDbEntity
  8
241
100
AcDbVertex
100
AcDb3dPolylineVertex
 10
39.002
 20
6.16512
 30
0.0
 70
    32
  0
VERTEX
  5
18EC
330
1874
100
AcDbEntity
  8
241
100
AcDbVertex
100
AcDb3dPolylineVertex
 10
38.9917
 20
6.14771
 30
0.0
 70
    32
  0
VERTEX
  5
18ED
330
1874
100
AcDbEntity
  8
241
100
AcDbVertex
100
AcDb3dPolylineVertex
 10
38.9821
 20
6.13008
 30
0.0
 70
    32
  0
VERTEX
  5
18EE
330
1874
100
AcDbEntity
  8
241
100
AcDbVertex
100
AcDb3dPolylineVertex
 10
38.9733
 20
6.11223
 30
0.0
 70
    32
  0
VERTEX
  5
18EF
330
1874
100
AcDbEntity
  8
241
100
AcDbVertex
100
AcDb3dPolylineVertex
 10
38.9652
 20
6.09416
 30
0.0
 70
    32
  0
VERTEX
  5
18F0
330
1874
100
AcDbEntity
  8
241
100
AcDbVertex
100
AcDb3dPolylineVertex
 10
38.9577
 20
6.0759
 30
0.0
 70
    32
  0
VERTEX
  5
18F1
330
1874
100
AcDbEntity
  8
241
100
AcDbVertex
100
AcDb3dPolylineVertex
 10
38.9511
 20
6.05746
 30
0.0
 70
    32
  0
VERTEX
  5
18F2
330
1874
100
AcDbEntity
  8
241
100
AcDbVertex
100
AcDb3dPolylineVertex
 10
38.9451
 20
6.03883
 30
0.0
 70
    32
  0
VERTEX
  5
18F3
330
1874
100
AcDbEntity
  8
241
100
AcDbVertex
100
AcDb3dPolylineVertex
 10
38.9399
 20
6.02004
 30
0.0
 70
    32
  0
VERTEX
  5
18F4
330
1874
100
AcDbEntity
  8
241
100
AcDbVertex
100
AcDb3dPolylineVertex
 10
38.9354
 20
6.0011
 30
0.0
 70
    32
  0
VERTEX
  5
18F5
330
1874
100
AcDbEntity
  8
241
100
AcDbVertex
100
AcDb3dPolylineVertex
 10
38.9316
 20
5.98201
 30
0.0
 70
    32
  0
SEQEND
  5
18F6
330
1874
100
AcDbEntity
  8
241
  0
POLYLINE
  5
18F7
330
B99
100
AcDbEntity
  8
241
100
AcDb3dPolyline
 66
     1
 10
0.0
 20
0.0
 30
0.0
 70
     8
  0
VERTEX
  5
18F8
330
18F7
100
AcDbEntity
  8
241
100
AcDbVertex
100
AcDb3dPolylineVertex
 10
38.9316
 20
5.98201
 30
0.0
 70
    32
  0
VERTEX
  5
18F9
330
18F7
100
AcDbEntity
  8
241
100
AcDbVertex
100
AcDb3dPolylineVertex
 10
38.9267
 20
5.95187
 30
0.0
 70
    32
  0
VERTEX
  5
18FA
330
18F7
100
AcDbEntity
  8
241
100
AcDbVertex
100
AcDb3dPolylineVertex
 10
38.9225
 20
5.92162
 30
0.0
 70
    32
  0
VERTEX
  5
18FB
330
18F7
100
AcDbEntity
  8
241
100
AcDbVertex
100
AcDb3dPolylineVertex
 10
38.9191
 20
5.89128
 30
0.0
 70
    32
  0
VERTEX
  5
18FC
330
18F7
100
AcDbEntity
  8
241
100
AcDbVertex
100
AcDb3dPolylineVertex
 10
38.9164
 20
5.86085
 30
0.0
 70
    32
  0
VERTEX
  5
18FD
330
18F7
100
AcDbEntity
  8
241
100
AcDbVertex
100
AcDb3dPolylineVertex
 10
38.9145
 20
5.83037
 30
0.0
 70
    32
  0
VERTEX
  5
18FE
330
18F7
100
AcDbEntity
  8
241
100
AcDbVertex
100
AcDb3dPolylineVertex
 10
38.9133
 20
5.79986
 30
0.0
 70
    32
  0
VERTEX
  5
18FF
330
18F7
100
AcDbEntity
  8
241
100
AcDbVertex
100
AcDb3dPolylineVertex
 10
38.9128
 20
5.76932
 30
0.0
 70
    32
  0
VERTEX
  5
1900
330
18F7
100
AcDbEntity
  8
241
100
AcDbVertex
100
AcDb3dPolylineVertex
 10
38.9131
 20
5.73877
 30
0.0
 70
    32
  0
VERTEX
  5
1901
330
18F7
100
AcDbEntity
  8
241
100
AcDbVertex
100
AcDb3dPolylineVertex
 10
38.9142
 20
5.70825
 30
0.0
 70
    32
  0
VERTEX
  5
1902
330
18F7
100
AcDbEntity
  8
241
100
AcDbVertex
100
AcDb3dPolylineVertex
 10
38.916
 20
5.67775
 30
0.0
 70
    32
  0
VERTEX
  5
1903
330
18F7
100
AcDbEntity
  8
241
100
AcDbVertex
100
AcDb3dPolylineVertex
 10
38.9186
 20
5.64731
 30
0.0
 70
    32
  0
VERTEX
  5
1904
330
18F7
100
AcDbEntity
  8
241
100
AcDbVertex
100
AcDb3dPolylineVertex
 10
38.9219
 20
5.61694
 30
0.0
 70
    32
  0
VERTEX
  5
1905
330
18F7
100
AcDbEntity
  8
241
100
AcDbVertex
100
AcDb3dPolylineVertex
 10
38.926
 20
5.58666
 30
0.0
 70
    32
  0
VERTEX
  5
1906
330
18F7
100
AcDbEntity
  8
241
100
AcDbVertex
100
AcDb3dPolylineVertex
 10
38.9308
 20
5.55649
 30
0.0
 70
    32
  0
VERTEX
  5
1907
330
18F7
100
AcDbEntity
  8
241
100
AcDbVertex
100
AcDb3dPolylineVertex
 10
38.9364
 20
5.52644
 30
0.0
 70
    32
  0
VERTEX
  5
1908
330
18F7
100
AcDbEntity
  8
241
100
AcDbVertex
100
AcDb3dPolylineVertex
 10
38.9427
 20
5.49654
 30
0.0
 70
    32
  0
VERTEX
  5
1909
330
18F7
100
AcDbEntity
  8
241
100
AcDbVertex
100
AcDb3dPolylineVertex
 10
38.9497
 20
5.4668
 30
0.0
 70
    32
  0
VERTEX
  5
190A
330
18F7
100
AcDbEntity
  8
241
100
AcDbVertex
100
AcDb3dPolylineVertex
 10
38.9575
 20
5.43724
 30
0.0
 70
    32
  0
VERTEX
  5
190B
330
18F7
100
AcDbEntity
  8
241
100
AcDbVertex
100
AcDb3dPolylineVertex
 10
38.9659
 20
5.40787
 30
0.0
 70
    32
  0
VERTEX
  5
190C
330
18F7
100
AcDbEntity
  8
241
100
AcDbVertex
100
AcDb3dPolylineVertex
 10
38.9751
 20
5.37872
 30
0.0
 70
    32
  0
VERTEX
  5
190D
330
18F7
100
AcDbEntity
  8
241
100
AcDbVertex
100
AcDb3dPolylineVertex
 10
38.9851
 20
5.3498
 30
0.0
 70
    32
  0
VERTEX
  5
190E
330
18F7
100
AcDbEntity
  8
241
100
AcDbVertex
100
AcDb3dPolylineVertex
 10
38.9957
 20
5.32114
 30
0.0
 70
    32
  0
VERTEX
  5
190F
330
18F7
100
AcDbEntity
  8
241
100
AcDbVertex
100
AcDb3dPolylineVertex
 10
39.007
 20
5.29274
 30
0.0
 70
    32
  0
VERTEX
  5
1910
330
18F7
100
AcDbEntity
  8
241
100
AcDbVertex
100
AcDb3dPolylineVertex
 10
39.0191
 20
5.26462
 30
0.0
 70
    32
  0
VERTEX
  5
1911
330
18F7
100
AcDbEntity
  8
241
100
AcDbVertex
100
AcDb3dPolylineVertex
 10
39.0318
 20
5.23681
 30
0.0
 70
    32
  0
VERTEX
  5
1912
330
18F7
100
AcDbEntity
  8
241
100
AcDbVertex
100
AcDb3dPolylineVertex
 10
39.0452
 20
5.20931
 30
0.0
 70
    32
  0
VERTEX
  5
1913
330
18F7
100
AcDbEntity
  8
241
100
AcDbVertex
100
AcDb3dPolylineVertex
 10
39.0593
 20
5.18215
 30
0.0
 70
    32
  0
VERTEX
  5
1914
330
18F7
100
AcDbEntity
  8
241
100
AcDbVertex
100
AcDb3dPolylineVertex
 10
39.074
 20
5.15534
 30
0.0
 70
    32
  0
VERTEX
  5
1915
330
18F7
100
AcDbEntity
  8
241
100
AcDbVertex
100
AcDb3dPolylineVertex
 10
39.0894
 20
5.1289
 30
0.0
 70
    32
  0
VERTEX
  5
1916
330
18F7
100
AcDbEntity
  8
241
100
AcDbVertex
100
AcDb3dPolylineVertex
 10
39.1054
 20
5.10284
 30
0.0
 70
    32
  0
VERTEX
  5
1917
330
18F7
100
AcDbEntity
  8
241
100
AcDbVertex
100
AcDb3dPolylineVertex
 10
39.1221
 20
5.07718
 30
0.0
 70
    32
  0
VERTEX
  5
1918
330
18F7
100
AcDbEntity
  8
241
100
AcDbVertex
100
AcDb3dPolylineVertex
 10
39.1394
 20
5.05193
 30
0.0
 70
    32
  0
VERTEX
  5
1919
330
18F7
100
AcDbEntity
  8
241
100
AcDbVertex
100
AcDb3dPolylineVertex
 10
39.1573
 20
5.02711
 30
0.0
 70
    32
  0
VERTEX
  5
191A
330
18F7
100
AcDbEntity
  8
241
100
AcDbVertex
100
AcDb3dPolylineVertex
 10
39.1759
 20
5.00274
 30
0.0
 70
    32
  0
VERTEX
  5
191B
330
18F7
100
AcDbEntity
  8
241
100
AcDbVertex
100
AcDb3dPolylineVertex
 10
39.195
 20
4.97883
 30
0.0
 70
    32
  0
VERTEX
  5
191C
330
18F7
100
AcDbEntity
  8
241
100
AcDbVertex
100
AcDb3dPolylineVertex
 10
39.2147
 20
4.95539
 30
0.0
 70
    32
  0
VERTEX
  5
191D
330
18F7
100
AcDbEntity
  8
241
100
AcDbVertex
100
AcDb3dPolylineVertex
 10
39.235
 20
4.93244
 30
0.0
 70
    32
  0
VERTEX
  5
191E
330
18F7
100
AcDbEntity
  8
241
100
AcDbVertex
100
AcDb3dPolylineVertex
 10
39.2558
 20
4.90998
 30
0.0
 70
    32
  0
VERTEX
  5
191F
330
18F7
100
AcDbEntity
  8
241
100
AcDbVertex
100
AcDb3dPolylineVertex
 10
39.2772
 20
4.88805
 30
0.0
 70
    32
  0
VERTEX
  5
1920
330
18F7
100
AcDbEntity
  8
241
100
AcDbVertex
100
AcDb3dPolylineVertex
 10
39.2991
 20
4.86664
 30
0.0
 70
    32
  0
VERTEX
  5
1921
330
18F7
100
AcDbEntity
  8
241
100
AcDbVertex
100
AcDb3dPolylineVertex
 10
39.3215
 20
4.84577
 30
0.0
 70
    32
  0
VERTEX
  5
1922
330
18F7
100
AcDbEntity
  8
241
100
AcDbVertex
100
AcDb3dPolylineVertex
 10
39.3445
 20
4.82546
 30
0.0
 70
    32
  0
VERTEX
  5
1923
330
18F7
100
AcDbEntity
  8
241
100
AcDbVertex
100
AcDb3dPolylineVertex
 10
39.3679
 20
4.80571
 30
0.0
 70
    32
  0
VERTEX
  5
1924
330
18F7
100
AcDbEntity
  8
241
100
AcDbVertex
100
AcDb3dPolylineVertex
 10
39.3918
 20
4.78655
 30
0.0
 70
    32
  0
VERTEX
  5
1925
330
18F7
100
AcDbEntity
  8
241
100
AcDbVertex
100
AcDb3dPolylineVertex
 10
39.4162
 20
4.76797
 30
0.0
 70
    32
  0
VERTEX
  5
1926
330
18F7
100
AcDbEntity
  8
241
100
AcDbVertex
100
AcDb3dPolylineVertex
 10
39.441
 20
4.74999
 30
0.0
 70
    32
  0
VERTEX
  5
1927
330
18F7
100
AcDbEntity
  8
241
100
AcDbVertex
100
AcDb3dPolylineVertex
 10
39.4663
 20
4.73262
 30
0.0
 70
    32
  0
VERTEX
  5
1928
330
18F7
100
AcDbEntity
  8
241
100
AcDbVertex
100
AcDb3dPolylineVertex
 10
39.4919
 20
4.71587
 30
0.0
 70
    32
  0
VERTEX
  5
1929
330
18F7
100
AcDbEntity
  8
241
100
AcDbVertex
100
AcDb3dPolylineVertex
 10
39.518
 20
4.69976
 30
0.0
 70
    32
  0
VERTEX
  5
192A
330
18F7
100
AcDbEntity
  8
241
100
AcDbVertex
100
AcDb3dPolylineVertex
 10
39.5445
 20
4.68429
 30
0.0
 70
    32
  0
VERTEX
  5
192B
330
18F7
100
AcDbEntity
  8
241
100
AcDbVertex
100
AcDb3dPolylineVertex
 10
39.5713
 20
4.66947
 30
0.0
 70
    32
  0
VERTEX
  5
192C
330
18F7
100
AcDbEntity
  8
241
100
AcDbVertex
100
AcDb3dPolylineVertex
 10
39.5985
 20
4.6553
 30
0.0
 70
    32
  0
VERTEX
  5
192D
330
18F7
100
AcDbEntity
  8
241
100
AcDbVertex
100
AcDb3dPolylineVertex
 10
39.6261
 20
4.64181
 30
0.0
 70
    32
  0
VERTEX
  5
192E
330
18F7
100
AcDbEntity
  8
241
100
AcDbVertex
100
AcDb3dPolylineVertex
 10
39.6539
 20
4.62899
 30
0.0
 70
    32
  0
VERTEX
  5
192F
330
18F7
100
AcDbEntity
  8
241
100
AcDbVertex
100
AcDb3dPolylineVertex
 10
39.6821
 20
4.61686
 30
0.0
 70
    32
  0
VERTEX
  5
1930
330
18F7
100
AcDbEntity
  8
241
100
AcDbVertex
100
AcDb3dPolylineVertex
 10
39.7106
 20
4.60542
 30
0.0
 70
    32
  0
VERTEX
  5
1931
330
18F7
100
AcDbEntity
  8
241
100
AcDbVertex
100
AcDb3dPolylineVertex
 10
39.7393
 20
4.59468
 30
0.0
 70
    32
  0
VERTEX
  5
1932
330
18F7
100
AcDbEntity
  8
241
100
AcDbVertex
100
AcDb3dPolylineVertex
 10
39.7683
 20
4.58464
 30
0.0
 70
    32
  0
VERTEX
  5
1933
330
18F7
100
AcDbEntity
  8
241
100
AcDbVertex
100
AcDb3dPolylineVertex
 10
39.7975
 20
4.57531
 30
0.0
 70
    32
  0
VERTEX
  5
1934
330
18F7
100
AcDbEntity
  8
241
100
AcDbVertex
100
AcDb3dPolylineVertex
 10
39.827
 20
4.5667
 30
0.0
 70
    32
  0
VERTEX
  5
1935
330
18F7
100
AcDbEntity
  8
241
100
AcDbVertex
100
AcDb3dPolylineVertex
 10
39.8566
 20
4.55882
 30
0.0
 70
    32
  0
VERTEX
  5
1936
330
18F7
100
AcDbEntity
  8
241
100
AcDbVertex
100
AcDb3dPolylineVertex
 10
39.8864
 20
4.55165
 30
0.0
 70
    32
  0
VERTEX
  5
1937
330
18F7
100
AcDbEntity
  8
241
100
AcDbVertex
100
AcDb3dPolylineVertex
 10
39.9164
 20
4.54522
 30
0.0
 70
    32
  0
VERTEX
  5
1938
330
18F7
100
AcDbEntity
  8
241
100
AcDbVertex
100
AcDb3dPolylineVertex
 10
39.9466
 20
4.53953
 30
0.0
 70
    32
  0
VERTEX
  5
1939
330
18F7
100
AcDbEntity
  8
241
100
AcDbVertex
100
AcDb3dPolylineVertex
 10
39.9769
 20
4.53457
 30
0.0
 70
    32
  0
VERTEX
  5
193A
330
18F7
100
AcDbEntity
  8
241
100
AcDbVertex
100
AcDb3dPolylineVertex
 10
40.0072
 20
4.53035
 30
0.0
 70
    32
  0
VERTEX
  5
193B
330
18F7
100
AcDbEntity
  8
241
100
AcDbVertex
100
AcDb3dPolylineVertex
 10
40.0377
 20
4.52688
 30
0.0
 70
    32
  0
VERTEX
  5
193C
330
18F7
100
AcDbEntity
  8
241
100
AcDbVertex
100
AcDb3dPolylineVertex
 10
40.0683
 20
4.52415
 30
0.0
 70
    32
  0
VERTEX
  5
193D
330
18F7
100
AcDbEntity
  8
241
100
AcDbVertex
100
AcDb3dPolylineVertex
 10
40.0989
 20
4.52217
 30
0.0
 70
    32
  0
VERTEX
  5
193E
330
18F7
100
AcDbEntity
  8
241
100
AcDbVertex
100
AcDb3dPolylineVertex
 10
40.1295
 20
4.52094
 30
0.0
 70
    32
  0
VERTEX
  5
193F
330
18F7
100
AcDbEntity
  8
241
100
AcDbVertex
100
AcDb3dPolylineVertex
 10
40.1602
 20
4.52046
 30
0.0
 70
    32
  0
VERTEX
  5
1940
330
18F7
100
AcDbEntity
  8
241
100
AcDbVertex
100
AcDb3dPolylineVertex
 10
40.1909
 20
4.52073
 30
0.0
 70
    32
  0
VERTEX
  5
1941
330
18F7
100
AcDbEntity
  8
241
100
AcDbVertex
100
AcDb3dPolylineVertex
 10
40.2215
 20
4.52174
 30
0.0
 70
    32
  0
VERTEX
  5
1942
330
18F7
100
AcDbEntity
  8
241
100
AcDbVertex
100
AcDb3dPolylineVertex
 10
40.2522
 20
4.52351
 30
0.0
 70
    32
  0
VERTEX
  5
1943
330
18F7
100
AcDbEntity
  8
241
100
AcDbVertex
100
AcDb3dPolylineVertex
 10
40.2827
 20
4.52602
 30
0.0
 70
    32
  0
VERTEX
  5
1944
330
18F7
100
AcDbEntity
  8
241
100
AcDbVertex
100
AcDb3dPolylineVertex
 10
40.3132
 20
4.52928
 30
0.0
 70
    32
  0
VERTEX
  5
1945
330
18F7
100
AcDbEntity
  8
241
100
AcDbVertex
100
AcDb3dPolylineVertex
 10
40.3436
 20
4.53329
 30
0.0
 70
    32
  0
VERTEX
  5
1946
330
18F7
100
AcDbEntity
  8
241
100
AcDbVertex
100
AcDb3dPolylineVertex
 10
40.3739
 20
4.53804
 30
0.0
 70
    32
  0
VERTEX
  5
1947
330
18F7
100
AcDbEntity
  8
241
100
AcDbVertex
100
AcDb3dPolylineVertex
 10
40.4041
 20
4.54352
 30
0.0
 70
    32
  0
VERTEX
  5
1948
330
18F7
100
AcDbEntity
  8
241
100
AcDbVertex
100
AcDb3dPolylineVertex
 10
40.4341
 20
4.54974
 30
0.0
 70
    32
  0
VERTEX
  5
1949
330
18F7
100
AcDbEntity
  8
241
100
AcDbVertex
100
AcDb3dPolylineVertex
 10
40.464
 20
4.5567
 30
0.0
 70
    32
  0
VERTEX
  5
194A
330
18F7
100
AcDbEntity
  8
241
100
AcDbVertex
100
AcDb3dPolylineVertex
 10
40.4937
 20
4.56438
 30
0.0
 70
    32
  0
VERTEX
  5
194B
330
18F7
100
AcDbEntity
  8
241
100
AcDbVertex
100
AcDb3dPolylineVertex
 10
40.5231
 20
4.57278
 30
0.0
 70
    32
  0
VERTEX
  5
194C
330
18F7
100
AcDbEntity
  8
241
100
AcDbVertex
100
AcDb3dPolylineVertex
 10
40.5524
 20
4.5819
 30
0.0
 70
    32
  0
VERTEX
  5
194D
330
18F7
100
AcDbEntity
  8
241
100
AcDbVertex
100
AcDb3dPolylineVertex
 10
40.5814
 20
4.59174
 30
0.0
 70
    32
  0
VERTEX
  5
194E
330
18F7
100
AcDbEntity
  8
241
100
AcDbVertex
100
AcDb3dPolylineVertex
 10
40.6102
 20
4.60228
 30
0.0
 70
    32
  0
VERTEX
  5
194F
330
18F7
100
AcDbEntity
  8
241
100
AcDbVertex
100
AcDb3dPolylineVertex
 10
40.6387
 20
4.61352
 30
0.0
 70
    32
  0
VERTEX
  5
1950
330
18F7
100
AcDbEntity
  8
241
100
AcDbVertex
100
AcDb3dPolylineVertex
 10
40.6669
 20
4.62546
 30
0.0
 70
    32
  0
VERTEX
  5
1951
330
18F7
100
AcDbEntity
  8
241
100
AcDbVertex
100
AcDb3dPolylineVertex
 10
40.6948
 20
4.63808
 30
0.0
 70
    32
  0
VERTEX
  5
1952
330
18F7
100
AcDbEntity
  8
241
100
AcDbVertex
100
AcDb3dPolylineVertex
 10
40.7224
 20
4.65138
 30
0.0
 70
    32
  0
VERTEX
  5
1953
330
18F7
100
AcDbEntity
  8
241
100
AcDbVertex
100
AcDb3dPolylineVertex
 10
40.7497
 20
4.66535
 30
0.0
 70
    32
  0
VERTEX
  5
1954
330
18F7
100
AcDbEntity
  8
241
100
AcDbVertex
100
AcDb3dPolylineVertex
 10
40.7766
 20
4.67998
 30
0.0
 70
    32
  0
VERTEX
  5
1955
330
18F7
100
AcDbEntity
  8
241
100
AcDbVertex
100
AcDb3dPolylineVertex
 10
40.8031
 20
4.69527
 30
0.0
 70
    32
  0
VERTEX
  5
1956
330
18F7
100
AcDbEntity
  8
241
100
AcDbVertex
100
AcDb3dPolylineVertex
 10
40.8292
 20
4.7112
 30
0.0
 70
    32
  0
VERTEX
  5
1957
330
18F7
100
AcDbEntity
  8
241
100
AcDbVertex
100
AcDb3dPolylineVertex
 10
40.855
 20
4.72777
 30
0.0
 70
    32
  0
VERTEX
  5
1958
330
18F7
100
AcDbEntity
  8
241
100
AcDbVertex
100
AcDb3dPolylineVertex
 10
40.8803
 20
4.74496
 30
0.0
 70
    32
  0
VERTEX
  5
1959
330
18F7
100
AcDbEntity
  8
241
100
AcDbVertex
100
AcDb3dPolylineVertex
 10
40.9052
 20
4.76277
 30
0.0
 70
    32
  0
VERTEX
  5
195A
330
18F7
100
AcDbEntity
  8
241
100
AcDbVertex
100
AcDb3dPolylineVertex
 10
40.9297
 20
4.78118
 30
0.0
 70
    32
  0
VERTEX
  5
195B
330
18F7
100
AcDbEntity
  8
241
100
AcDbVertex
100
AcDb3dPolylineVertex
 10
40.9537
 20
4.80018
 30
0.0
 70
    32
  0
VERTEX
  5
195C
330
18F7
100
AcDbEntity
  8
241
100
AcDbVertex
100
AcDb3dPolylineVertex
 10
40.9772
 20
4.81976
 30
0.0
 70
    32
  0
VERTEX
  5
195D
330
18F7
100
AcDbEntity
  8
241
100
AcDbVertex
100
AcDb3dPolylineVertex
 10
41.0002
 20
4.83991
 30
0.0
 70
    32
  0
VERTEX
  5
195E
330
18F7
100
AcDbEntity
  8
241
100
AcDbVertex
100
AcDb3dPolylineVertex
 10
41.0227
 20
4.86062
 30
0.0
 70
    32
  0
VERTEX
  5
195F
330
18F7
100
AcDbEntity
  8
241
100
AcDbVertex
100
AcDb3dPolylineVertex
 10
41.0447
 20
4.88188
 30
0.0
 70
    32
  0
VERTEX
  5
1960
330
18F7
100
AcDbEntity
  8
241
100
AcDbVertex
100
AcDb3dPolylineVertex
 10
41.0662
 20
4.90366
 30
0.0
 70
    32
  0
VERTEX
  5
1961
330
18F7
100
AcDbEntity
  8
241
100
AcDbVertex
100
AcDb3dPolylineVertex
 10
41.0871
 20
4.92597
 30
0.0
 70
    32
  0
VERTEX
  5
1962
330
18F7
100
AcDbEntity
  8
241
100
AcDbVertex
100
AcDb3dPolylineVertex
 10
41.1074
 20
4.94878
 30
0.0
 70
    32
  0
VERTEX
  5
1963
330
18F7
100
AcDbEntity
  8
241
100
AcDbVertex
100
AcDb3dPolylineVertex
 10
41.1272
 20
4.97208
 30
0.0
 70
    32
  0
VERTEX
  5
1964
330
18F7
100
AcDbEntity
  8
241
100
AcDbVertex
100
AcDb3dPolylineVertex
 10
41.1465
 20
4.99586
 30
0.0
 70
    32
  0
VERTEX
  5
1965
330
18F7
100
AcDbEntity
  8
241
100
AcDbVertex
100
AcDb3dPolylineVertex
 10
41.1651
 20
5.0201
 30
0.0
 70
    32
  0
VERTEX
  5
1966
330
18F7
100
AcDbEntity
  8
241
100
AcDbVertex
100
AcDb3dPolylineVertex
 10
41.1831
 20
5.0448
 30
0.0
 70
    32
  0
VERTEX
  5
1967
330
18F7
100
AcDbEntity
  8
241
100
AcDbVertex
100
AcDb3dPolylineVertex
 10
41.2005
 20
5.06992
 30
0.0
 70
    32
  0
VERTEX
  5
1968
330
18F7
100
AcDbEntity
  8
241
100
AcDbVertex
100
AcDb3dPolylineVertex
 10
41.2173
 20
5.09546
 30
0.0
 70
    32
  0
VERTEX
  5
1969
330
18F7
100
AcDbEntity
  8
241
100
AcDbVertex
100
AcDb3dPolylineVertex
 10
41.2334
 20
5.12141
 30
0.0
 70
    32
  0
VERTEX
  5
196A
330
18F7
100
AcDbEntity
  8
241
100
AcDbVertex
100
AcDb3dPolylineVertex
 10
41.2489
 20
5.14775
 30
0.0
 70
    32
  0
VERTEX
  5
196B
330
18F7
100
AcDbEntity
  8
241
100
AcDbVertex
100
AcDb3dPolylineVertex
 10
41.2638
 20
5.17445
 30
0.0
 70
    32
  0
VERTEX
  5
196C
330
18F7
100
AcDbEntity
  8
241
100
AcDbVertex
100
AcDb3dPolylineVertex
 10
41.2779
 20
5.20152
 30
0.0
 70
    32
  0
VERTEX
  5
196D
330
18F7
100
AcDbEntity
  8
241
100
AcDbVertex
100
AcDb3dPolylineVertex
 10
41.2914
 20
5.22892
 30
0.0
 70
    32
  0
VERTEX
  5
196E
330
18F7
100
AcDbEntity
  8
241
100
AcDbVertex
100
AcDb3dPolylineVertex
 10
41.3043
 20
5.25664
 30
0.0
 70
    32
  0
VERTEX
  5
196F
330
18F7
100
AcDbEntity
  8
241
100
AcDbVertex
100
AcDb3dPolylineVertex
 10
41.3164
 20
5.28467
 30
0.0
 70
    32
  0
VERTEX
  5
1970
330
18F7
100
AcDbEntity
  8
241
100
AcDbVertex
100
AcDb3dPolylineVertex
 10
41.3279
 20
5.31299
 30
0.0
 70
    32
  0
VERTEX
  5
1971
330
18F7
100
AcDbEntity
  8
241
100
AcDbVertex
100
AcDb3dPolylineVertex
 10
41.3386
 20
5.34159
 30
0.0
 70
    32
  0
VERTEX
  5
1972
330
18F7
100
AcDbEntity
  8
241
100
AcDbVertex
100
AcDb3dPolylineVertex
 10
41.3486
 20
5.37043
 30
0.0
 70
    32
  0
VERTEX
  5
1973
330
18F7
100
AcDbEntity
  8
241
100
AcDbVertex
100
AcDb3dPolylineVertex
 10
41.358
 20
5.39952
 30
0.0
 70
    32
  0
VERTEX
  5
1974
330
18F7
100
AcDbEntity
  8
241
100
AcDbVertex
100
AcDb3dPolylineVertex
 10
41.3666
 20
5.42882
 30
0.0
 70
    32
  0
VERTEX
  5
1975
330
18F7
100
AcDbEntity
  8
241
100
AcDbVertex
100
AcDb3dPolylineVertex
 10
41.3744
 20
5.45833
 30
0.0
 70
    32
  0
VERTEX
  5
1976
330
18F7
100
AcDbEntity
  8
241
100
AcDbVertex
100
AcDb3dPolylineVertex
 10
41.3816
 20
5.48802
 30
0.0
 70
    32
  0
VERTEX
  5
1977
330
18F7
100
AcDbEntity
  8
241
100
AcDbVertex
100
AcDb3dPolylineVertex
 10
41.388
 20
5.51788
 30
0.0
 70
    32
  0
VERTEX
  5
1978
330
18F7
100
AcDbEntity
  8
241
100
AcDbVertex
100
AcDb3dPolylineVertex
 10
41.3937
 20
5.54789
 30
0.0
 70
    32
  0
SEQEND
  5
1979
330
18F7
100
AcDbEntity
  8
241
  0
LINE
  5
197A
330
B99
100
AcDbEntity
  8
242
100
AcDbLine
 10
45.0
 20
8.0
 30
0.0
 11
36.0
 21
8.0
 31
0.0
  0
LINE
  5
197B
330
B99
100
AcDbEntity
  8
240
100
AcDbLine
 10
35.00000001
 20
7.6
 30
0.0
 11
34.45050451
 21
7.4
 31
0.0
  0
ENDBLK
  5
B9B
330
B99
100
AcDbEntity
  8
0
100
AcDbBlockEnd
  0
BLOCK
  5
11AF
330
11A5
100
AcDbEntity
  8
0
100
AcDbBlockBegin
  2
*D5
 70
     1
 10
0.0
 20
0.0
 30
0.0
  3
*D5
  1

  0
LINE
  5
13AD
330
11A5
100
AcDbEntity
  8
250
  6
CONTINUOUS
100
AcDbLine
 10
22.0
 20
8.01816421
 30
0.0
 11
22.0
 21
22.0
 31
0.0
  0
LINE
  5
13AE
330
11A5
100
AcDbEntity
  8
250
  6
CONTINUOUS
100
AcDbLine
 10
45.0
 20
8.5
 30
0.0
 11
45.0
 21
22.0
 31
0.0
  0
LINE
  5
13AF
330
11A5
100
AcDbEntity
  8
250
  6
CONTINUOUS
100
AcDbLine
 10
24.23
 20
21.0
 30
0.0
 11
42.77
 21
21.0
 31
0.0
  0
INSERT
  5
13B0
330
11A5
100
AcDbEntity
  8
250
  6
CONTINUOUS
100
AcDbBlockReference
  2
_OPEN
 10
22.0
 20
21.0
 30
0.0
 41
2.23
 42
2.23
 43
2.23
 50
180.0
  0
INSERT
  5
13B1
330
11A5
100
AcDbEntity
  8
250
  6
CONTINUOUS
100
AcDbBlockReference
  2
_OPEN
 10
45.0
 20
21.0
 30
0.0
 41
2.23
 42
2.23
 43
2.23
  0
MTEXT
  5
13B2
330
11A5
100
AcDbEntity
  8
250
  6
CONTINUOUS
 62
    40
100
AcDbMText
 10
33.5
 20
23.4
 30
0.0
 40
2.8
 41
0.0
 71
     5
 72
     1
  1
\A1;23
1001
ACAD
1000
MTEXTBEGIN
1070
    73
1070
     1
1070
    44
1040
1.0
1070
    74
1070
     0
1000
MTEXTEND
1000
MTEXTBEGIN
1070
    73
1070
     1
1070
    44
1040
1.0
1070
    74
1070
     0
1000
MTEXTEND
  0
POINT
  5
13B3
330
11A5
100
AcDbEntity
  8
DEFPOINTS
  6
CONTINUOUS
 62
     0
100
AcDbPoint
 10
22.0
 20
7.51816421
 30
0.0
  0
POINT
  5
13B4
330
11A5
100
AcDbEntity
  8
DEFPOINTS
  6
CONTINUOUS
 62
     0
100
AcDbPoint
 10
45.0
 20
8.0
 30
0.0
  0
POINT
  5
13B5
330
11A5
100
AcDbEntity
  8
DEFPOINTS
  6
CONTINUOUS
 62
     0
100
AcDbPoint
 10
45.0
 20
21.0
 30
0.0
  0
ENDBLK
  5
11B0
330
11A5
100
AcDbEntity
  8
0
100
AcDbBlockEnd
  0
BLOCK
  5
13C3
330
13B9
100
AcDbEntity
  8
0
100
AcDbBlockBegin
  2
*D6
 70
     1
 10
0.0
 20
0.0
 30
0.0
  3
*D6
  1

  0
LINE
  5
13BA
330
13B9
100
AcDbEntity
  8
250
  6
CONTINUOUS
100
AcDbLine
 10
36.0
 20
8.5
 30
0.0
 11
36.0
 21
15.0
 31
0.0
  0
LINE
  5
13BB
330
13B9
100
AcDbEntity
  8
250
  6
CONTINUOUS
100
AcDbLine
 10
45.0
 20
8.5
 30
0.0
 11
45.0
 21
15.0
 31
0.0
  0
LINE
  5
13BC
330
13B9
100
AcDbEntity
  8
250
  6
CONTINUOUS
100
AcDbLine
 10
38.23
 20
14.0
 30
0.0
 11
42.77
 21
14.0
 31
0.0
  0
INSERT
  5
13BD
330
13B9
100
AcDbEntity
  8
250
  6
CONTINUOUS
100
AcDbBlockReference
  2
_OPEN
 10
36.0
 20
14.0
 30
0.0
 41
2.23
 42
2.23
 43
2.23
 50
180.0
  0
INSERT
  5
13BE
330
13B9
100
AcDbEntity
  8
250
  6
CONTINUOUS
100
AcDbBlockReference
  2
_OPEN
 10
45.0
 20
14.0
 30
0.0
 41
2.23
 42
2.23
 43
2.23
  0
MTEXT
  5
13BF
330
13B9
100
AcDbEntity
  8
250
  6
CONTINUOUS
 62
    40
100
AcDbMText
 10
40.5
 20
16.4
 30
0.0
 40
2.8
 41
0.0
 71
     5
 72
     1
  1
\A1;9
1001
ACAD
1000
MTEXTBEGIN
1070
    73
1070
     1
1070
    44
1040
1.0
1070
    74
1070
     0
1000
MTEXTEND
1000
MTEXTBEGIN
1070
    73
1070
     1
1070
    44
1040
1.0
1070
    74
1070
     0
1000
MTEXTEND
  0
POINT
  5
13C0
330
13B9
100
AcDbEntity
  8
DEFPOINTS
  6
CONTINUOUS
 62
     0
100
AcDbPoint
 10
36.0
 20
8.0
 30
0.0
  0
POINT
  5
13C1
330
13B9
100
AcDbEntity
  8
DEFPOINTS
  6
CONTINUOUS
 62
     0
100
AcDbPoint
 10
45.0
 20
8.0
 30
0.0
  0
POINT
  5
13C2
330
13B9
100
AcDbEntity
  8
DEFPOINTS
  6
CONTINUOUS
 62
     0
100
AcDbPoint
 10
45.0
 20
14.0
 30
0.0
  0
ENDBLK
  5
13C4
330
13B9
100
AcDbEntity
  8
0
100
AcDbBlockEnd
  0
ENDSEC
  0
SECTION
  2
ENTITIES
  0
INSERT
  5
6E6
330
1A
100
AcDbEntity
  8
245
100
AcDbBlockReference
  2
矢印なし
 10
175.62382697
 20
90.55123572
 30
0.0
  0
TEXT
  5
965
330
1A
100
AcDbEntity
  8
241
100
AcDbText
 10
-13.0
 20
42.0
 30
0.0
 40
5.0
  1
HSK-E25-FCM16092-45
  7
YOKO
 11
-13.0
 21
42.0
 31
0.0
100
AcDbText
 73
     1
  0
DIMENSION
  5
966
330
1A
100
AcDbEntity
  8
250
  6
CONTINUOUS
100
AcDbDimension
  2
*D2
 10
45.0
 20
28.0
 30
0.0
 11
22.5
 21
30.4
 31
0.0
 70
    32
  3
BIGT
100
AcDbAlignedDimension
 13
0.0
 23
12.5
 33
0.0
 14
45.0
 24
8.0
 34
0.0
100
AcDbRotatedDimension
  0
DIMENSION
  5
995
330
1A
100
AcDbEntity
  8
250
  6
CONTINUOUS
100
AcDbDimension
  2
*D3
 10
56.0
 20
8.0
 30
0.0
 11
56.0
 21
0.0
 31
0.0
 70
   160
  1
{\H2.8;\U+2205}<>
  3
BIGT
100
AcDbAlignedDimension
 13
45.0
 23
-8.0
 33
0.0
 14
45.0
 24
8.0
 34
0.0
 50
90.0
100
AcDbRotatedDimension
  0
DIMENSION
  5
11A4
330
1A
100
AcDbEntity
  8
250
  6
CONTINUOUS
100
AcDbDimension
  2
*D5
 10
45.0
 20
21.0
 30
0.0
 11
33.5
 21
23.4
 31
0.0
 70
    32
  3
BIGT
100
AcDbAlignedDimension
 13
22.0
 23
7.51816421
 33
0.0
 14
45.0
 24
8.0
 34
0.0
100
AcDbRotatedDimension
  0
DIMENSION
  5
13B8
330
1A
100
AcDbEntity
  8
250
  6
CONTINUOUS
100
AcDbDimension
  2
*D6
 10
45.0
 20
14.0
 30
0.0
 11
40.5
 21
16.4
 31
0.0
 70
    32
  3
BIGT
100
AcDbAlignedDimension
 13
36.0
 23
8.0
 33
0.0
 14
45.0
 24
8.0
 34
0.0
100
AcDbRotatedDimension
  0
LINE
  5
17E4
330
1A
100
AcDbEntity
  8
250
  6
CONTINUOUS
100
AcDbLine
 10
-10.68135408
 20
-17.46388652
 30
0.0
 11
-35.08135408
 21
-17.46388652
 31
0.0
1001
ITEMNAME
1000
LNSP2
  0
MTEXT
  5
17E5
330
1A
100
AcDbEntity
  8
251
  6
CONTINUOUS
100
AcDbMText
 10
-32.28135408
 20
-16.46388652
 30
0.0
 40
2.8
 41
0.0
 71
     7
 72
     1
  1
HSK-E25
  7
YOKO
1001
ITEMNAME
1000
LNSP3
1001
ACAD
1000
MTEXTBEGIN
1070
    73
1070
     1
1070
    44
1040
1.0
1070
    74
1070
     0
1000
MTEXTEND
  0
LEADER
  5
17E9
330
1A
100
AcDbEntity
  8
250
  6
CONTINUOUS
100
AcDbLeader
  3
BIGT
 76
     2
 10
-5.98286053
 20
-9.32585697
 30
0.0
 10
-10.68135408
 20
-17.46388652
 30
0.0
1001
ACAD
1000
DSTYLE
1002
{
1070
     6
1000
OPEN
1070
    41
1040
2.0
1070
    42
1040
2.0
1070
    44
1040
2.0
1070
   140
1040
4.0
1002
}
  0
INSERT
  5
197C
330
1A
100
AcDbEntity
  8
245
100
AcDbBlockReference
  2
1
 10
0.0
 20
0.0
 30
0.0
  0
VIEWPORT
  5
22
330
17
100
AcDbEntity
 67
     1
  8
0
100
AcDbViewport
 10
261.51769912
 20
148.5
 30
0.0
 40
523.03539823
 41
297.0
 68
     1
 69
     1
1001
ACAD
1000
MVIEW
1002
{
1070
    16
1010
0.0
1020
0.0
1030
0.0
1010
0.0
1020
0.0
1030
1.0
1040
0.0
1040
297.0
1040
261.51769912
1040
148.5
1040
50.0
1040
0.0
1040
0.0
1070
     0
1070
   100
1070
     1
1070
     1
1070
     0
1070
     0
1070
     0
1070
     0
1040
0.0
1040
0.0
1040
0.0
1040
1.0
1040
1.0
1040
10.0
1040
10.0
1070
     0
1002
{
1002
}
1002
}
  0
ENDSEC
  0
SECTION
  2
OBJECTS
  0
DICTIONARY
  5
C
330
0
100
AcDbDictionary
  3
ACAD_GROUP
350
D
  3
ACAD_LAYOUT
350
565
  3
ACAD_MLINESTYLE
350
E
  3
ACAD_PLOTSETTINGS
350
566
  3
ACAD_PLOTSTYLENAME
350
563
  3
ACDBHEADERROUNDTRIPXREC
350
197E
  3
GRADE_DWG
350
540
  0
DICTIONARY
  5
1194
330
1A
100
AcDbDictionary
280
     1
  3
ACAD_LAYOUTSELFREF
360
19A0
  0
DICTIONARY
  5
1192
330
17
100
AcDbDictionary
280
     1
  3
ACAD_LAYOUTSELFREF
360
199F
  0
DICTIONARY
  5
D
102
{ACAD_REACTORS
330
C
102
}
330
C
100
AcDbDictionary
  3
*A1
350
6C7
  3
*A2
350
6C8
  3
*A3
350
6D4
  3
*A4
350
6D5
  3
DREC-1
350
5FC
  3
DREC-2
350
654
  3
DREC-3
350
673
  0
DICTIONARY
  5
565
102
{ACAD_REACTORS
330
C
102
}
330
C
100
AcDbDictionary
  0
DICTIONARY
  5
E
102
{ACAD_REACTORS
330
C
102
}
330
C
100
AcDbDictionary
  3
STANDARD
350
13
  0
DICTIONARY
  5
566
102
{ACAD_REACTORS
330
C
102
}
330
C
100
AcDbDictionary
  3
A3_0_5倍_
350
758
  3
A3_1倍_
350
757
  3
A3_1倍__2000_
350
707
  3
A3_2倍_
350
759
  3
A4_0_5倍_
350
755
  3
A4_1倍_
350
754
  3
A4_1倍__2000_
350
708
  3
A4_2倍_
350
756
  0
ACDBDICTIONARYWDFLT
  5
563
102
{ACAD_REACTORS
330
C
102
}
330
C
100
AcDbDictionary
281
     1
  3
Normal
350
564
100
AcDbDictionaryWithDefault
340
564
  0
DICTIONARY
  5
197E
102
{ACAD_REACTORS
330
C
102
}
330
C
100
AcDbDictionary
  3
CEPSNTYPE
350
1988
  3
DIMSTYLEDATA
350
198C
  3
FINGERPRINTGUID
350
1989
  3
HYPERLINKBASE
350
1981
  3
INSUNITS
350
1987
  3
LAYOUTDICT
350
1983
  3
LWETCUNION
350
1986
  3
PLOTSETDICT
350
1984
  3
PLOTSTYLNAMDICT
350
1985
  3
PSVPSCALE
350
198B
  3
PUCSBASE
350
198F
  3
PUCSORGBACK
350
1995
  3
PUCSORGBOTTOM
350
1991
  3
PUCSORGFRONT
350
1994
  3
PUCSORGLEFT
350
1992
  3
PUCSORGRIGHT
350
1993
  3
PUCSORGTOP
350
1990
  3
PUCSORTHOREF
350
198D
  3
PUCSORTHOVIEW
350
198E
  3
STYLESHEET
350
1982
  3
TSTACKALIGN
350
197F
  3
TSTACKSIZE
350
1980
  3
UCSBASE
350
1998
  3
UCSORGBACK
350
199E
  3
UCSORGBOTTOM
350
199A
  3
UCSORGFRONT
350
199D
  3
UCSORGLEFT
350
199B
  3
UCSORGRIGHT
350
199C
  3
UCSORGTOP
350
1999
  3
UCSORTHOREF
350
1996
  3
UCSORTHOVIEW
350
1997
  3
VERSIONGUID
350
198A
  0
DICTIONARY
  5
540
102
{ACAD_REACTORS
330
C
102
}
330
C
100
AcDbDictionary
  3
VERSION
350
560
  0
XRECORD
  5
19A0
102
{ACAD_REACTORS
330
1194
102
}
330
1194
100
AcDbXrecord
340
1A
  0
XRECORD
  5
199F
102
{ACAD_REACTORS
330
1192
102
}
330
1192
100
AcDbXrecord
340
17
  0
GROUP
  5
6C7
102
{ACAD_REACTORS
330
D
102
}
330
D
100
AcDbGroup
300

 70
     0
 71
     1
1001
GRPNAME
1000
DMA00
  0
GROUP
  5
6C8
102
{ACAD_REACTORS
330
D
102
}
330
D
100
AcDbGroup
300

 70
     0
 71
     1
1001
GRPNAME
1000
DMA00
  0
GROUP
  5
6D4
102
{ACAD_REACTORS
330
D
102
}
330
D
100
AcDbGroup
300

 70
     0
 71
     1
1001
GRPNAME
1000
DMA00
  0
GROUP
  5
6D5
102
{ACAD_REACTORS
330
D
102
}
330
D
100
AcDbGroup
300

 70
     0
 71
     1
1001
GRPNAME
1000
DMA00
  0
GROUP
  5
5FC
102
{ACAD_REACTORS
330
D
102
}
330
D
100
AcDbGroup
300

 70
     0
 71
     1
1001
GRPNAME
1000
DREC-
1001
GPARA
1000
xsiz
1000
44.182
1000
ysiz
1000
40.677
1000
angl
1000
0
1000
ctyp
1000
0
1000
csiz
1000
5
1000
lfnt
1000
cont
1000
hcnt
1000
hoff
1000
vcnt
1000
voff
1000
opnt
1000
4
1000
dxpt
1000
0
1000
dypt
1000
0
  0
GROUP
  5
654
102
{ACAD_REACTORS
330
D
102
}
330
D
100
AcDbGroup
300

 70
     0
 71
     1
1001
GRPNAME
1000
DREC-
1001
GPARA
1000
xsiz
1000
54.592
1000
ysiz
1000
53.036
1000
angl
1000
0
1000
ctyp
1000
0
1000
csiz
1000
5
1000
lfnt
1000
cont
1000
hcnt
1000
hoff
1000
vcnt
1000
voff
1000
opnt
1000
4
1000
dxpt
1000
0
1000
dypt
1000
0
  0
GROUP
  5
673
102
{ACAD_REACTORS
330
D
102
}
330
D
100
AcDbGroup
300

 70
     0
 71
     1
1001
GRPNAME
1000
DREC-
1001
GPARA
1000
xsiz
1000
30.363
1000
ysiz
1000
36.175
1000
angl
1000
0
1000
ctyp
1000
0
1000
csiz
1000
5
1000
lfnt
1000
cont
1000
hcnt
1000
hoff
1000
vcnt
1000
voff
1000
opnt
1000
4
1000
dxpt
1000
0
1000
dypt
1000
0
  0
MLINESTYLE
  5
13
102
{ACAD_REACTORS
330
E
102
}
330
E
100
AcDbMlineStyle
  2
STANDARD
 70
     0
  3

 62
     0
 51
90.0
 52
90.0
 71
     2
 49
0.5
 62
   256
  6
BYLAYER
 49
-0.5
 62
   256
  6
BYLAYER
  0
PLOTSETTINGS
  5
758
102
{ACAD_REACTORS
330
566
102
}
330
566
100
AcDbPlotSettings
  1
A3(0.5倍)
  2
\\AWTECPC05\HP DeskJet 1120C
  4
A3
  6

 40
5.95841646
 41
13.49375153
 42
6.04309082
 43
3.67242432
 44
296.92599487
 45
419.94665527
 46
89.96
 47
127.14
 48
0.0
 49
0.0
140
0.0
141
0.0
142
1.0
143
2.0
 70
  1716
 72
     1
 73
     1
 74
     2
  7
big.ctb
 75
    17
147
0.5
148
0.0
149
0.0
  0
PLOTSETTINGS
  5
757
102
{ACAD_REACTORS
330
566
102
}
330
566
100
AcDbPlotSettings
  1
A3(1倍)
  2
\\AWTECPC05\HP DeskJet 1120C
  4
A3
  6

 40
5.95841646
 41
13.49375153
 42
6.04309082
 43
3.67242432
 44
296.92599487
 45
419.94665527
 46
37.46
 47
52.89
 48
0.0
 49
0.0
140
0.0
141
0.0
142
1.0
143
1.0
 70
  1716
 72
     1
 73
     1
 74
     2
  7
big.ctb
 75
    16
147
1.0
148
0.0
149
0.0
  0
PLOTSETTINGS
  5
707
102
{ACAD_REACTORS
330
566
102
}
330
566
100
AcDbPlotSettings
  1
A3(1倍)(2000)
  2
SII LS-1300 (D-SCAN)
  4
User258
  6

 40
3.17499995
 41
3.17499995
 42
3.17498779
 43
3.17498779
 44
419.98898315
 45
296.98950195
 46
58.32
 47
40.32
 48
0.0
 49
0.0
140
0.0
141
0.0
142
1.0
143
1.0
 70
  1716
 72
     1
 73
     0
 74
     2
  7
big.ctb
 75
    16
147
1.0
148
0.0
149
0.0
  0
PLOTSETTINGS
  5
759
102
{ACAD_REACTORS
330
566
102
}
330
566
100
AcDbPlotSettings
  1
A3(2倍)
  2
\\AWTECPC05\HP DeskJet 1120C
  4
A3
  6

 40
5.95841646
 41
13.49375153
 42
6.04309082
 43
3.67242432
 44
296.92599487
 45
419.94665527
 46
-67.54
 47
-95.61
 48
0.0
 49
0.0
140
0.0
141
0.0
142
1.0
143
0.5
 70
  1716
 72
     1
 73
     1
 74
     2
  7
big.ctb
 75
    27
147
2.0
148
0.0
149
0.0
  0
PLOTSETTINGS
  5
755
102
{ACAD_REACTORS
330
566
102
}
330
566
100
AcDbPlotSettings
  1
A4(0.5倍)
  2
\\AWTECPC05\HP DeskJet 1120C
  4
A4
  6

 40
4.18041658
 41
13.49374962
 42
4.18040466
 43
3.92642212
 44
209.97332764
 45
296.92599487
 46
48.31
 47
65.5
 48
0.0
 49
0.0
140
0.0
141
0.0
142
1.0
143
2.0
 70
  1716
 72
     1
 73
     1
 74
     2
  7
big.ctb
 75
    17
147
0.5
148
0.0
149
0.0
  0
PLOTSETTINGS
  5
754
102
{ACAD_REACTORS
330
566
102
}
330
566
100
AcDbPlotSettings
  1
A4(1倍)
  2
\\AWTECPC05\HP DeskJet 1120C
  4
A4
  6

 40
4.18041658
 41
13.49374962
 42
4.18040466
 43
3.92642212
 44
209.97332764
 45
296.92599487
 46
-4.19
 47
-8.75
 48
0.0
 49
0.0
140
0.0
141
0.0
142
1.0
143
1.0
 70
  1716
 72
     1
 73
     1
 74
     2
  7
big.ctb
 75
    16
147
1.0
148
0.0
149
0.0
  0
PLOTSETTINGS
  5
708
102
{ACAD_REACTORS
330
566
102
}
330
566
100
AcDbPlotSettings
  1
A4(1倍)(2000)
  2
SII LS-1300 (D-SCAN)
  4
User259
  6

 40
3.17499995
 41
3.17499995
 42
3.17498779
 43
3.17500305
 44
296.98950195
 45
209.99449158
 46
-3.18
 47
-3.18
 48
0.0
 49
0.0
140
0.0
141
0.0
142
1.0
143
1.0
 70
  1716
 72
     1
 73
     0
 74
     2
  7
big.ctb
 75
    16
147
1.0
148
0.0
149
0.0
  0
PLOTSETTINGS
  5
756
102
{ACAD_REACTORS
330
566
102
}
330
566
100
AcDbPlotSettings
  1
A4(2倍)
  2
\\AWTECPC05\HP DeskJet 1120C
  4
A4
  6

 40
4.18041658
 41
13.49374962
 42
4.18040466
 43
3.92642212
 44
209.97332764
 45
296.92599487
 46
-109.19
 47
-157.25
 48
0.0
 49
0.0
140
0.0
141
0.0
142
1.0
143
0.5
 70
  1716
 72
     1
 73
     1
 74
     2
  7
big.ctb
 75
    27
147
2.0
148
0.0
149
0.0
  0
ACDBPLACEHOLDER
  5
564
102
{ACAD_REACTORS
330
563
102
}
330
563
100
AcDbPlaceHolder
280
     0
  0
XRECORD
  5
1988
102
{ACAD_REACTORS
330
197E
102
}
330
197E
100
AcDbXrecord
 90
        0
  0
XRECORD
  5
198C
102
{ACAD_REACTORS
330
197E
102
}
330
197E
100
AcDbXrecord
1000
DSTYLE
1002
{
1070
   341
340
594
1070
   343
340
594
1070
   344
340
594
1002
}
  0
XRECORD
  5
1989
102
{ACAD_REACTORS
330
197E
102
}
330
197E
100
AcDbXrecord
  1
{51294030-9CB4-11D3-8E18-00A0C925D94D}
  0
XRECORD
  5
1981
102
{ACAD_REACTORS
330
197E
102
}
330
197E
100
AcDbXrecord
  1

  0
XRECORD
  5
1987
102
{ACAD_REACTORS
330
197E
102
}
330
197E
100
AcDbXrecord
 90
        0
  0
XRECORD
  5
1983
102
{ACAD_REACTORS
330
197E
102
}
330
197E
100
AcDbXrecord
340
565
  0
XRECORD
  5
1986
102
{ACAD_REACTORS
330
197E
102
}
330
197E
100
AcDbXrecord
 90
    10781
  0
XRECORD
  5
1984
102
{ACAD_REACTORS
330
197E
102
}
330
197E
100
AcDbXrecord
340
566
  0
XRECORD
  5
1985
102
{ACAD_REACTORS
330
197E
102
}
330
197E
100
AcDbXrecord
340
563
  0
XRECORD
  5
198B
102
{ACAD_REACTORS
330
197E
102
}
330
197E
100
AcDbXrecord
 40
0.0
  0
XRECORD
  5
198F
102
{ACAD_REACTORS
330
197E
102
}
330
197E
100
AcDbXrecord
340
0
  0
XRECORD
  5
1995
102
{ACAD_REACTORS
330
197E
102
}
330
197E
100
AcDbXrecord
 10
0.0
 20
0.0
 30
0.0
  0
XRECORD
  5
1991
102
{ACAD_REACTORS
330
197E
102
}
330
197E
100
AcDbXrecord
 10
0.0
 20
0.0
 30
0.0
  0
XRECORD
  5
1994
102
{ACAD_REACTORS
330
197E
102
}
330
197E
100
AcDbXrecord
 10
0.0
 20
0.0
 30
0.0
  0
XRECORD
  5
1992
102
{ACAD_REACTORS
330
197E
102
}
330
197E
100
AcDbXrecord
 10
0.0
 20
0.0
 30
0.0
  0
XRECORD
  5
1993
102
{ACAD_REACTORS
330
197E
102
}
330
197E
100
AcDbXrecord
 10
0.0
 20
0.0
 30
0.0
  0
XRECORD
  5
1990
102
{ACAD_REACTORS
330
197E
102
}
330
197E
100
AcDbXrecord
 10
0.0
 20
0.0
 30
0.0
  0
XRECORD
  5
198D
102
{ACAD_REACTORS
330
197E
102
}
330
197E
100
AcDbXrecord
340
0
  0
XRECORD
  5
198E
102
{ACAD_REACTORS
330
197E
102
}
330
197E
100
AcDbXrecord
 70
     0
  0
XRECORD
  5
1982
102
{ACAD_REACTORS
330
197E
102
}
330
197E
100
AcDbXrecord
  1
big.ctb
  0
XRECORD
  5
197F
102
{ACAD_REACTORS
330
197E
102
}
330
197E
100
AcDbXrecord
 90
        1
  0
XRECORD
  5
1980
102
{ACAD_REACTORS
330
197E
102
}
330
197E
100
AcDbXrecord
 90
       70
  0
XRECORD
  5
1998
102
{ACAD_REACTORS
330
197E
102
}
330
197E
100
AcDbXrecord
340
0
  0
XRECORD
  5
199E
102
{ACAD_REACTORS
330
197E
102
}
330
197E
100
AcDbXrecord
 10
0.0
 20
0.0
 30
0.0
  0
XRECORD
  5
199A
102
{ACAD_REACTORS
330
197E
102
}
330
197E
100
AcDbXrecord
 10
0.0
 20
0.0
 30
0.0
  0
XRECORD
  5
199D
102
{ACAD_REACTORS
330
197E
102
}
330
197E
100
AcDbXrecord
 10
0.0
 20
0.0
 30
0.0
  0
XRECORD
  5
199B
102
{ACAD_REACTORS
330
197E
102
}
330
197E
100
AcDbXrecord
 10
0.0
 20
0.0
 30
0.0
  0
XRECORD
  5
199C
102
{ACAD_REACTORS
330
197E
102
}
330
197E
100
AcDbXrecord
 10
0.0
 20
0.0
 30
0.0
  0
XRECORD
  5
1999
102
{ACAD_REACTORS
330
197E
102
}
330
197E
100
AcDbXrecord
 10
0.0
 20
0.0
 30
0.0
  0
XRECORD
  5
1996
102
{ACAD_REACTORS
330
197E
102
}
330
197E
100
AcDbXrecord
340
0
  0
XRECORD
  5
1997
102
{ACAD_REACTORS
330
197E
102
}
330
197E
100
AcDbXrecord
 70
     0
  0
XRECORD
  5
198A
102
{ACAD_REACTORS
330
197E
102
}
330
197E
100
AcDbXrecord
  1
{C2CC1EF7-79B2-4A5D-8C98-ED11240684CD}
  0
XRECORD
  5
560
102
{ACAD_REACTORS
330
540
102
}
330
540
100
AcDbXrecord
  1
2.0.0
  0
ENDSEC
  0
EOF
