  0
SECTION
  2
HEADER
  9
$ACADVER
  1
AC1014
  9
$ACADMAINTVER
 70
     9
  9
$DWGCODEPAGE
  3
ANSI_932
  9
$INSBASE
 10
0.0
 20
0.0
 30
0.0
  9
$EXTMIN
 10
-42.7306992
 20
-34.95513984
 30
-0.00152582
  9
$EXTMAX
 10
169.01353593
 20
61.00277955
 30
0.00000003
  9
$LIMMIN
 10
0.0
 20
0.0
  9
$LIMMAX
 10
420.0
 20
297.0
  9
$ORTHOMODE
 70
     1
  9
$REGENMODE
 70
     1
  9
$FILLMODE
 70
     1
  9
$QTEXTMODE
 70
     0
  9
$MIRRTEXT
 70
     1
  9
$DRAGMODE
 70
     2
  9
$LTSCALE
 40
10.0
  9
$OSMODE
 70
   549
  9
$ATTMODE
 70
     1
  9
$TEXTSIZE
 40
3.0
  9
$TRACEWID
 40
1.0
  9
$TEXTSTYLE
  7
YOKO
  9
$CLAYER
  8
245
  9
$CELTYPE
  6
BYLAYER
  9
$CECOLOR
 62
   256
  9
$CELTSCALE
 40
1.0
  9
$DELOBJ
 70
     1
  9
$DISPSILH
 70
     0
  9
$DIMSCALE
 40
1.0
  9
$DIMASZ
 40
2.23
  9
$DIMEXO
 40
0.5
  9
$DIMDLI
 40
2.5
  9
$DIMRND
 40
0.0
  9
$DIMDLE
 40
0.0
  9
$DIMEXE
 40
1.0
  9
$DIMTP
 40
0.0
  9
$DIMTM
 40
0.0
  9
$DIMTXT
 40
2.8
  9
$DIMCEN
 40
0.0
  9
$DIMTSZ
 40
0.0
  9
$DIMTOL
 70
     0
  9
$DIMLIM
 70
     0
  9
$DIMTIH
 70
     0
  9
$DIMTOH
 70
     0
  9
$DIMSE1
 70
     0
  9
$DIMSE2
 70
     0
  9
$DIMTAD
 70
     3
  9
$DIMZIN
 70
     8
  9
$DIMBLK
  1

  9
$DIMASO
 70
     1
  9
$DIMSHO
 70
     1
  9
$DIMPOST
  1

  9
$DIMAPOST
  1

  9
$DIMALT
 70
     0
  9
$DIMALTD
 70
     2
  9
$DIMALTF
 40
25.4
  9
$DIMLFAC
 40
1.0
  9
$DIMTOFL
 70
     1
  9
$DIMTVP
 40
0.0
  9
$DIMTIX
 70
     1
  9
$DIMSOXD
 70
     0
  9
$DIMSAH
 70
     1
  9
$DIMBLK1
  1
OPEN
  9
$DIMBLK2
  1
OPEN
  9
$DIMSTYLE
  2
BIGT
  9
$DIMCLRD
 70
   256
  9
$DIMCLRE
 70
   256
  9
$DIMCLRT
 70
    40
  9
$DIMTFAC
 40
1.0
  9
$DIMGAP
 40
1.0
  9
$DIMJUST
 70
     0
  9
$DIMSD1
 70
     0
  9
$DIMSD2
 70
     0
  9
$DIMTOLJ
 70
     1
  9
$DIMTZIN
 70
     8
  9
$DIMALTZ
 70
     0
  9
$DIMALTTZ
 70
     0
  9
$DIMFIT
 70
     3
  9
$DIMUPT
 70
     0
  9
$DIMUNIT
 70
     2
  9
$DIMDEC
 70
     3
  9
$DIMTDEC
 70
     3
  9
$DIMALTU
 70
     2
  9
$DIMALTTD
 70
     2
  9
$DIMTXSTY
  7
STANDARD
  9
$DIMAUNIT
 70
     0
  9
$LUNITS
 70
     2
  9
$LUPREC
 70
     3
  9
$SKETCHINC
 40
1.0
  9
$FILLETRAD
 40
2.0
  9
$AUNITS
 70
     0
  9
$AUPREC
 70
     3
  9
$MENU
  1
.
  9
$ELEVATION
 40
0.0
  9
$PELEVATION
 40
0.0
  9
$THICKNESS
 40
0.0
  9
$LIMCHECK
 70
     0
  9
$BLIPMODE
 70
     0
  9
$CHAMFERA
 40
10.0
  9
$CHAMFERB
 40
10.0
  9
$CHAMFERC
 40
0.0
  9
$CHAMFERD
 40
0.0
  9
$SKPOLY
 70
     0
  9
$TDCREATE
 40
2455289.579231770
  9
$TDUPDATE
 40
2455293.459800521
  9
$TDINDWG
 40
0.1287557986
  9
$TDUSRTIMER
 40
0.1287556134
  9
$USRTIMER
 70
     1
  9
$ANGBASE
 50
0.0
  9
$ANGDIR
 70
     0
  9
$PDMODE
 70
     1
  9
$PDSIZE
 40
-5.0
  9
$PLINEWID
 40
0.0
  9
$COORDS
 70
     2
  9
$SPLFRAME
 70
     0
  9
$SPLINETYPE
 70
     6
  9
$SPLINESEGS
 70
     8
  9
$ATTDIA
 70
     0
  9
$ATTREQ
 70
     1
  9
$HANDLING
 70
-16383
  9
$HANDSEED
  5
14DF
  9
$SURFTAB1
 70
     6
  9
$SURFTAB2
 70
     6
  9
$SURFTYPE
 70
     6
  9
$SURFU
 70
     6
  9
$SURFV
 70
     6
  9
$UCSNAME
  2

  9
$UCSORG
 10
0.0
 20
0.0
 30
0.0
  9
$UCSXDIR
 10
1.0
 20
0.0
 30
0.0
  9
$UCSYDIR
 10
0.0
 20
1.0
 30
0.0
  9
$PUCSNAME
  2

  9
$PUCSORG
 10
0.0
 20
0.0
 30
0.0
  9
$PUCSXDIR
 10
1.0
 20
0.0
 30
0.0
  9
$PUCSYDIR
 10
0.0
 20
1.0
 30
0.0
  9
$USERI1
 70
     1
  9
$USERI2
 70
     0
  9
$USERI3
 70
     0
  9
$USERI4
 70
     0
  9
$USERI5
 70
     0
  9
$USERR1
 40
0.0
  9
$USERR2
 40
0.0
  9
$USERR3
 40
0.0
  9
$USERR4
 40
0.0
  9
$USERR5
 40
0.0
  9
$WORLDVIEW
 70
     1
  9
$SHADEDGE
 70
     3
  9
$SHADEDIF
 70
    70
  9
$TILEMODE
 70
     1
  9
$MAXACTVP
 70
    16
  9
$PINSBASE
 10
0.0
 20
0.0
 30
0.0
  9
$PLIMCHECK
 70
     0
  9
$PEXTMIN
 10
1.00000000E+20
 20
1.00000000E+20
 30
1.00000000E+20
  9
$PEXTMAX
 10
-1.00000000E+20
 20
-1.00000000E+20
 30
-1.00000000E+20
  9
$PLIMMIN
 10
0.0
 20
0.0
  9
$PLIMMAX
 10
420.0
 20
297.0
  9
$UNITMODE
 70
     0
  9
$VISRETAIN
 70
     0
  9
$PLINEGEN
 70
     0
  9
$PSLTSCALE
 70
     1
  9
$TREEDEPTH
 70
  3020
  9
$PICKSTYLE
 70
     0
  9
$CMLSTYLE
  2
STANDARD
  9
$CMLJUST
 70
     0
  9
$CMLSCALE
 40
1.0
  9
$PROXYGRAPHICS
 70
     1
  9
$MEASUREMENT
 70
     1
  0
ENDSEC
  0
SECTION
  2
CLASSES
  0
CLASS
  1
XRECORD
  2
AcDbXrecord
  3
AutoCAD 2000
 90
        0
280
     0
281
     0
  0
CLASS
  1
ACDBDICTIONARYWDFLT
  2
AcDbDictionaryWithDefault
  3
AutoCAD 2000
 90
        0
280
     0
281
     0
  0
CLASS
  1
ACDBPLACEHOLDER
  2
AcDbPlaceHolder
  3
AutoCAD 2000
 90
        0
280
     0
281
     0
  0
CLASS
  1
LAYOUT
  2
AcDbLayout
  3
AutoCAD 2000
 90
        0
280
     0
281
     0
  0
CLASS
  1
PLOTSETTINGS
  2
AcDbPlotSettings
  3
AutoCAD 2000
 90
        0
280
     0
281
     0
  0
CLASS
  1
LONG_TRANSACTION
  2
AcDbLongTransaction
  3
AutoCAD 2000
 90
        0
280
     0
281
     0
  0
CLASS
  1
LWPOLYLINE
  2
AcDbPolyline
  3
AutoCAD 2000
 90
        0
280
     0
281
     1
  0
CLASS
  1
HATCH
  2
AcDbHatch
  3
AutoCAD 2000
 90
        0
280
     0
281
     1
  0
CLASS
  1
XRECORD
  2
AcDbXrecord
  3
AutoCAD 2000
 90
        0
280
     0
281
     0
  0
CLASS
  1
LONG_TRANSACTION
  2
AcDbLongTransaction
  3
AutoCAD 2000
 90
        0
280
     0
281
     0
  0
CLASS
  1
LWPOLYLINE
  2
AcDbPolyline
  3
AutoCAD 2000
 90
        0
280
     0
281
     1
  0
CLASS
  1
HATCH
  2
AcDbHatch
  3
AutoCAD 2000
 90
        0
280
     0
281
     1
  0
CLASS
  1
XRECORD
  2
AcDbXrecord
  3
AutoCAD 2000
 90
        0
280
     0
281
     0
  0
CLASS
  1
LONG_TRANSACTION
  2
AcDbLongTransaction
  3
AutoCAD 2000
 90
        0
280
     0
281
     0
  0
CLASS
  1
LWPOLYLINE
  2
AcDbPolyline
  3
AutoCAD 2000
 90
        0
280
     0
281
     1
  0
CLASS
  1
HATCH
  2
AcDbHatch
  3
AutoCAD 2000
 90
        0
280
     0
281
     1
  0
CLASS
  1
XRECORD
  2
AcDbXrecord
  3
AutoCAD 2000
 90
        0
280
     0
281
     0
  0
CLASS
  1
LONG_TRANSACTION
  2
AcDbLongTransaction
  3
AutoCAD 2000
 90
        0
280
     0
281
     0
  0
CLASS
  1
LWPOLYLINE
  2
AcDbPolyline
  3
AutoCAD 2000
 90
        0
280
     0
281
     1
  0
CLASS
  1
HATCH
  2
AcDbHatch
  3
AutoCAD 2000
 90
        0
280
     0
281
     1
  0
CLASS
  1
XRECORD
  2
AcDbXrecord
  3
AutoCAD 2000
 90
        0
280
     0
281
     0
  0
CLASS
  1
LONG_TRANSACTION
  2
AcDbLongTransaction
  3
AutoCAD 2000
 90
        0
280
     0
281
     0
  0
CLASS
  1
LWPOLYLINE
  2
AcDbPolyline
  3
AutoCAD 2000
 90
        0
280
     0
281
     1
  0
CLASS
  1
HATCH
  2
AcDbHatch
  3
AutoCAD 2000
 90
        0
280
     0
281
     1
  0
CLASS
  1
XRECORD
  2
AcDbXrecord
  3
AutoCAD 2000
 90
        0
280
     0
281
     0
  0
ENDSEC
  0
SECTION
  2
TABLES
  0
TABLE
  2
VPORT
  5
8
330
0
100
AcDbSymbolTable
 70
     3
  0
VPORT
  5
14BA
330
8
100
AcDbSymbolTableRecord
100
AcDbViewportTableRecord
  2
*ACTIVE
 70
     0
 10
0.0
 20
0.0
 11
1.0
 21
1.0
 12
63.14141837
 22
13.02381985
 13
0.0
 23
0.0
 14
7.0
 24
7.0
 15
7.0
 25
7.0
 16
0.0
 26
0.0
 36
1.0
 17
0.0
 27
0.0
 37
0.0
 40
148.67027308
 41
1.43184713
 42
50.0
 43
0.0
 44
0.0
 50
0.0
 51
0.0
 71
     0
 72
  2000
 73
     1
 74
     0
 75
     0
 76
     0
 77
     0
 78
     0
  0
ENDTAB
  0
TABLE
  2
LTYPE
  5
5
330
0
100
AcDbSymbolTable
 70
     3
  0
LTYPE
  5
14
330
5
100
AcDbSymbolTableRecord
100
AcDbLinetypeTableRecord
  2
BYBLOCK
 70
     0
  3

 72
    65
 73
     0
 40
0.0
  0
LTYPE
  5
15
330
5
100
AcDbSymbolTableRecord
100
AcDbLinetypeTableRecord
  2
BYLAYER
 70
     0
  3

 72
    65
 73
     0
 40
0.0
  0
LTYPE
  5
16
330
5
100
AcDbSymbolTableRecord
100
AcDbLinetypeTableRecord
  2
CONTINUOUS
 70
     0
  3
Solid line
 72
    65
 73
     0
 40
0.0
  0
LTYPE
  5
258
330
5
100
AcDbSymbolTableRecord
100
AcDbLinetypeTableRecord
  2
CENTER2
 70
     0
  3
___ _ ___ _ ___ _ ___ _ ___ _ ___ _ ___ _ ___ _
 72
    65
 73
     4
 40
1.125
 49
0.75
 74
     0
 49
-0.125
 74
     0
 49
0.125
 74
     0
 49
-0.125
 74
     0
  0
LTYPE
  5
25C
330
5
100
AcDbSymbolTableRecord
100
AcDbLinetypeTableRecord
  2
HIDDEN2
 70
     0
  3
_ _ _ _ _ _ _ _ _ _ _ _ _ _ _ _ _ _ _ _ _ _ _ _
 72
    65
 73
     2
 40
0.1875
 49
0.125
 74
     0
 49
-0.0625
 74
     0
  0
ENDTAB
  0
TABLE
  2
LAYER
  5
2
330
0
100
AcDbSymbolTable
 70
    10
  0
LAYER
  5
F
330
2
100
AcDbSymbolTableRecord
100
AcDbLayerTableRecord
  2
0
 70
     0
 62
     7
  6
CONTINUOUS
  0
LAYER
  5
1AA
330
2
100
AcDbSymbolTableRecord
100
AcDbLayerTableRecord
  2
240
 70
     0
 62
     4
  6
CONTINUOUS
  0
LAYER
  5
1AB
330
2
100
AcDbSymbolTableRecord
100
AcDbLayerTableRecord
  2
241
 70
     0
 62
   211
  6
CONTINUOUS
  0
LAYER
  5
1AC
330
2
100
AcDbSymbolTableRecord
100
AcDbLayerTableRecord
  2
242
 70
     0
 62
     3
  6
CONTINUOUS
  0
LAYER
  5
1AF
330
2
100
AcDbSymbolTableRecord
100
AcDbLayerTableRecord
  2
245
 70
     0
 62
     2
  6
CENTER2
  0
LAYER
  5
21E
330
2
100
AcDbSymbolTableRecord
100
AcDbLayerTableRecord
  2
250
 70
     0
 62
     3
  6
CONTINUOUS
  0
LAYER
  5
21F
330
2
100
AcDbSymbolTableRecord
100
AcDbLayerTableRecord
  2
251
 70
     0
 62
    40
  6
CONTINUOUS
  0
LAYER
  5
5C4
330
2
100
AcDbSymbolTableRecord
100
AcDbLayerTableRecord
  2
DEFPOINTS
 70
     0
 62
     7
  6
CONTINUOUS
  0
LAYER
  5
6BF
330
2
100
AcDbSymbolTableRecord
100
AcDbLayerTableRecord
  2
252
 70
     0
 62
     3
  6
CONTINUOUS
  0
ENDTAB
  0
TABLE
  2
STYLE
  5
3
330
0
100
AcDbSymbolTable
 70
     2
  0
STYLE
  5
10
330
3
100
AcDbSymbolTableRecord
100
AcDbTextStyleTableRecord
  2
STANDARD
 70
     0
 40
0.0
 41
1.0
 50
0.0
 71
     0
 42
3.0
  3
romans.shx
  4
BIGFONT.SHX
  0
STYLE
  5
339
330
3
100
AcDbSymbolTableRecord
100
AcDbTextStyleTableRecord
  2
YOKO
 70
     0
 40
0.0
 41
1.0
 50
0.0
 71
     0
 42
3.0
  3
romans.shx
  4
extfont.shx
  0
ENDTAB
  0
TABLE
  2
VIEW
  5
6
330
0
100
AcDbSymbolTable
 70
     0
  0
ENDTAB
  0
TABLE
  2
UCS
  5
7
330
0
100
AcDbSymbolTable
 70
     0
  0
ENDTAB
  0
TABLE
  2
APPID
  5
9
330
0
100
AcDbSymbolTable
 70
     9
  0
APPID
  5
11
330
9
100
AcDbSymbolTableRecord
100
AcDbRegAppTableRecord
  2
ACAD
 70
     0
  0
APPID
  5
1B1
330
9
100
AcDbSymbolTableRecord
100
AcDbRegAppTableRecord
  2
GLOBAL
 70
     0
  0
APPID
  5
2A4
330
9
100
AcDbSymbolTableRecord
100
AcDbRegAppTableRecord
  2
DETAIL
 70
     0
  0
APPID
  5
5FD
330
9
100
AcDbSymbolTableRecord
100
AcDbRegAppTableRecord
  2
GRPNAME
 70
     0
  0
APPID
  5
5FE
330
9
100
AcDbSymbolTableRecord
100
AcDbRegAppTableRecord
  2
GPARA
 70
     0
  0
APPID
  5
6C4
330
9
100
AcDbSymbolTableRecord
100
AcDbRegAppTableRecord
  2
DCO15
 70
     0
  0
APPID
  5
6C5
330
9
100
AcDbSymbolTableRecord
100
AcDbRegAppTableRecord
  2
ITEMNAME
 70
     0
  0
APPID
  5
6C6
330
9
100
AcDbSymbolTableRecord
100
AcDbRegAppTableRecord
  2
GRADE_0
 70
     0
  0
APPID
  5
B68
330
9
100
AcDbSymbolTableRecord
100
AcDbRegAppTableRecord
  2
CONTENTBLOCKICON
 70
     0
  0
ENDTAB
  0
TABLE
  2
DIMSTYLE
  5
A
330
0
100
AcDbSymbolTable
 70
     4
  0
DIMSTYLE
105
725
102
{ACAD_REACTORS
330
882
330
883
102
}
330
A
100
AcDbSymbolTableRecord
100
AcDbDimStyleTableRecord
  2
BIGT
 70
     0
  3

  4

  5

  6
OPEN
  7
OPEN
 40
1.0
 41
2.23
 42
0.5
 43
2.5
 44
1.0
 45
0.0
 46
0.0
 47
0.0
 48
0.0
140
2.8
141
0.0
142
0.0
143
25.4
144
1.0
145
0.0
146
1.0
147
1.0
 71
     0
 72
     0
 73
     0
 74
     0
 75
     0
 76
     0
 77
     3
 78
     8
170
     0
171
     2
172
     1
173
     1
174
     1
175
     0
176
   256
177
   256
178
    40
270
     2
271
     3
272
     3
273
     2
274
     2
340
10
275
     0
280
     0
281
     0
282
     0
283
     1
284
     8
285
     0
286
     0
287
     3
288
     0
  0
DIMSTYLE
105
E87
102
{ACAD_REACTORS
330
EFA
330
EFD
102
}
330
A
100
AcDbSymbolTableRecord
100
AcDbDimStyleTableRecord
  2
BIGT$0
 70
     0
  3

  4
"
  5
OPEN
  6

  7

 40
1.0
 41
2.23
 42
0.5
 43
7.0
 44
1.0
 45
0.0
 46
0.0
 47
0.1
 48
0.1
140
3.0
141
0.0
142
0.0
143
0.0393701
144
1.0
145
0.0
146
0.71
147
1.0
 71
     0
 72
     0
 73
     0
 74
     0
 75
     0
 76
     0
 77
     3
 78
     8
170
     0
171
     2
172
     1
173
     0
174
     0
175
     0
176
     3
177
     3
178
    40
270
     2
271
     3
272
     3
273
     2
274
     2
340
10
275
     0
280
     0
281
     0
282
     0
283
     1
284
     8
285
     0
286
     0
287
     3
288
     0
  0
ENDTAB
  0
TABLE
  2
BLOCK_RECORD
  5
1
330
0
100
AcDbSymbolTable
 70
     9
  0
BLOCK_RECORD
  5
1A
102
{ACAD_XDICTIONARY
360
B66
102
}
330
1
100
AcDbSymbolTableRecord
100
AcDbBlockTableRecord
  2
*MODEL_SPACE
  0
BLOCK_RECORD
  5
17
102
{ACAD_XDICTIONARY
360
B64
102
}
330
1
100
AcDbSymbolTableRecord
100
AcDbBlockTableRecord
  2
*PAPER_SPACE
  0
BLOCK_RECORD
  5
594
330
1
100
AcDbSymbolTableRecord
100
AcDbBlockTableRecord
  2
_OPEN
  0
BLOCK_RECORD
  5
6E3
330
1
100
AcDbSymbolTableRecord
100
AcDbBlockTableRecord
  2
矢印なし
  0
BLOCK_RECORD
  5
7BB
330
1
100
AcDbSymbolTableRecord
100
AcDbBlockTableRecord
  2
1
1001
CONTENTBLOCKICON
1071
        0
1004
2800000020000000200000000100080000000000000400000000000000000000000000000000000000000000000080000080000000808000800000008000800080800000C0C0C000C0DCC000F0CAA6000020400000206000002080000020A0000020C0000020E00000400000004020000040400000406000004080000040A0
1004
000040C0000040E00000600000006020000060400000606000006080000060A0000060C0000060E00000800000008020000080400000806000008080000080A0000080C0000080E00000A0000000A0200000A0400000A0600000A0800000A0A00000A0C00000A0E00000C0000000C0200000C0400000C0600000C0800000C0
1004
A00000C0C00000C0E00000E0000000E0200000E0400000E0600000E0800000E0A00000E0C00000E0E00040000000400020004000400040006000400080004000A0004000C0004000E00040200000402020004020400040206000402080004020A0004020C0004020E000404000004040200040404000404060004040800040
1004
40A0004040C0004040E00040600000406020004060400040606000406080004060A0004060C0004060E00040800000408020004080400040806000408080004080A0004080C0004080E00040A0000040A0200040A0400040A0600040A0800040A0A00040A0C00040A0E00040C0000040C0200040C0400040C0600040C08000
1004
40C0A00040C0C00040C0E00040E0000040E0200040E0400040E0600040E0800040E0A00040E0C00040E0E00080000000800020008000400080006000800080008000A0008000C0008000E00080200000802020008020400080206000802080008020A0008020C0008020E00080400000804020008040400080406000804080
1004
008040A0008040C0008040E00080600000806020008060400080606000806080008060A0008060C0008060E00080800000808020008080400080806000808080008080A0008080C0008080E00080A0000080A0200080A0400080A0600080A0800080A0A00080A0C00080A0E00080C0000080C0200080C0400080C0600080C0
1004
800080C0A00080C0C00080C0E00080E0000080E0200080E0400080E0600080E0800080E0A00080E0C00080E0E000C0000000C0002000C0004000C0006000C0008000C000A000C000C000C000E000C0200000C0202000C0204000C0206000C0208000C020A000C020C000C020E000C0400000C0402000C0404000C0406000C0
1004
408000C040A000C040C000C040E000C0600000C0602000C0604000C0606000C0608000C060A000C060C000C060E000C0800000C0802000C0804000C0806000C0808000C080A000C080C000C080E000C0A00000C0A02000C0A04000C0A06000C0A08000C0A0A000C0A0C000C0A0E000C0C00000C0C02000C0C04000C0C06000
1004
C0C08000C0C0A000F0FBFF00A4A0A000808080000000FF0000FF000000FFFF00FF000000FF00FF00FFFF0000FFFFFF0000000000000000000000000000000000000000000000000000000000000000000000000000000000000000000000000000000000000000000000000000000000000000000000000000000000000000
1004
00000000000000000000000000000000000000000000000000000000000000000000000000000000000000000000000000000000000000000000000000000000000000000000000000000000000000000000000000000000000000000000000000000000000000000000000000000000000000000000000000000000000000
1004
00000000000000000000000000000000000000000000000000000000000000000000000000000000000000000000000000000000000000000000000000000000000000000000000000000000000000000000000000000000000000000000000000000000000000000000000000000000000000000000000000000000000000
1004
00000000000000000000000000000000000000000000000000FEFEFEFEFEFEFE000000000000000000000000000000000000000000FEFEFEFEFEE7E7E7E7E7FEFEFEFE000000000000000000000000000000000000FE000000E70000E7E7E7E7E70000FEFEFEFEFEFEFEFEFEFEFEFEFEFE00000000FE000000E700E7E7E7E7
1004
E7E700000000E7E7000000000000000000FE00000000FEE700FBE7E700FBE700E7E700000000E7E7E7E70000E7FA00E7FAFE000000FBFEE7FBFBE7E7FBFBE7FBE7E7FBFBFBFBE7E7E7E7FBE7E7FAFBE7FAFEFB000000FE000000E700E7E7E700E7E700000000E7E7E7E7E7E7E7E7E7E7E7FE00000000FE000000E70000E7E7
1004
00E7E70000FEFEFEFEFEFEFEFEFEFEFEFEFEFE00000000FEFEFEFEFE0000E7E700FEFEFEFE00000000000000000000000000000000000000000000FEFEFEFEFEFEFE00000000000000000000000000000000000000000000000000000000000000000000000000000000000000000000000000000000000000000000000000
1004
00000000000000000000000000000000000000000000000000000000000000000000000000000000000000000000000000000000000000000000000000000000000000000000000000000000000000000000000000000000000000000000000000000000000000000000000000000000000000000000000000000000000000
1004
00000000000000000000000000000000000000000000000000000000000000000000000000000000000000000000000000000000000000000000000000000000000000000000000000000000000000000000000000000000000000000000000000000000000000000000000000000000000000000000000000000000000000
1004
0000000000000000000000000000000000000000000000000000000000000000000000000000000000000000000000000000000000000000
  0
BLOCK_RECORD
  5
889
330
1
100
AcDbSymbolTableRecord
100
AcDbBlockTableRecord
  2
*D3
  0
BLOCK_RECORD
  5
895
330
1
100
AcDbSymbolTableRecord
100
AcDbBlockTableRecord
  2
*D4
  0
BLOCK_RECORD
  5
E6E
330
1
100
AcDbSymbolTableRecord
100
AcDbBlockTableRecord
  2
_NONE
  0
BLOCK_RECORD
  5
F0C
330
1
100
AcDbSymbolTableRecord
100
AcDbBlockTableRecord
  2
*D6
  0
BLOCK_RECORD
  5
F18
330
1
100
AcDbSymbolTableRecord
100
AcDbBlockTableRecord
  2
*D7
  0
ENDTAB
  0
ENDSEC
  0
SECTION
  2
BLOCKS
  0
BLOCK
  5
1B
330
1A
100
AcDbEntity
  8
0
100
AcDbBlockBegin
  2
*MODEL_SPACE
 70
     0
 10
0.0
 20
0.0
 30
0.0
  3
*MODEL_SPACE
  1

  0
ENDBLK
  5
1C
330
1A
100
AcDbEntity
  8
0
100
AcDbBlockEnd
  0
BLOCK
  5
18
330
17
100
AcDbEntity
 67
     1
  8
0
100
AcDbBlockBegin
  2
*PAPER_SPACE
 70
     0
 10
0.0
 20
0.0
 30
0.0
  3
*PAPER_SPACE
  1

  0
ENDBLK
  5
19
330
17
100
AcDbEntity
 67
     1
  8
0
100
AcDbBlockEnd
  0
BLOCK
  5
598
330
594
100
AcDbEntity
  8
0
100
AcDbBlockBegin
  2
_OPEN
 70
     0
 10
0.0
 20
0.0
 30
0.0
  3
_OPEN
  1

  0
LINE
  5
595
330
594
100
AcDbEntity
  8
0
  6
BYBLOCK
 62
     0
100
AcDbLine
 10
-1.0
 20
0.16666667
 30
0.0
 11
0.0
 21
0.0
 31
0.0
  0
LINE
  5
596
330
594
100
AcDbEntity
  8
0
  6
BYBLOCK
 62
     0
100
AcDbLine
 10
-1.0
 20
-0.16666667
 30
0.0
 11
0.0
 21
0.0
 31
0.0
  0
LINE
  5
597
330
594
100
AcDbEntity
  8
0
  6
BYBLOCK
 62
     0
100
AcDbLine
 10
0.0
 20
0.0
 30
0.0
 11
-1.0
 21
0.0
 31
0.0
  0
ENDBLK
  5
599
330
594
100
AcDbEntity
  8
0
100
AcDbBlockEnd
  0
BLOCK
  5
6E4
330
6E3
100
AcDbEntity
  8
0
100
AcDbBlockBegin
  2
矢印なし
 70
     0
 10
0.0
 20
0.0
 30
0.0
  3
矢印なし
  1

  0
ENDBLK
  5
6E5
330
6E3
100
AcDbEntity
  8
0
100
AcDbBlockEnd
  0
BLOCK
  5
843
330
7BB
100
AcDbEntity
  8
0
100
AcDbBlockBegin
  2
1
 70
     0
 10
0.0
 20
0.0
 30
0.0
  3
1
  1

  0
LINE
  5
13EC
330
7BB
100
AcDbEntity
  8
240
100
AcDbLine
 10
76.4
 20
19.43916564
 30
0.0
 11
42.0
 21
22.44877564
 31
0.0
  0
LINE
  5
13ED
330
7BB
100
AcDbEntity
  8
240
100
AcDbLine
 10
76.4
 20
-19.43916564
 30
0.0
 11
42.0
 21
-22.4487747
 31
0.0
  0
LINE
  5
13EE
330
7BB
100
AcDbEntity
  8
245
100
AcDbLine
 10
-33.0
 20
0.0
 30
0.0
 11
151.0
 21
0.0
 31
0.0
  0
LINE
  5
13EF
330
7BB
100
AcDbEntity
  8
245
  6
CENTER2
100
AcDbLine
 10
18.0
 20
-31.5
 30
0.0
 11
18.0
 21
31.5
 31
0.0
  0
LINE
  5
13F0
330
7BB
100
AcDbEntity
  8
240
  6
CONTINUOUS
100
AcDbLine
 10
0.0
 20
24.215
 30
0.0
 11
0.0
 21
30.5
 31
0.0
  0
LINE
  5
13F1
330
7BB
100
AcDbEntity
  8
241
  6
CONTINUOUS
100
AcDbLine
 10
21.37749907
 20
8.0
 30
0.0
 11
21.37749907
 21
31.5
 31
0.0
  0
LINE
  5
13F2
330
7BB
100
AcDbEntity
  8
241
  6
CONTINUOUS
100
AcDbLine
 10
19.875
 20
8.0
 30
0.0
 11
19.875
 21
27.5
 31
0.0
  0
LINE
  5
13F3
330
7BB
100
AcDbEntity
  8
241
  6
CONTINUOUS
100
AcDbLine
 10
16.125
 20
8.0
 30
0.0
 11
16.125
 21
27.5
 31
0.0
  0
LINE
  5
13F4
330
7BB
100
AcDbEntity
  8
241
  6
CONTINUOUS
100
AcDbLine
 10
14.62250093
 20
8.0
 30
0.0
 11
14.62250093
 21
31.5
 31
0.0
  0
LINE
  5
13F5
330
7BB
100
AcDbEntity
  8
240
  6
CONTINUOUS
100
AcDbLine
 10
26.0
 20
26.3
 30
0.0
 11
26.0
 21
30.5
 31
0.0
  0
LINE
  5
13F6
330
7BB
100
AcDbEntity
  8
240
  6
CONTINUOUS
100
AcDbLine
 10
-2.0
 20
24.215
 30
0.0
 11
-30.85992514
 21
22.77200374
 31
0.0
  0
LINE
  5
13F7
330
7BB
100
AcDbEntity
  8
240
  6
CONTINUOUS
100
AcDbLine
 10
-2.0
 20
-24.215
 30
0.0
 11
-30.85992514
 21
-22.77200374
 31
0.0
  0
LINE
  5
13F8
330
7BB
100
AcDbEntity
  8
240
  6
CONTINUOUS
100
AcDbLine
 10
-31.0
 20
-6.27
 30
0.0
 11
-27.5
 21
-6.27
 31
0.0
  0
LINE
  5
13F9
330
7BB
100
AcDbEntity
  8
240
  6
CONTINUOUS
100
AcDbLine
 10
-31.0
 20
6.27
 30
0.0
 11
-27.5
 21
6.27
 31
0.0
  0
LINE
  5
13FA
330
7BB
100
AcDbEntity
  8
240
  6
CONTINUOUS
100
AcDbLine
 10
-32.0
 20
-21.57350094
 30
0.0
 11
-32.0
 21
-7.27
 31
0.0
  0
ARC
  5
13FB
330
7BB
100
AcDbEntity
  8
240
  6
CONTINUOUS
100
AcDbCircle
 10
-30.8
 20
-21.57350094
 30
0.0
 40
1.199999999999988
100
AcDbArc
 50
180.0
 51
267.13759477
  0
LINE
  5
13FC
330
7BB
100
AcDbEntity
  8
240
  6
CONTINUOUS
100
AcDbLine
 10
-32.0
 20
-7.27
 30
0.0
 11
-31.0
 21
-6.27
 31
0.0
  0
LINE
  5
13FD
330
7BB
100
AcDbEntity
  8
240
  6
CONTINUOUS
100
AcDbLine
 10
-32.0
 20
7.27
 30
0.0
 11
-32.0
 21
21.57350094
 31
0.0
  0
LINE
  5
13FE
330
7BB
100
AcDbEntity
  8
240
  6
CONTINUOUS
100
AcDbLine
 10
-31.0
 20
6.27
 30
0.0
 11
-32.0
 21
7.27
 31
0.0
  0
ARC
  5
13FF
330
7BB
100
AcDbEntity
  8
240
  6
CONTINUOUS
100
AcDbCircle
 10
-30.8
 20
21.57350094
 30
0.0
 40
1.199999999999994
100
AcDbArc
 50
92.86240523
 51
180.0
  0
LINE
  5
1400
330
7BB
100
AcDbEntity
  8
241
  6
CONTINUOUS
100
AcDbLine
 10
14.62250093
 20
-24.33618705
 30
0.0
 11
14.62250093
 21
-31.5
 31
0.0
  0
LINE
  5
1401
330
7BB
100
AcDbEntity
  8
241
  6
CONTINUOUS
100
AcDbLine
 10
21.37749907
 20
-24.33618705
 30
0.0
 11
21.37749907
 21
-31.5
 31
0.0
  0
LINE
  5
1402
330
7BB
100
AcDbEntity
  8
242
  6
CONTINUOUS
100
AcDbLine
 10
26.5
 20
-25.70500591
 30
0.0
 11
34.0
 21
-7.51828235
 31
0.0
  0
LINE
  5
1403
330
7BB
100
AcDbEntity
  8
242
  6
CONTINUOUS
100
AcDbLine
 10
26.5
 20
-7.51828235
 30
0.0
 11
33.95512754
 21
-25.59619484
 31
0.0
  0
LINE
  5
1404
330
7BB
100
AcDbEntity
  8
241
  6
CONTINUOUS
100
AcDbLine
 10
26.5
 20
-25.70500591
 30
0.0
 11
26.5
 21
-7.51828235
 31
0.0
  0
LINE
  5
1405
330
7BB
100
AcDbEntity
  8
241
  6
CONTINUOUS
100
AcDbLine
 10
26.0
 20
-26.3
 30
0.0
 11
26.0
 21
0.0
 31
0.0
  0
LINE
  5
1406
330
7BB
100
AcDbEntity
  8
240
  6
CONTINUOUS
100
AcDbLine
 10
34.0
 20
-25.3
 30
0.0
 11
34.0
 21
-24.4487747
 31
0.0
  0
LINE
  5
1407
330
7BB
100
AcDbEntity
  8
241
  6
CONTINUOUS
100
AcDbLine
 10
19.875
 20
-8.0
 30
0.0
 11
19.875
 21
-27.5
 31
0.0
  0
LINE
  5
1408
330
7BB
100
AcDbEntity
  8
241
  6
CONTINUOUS
100
AcDbLine
 10
16.125
 20
-8.0
 30
0.0
 11
16.125
 21
-27.5
 31
0.0
  0
LINE
  5
1409
330
7BB
100
AcDbEntity
  8
240
  6
CONTINUOUS
100
AcDbLine
 10
0.0
 20
-30.5
 30
0.0
 11
0.0
 21
-24.215
 31
0.0
  0
LINE
  5
140A
330
7BB
100
AcDbEntity
  8
240
  6
CONTINUOUS
100
AcDbLine
 10
1.0
 20
-31.5
 30
0.0
 11
14.62250093
 21
-31.5
 31
0.0
  0
ARC
  5
140B
330
7BB
100
AcDbEntity
  8
240
  6
CONTINUOUS
100
AcDbCircle
 10
1.0
 20
-30.5
 30
0.0
 40
1.0
100
AcDbArc
 50
180.0
 51
270.0
  0
ARC
  5
140C
330
7BB
100
AcDbEntity
  8
240
  6
CONTINUOUS
100
AcDbCircle
 10
25.0
 20
-30.5
 30
0.0
 40
1.0
100
AcDbArc
 50
270.0
 51
0.0
  0
LINE
  5
140D
330
7BB
100
AcDbEntity
  8
240
  6
CONTINUOUS
100
AcDbLine
 10
16.125
 20
-27.5
 30
0.0
 11
19.875
 21
-27.5
 31
0.0
  0
LINE
  5
140E
330
7BB
100
AcDbEntity
  8
240
  6
CONTINUOUS
100
AcDbLine
 10
16.125
 20
-28.89759526
 30
0.0
 11
14.62250093
 21
-31.5
 31
0.0
  0
LINE
  5
140F
330
7BB
100
AcDbEntity
  8
240
  6
CONTINUOUS
100
AcDbLine
 10
16.125
 20
-27.5
 30
0.0
 11
16.125
 21
-28.89759526
 31
0.0
  0
LINE
  5
1410
330
7BB
100
AcDbEntity
  8
240
  6
CONTINUOUS
100
AcDbLine
 10
19.875
 20
-28.89759526
 30
0.0
 11
21.37749907
 21
-31.5
 31
0.0
  0
LINE
  5
1411
330
7BB
100
AcDbEntity
  8
240
  6
CONTINUOUS
100
AcDbLine
 10
21.37749907
 20
-31.5
 30
0.0
 11
25.0
 21
-31.5
 31
0.0
  0
LINE
  5
1412
330
7BB
100
AcDbEntity
  8
240
  6
CONTINUOUS
100
AcDbLine
 10
19.875
 20
-27.5
 30
0.0
 11
19.875
 21
-28.89759526
 31
0.0
  0
LINE
  5
1413
330
7BB
100
AcDbEntity
  8
241
  6
CONTINUOUS
100
AcDbLine
 10
26.5
 20
-25.70500591
 30
0.0
 11
33.91431406
 21
-25.70500591
 31
0.0
  0
LINE
  5
1414
330
7BB
100
AcDbEntity
  8
240
  6
CONTINUOUS
100
AcDbLine
 10
26.0
 20
-26.3
 30
0.0
 11
33.0
 21
-26.3
 31
0.0
  0
LINE
  5
1415
330
7BB
100
AcDbEntity
  8
240
  6
CONTINUOUS
100
AcDbLine
 10
26.0
 20
-30.5
 30
0.0
 11
26.0
 21
-26.3
 31
0.0
  0
ARC
  5
1416
330
7BB
100
AcDbEntity
  8
240
  6
CONTINUOUS
100
AcDbCircle
 10
33.0
 20
-25.3
 30
0.0
 40
1.0
100
AcDbArc
 50
270.0
 51
0.0
  0
ARC
  5
1417
330
7BB
100
AcDbEntity
  8
241
  6
CONTINUOUS
100
AcDbCircle
 10
12.1117139
 20
-28.0
 30
0.0
 40
8.0
100
AcDbArc
 50
90.0
 51
152.74338069
  0
LINE
  5
1418
330
7BB
100
AcDbEntity
  8
241
  6
CONTINUOUS
100
AcDbLine
 10
5.0
 20
-24.33618705
 30
0.0
 11
14.62250093
 21
-24.33618705
 31
0.0
  0
ARC
  5
1419
330
7BB
100
AcDbEntity
  8
241
  6
CONTINUOUS
100
AcDbCircle
 10
13.0
 20
0.0
 30
0.0
 40
8.0
100
AcDbArc
 50
90.0
 51
180.0
  0
ARC
  5
141A
330
7BB
100
AcDbEntity
  8
241
  6
CONTINUOUS
100
AcDbCircle
 10
13.0
 20
0.0
 30
0.0
 40
8.0
100
AcDbArc
 50
180.0
 51
270.0
  0
CIRCLE
  5
141B
330
7BB
100
AcDbEntity
  8
241
  6
CONTINUOUS
100
AcDbCircle
 10
-9.0
 20
0.0
 30
0.0
 40
3.75
  0
LINE
  5
141C
330
7BB
100
AcDbEntity
  8
241
  6
HIDDEN2
100
AcDbLine
 10
-22.0
 20
4.77
 30
0.0
 11
-22.0
 21
0.0
 31
0.0
  0
LINE
  5
141D
330
7BB
100
AcDbEntity
  8
240
  6
CONTINUOUS
100
AcDbLine
 10
-26.0
 20
4.77
 30
0.0
 11
-26.0
 21
0.0
 31
0.0
  0
LINE
  5
141E
330
7BB
100
AcDbEntity
  8
241
  6
CONTINUOUS
100
AcDbLine
 10
-2.0
 20
24.215
 30
0.0
 11
-2.0
 21
0.0
 31
0.0
  0
LINE
  5
141F
330
7BB
100
AcDbEntity
  8
241
100
AcDbLine
 10
0.0
 20
24.215
 30
0.0
 11
0.0
 21
0.0
 31
0.0
  0
LINE
  5
1420
330
7BB
100
AcDbEntity
  8
245
  6
CENTER2
100
AcDbLine
 10
-9.0
 20
-4.75
 30
0.0
 11
-9.0
 21
4.75
 31
0.0
  0
ARC
  5
1421
330
7BB
100
AcDbEntity
  8
240
  6
CONTINUOUS
100
AcDbCircle
 10
-27.5
 20
-4.77
 30
0.0
 40
1.499999999999985
100
AcDbArc
 50
270.0
 51
0.0
  0
ARC
  5
1422
330
7BB
100
AcDbEntity
  8
241
  6
HIDDEN2
100
AcDbCircle
 10
-23.5
 20
-4.77
 30
0.0
 40
1.499999999999985
100
AcDbArc
 50
270.0
 51
0.0
  0
LINE
  5
1423
330
7BB
100
AcDbEntity
  8
241
  6
HIDDEN2
100
AcDbLine
 10
-27.5
 20
-6.27
 30
0.0
 11
-23.5
 21
-6.27
 31
0.0
  0
LINE
  5
1424
330
7BB
100
AcDbEntity
  8
240
  6
CONTINUOUS
100
AcDbLine
 10
-26.0
 20
-4.77
 30
0.0
 11
-26.0
 21
0.0
 31
0.0
  0
LINE
  5
1425
330
7BB
100
AcDbEntity
  8
241
  6
HIDDEN2
100
AcDbLine
 10
-22.0
 20
-4.77
 30
0.0
 11
-22.0
 21
0.0
 31
0.0
  0
LINE
  5
1426
330
7BB
100
AcDbEntity
  8
241
100
AcDbLine
 10
0.0
 20
-24.215
 30
0.0
 11
0.0
 21
0.0
 31
0.0
  0
LINE
  5
1427
330
7BB
100
AcDbEntity
  8
241
  6
CONTINUOUS
100
AcDbLine
 10
-2.0
 20
-24.215
 30
0.0
 11
-2.0
 21
0.0
 31
0.0
  0
LINE
  5
1428
330
7BB
100
AcDbEntity
  8
240
100
AcDbLine
 10
-2.0
 20
-24.215
 30
0.0
 11
0.0
 21
-24.215
 31
0.0
  0
LINE
  5
1429
330
7BB
100
AcDbEntity
  8
241
  6
HIDDEN2
100
AcDbLine
 10
-27.5
 20
6.27
 30
0.0
 11
-23.5
 21
6.27
 31
0.0
  0
ARC
  5
142A
330
7BB
100
AcDbEntity
  8
240
  6
CONTINUOUS
100
AcDbCircle
 10
-27.5
 20
4.77
 30
0.0
 40
1.5
100
AcDbArc
 50
0.0
 51
90.0
  0
ARC
  5
142B
330
7BB
100
AcDbEntity
  8
241
  6
HIDDEN2
100
AcDbCircle
 10
-23.5
 20
4.77
 30
0.0
 40
1.5
100
AcDbArc
 50
0.0
 51
90.0
  0
LINE
  5
142C
330
7BB
100
AcDbEntity
  8
240
100
AcDbLine
 10
-2.0
 20
24.215
 30
0.0
 11
0.0
 21
24.215
 31
0.0
  0
LINE
  5
142D
330
7BB
100
AcDbEntity
  8
241
100
AcDbLine
 10
42.0
 20
22.4487747
 30
0.0
 11
42.0
 21
0.0
 31
0.0
  0
LINE
  5
142E
330
7BB
100
AcDbEntity
  8
241
  6
CONTINUOUS
100
AcDbLine
 10
26.0
 20
0.0
 30
0.0
 11
26.0
 21
26.3
 31
0.0
  0
LINE
  5
142F
330
7BB
100
AcDbEntity
  8
241
100
AcDbLine
 10
34.0
 20
24.4487747
 30
0.0
 11
34.0
 21
0.0
 31
0.0
  0
LINE
  5
1430
330
7BB
100
AcDbEntity
  8
241
  6
CONTINUOUS
100
AcDbLine
 10
21.37749907
 20
-24.33618705
 30
0.0
 11
26.0
 21
-24.33618705
 31
0.0
  0
LINE
  5
1431
330
7BB
100
AcDbEntity
  8
241
  6
CONTINUOUS
100
AcDbLine
 10
13.0
 20
-8.0
 30
0.0
 11
26.0
 21
-8.0
 31
0.0
  0
LINE
  5
1432
330
7BB
100
AcDbEntity
  8
241
  6
CONTINUOUS
100
AcDbLine
 10
19.875
 20
-20.0
 30
0.0
 11
26.0
 21
-20.0
 31
0.0
  0
LINE
  5
1433
330
7BB
100
AcDbEntity
  8
241
  6
CONTINUOUS
100
AcDbLine
 10
14.62250093
 20
-8.0
 30
0.0
 11
14.62250093
 21
-20.0
 31
0.0
  0
LINE
  5
1434
330
7BB
100
AcDbEntity
  8
241
  6
CONTINUOUS
100
AcDbLine
 10
21.37749907
 20
-8.0
 30
0.0
 11
21.37749907
 21
-20.0
 31
0.0
  0
LINE
  5
1435
330
7BB
100
AcDbEntity
  8
241
  6
CONTINUOUS
100
AcDbLine
 10
12.1117139
 20
-20.0
 30
0.0
 11
16.125
 21
-20.0
 31
0.0
  0
LINE
  5
1436
330
7BB
100
AcDbEntity
  8
241
  6
CONTINUOUS
100
AcDbLine
 10
14.62250093
 20
-24.33618705
 30
0.0
 11
16.125
 21
-20.85835593
 31
0.0
  0
LINE
  5
1437
330
7BB
100
AcDbEntity
  8
241
  6
CONTINUOUS
100
AcDbLine
 10
21.37749907
 20
-24.33618705
 30
0.0
 11
19.875
 21
-20.85835593
 31
0.0
  0
LINE
  5
1438
330
7BB
100
AcDbEntity
  8
241
100
AcDbLine
 10
42.0
 20
-22.4487747
 30
0.0
 11
42.0
 21
0.0
 31
0.0
  0
LINE
  5
1439
330
7BB
100
AcDbEntity
  8
241
100
AcDbLine
 10
34.0
 20
-24.4487747
 30
0.0
 11
34.0
 21
0.0
 31
0.0
  0
ARC
  5
143A
330
7BB
100
AcDbEntity
  8
240
100
AcDbCircle
 10
36.0
 20
-24.4487747
 30
0.0
 40
2.0
100
AcDbArc
 50
90.0
 51
180.0
  0
LINE
  5
143B
330
7BB
100
AcDbEntity
  8
240
100
AcDbLine
 10
36.0
 20
-22.4487747
 30
0.0
 11
42.0
 21
-22.4487747
 31
0.0
  0
LINE
  5
143C
330
7BB
100
AcDbEntity
  8
241
  6
CONTINUOUS
100
AcDbLine
 10
26.5
 20
-7.51828235
 30
0.0
 11
34.0
 21
-7.51828235
 31
0.0
  0
LINE
  5
143D
330
7BB
100
AcDbEntity
  8
241
  6
CONTINUOUS
100
AcDbLine
 10
13.0
 20
8.0
 30
0.0
 11
26.0
 21
8.0
 31
0.0
  0
ARC
  5
143E
330
7BB
100
AcDbEntity
  8
240
100
AcDbCircle
 10
36.0
 20
24.4487747
 30
0.0
 40
2.0
100
AcDbArc
 50
180.0
 51
270.0
  0
LINE
  5
143F
330
7BB
100
AcDbEntity
  8
240
  6
CONTINUOUS
100
AcDbLine
 10
26.0
 20
26.3
 30
0.0
 11
33.0
 21
26.3
 31
0.0
  0
ARC
  5
1440
330
7BB
100
AcDbEntity
  8
240
  6
CONTINUOUS
100
AcDbCircle
 10
33.0
 20
25.3
 30
0.0
 40
1.0
100
AcDbArc
 50
0.0
 51
90.0
  0
LINE
  5
1441
330
7BB
100
AcDbEntity
  8
240
  6
CONTINUOUS
100
AcDbLine
 10
34.0
 20
25.3
 30
0.0
 11
34.0
 21
24.4487747
 31
0.0
  0
LINE
  5
1442
330
7BB
100
AcDbEntity
  8
240
100
AcDbLine
 10
36.0
 20
22.4487747
 30
0.0
 11
42.0
 21
22.4487747
 31
0.0
  0
LINE
  5
1443
330
7BB
100
AcDbEntity
  8
240
  6
CONTINUOUS
100
AcDbLine
 10
1.0
 20
31.5
 30
0.0
 11
14.62250093
 21
31.5
 31
0.0
  0
ARC
  5
1444
330
7BB
100
AcDbEntity
  8
240
  6
CONTINUOUS
100
AcDbCircle
 10
1.0
 20
30.5
 30
0.0
 40
1.0
100
AcDbArc
 50
90.0
 51
180.0
  0
ARC
  5
1445
330
7BB
100
AcDbEntity
  8
240
  6
CONTINUOUS
100
AcDbCircle
 10
25.0
 20
30.5
 30
0.0
 40
1.0
100
AcDbArc
 50
0.0
 51
90.0
  0
LINE
  5
1446
330
7BB
100
AcDbEntity
  8
240
  6
CONTINUOUS
100
AcDbLine
 10
16.125
 20
27.5
 30
0.0
 11
19.875
 21
27.5
 31
0.0
  0
LINE
  5
1447
330
7BB
100
AcDbEntity
  8
240
  6
CONTINUOUS
100
AcDbLine
 10
16.125
 20
28.89759526
 30
0.0
 11
14.62250093
 21
31.5
 31
0.0
  0
LINE
  5
1448
330
7BB
100
AcDbEntity
  8
240
  6
CONTINUOUS
100
AcDbLine
 10
16.125
 20
27.5
 30
0.0
 11
16.125
 21
28.89759526
 31
0.0
  0
LINE
  5
1449
330
7BB
100
AcDbEntity
  8
240
  6
CONTINUOUS
100
AcDbLine
 10
21.37749907
 20
31.5
 30
0.0
 11
25.0
 21
31.5
 31
0.0
  0
LINE
  5
144A
330
7BB
100
AcDbEntity
  8
240
  6
CONTINUOUS
100
AcDbLine
 10
19.875
 20
28.89759526
 30
0.0
 11
21.37749907
 21
31.5
 31
0.0
  0
LINE
  5
144B
330
7BB
100
AcDbEntity
  8
240
  6
CONTINUOUS
100
AcDbLine
 10
19.875
 20
27.5
 30
0.0
 11
19.875
 21
28.89759526
 31
0.0
  0
LINE
  5
144C
330
7BB
100
AcDbEntity
  8
241
  6
HIDDEN2
100
AcDbLine
 10
150.0
 20
10.0
 30
0.0
 11
77.0
 21
10.0
 31
0.0
  0
LINE
  5
144D
330
7BB
100
AcDbEntity
  8
240
100
AcDbLine
 10
149.08715574
 20
-13.07986352
 30
0.0
 11
84.0
 21
-18.77425179
 31
0.0
  0
LINE
  5
144E
330
7BB
100
AcDbEntity
  8
241
  6
HIDDEN2
100
AcDbLine
 10
150.0
 20
8.0
 30
0.0
 11
85.0
 21
8.0
 31
0.0
  0
LINE
  5
144F
330
7BB
100
AcDbEntity
  8
240
100
AcDbLine
 10
149.08715574
 20
13.07986352
 30
0.0
 11
84.0
 21
18.77425179
 31
0.0
  0
CIRCLE
  5
1450
330
7BB
100
AcDbEntity
  8
241
100
AcDbCircle
 10
115.0
 20
0.0
 30
0.0
 40
4.0
  0
CIRCLE
  5
1451
330
7BB
100
AcDbEntity
  8
242
100
AcDbCircle
 10
115.0
 20
0.0
 30
0.0
 40
3.625
  0
LINE
  5
1452
330
7BB
100
AcDbEntity
  8
241
100
AcDbLine
 10
116.8
 20
-1.03923048
 30
0.0
 11
115.0
 21
-2.07846097
 31
0.0
  0
LINE
  5
1453
330
7BB
100
AcDbEntity
  8
241
100
AcDbLine
 10
115.0
 20
2.07846097
 30
0.0
 11
116.8
 21
1.03923048
 31
0.0
  0
LINE
  5
1454
330
7BB
100
AcDbEntity
  8
240
100
AcDbLine
 10
80.64739031
 20
18.68410808
 30
0.0
 11
79.82022411
 21
18.75647552
 31
0.0
  0
LINE
  5
1455
330
7BB
100
AcDbEntity
  8
241
  6
HIDDEN2
100
AcDbLine
 10
80.0
 20
8.5
 30
0.0
 11
85.0
 21
8.5
 31
0.0
  0
LINE
  5
1456
330
7BB
100
AcDbEntity
  8
240
100
AcDbLine
 10
80.64739031
 20
-18.68410808
 30
0.0
 11
79.82022411
 21
-18.75647552
 31
0.0
  0
LINE
  5
1457
330
7BB
100
AcDbEntity
  8
241
100
AcDbLine
 10
76.4
 20
19.43916564
 30
0.0
 11
76.4
 21
0.0
 31
0.0
  0
LINE
  5
1458
330
7BB
100
AcDbEntity
  8
241
100
AcDbLine
 10
79.4
 20
19.17669964
 30
0.0
 11
79.4
 21
0.0
 31
0.0
  0
LINE
  5
1459
330
7BB
100
AcDbEntity
  8
241
100
AcDbLine
 10
78.0
 20
19.29918377
 30
0.0
 11
78.0
 21
0.0
 31
0.0
  0
LINE
  5
145A
330
7BB
100
AcDbEntity
  8
241
  6
HIDDEN2
100
AcDbLine
 10
80.0
 20
8.5
 30
0.0
 11
80.0
 21
0.0
 31
0.0
  0
LINE
  5
145B
330
7BB
100
AcDbEntity
  8
241
100
AcDbLine
 10
76.4
 20
-19.43916564
 30
0.0
 11
76.4
 21
0.0
 31
0.0
  0
LINE
  5
145C
330
7BB
100
AcDbEntity
  8
241
100
AcDbLine
 10
78.0
 20
-19.29918377
 30
0.0
 11
78.0
 21
0.0
 31
0.0
  0
LINE
  5
145D
330
7BB
100
AcDbEntity
  8
241
100
AcDbLine
 10
79.4
 20
-19.17669964
 30
0.0
 11
79.4
 21
0.0
 31
0.0
  0
LINE
  5
145E
330
7BB
100
AcDbEntity
  8
240
100
AcDbLine
 10
79.4
 20
-19.17669964
 30
0.0
 11
79.82022411
 21
-18.75647552
 31
0.0
  0
LINE
  5
145F
330
7BB
100
AcDbEntity
  8
240
100
AcDbLine
 10
76.4
 20
-19.43916564
 30
0.0
 11
76.82022411
 21
-19.01894152
 31
0.0
  0
LINE
  5
1460
330
7BB
100
AcDbEntity
  8
240
100
AcDbLine
 10
77.64739031
 20
-18.94657408
 30
0.0
 11
76.82022411
 21
-19.01894152
 31
0.0
  0
LINE
  5
1461
330
7BB
100
AcDbEntity
  8
240
100
AcDbLine
 10
77.64739031
 20
-18.94657408
 30
0.0
 11
78.0
 21
-19.29918377
 31
0.0
  0
LINE
  5
1462
330
7BB
100
AcDbEntity
  8
240
100
AcDbLine
 10
78.0
 20
-19.29918377
 30
0.0
 11
79.4
 21
-19.17669964
 31
0.0
  0
LINE
  5
1463
330
7BB
100
AcDbEntity
  8
240
100
AcDbLine
 10
79.4
 20
19.17669964
 30
0.0
 11
79.82022411
 21
18.75647552
 31
0.0
  0
LINE
  5
1464
330
7BB
100
AcDbEntity
  8
240
100
AcDbLine
 10
77.64739031
 20
18.94657408
 30
0.0
 11
78.0
 21
19.29918377
 31
0.0
  0
LINE
  5
1465
330
7BB
100
AcDbEntity
  8
240
100
AcDbLine
 10
77.64739031
 20
18.94657408
 30
0.0
 11
76.82022411
 21
19.01894152
 31
0.0
  0
LINE
  5
1466
330
7BB
100
AcDbEntity
  8
240
100
AcDbLine
 10
76.4
 20
19.43916564
 30
0.0
 11
76.82022411
 21
19.01894152
 31
0.0
  0
LINE
  5
1467
330
7BB
100
AcDbEntity
  8
240
100
AcDbLine
 10
78.0
 20
19.29918377
 30
0.0
 11
79.4
 21
19.17669964
 31
0.0
  0
LINE
  5
1468
330
7BB
100
AcDbEntity
  8
241
100
AcDbLine
 10
82.4
 20
18.91423365
 30
0.0
 11
82.4
 21
0.0
 31
0.0
  0
LINE
  5
1469
330
7BB
100
AcDbEntity
  8
241
100
AcDbLine
 10
81.0
 20
19.03671778
 30
0.0
 11
81.0
 21
0.0
 31
0.0
  0
LINE
  5
146A
330
7BB
100
AcDbEntity
  8
241
  6
HIDDEN2
100
AcDbLine
 10
85.0
 20
8.5
 30
0.0
 11
85.0
 21
0.0
 31
0.0
  0
LINE
  5
146B
330
7BB
100
AcDbEntity
  8
241
100
AcDbLine
 10
84.0
 20
18.77425179
 30
0.0
 11
84.0
 21
0.0
 31
0.0
  0
LINE
  5
146C
330
7BB
100
AcDbEntity
  8
245
100
AcDbLine
 10
93.0
 20
5.0
 30
0.0
 11
93.0
 21
-5.0
 31
0.0
1001
GRPNAME
1000
PASTMD0A
  0
CIRCLE
  5
146D
330
7BB
100
AcDbEntity
  8
242
100
AcDbCircle
 10
93.0
 20
0.0
 30
0.0
 40
3.625
  0
CIRCLE
  5
146E
330
7BB
100
AcDbEntity
  8
241
100
AcDbCircle
 10
93.0
 20
0.0
 30
0.0
 40
4.0
  0
LINE
  5
146F
330
7BB
100
AcDbEntity
  8
241
100
AcDbLine
 10
93.0
 20
2.07846097
 30
0.0
 11
91.2
 21
1.03923048
 31
0.0
  0
LINE
  5
1470
330
7BB
100
AcDbEntity
  8
241
100
AcDbLine
 10
93.0
 20
2.07846097
 30
0.0
 11
94.8
 21
1.03923048
 31
0.0
  0
LINE
  5
1471
330
7BB
100
AcDbEntity
  8
245
100
AcDbLine
 10
115.0
 20
5.0
 30
0.0
 11
115.0
 21
-5.0
 31
0.0
1001
GRPNAME
1000
PASTMD0A
  0
LINE
  5
1472
330
7BB
100
AcDbEntity
  8
241
100
AcDbLine
 10
115.0
 20
2.07846097
 30
0.0
 11
113.2
 21
1.03923048
 31
0.0
  0
LINE
  5
1473
330
7BB
100
AcDbEntity
  8
241
100
AcDbLine
 10
81.0
 20
-19.03671778
 30
0.0
 11
81.0
 21
0.0
 31
0.0
  0
LINE
  5
1474
330
7BB
100
AcDbEntity
  8
241
100
AcDbLine
 10
82.4
 20
-18.91423365
 30
0.0
 11
82.4
 21
0.0
 31
0.0
  0
LINE
  5
1475
330
7BB
100
AcDbEntity
  8
241
100
AcDbLine
 10
84.0
 20
-18.77425179
 30
0.0
 11
84.0
 21
0.0
 31
0.0
  0
LINE
  5
1476
330
7BB
100
AcDbEntity
  8
240
100
AcDbLine
 10
83.64739031
 20
-18.42164209
 30
0.0
 11
82.82022411
 21
-18.49400953
 31
0.0
  0
LINE
  5
1477
330
7BB
100
AcDbEntity
  8
240
100
AcDbLine
 10
81.0
 20
-19.03671778
 30
0.0
 11
82.4
 21
-18.91423365
 31
0.0
  0
LINE
  5
1478
330
7BB
100
AcDbEntity
  8
240
100
AcDbLine
 10
80.64739031
 20
-18.68410808
 30
0.0
 11
81.0
 21
-19.03671777
 31
0.0
  0
LINE
  5
1479
330
7BB
100
AcDbEntity
  8
240
100
AcDbLine
 10
82.4
 20
-18.91423365
 30
0.0
 11
82.82022411
 21
-18.49400953
 31
0.0
  0
LINE
  5
147A
330
7BB
100
AcDbEntity
  8
240
100
AcDbLine
 10
83.64739031
 20
-18.42164209
 30
0.0
 11
84.0
 21
-18.77425178
 31
0.0
  0
LINE
  5
147B
330
7BB
100
AcDbEntity
  8
241
100
AcDbLine
 10
94.8
 20
-1.03923048
 30
0.0
 11
93.0
 21
-2.07846097
 31
0.0
  0
LINE
  5
147C
330
7BB
100
AcDbEntity
  8
241
100
AcDbLine
 10
91.2
 20
-1.03923048
 30
0.0
 11
91.2
 21
1.03923048
 31
0.0
  0
LINE
  5
147D
330
7BB
100
AcDbEntity
  8
241
100
AcDbLine
 10
91.2
 20
-1.03923048
 30
0.0
 11
93.0
 21
-2.07846097
 31
0.0
  0
LINE
  5
147E
330
7BB
100
AcDbEntity
  8
241
100
AcDbLine
 10
94.8
 20
-1.03923048
 30
0.0
 11
94.8
 21
1.03923048
 31
0.0
  0
LINE
  5
147F
330
7BB
100
AcDbEntity
  8
241
100
AcDbLine
 10
113.2
 20
-1.03923048
 30
0.0
 11
113.2
 21
1.03923048
 31
0.0
  0
LINE
  5
1480
330
7BB
100
AcDbEntity
  8
241
100
AcDbLine
 10
113.2
 20
-1.03923048
 30
0.0
 11
115.0
 21
-2.07846097
 31
0.0
  0
LINE
  5
1481
330
7BB
100
AcDbEntity
  8
240
100
AcDbLine
 10
83.64739031
 20
18.42164209
 30
0.0
 11
84.0
 21
18.77425178
 31
0.0
  0
LINE
  5
1482
330
7BB
100
AcDbEntity
  8
240
100
AcDbLine
 10
82.4
 20
18.91423365
 30
0.0
 11
82.82022411
 21
18.49400953
 31
0.0
  0
LINE
  5
1483
330
7BB
100
AcDbEntity
  8
240
100
AcDbLine
 10
80.64739031
 20
18.68410808
 30
0.0
 11
81.0
 21
19.03671777
 31
0.0
  0
LINE
  5
1484
330
7BB
100
AcDbEntity
  8
240
100
AcDbLine
 10
81.0
 20
19.03671778
 30
0.0
 11
82.4
 21
18.91423365
 31
0.0
  0
LINE
  5
1485
330
7BB
100
AcDbEntity
  8
240
100
AcDbLine
 10
83.64739031
 20
18.42164209
 30
0.0
 11
82.82022411
 21
18.49400953
 31
0.0
  0
LINE
  5
1486
330
7BB
100
AcDbEntity
  8
240
100
AcDbLine
 10
150.0
 20
12.08366883
 30
0.0
 11
150.0
 21
0.0
 31
0.0
  0
CIRCLE
  5
1487
330
7BB
100
AcDbEntity
  8
241
100
AcDbCircle
 10
135.0
 20
0.0
 30
0.0
 40
4.0
  0
LINE
  5
1488
330
7BB
100
AcDbEntity
  8
245
100
AcDbLine
 10
135.0
 20
5.0
 30
0.0
 11
135.0
 21
-5.0
 31
0.0
1001
GRPNAME
1000
PASTMD0A
  0
CIRCLE
  5
1489
330
7BB
100
AcDbEntity
  8
242
100
AcDbCircle
 10
135.0
 20
0.0
 30
0.0
 40
3.625
  0
LINE
  5
148A
330
7BB
100
AcDbEntity
  8
241
100
AcDbLine
 10
135.0
 20
2.07846097
 30
0.0
 11
136.8
 21
1.03923048
 31
0.0
1001
GRPNAME
1000
PASTMD18
  0
LINE
  5
148B
330
7BB
100
AcDbEntity
  8
241
100
AcDbLine
 10
135.0
 20
2.07846097
 30
0.0
 11
133.2
 21
1.03923048
 31
0.0
1001
GRPNAME
1000
PASTMD18
  0
LINE
  5
148C
330
7BB
100
AcDbEntity
  8
241
100
AcDbLine
 10
133.2
 20
-1.03923048
 30
0.0
 11
135.0
 21
-2.07846097
 31
0.0
1001
GRPNAME
1000
PASTMD18
  0
LINE
  5
148D
330
7BB
100
AcDbEntity
  8
241
100
AcDbLine
 10
116.8
 20
-1.03923048
 30
0.0
 11
116.8
 21
1.03923048
 31
0.0
  0
LINE
  5
148E
330
7BB
100
AcDbEntity
  8
241
100
AcDbLine
 10
133.2
 20
-1.03923048
 30
0.0
 11
133.2
 21
1.03923048
 31
0.0
1001
GRPNAME
1000
PASTMD18
  0
LINE
  5
148F
330
7BB
100
AcDbEntity
  8
240
100
AcDbLine
 10
150.0
 20
-12.08366883
 30
0.0
 11
150.0
 21
0.0
 31
0.0
  0
ARC
  5
1490
330
7BB
100
AcDbEntity
  8
240
100
AcDbCircle
 10
149.0
 20
-12.08366883
 30
0.0
 40
1.0
100
AcDbArc
 50
275.0
 51
0.0
  0
LINE
  5
1491
330
7BB
100
AcDbEntity
  8
241
100
AcDbLine
 10
136.8
 20
-1.03923048
 30
0.0
 11
136.8
 21
1.03923048
 31
0.0
1001
GRPNAME
1000
PASTMD18
  0
LINE
  5
1492
330
7BB
100
AcDbEntity
  8
241
100
AcDbLine
 10
136.8
 20
-1.03923048
 30
0.0
 11
135.0
 21
-2.07846097
 31
0.0
1001
GRPNAME
1000
PASTMD18
  0
ARC
  5
1493
330
7BB
100
AcDbEntity
  8
240
100
AcDbCircle
 10
149.0
 20
12.08366883
 30
0.0
 40
1.0
100
AcDbArc
 50
0.0
 51
85.0
  0
ENDBLK
  5
844
330
7BB
100
AcDbEntity
  8
0
100
AcDbBlockEnd
  0
BLOCK
  5
893
330
889
100
AcDbEntity
  8
0
100
AcDbBlockBegin
  2
*D3
 70
     1
 10
0.0
 20
0.0
 30
0.0
  3
*D3
  1

  0
LINE
  5
122F
330
889
100
AcDbEntity
  8
252
  6
CONTINUOUS
100
AcDbLine
 10
80.0
 20
9.0
 30
0.0
 11
80.0
 21
36.0
 31
0.0
  0
LINE
  5
1230
330
889
100
AcDbEntity
  8
252
  6
CONTINUOUS
100
AcDbLine
 10
150.0
 20
12.58366883
 30
0.0
 11
150.0
 21
36.0
 31
0.0
  0
LINE
  5
1231
330
889
100
AcDbEntity
  8
252
  6
CONTINUOUS
100
AcDbLine
 10
82.23
 20
35.0
 30
0.0
 11
147.77
 21
35.0
 31
0.0
  0
INSERT
  5
1232
330
889
100
AcDbEntity
  8
252
  6
CONTINUOUS
100
AcDbBlockReference
  2
_OPEN
 10
80.0
 20
35.0
 30
0.0
 41
2.23
 42
2.23
 43
2.23
 50
180.0
  0
INSERT
  5
1233
330
889
100
AcDbEntity
  8
252
  6
CONTINUOUS
100
AcDbBlockReference
  2
_OPEN
 10
150.0
 20
35.0
 30
0.0
 41
2.23
 42
2.23
 43
2.23
  0
MTEXT
  5
1234
330
889
100
AcDbEntity
  8
252
  6
CONTINUOUS
 62
    40
100
AcDbMText
 10
116.13431825
 20
37.4
 30
0.0
 40
2.8
 41
0.0
 71
     5
 72
     1
  1
\A1;（max.70）
1001
ACAD
1000
MTEXTBEGIN
1070
    73
1070
     1
1070
    44
1040
1.0
1070
    74
1070
     0
1000
MTEXTEND
1000
MTEXTBEGIN
1070
    73
1070
     1
1070
    44
1040
1.0
1070
    74
1070
     0
1000
MTEXTEND
  0
POINT
  5
1235
330
889
100
AcDbEntity
  8
DEFPOINTS
  6
CONTINUOUS
 62
     0
100
AcDbPoint
 10
80.0
 20
8.5
 30
0.0
  0
POINT
  5
1236
330
889
100
AcDbEntity
  8
DEFPOINTS
  6
CONTINUOUS
 62
     0
100
AcDbPoint
 10
150.0
 20
12.08366883
 30
0.0
  0
POINT
  5
1237
330
889
100
AcDbEntity
  8
DEFPOINTS
  6
CONTINUOUS
 62
     0
100
AcDbPoint
 10
150.0
 20
35.0
 30
0.0
  0
ENDBLK
  5
894
330
889
100
AcDbEntity
  8
0
100
AcDbBlockEnd
  0
BLOCK
  5
89F
330
895
100
AcDbEntity
  8
0
100
AcDbBlockBegin
  2
*D4
 70
     1
 10
0.0
 20
0.0
 30
0.0
  3
*D4
  1

  0
LINE
  5
1226
330
895
100
AcDbEntity
  8
250
  6
CONTINUOUS
100
AcDbLine
 10
0.0
 20
31.0
 30
0.0
 11
0.0
 21
43.0
 31
0.0
  0
LINE
  5
1227
330
895
100
AcDbEntity
  8
250
  6
CONTINUOUS
100
AcDbLine
 10
150.0
 20
12.58366883
 30
0.0
 11
150.0
 21
43.0
 31
0.0
  0
LINE
  5
1228
330
895
100
AcDbEntity
  8
250
  6
CONTINUOUS
100
AcDbLine
 10
2.23
 20
42.0
 30
0.0
 11
147.77
 21
42.0
 31
0.0
  0
INSERT
  5
1229
330
895
100
AcDbEntity
  8
250
  6
CONTINUOUS
100
AcDbBlockReference
  2
_OPEN
 10
0.0
 20
42.0
 30
0.0
 41
2.23
 42
2.23
 43
2.23
 50
180.0
  0
INSERT
  5
122A
330
895
100
AcDbEntity
  8
250
  6
CONTINUOUS
100
AcDbBlockReference
  2
_OPEN
 10
150.0
 20
42.0
 30
0.0
 41
2.23
 42
2.23
 43
2.23
  0
MTEXT
  5
122B
330
895
100
AcDbEntity
  8
250
  6
CONTINUOUS
 62
    40
100
AcDbMText
 10
77.55576702
 20
44.4
 30
0.0
 40
2.8
 41
0.0
 71
     5
 72
     1
  1
\A1;150
1001
ACAD
1000
MTEXTBEGIN
1070
    73
1070
     1
1070
    44
1040
1.0
1070
    74
1070
     0
1000
MTEXTEND
1000
MTEXTBEGIN
1070
    73
1070
     1
1070
    44
1040
1.0
1070
    74
1070
     0
1000
MTEXTEND
  0
POINT
  5
122C
330
895
100
AcDbEntity
  8
DEFPOINTS
  6
CONTINUOUS
 62
     0
100
AcDbPoint
 10
0.0
 20
30.5
 30
0.0
  0
POINT
  5
122D
330
895
100
AcDbEntity
  8
DEFPOINTS
  6
CONTINUOUS
 62
     0
100
AcDbPoint
 10
150.0
 20
12.08366883
 30
0.0
  0
POINT
  5
122E
330
895
100
AcDbEntity
  8
DEFPOINTS
  6
CONTINUOUS
 62
     0
100
AcDbPoint
 10
150.0
 20
42.0
 30
0.0
  0
ENDBLK
  5
8A0
330
895
100
AcDbEntity
  8
0
100
AcDbBlockEnd
  0
BLOCK
  5
E6F
330
E6E
100
AcDbEntity
  8
0
100
AcDbBlockBegin
  2
_NONE
 70
     0
 10
0.0
 20
0.0
 30
0.0
  3
_NONE
  1

  0
ENDBLK
  5
E70
330
E6E
100
AcDbEntity
  8
0
100
AcDbBlockEnd
  0
BLOCK
  5
F16
330
F0C
100
AcDbEntity
  8
0
100
AcDbBlockBegin
  2
*D6
 70
     1
 10
0.0
 20
0.0
 30
0.0
  3
*D6
  1

  0
LINE
  5
F22
330
F0C
100
AcDbEntity
  8
250
  6
CONTINUOUS
 62
     3
100
AcDbLine
 10
150.5
 20
-13.0
 30
0.0
 11
169.0
 21
-13.0
 31
0.0
  0
LINE
  5
F23
330
F0C
100
AcDbEntity
  8
250
  6
CONTINUOUS
 62
     3
100
AcDbLine
 10
150.5
 20
13.0
 30
0.0
 11
169.0
 21
13.0
 31
0.0
  0
LINE
  5
F24
330
F0C
100
AcDbEntity
  8
250
  6
CONTINUOUS
 62
     3
100
AcDbLine
 10
168.0
 20
-10.77
 30
0.0
 11
168.0
 21
10.77
 31
0.0
  0
INSERT
  5
F25
330
F0C
100
AcDbEntity
  8
250
  6
CONTINUOUS
 62
     3
100
AcDbBlockReference
  2
_OPEN
 10
168.0
 20
-13.0
 30
0.0
 41
2.23
 42
2.23
 43
2.23
 50
270.0
  0
INSERT
  5
F26
330
F0C
100
AcDbEntity
  8
250
  6
CONTINUOUS
 62
     3
100
AcDbBlockReference
  2
_OPEN
 10
168.0
 20
13.0
 30
0.0
 41
2.23
 42
2.23
 43
2.23
 50
90.0
  0
MTEXT
  5
F27
330
F0C
100
AcDbEntity
  8
250
  6
CONTINUOUS
 62
    40
100
AcDbMText
 10
165.5
 20
-0.03993176
 30
0.0
 40
3.0
 41
0.0
 71
     5
 72
     1
  1
\A1;{\H3;\U+2205}26
 11
0.0
 21
1.0
 31
0.0
1001
ACAD
1000
MTEXTBEGIN
1070
    73
1070
     1
1070
    44
1040
1.0
1070
    74
1070
     0
1000
MTEXTEND
1000
MTEXTBEGIN
1070
    73
1070
     1
1070
    44
1040
1.0
1070
    74
1070
     0
1000
MTEXTEND
1000
MTEXTBEGIN
1070
    73
1070
     1
1070
    44
1040
1.0
1070
    74
1070
     0
1000
MTEXTEND
  0
POINT
  5
F28
330
F0C
100
AcDbEntity
  8
DEFPOINTS
  6
CONTINUOUS
 62
     0
100
AcDbPoint
 10
150.0
 20
-13.0
 30
0.0
  0
POINT
  5
F29
330
F0C
100
AcDbEntity
  8
DEFPOINTS
  6
CONTINUOUS
 62
     0
100
AcDbPoint
 10
150.0
 20
13.0
 30
0.0
  0
POINT
  5
F2A
330
F0C
100
AcDbEntity
  8
DEFPOINTS
  6
CONTINUOUS
 62
     0
100
AcDbPoint
 10
168.0
 20
13.0
 30
0.0
  0
ENDBLK
  5
F17
330
F0C
100
AcDbEntity
  8
0
100
AcDbBlockEnd
  0
BLOCK
  5
F20
330
F18
100
AcDbEntity
  8
0
100
AcDbBlockBegin
  2
*D7
 70
     1
 10
0.0
 20
0.0
 30
0.0
  3
*D7
  1

  0
LINE
  5
F2B
330
F18
100
AcDbEntity
  8
250
  6
CONTINUOUS
 62
     3
100
AcDbLine
 10
150.5
 20
8.0
 30
0.0
 11
162.0
 21
8.0
 31
0.0
  0
LINE
  5
F2C
330
F18
100
AcDbEntity
  8
250
  6
CONTINUOUS
 62
     3
100
AcDbLine
 10
161.0
 20
-8.0
 30
0.0
 11
161.0
 21
5.77
 31
0.0
  0
INSERT
  5
F2D
330
F18
100
AcDbEntity
  8
250
  6
CONTINUOUS
 62
     3
100
AcDbBlockReference
  2
_OPEN
 10
161.0
 20
8.0
 30
0.0
 41
2.23
 42
2.23
 43
2.23
 50
90.0
  0
MTEXT
  5
F2E
330
F18
100
AcDbEntity
  8
250
  6
CONTINUOUS
 62
    40
100
AcDbMText
 10
158.5
 20
-1.11333338
 30
0.0
 40
3.0
 41
0.0
 71
     5
 72
     1
  1
\A1;{\H3;\U+2205}16
 11
0.0
 21
1.0
 31
0.0
1001
ACAD
1000
MTEXTBEGIN
1070
    73
1070
     1
1070
    44
1040
1.0
1070
    74
1070
     0
1000
MTEXTEND
1000
MTEXTBEGIN
1070
    73
1070
     1
1070
    44
1040
1.0
1070
    74
1070
     0
1000
MTEXTEND
1000
MTEXTBEGIN
1070
    73
1070
     1
1070
    44
1040
1.0
1070
    74
1070
     0
1000
MTEXTEND
  0
POINT
  5
F2F
330
F18
100
AcDbEntity
  8
DEFPOINTS
  6
CONTINUOUS
 62
     0
100
AcDbPoint
 10
150.0
 20
-8.0
 30
0.0
  0
POINT
  5
F30
330
F18
100
AcDbEntity
  8
DEFPOINTS
  6
CONTINUOUS
 62
     0
100
AcDbPoint
 10
150.0
 20
8.0
 30
0.0
  0
POINT
  5
F31
330
F18
100
AcDbEntity
  8
DEFPOINTS
  6
CONTINUOUS
 62
     0
100
AcDbPoint
 10
161.0
 20
8.0
 30
0.0
  0
ENDBLK
  5
F21
330
F18
100
AcDbEntity
  8
0
100
AcDbBlockEnd
  0
ENDSEC
  0
SECTION
  2
ENTITIES
  0
INSERT
  5
6E6
330
1A
100
AcDbEntity
  8
245
100
AcDbBlockReference
  2
矢印なし
 10
175.62382697
 20
90.55123572
 30
0.0
  0
TEXT
  5
881
330
1A
100
AcDbEntity
  8
241
100
AcDbText
 10
-32.0
 20
56.0
 30
0.0
 40
5.0
  1
HSK-A63-SSL16-150
  7
YOKO
 11
-32.0
 21
56.0
 31
0.0
100
AcDbText
 73
     1
  0
DIMENSION
  5
882
330
1A
100
AcDbEntity
  8
252
  6
CONTINUOUS
100
AcDbDimension
  2
*D3
 10
150.0
 20
35.0
 30
0.0
 11
116.13431825
 21
35.0
 31
0.0
 70
   160
  1
（max.<>）
  3
BIGT
100
AcDbAlignedDimension
 13
80.0
 23
8.5
 33
0.0
 14
150.0
 24
12.08366883
 34
0.0
100
AcDbRotatedDimension
1001
ACAD
1000
DSTYLE
1002
{
1070
   288
1070
     1
1002
}
  0
DIMENSION
  5
883
330
1A
100
AcDbEntity
  8
250
  6
CONTINUOUS
100
AcDbDimension
  2
*D4
 10
150.0
 20
42.0
 30
0.0
 11
77.55576702
 21
42.0
 31
0.0
 70
   160
  3
BIGT
100
AcDbAlignedDimension
 13
0.0
 23
30.5
 33
0.0
 14
150.0
 24
12.08366883
 34
0.0
100
AcDbRotatedDimension
1001
ACAD
1000
DSTYLE
1002
{
1070
   288
1070
     1
1002
}
  0
DIMENSION
  5
EFA
330
1A
100
AcDbEntity
  8
250
  6
CONTINUOUS
100
AcDbDimension
  2
*D6
 10
168.0
 20
13.0
 30
0.0
 11
168.0
 21
-0.03993176
 31
0.0
 70
   160
  1
{\H3;\U+2205}<>
  3
BIGT$0
100
AcDbAlignedDimension
 13
150.0
 23
-13.0
 33
0.0
 14
150.0
 24
13.0
 34
0.0
 50
90.0
100
AcDbRotatedDimension
  0
DIMENSION
  5
EFD
330
1A
100
AcDbEntity
  8
250
  6
CONTINUOUS
100
AcDbDimension
  2
*D7
 10
161.0
 20
8.0
 30
0.0
 11
161.0
 21
-1.11333338
 31
0.0
 70
   160
  1
{\H3;\U+2205}<>
  3
BIGT$0
100
AcDbAlignedDimension
 13
150.0
 23
-8.0
 33
0.0
 14
150.0
 24
8.0
 34
0.0
 50
90.0
100
AcDbRotatedDimension
1001
ACAD
1000
DSTYLE
1002
{
1070
     5
1000

1070
   173
1070
     1
1070
     7
1000
OPEN
1070
    75
1070
     1
1070
     6
1000
NONE
1002
}
  0
LINE
  5
117D
330
1A
100
AcDbEntity
  8
250
  6
CONTINUOUS
100
AcDbLine
 10
-18.44991262
 20
-34.94501046
 30
0.0
 11
-42.71657929
 21
-34.94501046
 31
0.0
1001
ITEMNAME
1000
LNSP2
  0
MTEXT
  5
117E
330
1A
100
AcDbEntity
  8
251
  6
CONTINUOUS
100
AcDbMText
 10
-39.91657929
 20
-33.94501046
 30
0.0
 40
2.8
 41
0.0
 71
     7
 72
     1
  1
HSK-A63
  7
YOKO
1001
ITEMNAME
1000
LNSP3
1001
ACAD
1000
MTEXTBEGIN
1070
    73
1070
     1
1070
    44
1040
1.0
1070
    74
1070
     0
1000
MTEXTEND
1000
MTEXTBEGIN
1070
    73
1070
     1
1070
    44
1040
1.0
1070
    74
1070
     0
1000
MTEXTEND
1000
MTEXTBEGIN
1070
    73
1070
     1
1070
    44
1040
1.0
1070
    74
1070
     0
1000
MTEXTEND
1000
MTEXTBEGIN
1070
    73
1070
     1
1070
    44
1040
1.0
1070
    74
1070
     0
1000
MTEXTEND
1000
MTEXTBEGIN
1070
    73
1070
     1
1070
    44
1040
1.0
1070
    74
1070
     0
1000
MTEXTEND
  0
LEADER
  5
118F
330
1A
100
AcDbEntity
  8
250
  6
CONTINUOUS
100
AcDbLeader
  3
BIGT
 76
     2
 10
-11.96720963
 20
-23.71663952
 30
0.0
 10
-18.44991262
 20
-34.94501046
 30
0.0
1001
ACAD
1000
DSTYLE
1002
{
1070
     6
1000
OPEN
1070
   343
1005
594
1002
}
  0
INSERT
  5
1494
330
1A
100
AcDbEntity
  8
245
100
AcDbBlockReference
  2
1
 10
0.0
 20
0.0
 30
0.0
  0
VIEWPORT
  5
22
330
17
100
AcDbEntity
 67
     1
  8
0
100
AcDbViewport
 10
261.51769912
 20
148.5
 30
0.0
 40
523.03539823
 41
297.0
 68
     1
 69
     1
1001
ACAD
1000
MVIEW
1002
{
1070
    16
1010
0.0
1020
0.0
1030
0.0
1010
0.0
1020
0.0
1030
1.0
1040
0.0
1040
9.0
1040
6.4433121
1040
4.5
1040
50.0
1040
0.0
1040
0.0
1070
     0
1070
   100
1070
     1
1070
     3
1070
     0
1070
     0
1070
     0
1070
     0
1040
0.0
1040
0.0
1040
0.0
1040
1.0
1040
1.0
1040
0.0
1040
0.0
1070
     0
1002
{
1002
}
1002
}
  0
ENDSEC
  0
SECTION
  2
OBJECTS
  0
DICTIONARY
  5
C
330
0
100
AcDbDictionary
  3
ACAD_GROUP
350
D
  3
ACAD_LAYOUT
350
565
  3
ACAD_MLINESTYLE
350
E
  3
ACAD_PLOTSETTINGS
350
566
  3
ACAD_PLOTSTYLENAME
350
563
  3
ACDBHEADERROUNDTRIPXREC
350
14BB
  3
GRADE_DWG
350
540
  0
DICTIONARY
  5
B66
330
1A
100
AcDbDictionary
280
     1
  3
ACAD_LAYOUTSELFREF
360
14DD
  0
DICTIONARY
  5
B64
330
17
100
AcDbDictionary
280
     1
  3
ACAD_LAYOUTSELFREF
360
14DC
  0
DICTIONARY
  5
D
102
{ACAD_REACTORS
330
C
102
}
330
C
100
AcDbDictionary
  3
*A1
350
6C7
  3
*A2
350
6C8
  3
*A3
350
6D4
  3
*A4
350
6D5
  3
DREC-1
350
5FC
  3
DREC-2
350
654
  3
DREC-3
350
673
  0
DICTIONARY
  5
565
102
{ACAD_REACTORS
330
C
102
}
330
C
100
AcDbDictionary
  0
DICTIONARY
  5
E
102
{ACAD_REACTORS
330
C
102
}
330
C
100
AcDbDictionary
  3
STANDARD
350
13
  0
DICTIONARY
  5
566
102
{ACAD_REACTORS
330
C
102
}
330
C
100
AcDbDictionary
  3
A3_0_5倍_
350
758
  3
A3_1倍_
350
757
  3
A3_1倍__2000_
350
707
  3
A3_2倍_
350
759
  3
A4_0_5倍_
350
755
  3
A4_1倍_
350
754
  3
A4_1倍__2000_
350
708
  3
A4_2倍_
350
756
  0
ACDBDICTIONARYWDFLT
  5
563
102
{ACAD_REACTORS
330
C
102
}
330
C
100
AcDbDictionary
281
     1
  3
Normal
350
564
100
AcDbDictionaryWithDefault
340
564
  0
DICTIONARY
  5
14BB
102
{ACAD_REACTORS
330
C
102
}
330
C
100
AcDbDictionary
  3
CEPSNTYPE
350
14C5
  3
DIMSTYLEDATA
350
14C9
  3
FINGERPRINTGUID
350
14C6
  3
HYPERLINKBASE
350
14BE
  3
INSUNITS
350
14C4
  3
LAYOUTDICT
350
14C0
  3
LWETCUNION
350
14C3
  3
PLOTSETDICT
350
14C1
  3
PLOTSTYLNAMDICT
350
14C2
  3
PSVPSCALE
350
14C8
  3
PUCSBASE
350
14CC
  3
PUCSORGBACK
350
14D2
  3
PUCSORGBOTTOM
350
14CE
  3
PUCSORGFRONT
350
14D1
  3
PUCSORGLEFT
350
14CF
  3
PUCSORGRIGHT
350
14D0
  3
PUCSORGTOP
350
14CD
  3
PUCSORTHOREF
350
14CA
  3
PUCSORTHOVIEW
350
14CB
  3
STYLESHEET
350
14BF
  3
TSTACKALIGN
350
14BC
  3
TSTACKSIZE
350
14BD
  3
UCSBASE
350
14D5
  3
UCSORGBACK
350
14DB
  3
UCSORGBOTTOM
350
14D7
  3
UCSORGFRONT
350
14DA
  3
UCSORGLEFT
350
14D8
  3
UCSORGRIGHT
350
14D9
  3
UCSORGTOP
350
14D6
  3
UCSORTHOREF
350
14D3
  3
UCSORTHOVIEW
350
14D4
  3
VERSIONGUID
350
14C7
  0
DICTIONARY
  5
540
102
{ACAD_REACTORS
330
C
102
}
330
C
100
AcDbDictionary
  3
VERSION
350
560
  0
XRECORD
  5
14DD
102
{ACAD_REACTORS
330
B66
102
}
330
B66
100
AcDbXrecord
340
1A
  0
XRECORD
  5
14DC
102
{ACAD_REACTORS
330
B64
102
}
330
B64
100
AcDbXrecord
340
17
  0
GROUP
  5
6C7
102
{ACAD_REACTORS
330
D
102
}
330
D
100
AcDbGroup
300

 70
     0
 71
     1
1001
GRPNAME
1000
DMA00
  0
GROUP
  5
6C8
102
{ACAD_REACTORS
330
D
102
}
330
D
100
AcDbGroup
300

 70
     0
 71
     1
1001
GRPNAME
1000
DMA00
  0
GROUP
  5
6D4
102
{ACAD_REACTORS
330
D
102
}
330
D
100
AcDbGroup
300

 70
     0
 71
     1
1001
GRPNAME
1000
DMA00
  0
GROUP
  5
6D5
102
{ACAD_REACTORS
330
D
102
}
330
D
100
AcDbGroup
300

 70
     0
 71
     1
1001
GRPNAME
1000
DMA00
  0
GROUP
  5
5FC
102
{ACAD_REACTORS
330
D
102
}
330
D
100
AcDbGroup
300

 70
     0
 71
     1
1001
GRPNAME
1000
DREC-
1001
GPARA
1000
xsiz
1000
44.182
1000
ysiz
1000
40.677
1000
angl
1000
0
1000
ctyp
1000
0
1000
csiz
1000
5
1000
lfnt
1000
cont
1000
hcnt
1000
hoff
1000
vcnt
1000
voff
1000
opnt
1000
4
1000
dxpt
1000
0
1000
dypt
1000
0
  0
GROUP
  5
654
102
{ACAD_REACTORS
330
D
102
}
330
D
100
AcDbGroup
300

 70
     0
 71
     1
1001
GRPNAME
1000
DREC-
1001
GPARA
1000
xsiz
1000
54.592
1000
ysiz
1000
53.036
1000
angl
1000
0
1000
ctyp
1000
0
1000
csiz
1000
5
1000
lfnt
1000
cont
1000
hcnt
1000
hoff
1000
vcnt
1000
voff
1000
opnt
1000
4
1000
dxpt
1000
0
1000
dypt
1000
0
  0
GROUP
  5
673
102
{ACAD_REACTORS
330
D
102
}
330
D
100
AcDbGroup
300

 70
     0
 71
     1
1001
GRPNAME
1000
DREC-
1001
GPARA
1000
xsiz
1000
30.363
1000
ysiz
1000
36.175
1000
angl
1000
0
1000
ctyp
1000
0
1000
csiz
1000
5
1000
lfnt
1000
cont
1000
hcnt
1000
hoff
1000
vcnt
1000
voff
1000
opnt
1000
4
1000
dxpt
1000
0
1000
dypt
1000
0
  0
MLINESTYLE
  5
13
102
{ACAD_REACTORS
330
E
102
}
330
E
100
AcDbMlineStyle
  2
STANDARD
 70
     0
  3

 62
     0
 51
90.0
 52
90.0
 71
     2
 49
0.5
 62
   256
  6
BYLAYER
 49
-0.5
 62
   256
  6
BYLAYER
  0
PLOTSETTINGS
  5
758
102
{ACAD_REACTORS
330
566
102
}
330
566
100
AcDbPlotSettings
  1
A3(0.5倍)
  2
\\AWTECPC05\HP DeskJet 1120C
  4
A3
  6

 40
5.95841646
 41
13.49375153
 42
6.04309082
 43
3.67242432
 44
296.92599487
 45
419.94665527
 46
89.96
 47
127.14
 48
0.0
 49
0.0
140
0.0
141
0.0
142
1.0
143
2.0
 70
  1716
 72
     1
 73
     1
 74
     2
  7
big.ctb
 75
    17
147
0.5
148
0.0
149
0.0
  0
PLOTSETTINGS
  5
757
102
{ACAD_REACTORS
330
566
102
}
330
566
100
AcDbPlotSettings
  1
A3(1倍)
  2
\\AWTECPC05\HP DeskJet 1120C
  4
A3
  6

 40
5.95841646
 41
13.49375153
 42
6.04309082
 43
3.67242432
 44
296.92599487
 45
419.94665527
 46
37.46
 47
52.89
 48
0.0
 49
0.0
140
0.0
141
0.0
142
1.0
143
1.0
 70
  1716
 72
     1
 73
     1
 74
     2
  7
big.ctb
 75
    16
147
1.0
148
0.0
149
0.0
  0
PLOTSETTINGS
  5
707
102
{ACAD_REACTORS
330
566
102
}
330
566
100
AcDbPlotSettings
  1
A3(1倍)(2000)
  2
SII LS-1300 (D-SCAN)
  4
User258
  6

 40
3.17499995
 41
3.17499995
 42
3.17498779
 43
3.17498779
 44
419.98898315
 45
296.98950195
 46
58.32
 47
40.32
 48
0.0
 49
0.0
140
0.0
141
0.0
142
1.0
143
1.0
 70
  1716
 72
     1
 73
     0
 74
     2
  7
big.ctb
 75
    16
147
1.0
148
0.0
149
0.0
  0
PLOTSETTINGS
  5
759
102
{ACAD_REACTORS
330
566
102
}
330
566
100
AcDbPlotSettings
  1
A3(2倍)
  2
\\AWTECPC05\HP DeskJet 1120C
  4
A3
  6

 40
5.95841646
 41
13.49375153
 42
6.04309082
 43
3.67242432
 44
296.92599487
 45
419.94665527
 46
-67.54
 47
-95.61
 48
0.0
 49
0.0
140
0.0
141
0.0
142
1.0
143
0.5
 70
  1716
 72
     1
 73
     1
 74
     2
  7
big.ctb
 75
    27
147
2.0
148
0.0
149
0.0
  0
PLOTSETTINGS
  5
755
102
{ACAD_REACTORS
330
566
102
}
330
566
100
AcDbPlotSettings
  1
A4(0.5倍)
  2
\\AWTECPC05\HP DeskJet 1120C
  4
A4
  6

 40
4.18041658
 41
13.49374962
 42
4.18040466
 43
3.92642212
 44
209.97332764
 45
296.92599487
 46
48.31
 47
65.5
 48
0.0
 49
0.0
140
0.0
141
0.0
142
1.0
143
2.0
 70
  1716
 72
     1
 73
     1
 74
     2
  7
big.ctb
 75
    17
147
0.5
148
0.0
149
0.0
  0
PLOTSETTINGS
  5
754
102
{ACAD_REACTORS
330
566
102
}
330
566
100
AcDbPlotSettings
  1
A4(1倍)
  2
\\AWTECPC05\HP DeskJet 1120C
  4
A4
  6

 40
4.18041658
 41
13.49374962
 42
4.18040466
 43
3.92642212
 44
209.97332764
 45
296.92599487
 46
-4.19
 47
-8.75
 48
0.0
 49
0.0
140
0.0
141
0.0
142
1.0
143
1.0
 70
  1716
 72
     1
 73
     1
 74
     2
  7
big.ctb
 75
    16
147
1.0
148
0.0
149
0.0
  0
PLOTSETTINGS
  5
708
102
{ACAD_REACTORS
330
566
102
}
330
566
100
AcDbPlotSettings
  1
A4(1倍)(2000)
  2
SII LS-1300 (D-SCAN)
  4
User259
  6

 40
3.17499995
 41
3.17499995
 42
3.17498779
 43
3.17500305
 44
296.98950195
 45
209.99449158
 46
-3.18
 47
-3.18
 48
0.0
 49
0.0
140
0.0
141
0.0
142
1.0
143
1.0
 70
  1716
 72
     1
 73
     0
 74
     2
  7
big.ctb
 75
    16
147
1.0
148
0.0
149
0.0
  0
PLOTSETTINGS
  5
756
102
{ACAD_REACTORS
330
566
102
}
330
566
100
AcDbPlotSettings
  1
A4(2倍)
  2
\\AWTECPC05\HP DeskJet 1120C
  4
A4
  6

 40
4.18041658
 41
13.49374962
 42
4.18040466
 43
3.92642212
 44
209.97332764
 45
296.92599487
 46
-109.19
 47
-157.25
 48
0.0
 49
0.0
140
0.0
141
0.0
142
1.0
143
0.5
 70
  1716
 72
     1
 73
     1
 74
     2
  7
big.ctb
 75
    27
147
2.0
148
0.0
149
0.0
  0
ACDBPLACEHOLDER
  5
564
102
{ACAD_REACTORS
330
563
102
}
330
563
100
AcDbPlaceHolder
280
     0
  0
XRECORD
  5
14C5
102
{ACAD_REACTORS
330
14BB
102
}
330
14BB
100
AcDbXrecord
 90
        0
  0
XRECORD
  5
14C9
102
{ACAD_REACTORS
330
14BB
102
}
330
14BB
100
AcDbXrecord
1000
DSTYLE
1002
{
1070
    79
 70
     2
1070
   179
 70
     3
1070
   341
340
594
1070
   343
340
594
1070
   344
340
594
1070
   371
 70
    -1
1070
   372
 70
    -1
1002
}
  0
XRECORD
  5
14C6
102
{ACAD_REACTORS
330
14BB
102
}
330
14BB
100
AcDbXrecord
  1
{51294030-9CB4-11D3-8E18-00A0C925D94D}
  0
XRECORD
  5
14BE
102
{ACAD_REACTORS
330
14BB
102
}
330
14BB
100
AcDbXrecord
  1

  0
XRECORD
  5
14C4
102
{ACAD_REACTORS
330
14BB
102
}
330
14BB
100
AcDbXrecord
 90
        0
  0
XRECORD
  5
14C0
102
{ACAD_REACTORS
330
14BB
102
}
330
14BB
100
AcDbXrecord
340
565
  0
XRECORD
  5
14C3
102
{ACAD_REACTORS
330
14BB
102
}
330
14BB
100
AcDbXrecord
 90
    10781
  0
XRECORD
  5
14C1
102
{ACAD_REACTORS
330
14BB
102
}
330
14BB
100
AcDbXrecord
340
566
  0
XRECORD
  5
14C2
102
{ACAD_REACTORS
330
14BB
102
}
330
14BB
100
AcDbXrecord
340
563
  0
XRECORD
  5
14C8
102
{ACAD_REACTORS
330
14BB
102
}
330
14BB
100
AcDbXrecord
 40
0.0
  0
XRECORD
  5
14CC
102
{ACAD_REACTORS
330
14BB
102
}
330
14BB
100
AcDbXrecord
340
0
  0
XRECORD
  5
14D2
102
{ACAD_REACTORS
330
14BB
102
}
330
14BB
100
AcDbXrecord
 10
0.0
 20
0.0
 30
0.0
  0
XRECORD
  5
14CE
102
{ACAD_REACTORS
330
14BB
102
}
330
14BB
100
AcDbXrecord
 10
0.0
 20
0.0
 30
0.0
  0
XRECORD
  5
14D1
102
{ACAD_REACTORS
330
14BB
102
}
330
14BB
100
AcDbXrecord
 10
0.0
 20
0.0
 30
0.0
  0
XRECORD
  5
14CF
102
{ACAD_REACTORS
330
14BB
102
}
330
14BB
100
AcDbXrecord
 10
0.0
 20
0.0
 30
0.0
  0
XRECORD
  5
14D0
102
{ACAD_REACTORS
330
14BB
102
}
330
14BB
100
AcDbXrecord
 10
0.0
 20
0.0
 30
0.0
  0
XRECORD
  5
14CD
102
{ACAD_REACTORS
330
14BB
102
}
330
14BB
100
AcDbXrecord
 10
0.0
 20
0.0
 30
0.0
  0
XRECORD
  5
14CA
102
{ACAD_REACTORS
330
14BB
102
}
330
14BB
100
AcDbXrecord
340
0
  0
XRECORD
  5
14CB
102
{ACAD_REACTORS
330
14BB
102
}
330
14BB
100
AcDbXrecord
 70
     0
  0
XRECORD
  5
14BF
102
{ACAD_REACTORS
330
14BB
102
}
330
14BB
100
AcDbXrecord
  1
big.ctb
  0
XRECORD
  5
14BC
102
{ACAD_REACTORS
330
14BB
102
}
330
14BB
100
AcDbXrecord
 90
        1
  0
XRECORD
  5
14BD
102
{ACAD_REACTORS
330
14BB
102
}
330
14BB
100
AcDbXrecord
 90
       70
  0
XRECORD
  5
14D5
102
{ACAD_REACTORS
330
14BB
102
}
330
14BB
100
AcDbXrecord
340
0
  0
XRECORD
  5
14DB
102
{ACAD_REACTORS
330
14BB
102
}
330
14BB
100
AcDbXrecord
 10
0.0
 20
0.0
 30
0.0
  0
XRECORD
  5
14D7
102
{ACAD_REACTORS
330
14BB
102
}
330
14BB
100
AcDbXrecord
 10
0.0
 20
0.0
 30
0.0
  0
XRECORD
  5
14DA
102
{ACAD_REACTORS
330
14BB
102
}
330
14BB
100
AcDbXrecord
 10
0.0
 20
0.0
 30
0.0
  0
XRECORD
  5
14D8
102
{ACAD_REACTORS
330
14BB
102
}
330
14BB
100
AcDbXrecord
 10
0.0
 20
0.0
 30
0.0
  0
XRECORD
  5
14D9
102
{ACAD_REACTORS
330
14BB
102
}
330
14BB
100
AcDbXrecord
 10
0.0
 20
0.0
 30
0.0
  0
XRECORD
  5
14D6
102
{ACAD_REACTORS
330
14BB
102
}
330
14BB
100
AcDbXrecord
 10
0.0
 20
0.0
 30
0.0
  0
XRECORD
  5
14D3
102
{ACAD_REACTORS
330
14BB
102
}
330
14BB
100
AcDbXrecord
340
0
  0
XRECORD
  5
14D4
102
{ACAD_REACTORS
330
14BB
102
}
330
14BB
100
AcDbXrecord
 70
     0
  0
XRECORD
  5
14C7
102
{ACAD_REACTORS
330
14BB
102
}
330
14BB
100
AcDbXrecord
  1
{998B9D54-A8EC-471A-8B32-9EDC1FE1FDB0}
  0
XRECORD
  5
560
102
{ACAD_REACTORS
330
540
102
}
330
540
100
AcDbXrecord
  1
2.0.0
  0
ENDSEC
  0
EOF
