  0
SECTION
  2
HEADER
  9
$ACADVER
  1
AC1014
  9
$ACADMAINTVER
 70
     9
  9
$DWGCODEPAGE
  3
ANSI_932
  9
$INSBASE
 10
0.0
 20
0.0
 30
0.0
  9
$EXTMIN
 10
-46.82976791491831
 20
-39.28552257822548
 30
0.0
  9
$EXTMAX
 10
183.0
 20
68.00000000000001
 30
0.0
  9
$LIMMIN
 10
0.0
 20
0.0
  9
$LIMMAX
 10
297.0
 20
210.0
  9
$ORTHOMODE
 70
     0
  9
$REGENMODE
 70
     1
  9
$FILLMODE
 70
     1
  9
$QTEXTMODE
 70
     0
  9
$MIRRTEXT
 70
     1
  9
$DRAGMODE
 70
     2
  9
$LTSCALE
 40
10.0
  9
$OSMODE
 70
   613
  9
$ATTMODE
 70
     1
  9
$TEXTSIZE
 40
3.0
  9
$TRACEWID
 40
1.0
  9
$TEXTSTYLE
  7
YOKO
  9
$CLAYER
  8
240
  9
$CELTYPE
  6
BYLAYER
  9
$CECOLOR
 62
   256
  9
$CELTSCALE
 40
1.0
  9
$DELOBJ
 70
     1
  9
$DISPSILH
 70
     0
  9
$DIMSCALE
 40
1.0
  9
$DIMASZ
 40
2.229999999999999
  9
$DIMEXO
 40
0.5
  9
$DIMDLI
 40
2.5
  9
$DIMRND
 40
0.0
  9
$DIMDLE
 40
0.0
  9
$DIMEXE
 40
1.0
  9
$DIMTP
 40
0.0
  9
$DIMTM
 40
0.0
  9
$DIMTXT
 40
3.0
  9
$DIMCEN
 40
0.0
  9
$DIMTSZ
 40
0.0
  9
$DIMTOL
 70
     0
  9
$DIMLIM
 70
     0
  9
$DIMTIH
 70
     0
  9
$DIMTOH
 70
     0
  9
$DIMSE1
 70
     0
  9
$DIMSE2
 70
     0
  9
$DIMTAD
 70
     3
  9
$DIMZIN
 70
     8
  9
$DIMBLK
  1
OPEN
  9
$DIMASO
 70
     1
  9
$DIMSHO
 70
     1
  9
$DIMPOST
  1

  9
$DIMAPOST
  1

  9
$DIMALT
 70
     0
  9
$DIMALTD
 70
     2
  9
$DIMALTF
 40
25.4
  9
$DIMLFAC
 40
1.0
  9
$DIMTOFL
 70
     1
  9
$DIMTVP
 40
0.0
  9
$DIMTIX
 70
     0
  9
$DIMSOXD
 70
     0
  9
$DIMSAH
 70
     0
  9
$DIMBLK1
  1

  9
$DIMBLK2
  1

  9
$DIMSTYLE
  2
BIGT
  9
$DIMCLRD
 70
   256
  9
$DIMCLRE
 70
   256
  9
$DIMCLRT
 70
    40
  9
$DIMTFAC
 40
1.0
  9
$DIMGAP
 40
1.0
  9
$DIMJUST
 70
     0
  9
$DIMSD1
 70
     0
  9
$DIMSD2
 70
     0
  9
$DIMTOLJ
 70
     1
  9
$DIMTZIN
 70
     8
  9
$DIMALTZ
 70
     0
  9
$DIMALTTZ
 70
     0
  9
$DIMFIT
 70
     2
  9
$DIMUPT
 70
     0
  9
$DIMUNIT
 70
     2
  9
$DIMDEC
 70
     3
  9
$DIMTDEC
 70
     3
  9
$DIMALTU
 70
     2
  9
$DIMALTTD
 70
     2
  9
$DIMTXSTY
  7
STANDARD
  9
$DIMAUNIT
 70
     0
  9
$LUNITS
 70
     2
  9
$LUPREC
 70
     3
  9
$SKETCHINC
 40
1.0
  9
$FILLETRAD
 40
0.0
  9
$AUNITS
 70
     0
  9
$AUPREC
 70
     3
  9
$MENU
  1
.
  9
$ELEVATION
 40
0.0
  9
$PELEVATION
 40
0.0
  9
$THICKNESS
 40
0.0
  9
$LIMCHECK
 70
     0
  9
$BLIPMODE
 70
     0
  9
$CHAMFERA
 40
10.0
  9
$CHAMFERB
 40
10.0
  9
$CHAMFERC
 40
0.0
  9
$CHAMFERD
 40
0.0
  9
$SKPOLY
 70
     0
  9
$TDCREATE
 40
2452230.371740081
  9
$TDUPDATE
 40
2452556.834492187
  9
$TDINDWG
 40
0.1861315625
  9
$TDUSRTIMER
 40
0.1861315625
  9
$USRTIMER
 70
     1
  9
$ANGBASE
 50
0.0
  9
$ANGDIR
 70
     0
  9
$PDMODE
 70
    35
  9
$PDSIZE
 40
2.0
  9
$PLINEWID
 40
0.0
  9
$COORDS
 70
     2
  9
$SPLFRAME
 70
     0
  9
$SPLINETYPE
 70
     6
  9
$SPLINESEGS
 70
     8
  9
$ATTDIA
 70
     0
  9
$ATTREQ
 70
     0
  9
$HANDLING
 70
-16383
  9
$HANDSEED
  5
97C8
  9
$SURFTAB1
 70
     6
  9
$SURFTAB2
 70
     6
  9
$SURFTYPE
 70
     6
  9
$SURFU
 70
     6
  9
$SURFV
 70
     6
  9
$UCSNAME
  2

  9
$UCSORG
 10
0.0
 20
0.0
 30
0.0
  9
$UCSXDIR
 10
1.0
 20
0.0
 30
0.0
  9
$UCSYDIR
 10
0.0
 20
1.0
 30
0.0
  9
$PUCSNAME
  2

  9
$PUCSORG
 10
0.0
 20
0.0
 30
0.0
  9
$PUCSXDIR
 10
1.0
 20
0.0
 30
0.0
  9
$PUCSYDIR
 10
0.0
 20
1.0
 30
0.0
  9
$USERI1
 70
     1
  9
$USERI2
 70
     0
  9
$USERI3
 70
     0
  9
$USERI4
 70
     0
  9
$USERI5
 70
     0
  9
$USERR1
 40
0.0
  9
$USERR2
 40
0.0
  9
$USERR3
 40
0.0
  9
$USERR4
 40
0.0
  9
$USERR5
 40
0.0
  9
$WORLDVIEW
 70
     1
  9
$SHADEDGE
 70
     3
  9
$SHADEDIF
 70
    70
  9
$TILEMODE
 70
     1
  9
$MAXACTVP
 70
    16
  9
$PINSBASE
 10
0.0
 20
0.0
 30
0.0
  9
$PLIMCHECK
 70
     0
  9
$PEXTMIN
 10
1.000000000000000E+20
 20
1.000000000000000E+20
 30
1.000000000000000E+20
  9
$PEXTMAX
 10
-1.000000000000000E+20
 20
-1.000000000000000E+20
 30
-1.000000000000000E+20
  9
$PLIMMIN
 10
0.0
 20
0.0
  9
$PLIMMAX
 10
420.0
 20
297.0
  9
$UNITMODE
 70
     0
  9
$VISRETAIN
 70
     0
  9
$PLINEGEN
 70
     0
  9
$PSLTSCALE
 70
     1
  9
$TREEDEPTH
 70
  3020
  9
$PICKSTYLE
 70
     0
  9
$CMLSTYLE
  2
STANDARD
  9
$CMLJUST
 70
     0
  9
$CMLSCALE
 40
1.0
  9
$PROXYGRAPHICS
 70
     1
  9
$MEASUREMENT
 70
     1
  0
ENDSEC
  0
SECTION
  2
CLASSES
  0
CLASS
  1
XRECORD
  2
AcDbXrecord
  3
AutoCAD 2000
 90
        0
280
     0
281
     0
  0
CLASS
  1
ACDBDICTIONARYWDFLT
  2
AcDbDictionaryWithDefault
  3
AutoCAD 2000
 90
        0
280
     0
281
     0
  0
CLASS
  1
ACDBPLACEHOLDER
  2
AcDbPlaceHolder
  3
AutoCAD 2000
 90
        0
280
     0
281
     0
  0
CLASS
  1
LAYOUT
  2
AcDbLayout
  3
AutoCAD 2000
 90
        0
280
     0
281
     0
  0
CLASS
  1
DICTIONARYVAR
  2
AcDbDictionaryVar
  3
AutoCAD 2000
 90
        0
280
     0
281
     0
  0
CLASS
  1
LONG_TRANSACTION
  2
AcDbLongTransaction
  3
AutoCAD 2000
 90
        0
280
     0
281
     0
  0
CLASS
  1
LWPOLYLINE
  2
AcDbPolyline
  3
AutoCAD 2000
 90
        0
280
     0
281
     1
  0
CLASS
  1
HATCH
  2
AcDbHatch
  3
AutoCAD 2000
 90
        0
280
     0
281
     1
  0
CLASS
  1
XRECORD
  2
AcDbXrecord
  3
AutoCAD 2000
 90
        0
280
     0
281
     0
  0
ENDSEC
  0
SECTION
  2
TABLES
  0
TABLE
  2
VPORT
  5
8
330
0
100
AcDbSymbolTable
 70
     2
  0
VPORT
  5
9799
330
8
100
AcDbSymbolTableRecord
100
AcDbViewportTableRecord
  2
*ACTIVE
 70
     0
 10
0.0
 20
0.0
 11
1.0
 21
1.0
 12
68.08511556972148
 22
14.35456416845051
 13
0.0
 23
0.0
 14
7.0
 24
7.0
 15
7.0
 25
7.0
 16
0.0
 26
0.0
 36
1.0
 17
0.0
 27
0.0
 37
0.0
 40
150.7968018826538
 41
1.53185955786736
 42
50.0
 43
0.0
 44
0.0
 50
0.0
 51
0.0
 71
     0
 72
  2000
 73
     1
 74
     0
 75
     1
 76
     0
 77
     0
 78
     0
  0
ENDTAB
  0
TABLE
  2
LTYPE
  5
5
330
0
100
AcDbSymbolTable
 70
     4
  0
LTYPE
  5
14
330
5
100
AcDbSymbolTableRecord
100
AcDbLinetypeTableRecord
  2
BYBLOCK
 70
     0
  3

 72
    65
 73
     0
 40
0.0
  0
LTYPE
  5
15
330
5
100
AcDbSymbolTableRecord
100
AcDbLinetypeTableRecord
  2
BYLAYER
 70
     0
  3

 72
    65
 73
     0
 40
0.0
  0
LTYPE
  5
16
330
5
100
AcDbSymbolTableRecord
100
AcDbLinetypeTableRecord
  2
CONTINUOUS
 70
     0
  3
Solid line
 72
    65
 73
     0
 40
0.0
  0
LTYPE
  5
258
330
5
100
AcDbSymbolTableRecord
100
AcDbLinetypeTableRecord
  2
CENTER2
 70
     0
  3
___ _ ___ _ ___ _ ___ _ ___ _ ___ _ ___ _ ___ _
 72
    65
 73
     4
 40
1.125
 49
0.75
 74
     0
 49
-0.125
 74
     0
 49
0.125
 74
     0
 49
-0.125
 74
     0
  0
LTYPE
  5
25C
330
5
100
AcDbSymbolTableRecord
100
AcDbLinetypeTableRecord
  2
HIDDEN2
 70
     0
  3
_ _ _ _ _ _ _ _ _ _ _ _ _ _ _ _ _ _ _ _ _ _ _ _
 72
    65
 73
     2
 40
0.1875
 49
0.125
 74
     0
 49
-0.0625
 74
     0
  0
LTYPE
  5
25D
330
5
100
AcDbSymbolTableRecord
100
AcDbLinetypeTableRecord
  2
PHANTOM2
 70
     0
  3
___ _ _ ___ _ _ ___ _ _ ___ _ _ ___ _ _ ___ _ _
 72
    65
 73
     6
 40
1.25
 49
0.625
 74
     0
 49
-0.125
 74
     0
 49
0.125
 74
     0
 49
-0.125
 74
     0
 49
0.125
 74
     0
 49
-0.125
 74
     0
  0
ENDTAB
  0
TABLE
  2
LAYER
  5
2
330
0
100
AcDbSymbolTable
 70
    11
  0
LAYER
  5
F
330
2
100
AcDbSymbolTableRecord
100
AcDbLayerTableRecord
  2
0
 70
     0
 62
     7
  6
CONTINUOUS
  0
LAYER
  5
1AA
330
2
100
AcDbSymbolTableRecord
100
AcDbLayerTableRecord
  2
240
 70
     0
 62
     4
  6
CONTINUOUS
  0
LAYER
  5
1AB
330
2
100
AcDbSymbolTableRecord
100
AcDbLayerTableRecord
  2
241
 70
     0
 62
   211
  6
CONTINUOUS
  0
LAYER
  5
1AC
330
2
100
AcDbSymbolTableRecord
100
AcDbLayerTableRecord
  2
242
 70
     0
 62
     3
  6
CONTINUOUS
  0
LAYER
  5
1AD
330
2
100
AcDbSymbolTableRecord
100
AcDbLayerTableRecord
  2
243
 70
     0
 62
   211
  6
HIDDEN2
  0
LAYER
  5
1AF
330
2
100
AcDbSymbolTableRecord
100
AcDbLayerTableRecord
  2
245
 70
     0
 62
     2
  6
CENTER2
  0
LAYER
  5
21A
330
2
100
AcDbSymbolTableRecord
100
AcDbLayerTableRecord
  2
246
 70
     0
 62
     3
  6
PHANTOM2
  0
LAYER
  5
21B
330
2
100
AcDbSymbolTableRecord
100
AcDbLayerTableRecord
  2
247
 70
     0
 62
    60
  6
CONTINUOUS
  0
LAYER
  5
21E
330
2
100
AcDbSymbolTableRecord
100
AcDbLayerTableRecord
  2
250
 70
     0
 62
     3
  6
CONTINUOUS
  0
LAYER
  5
355
330
2
100
AcDbSymbolTableRecord
100
AcDbLayerTableRecord
  2
GRADE
 70
     5
 62
    -7
  6
CONTINUOUS
  0
LAYER
  5
5C4
330
2
100
AcDbSymbolTableRecord
100
AcDbLayerTableRecord
  2
DEFPOINTS
 70
     0
 62
     7
  6
CONTINUOUS
  0
ENDTAB
  0
TABLE
  2
STYLE
  5
3
330
0
100
AcDbSymbolTable
 70
     2
  0
STYLE
  5
10
330
3
100
AcDbSymbolTableRecord
100
AcDbTextStyleTableRecord
  2
STANDARD
 70
     0
 40
0.0
 41
1.0
 50
0.0
 71
     0
 42
3.0
  3
romans.shx
  4
BIGFONT.SHX
  0
STYLE
  5
339
330
3
100
AcDbSymbolTableRecord
100
AcDbTextStyleTableRecord
  2
YOKO
 70
     0
 40
0.0
 41
1.0
 50
0.0
 71
     0
 42
3.0
  3
romans.shx
  4
extfont.shx
  0
ENDTAB
  0
TABLE
  2
VIEW
  5
6
330
0
100
AcDbSymbolTable
 70
     0
  0
ENDTAB
  0
TABLE
  2
UCS
  5
7
330
0
100
AcDbSymbolTable
 70
     0
  0
ENDTAB
  0
TABLE
  2
APPID
  5
9
330
0
100
AcDbSymbolTable
 70
    10
  0
APPID
  5
11
330
9
100
AcDbSymbolTableRecord
100
AcDbRegAppTableRecord
  2
ACAD
 70
     0
  0
APPID
  5
1B1
330
9
100
AcDbSymbolTableRecord
100
AcDbRegAppTableRecord
  2
GLOBAL
 70
     0
  0
APPID
  5
2A4
330
9
100
AcDbSymbolTableRecord
100
AcDbRegAppTableRecord
  2
DETAIL
 70
     0
  0
APPID
  5
5FD
330
9
100
AcDbSymbolTableRecord
100
AcDbRegAppTableRecord
  2
GRPNAME
 70
     0
  0
APPID
  5
5FE
330
9
100
AcDbSymbolTableRecord
100
AcDbRegAppTableRecord
  2
GPARA
 70
     0
  0
APPID
  5
69A
330
9
100
AcDbSymbolTableRecord
100
AcDbRegAppTableRecord
  2
ITEMNAME
 70
     0
  0
APPID
  5
E4D
330
9
100
AcDbSymbolTableRecord
100
AcDbRegAppTableRecord
  2
HATCH_TYPE
 70
     0
  0
APPID
  5
E4E
330
9
100
AcDbSymbolTableRecord
100
AcDbRegAppTableRecord
  2
HATCH_DISPLAY
 70
     0
  0
APPID
  5
E4F
330
9
100
AcDbSymbolTableRecord
100
AcDbRegAppTableRecord
  2
HATCH_DISTANCE
 70
     0
  0
APPID
  5
194D
330
9
100
AcDbSymbolTableRecord
100
AcDbRegAppTableRecord
  2
DRAWING
 70
     0
  0
ENDTAB
  0
TABLE
  2
DIMSTYLE
  5
A
330
0
100
AcDbSymbolTable
 70
     2
  0
DIMSTYLE
105
48F
330
A
100
AcDbSymbolTableRecord
100
AcDbDimStyleTableRecord
  2
STANDARD
 70
     0
  3

  4

  5

  6

  7

 40
1.0
 41
2.0
 42
2.0
 43
3.75
 44
2.0
 45
0.0
 46
0.0
 47
0.0
 48
0.0
140
4.0
141
0.09
142
0.0
143
25.4
144
1.0
145
0.0
146
1.0
147
1.0
 71
     0
 72
     0
 73
     1
 74
     1
 75
     0
 76
     0
 77
     0
 78
     8
170
     0
171
     2
172
     0
173
     1
174
     0
175
     0
176
   256
177
   256
178
   256
270
     2
271
     3
272
     4
273
     2
274
     2
340
10
275
     0
280
     0
281
     0
282
     0
283
     1
284
     8
285
     0
286
     0
287
     3
288
     0
  0
DIMSTYLE
105
59A
102
{ACAD_REACTORS
330
9664
330
9665
330
9663
330
9666
102
}
330
A
100
AcDbSymbolTableRecord
100
AcDbDimStyleTableRecord
  2
BIGT
 70
     0
  3

  4

  5
OPEN
  6

  7

 40
1.0
 41
2.229999999999999
 42
0.5
 43
2.5
 44
1.0
 45
0.0
 46
0.0
 47
0.0
 48
0.0
140
3.5
141
0.0
142
0.0
143
25.4
144
1.0
145
0.0
146
1.0
147
1.0
 71
     0
 72
     0
 73
     0
 74
     0
 75
     0
 76
     0
 77
     3
 78
     9
170
     0
171
     2
172
     1
173
     0
174
     0
175
     0
176
   256
177
   256
178
    40
270
     2
271
     3
272
     3
273
     2
274
     2
340
10
275
     0
280
     0
281
     0
282
     0
283
     1
284
     8
285
     0
286
     0
287
     2
288
     0
  0
ENDTAB
  0
TABLE
  2
BLOCK_RECORD
  5
1
330
0
100
AcDbSymbolTable
 70
     6
  0
BLOCK_RECORD
  5
1A
102
{ACAD_XDICTIONARY
360
97BD
102
}
330
1
100
AcDbSymbolTableRecord
100
AcDbBlockTableRecord
  2
*MODEL_SPACE
  0
BLOCK_RECORD
  5
17
102
{ACAD_XDICTIONARY
360
97BB
102
}
330
1
100
AcDbSymbolTableRecord
100
AcDbBlockTableRecord
  2
*PAPER_SPACE
  0
BLOCK_RECORD
  5
594
330
1
100
AcDbSymbolTableRecord
100
AcDbBlockTableRecord
  2
_OPEN
  0
BLOCK_RECORD
  5
9528
330
1
100
AcDbSymbolTableRecord
100
AcDbBlockTableRecord
  2
A$C7C4B2E9C
  0
BLOCK_RECORD
  5
9667
330
1
100
AcDbSymbolTableRecord
100
AcDbBlockTableRecord
  2
*D2
  0
BLOCK_RECORD
  5
9673
330
1
100
AcDbSymbolTableRecord
100
AcDbBlockTableRecord
  2
*D3
  0
BLOCK_RECORD
  5
967F
330
1
100
AcDbSymbolTableRecord
100
AcDbBlockTableRecord
  2
*D4
  0
BLOCK_RECORD
  5
968B
330
1
100
AcDbSymbolTableRecord
100
AcDbBlockTableRecord
  2
*D5
  0
ENDTAB
  0
ENDSEC
  0
SECTION
  2
BLOCKS
  0
BLOCK
  5
1B
330
1A
100
AcDbEntity
  8
0
100
AcDbBlockBegin
  2
*MODEL_SPACE
 70
     0
 10
0.0
 20
0.0
 30
0.0
  3
*MODEL_SPACE
  1

  0
ENDBLK
  5
1C
330
1A
100
AcDbEntity
  8
0
100
AcDbBlockEnd
  0
BLOCK
  5
18
330
17
100
AcDbEntity
 67
     1
  8
0
100
AcDbBlockBegin
  2
*PAPER_SPACE
 70
     0
 10
0.0
 20
0.0
 30
0.0
  3
*PAPER_SPACE
  1

  0
ENDBLK
  5
19
330
17
100
AcDbEntity
 67
     1
  8
0
100
AcDbBlockEnd
  0
BLOCK
  5
598
330
594
100
AcDbEntity
  8
0
100
AcDbBlockBegin
  2
_OPEN
 70
     0
 10
0.0
 20
0.0
 30
0.0
  3
_OPEN
  1

  0
LINE
  5
595
330
594
100
AcDbEntity
  8
0
  6
BYBLOCK
 62
     0
100
AcDbLine
 10
-1.0
 20
0.1666666666666666
 30
0.0
 11
0.0
 21
0.0
 31
0.0
  0
LINE
  5
596
330
594
100
AcDbEntity
  8
0
  6
BYBLOCK
 62
     0
100
AcDbLine
 10
-1.0
 20
-0.1666666666666666
 30
0.0
 11
0.0
 21
0.0
 31
0.0
  0
LINE
  5
597
330
594
100
AcDbEntity
  8
0
  6
BYBLOCK
 62
     0
100
AcDbLine
 10
0.0
 20
0.0
 30
0.0
 11
-1.0
 21
0.0
 31
0.0
  0
ENDBLK
  5
599
330
594
100
AcDbEntity
  8
0
100
AcDbBlockEnd
  0
BLOCK
  5
965C
330
9528
100
AcDbEntity
  8
0
100
AcDbBlockBegin
  2
A$C7C4B2E9C
 70
     0
 10
0.0
 20
0.0
 30
0.0
  3
A$C7C4B2E9C
  1

  0
LINE
  5
9529
330
9528
100
AcDbEntity
  8
240
100
AcDbLine
 10
40.99999999999138
 20
-17.25
 30
0.0
 11
143.4999999999915
 21
-17.25
 31
0.0
1001
GRPNAME
1000
PASTMD0M
  0
LINE
  5
952A
330
9528
100
AcDbEntity
  8
240
100
AcDbLine
 10
40.99999999999133
 20
17.25
 30
0.0
 11
143.4999999999915
 21
17.25
 31
0.0
1001
GRPNAME
1000
PASTMD0M
  0
LINE
  5
952B
330
9528
100
AcDbEntity
  8
245
100
AcDbLine
 10
-34.00000000000855
 20
0.0
 30
0.0
 11
167.6567676814774
 21
0.0
 31
0.0
1001
GRPNAME
1000
PASTMD11
  0
LINE
  5
952C
330
9528
100
AcDbEntity
  8
240
100
AcDbLine
 10
-2.0
 20
24.21499999999991
 30
0.0
 11
-30.85992514033273
 21
22.77200374298331
 31
0.0
1001
GRPNAME
1000
PASTMD36
  0
LINE
  5
952D
330
9528
100
AcDbEntity
  8
240
100
AcDbLine
 10
-2.0
 20
-24.21500000000003
 30
0.0
 11
-30.85992514033273
 21
-22.77200374298343
 31
0.0
1001
GRPNAME
1000
PASTMD36
  0
LINE
  5
952E
330
9528
100
AcDbEntity
  8
240
100
AcDbLine
 10
-26.0
 20
4.769999999999981
 30
0.0
 11
-26.0
 21
0.0
 31
0.0
1001
GRPNAME
1000
PASTMD37
  0
LINE
  5
952F
330
9528
100
AcDbEntity
  8
243
100
AcDbLine
 10
-22.0
 20
0.0
 30
0.0
 11
-22.0
 21
4.769999999999981
 31
0.0
1001
GRPNAME
1000
PASTMD36
  0
CIRCLE
  5
9530
330
9528
100
AcDbEntity
  8
241
100
AcDbCircle
 10
-9.0
 20
0.0
 30
0.0
 40
3.75
1001
GRPNAME
1000
PASTMD1T
  0
LINE
  5
9531
330
9528
100
AcDbEntity
  8
243
100
AcDbLine
 10
-27.5
 20
-6.269999999999981
 30
0.0
 11
-23.5
 21
-6.269999999999981
 31
0.0
1001
GRPNAME
1000
PASTMD36
  0
LINE
  5
9532
330
9528
100
AcDbEntity
  8
240
100
AcDbLine
 10
-32.0
 20
-21.57350093632999
 30
0.0
 11
-32.0
 21
-7.269999999999754
 31
0.0
1001
GRPNAME
1000
PASTMD36
  0
ARC
  5
9533
330
9528
100
AcDbEntity
  8
240
100
AcDbCircle
 10
-30.79999999999995
 20
-21.57350093632999
 30
0.0
 40
1.200000000000045
100
AcDbArc
 50
180.0000000822592
 51
267.137594856145
1001
GRPNAME
1000
PASTMD36
  0
LINE
  5
9534
330
9528
100
AcDbEntity
  8
240
100
AcDbLine
 10
-32.0
 20
-7.269999999999754
 30
0.0
 11
-31.00000000000022
 21
-6.269999999999981
 31
0.0
1001
GRPNAME
1000
PASTMD36
  0
LINE
  5
9535
330
9528
100
AcDbEntity
  8
241
100
AcDbLine
 10
-32.0
 20
-8.692000000000007
 30
0.0
 11
-27.46991314618924
 21
-9.289216450227399
 31
0.0
1001
GRPNAME
1000
PASTMD36
  0
LINE
  5
9536
330
9528
100
AcDbEntity
  8
241
100
AcDbLine
 10
-26.0
 20
-8.000368312256114
 30
0.0
 11
-26.0
 21
-4.769999999999981
 31
0.0
1001
GRPNAME
1000
PASTMD36
  0
ARC
  5
9537
330
9528
100
AcDbEntity
  8
241
100
AcDbCircle
 10
-27.29999999999995
 20
-8.000368312256114
 30
0.0
 40
1.300000000000056
100
AcDbArc
 50
262.4898155782567
 51
359.9999999414541
1001
GRPNAME
1000
PASTMD36
  0
LINE
  5
9538
330
9528
100
AcDbEntity
  8
240
100
AcDbLine
 10
-31.00000000000022
 20
-6.269999999999981
 30
0.0
 11
-27.5
 21
-6.269999999999981
 31
0.0
1001
GRPNAME
1000
PASTMD36
  0
ARC
  5
9539
330
9528
100
AcDbEntity
  8
240
100
AcDbCircle
 10
-27.5
 20
-4.769999999999981
 30
0.0
 40
1.5
100
AcDbArc
 50
269.9999999665582
 51
359.9999999665582
1001
GRPNAME
1000
PASTMD36
  0
LINE
  5
953A
330
9528
100
AcDbEntity
  8
240
100
AcDbLine
 10
-26.0
 20
-4.769999999999981
 30
0.0
 11
-26.0
 21
0.0
 31
0.0
1001
GRPNAME
1000
PASTMD36
  0
ARC
  5
953B
330
9528
100
AcDbEntity
  8
243
100
AcDbCircle
 10
-23.5
 20
-4.769999999999981
 30
0.0
 40
1.5
100
AcDbArc
 50
269.9999999665582
 51
359.9999999665582
1001
GRPNAME
1000
PASTMD36
  0
LINE
  5
953C
330
9528
100
AcDbEntity
  8
243
100
AcDbLine
 10
-22.0
 20
-4.769999999999981
 30
0.0
 11
-22.0
 21
0.0
 31
0.0
1001
GRPNAME
1000
PASTMD36
  0
LINE
  5
953D
330
9528
100
AcDbEntity
  8
243
100
AcDbLine
 10
-31.0
 20
6.269999999999981
 30
0.0
 11
-23.5
 21
6.269999999999981
 31
0.0
1001
GRPNAME
1000
PASTMD36
  0
LINE
  5
953E
330
9528
100
AcDbEntity
  8
240
100
AcDbLine
 10
-32.0
 20
7.269999999999981
 30
0.0
 11
-32.0
 21
21.57350093632999
 31
0.0
1001
GRPNAME
1000
PASTMD36
  0
LINE
  5
953F
330
9528
100
AcDbEntity
  8
240
100
AcDbLine
 10
-31.0
 20
6.269999999999981
 30
0.0
 11
-32.0
 21
7.269999999999981
 31
0.0
1001
GRPNAME
1000
PASTMD36
  0
LINE
  5
9540
330
9528
100
AcDbEntity
  8
240
100
AcDbLine
 10
-32.0
 20
7.269999999999754
 30
0.0
 11
-31.00000000000022
 21
6.269999999999981
 31
0.0
1001
GRPNAME
1000
PASTMD37
  0
LINE
  5
9541
330
9528
100
AcDbEntity
  8
241
100
AcDbLine
 10
-32.0
 20
8.692000000000007
 30
0.0
 11
-27.46991314618924
 21
9.289216450227399
 31
0.0
1001
GRPNAME
1000
PASTMD37
  0
ARC
  5
9542
330
9528
100
AcDbEntity
  8
241
100
AcDbCircle
 10
-27.29999999999995
 20
8.000368312256114
 30
0.0
 40
1.299999999999954
100
AcDbArc
 50
0.000000016079256
 51
97.51018437928371
1001
GRPNAME
1000
PASTMD37
  0
LINE
  5
9543
330
9528
100
AcDbEntity
  8
240
100
AcDbLine
 10
-31.00000000000022
 20
6.269999999999981
 30
0.0
 11
-27.5
 21
6.269999999999981
 31
0.0
1001
GRPNAME
1000
PASTMD37
  0
LINE
  5
9544
330
9528
100
AcDbEntity
  8
241
100
AcDbLine
 10
-26.0
 20
8.000368312256114
 30
0.0
 11
-26.0
 21
4.769999999999981
 31
0.0
1001
GRPNAME
1000
PASTMD37
  0
ARC
  5
9545
330
9528
100
AcDbEntity
  8
240
100
AcDbCircle
 10
-27.5
 20
4.769999999999981
 30
0.0
 40
1.5
100
AcDbArc
 50
0.0000000077155677
 51
90.00000000771557
1001
GRPNAME
1000
PASTMD37
  0
ARC
  5
9546
330
9528
100
AcDbEntity
  8
240
100
AcDbCircle
 10
-30.79999999999995
 20
21.57350093632999
 30
0.0
 40
1.199999999999932
100
AcDbArc
 50
92.86240522857788
 51
180.0000000024654
1001
GRPNAME
1000
PASTMD36
  0
ARC
  5
9547
330
9528
100
AcDbEntity
  8
243
100
AcDbCircle
 10
-23.5
 20
4.769999999999981
 30
0.0
 40
1.5
100
AcDbArc
 50
0.0000000899780446
 51
90.00000008997805
1001
GRPNAME
1000
PASTMD36
  0
LINE
  5
9548
330
9528
100
AcDbEntity
  8
241
100
AcDbLine
 10
33.99999999999138
 20
-23.14999999999997
 30
0.0
 11
33.99999999999138
 21
23.14999999999997
 31
0.0
1001
GRPNAME
1000
PASTMD11
  0
LINE
  5
9549
330
9528
100
AcDbEntity
  8
241
100
AcDbLine
 10
40.99999999999138
 20
-17.25
 30
0.0
 11
40.99999999999138
 21
17.25
 31
0.0
1001
GRPNAME
1000
PASTMD13
  0
LINE
  5
954A
330
9528
100
AcDbEntity
  8
241
100
AcDbLine
 10
0.0
 20
0.0
 30
0.0
 11
0.0
 21
17.25
 31
0.0
1001
GRPNAME
1000
PASTMD36
  0
LINE
  5
954B
330
9528
100
AcDbEntity
  8
241
100
AcDbLine
 10
-2.0
 20
24.21499999999991
 30
0.0
 11
-2.0
 21
0.0
 31
0.0
1001
GRPNAME
1000
PASTMD37
  0
LINE
  5
954C
330
9528
100
AcDbEntity
  8
241
100
AcDbLine
 10
0.0
 20
24.25674243050434
 30
0.0
 11
0.0
 21
0.0
 31
0.0
1001
GRPNAME
1000
PASTMD37
  0
ARC
  5
954D
330
9528
100
AcDbEntity
  8
241
100
AcDbCircle
 10
13.0
 20
0.0
 30
0.0
 40
8.0
100
AcDbArc
 50
89.99999989201462
 51
179.9999998920146
1001
GRPNAME
1000
PASTMD37
  0
LINE
  5
954E
330
9528
100
AcDbEntity
  8
241
100
AcDbLine
 10
26.00000000000011
 20
26.69999999999982
 30
0.0
 11
25.99999999999988
 21
-26.00000000000034
 31
0.0
1001
GRPNAME
1000
PASTMD3P
  0
LINE
  5
954F
330
9528
100
AcDbEntity
  8
241
100
AcDbLine
 10
19.875
 20
-20.0
 30
0.0
 11
26.0
 21
-20.0
 31
0.0
1001
GRPNAME
1000
PASTMD36
  0
LINE
  5
9550
330
9528
100
AcDbEntity
  8
241
100
AcDbLine
 10
13.0
 20
-8.0
 30
0.0
 11
25.5
 21
-8.0
 31
0.0
1001
GRPNAME
1000
PASTMD36
  0
LINE
  5
9551
330
9528
100
AcDbEntity
  8
240
100
AcDbLine
 10
19.875
 20
-28.89759526419186
 30
0.0
 11
21.37749907475927
 21
-31.5
 31
0.0
1001
GRPNAME
1000
PASTMD36
  0
LINE
  5
9552
330
9528
100
AcDbEntity
  8
241
100
AcDbLine
 10
21.37749907475927
 20
-24.33618704727592
 30
0.0
 11
19.875
 21
-20.85835592881289
 31
0.0
1001
GRPNAME
1000
PASTMD36
  0
ARC
  5
9553
330
9528
100
AcDbEntity
  8
241
100
AcDbCircle
 10
12.11171390365564
 20
-28.0
 30
0.0
 40
8.0
100
AcDbArc
 50
89.9999999897115
 51
152.7433806805502
1001
GRPNAME
1000
PASTMD36
  0
LINE
  5
9554
330
9528
100
AcDbEntity
  8
241
100
AcDbLine
 10
4.999999999999772
 20
-24.33618704727592
 30
0.0
 11
14.62250092524072
 21
-24.33618704727592
 31
0.0
1001
GRPNAME
1000
PASTMD36
  0
LINE
  5
9555
330
9528
100
AcDbEntity
  8
240
100
AcDbLine
 10
1.0
 20
-31.5
 30
0.0
 11
14.62250092524072
 21
-31.5
 31
0.0
1001
GRPNAME
1000
PASTMD36
  0
ARC
  5
9556
330
9528
100
AcDbEntity
  8
241
100
AcDbCircle
 10
13.0
 20
0.0
 30
0.0
 40
8.0
100
AcDbArc
 50
180.0000000822592
 51
270.0000000822591
1001
GRPNAME
1000
PASTMD36
  0
LINE
  5
9557
330
9528
100
AcDbEntity
  8
241
100
AcDbLine
 10
-2.0
 20
-24.21500000000003
 30
0.0
 11
-2.0
 21
0.0
 31
0.0
1001
GRPNAME
1000
PASTMD36
  0
LINE
  5
9558
330
9528
100
AcDbEntity
  8
241
100
AcDbLine
 10
0.0
 20
-24.21500000000003
 30
0.0
 11
0.0
 21
0.0
 31
0.0
1001
GRPNAME
1000
PASTMD36
  0
LINE
  5
9559
330
9528
100
AcDbEntity
  8
240
100
AcDbLine
 10
0.0
 20
-30.5
 30
0.0
 11
0.0
 21
-24.21500000000003
 31
0.0
1001
GRPNAME
1000
PASTMD36
  0
ARC
  5
955A
330
9528
100
AcDbEntity
  8
240
100
AcDbCircle
 10
1.0
 20
-30.5
 30
0.0
 40
1.0
100
AcDbArc
 50
180.0000000822624
 51
270.0000000822559
1001
GRPNAME
1000
PASTMD36
  0
LINE
  5
955B
330
9528
100
AcDbEntity
  8
240
100
AcDbLine
 10
-2.0
 20
-24.21500000000003
 30
0.0
 11
0.0
 21
-24.21500000000003
 31
0.0
  0
LINE
  5
955C
330
9528
100
AcDbEntity
  8
241
100
AcDbLine
 10
14.62250092524072
 20
-8.0
 30
0.0
 11
14.62250092524072
 21
-20.0
 31
0.0
1001
GRPNAME
1000
PASTMD36
  0
LINE
  5
955D
330
9528
100
AcDbEntity
  8
241
100
AcDbLine
 10
16.125
 20
-8.0
 30
0.0
 11
16.125
 21
-28.0
 31
0.0
1001
GRPNAME
1000
PASTMD36
  0
LINE
  5
955E
330
9528
100
AcDbEntity
  8
241
100
AcDbLine
 10
19.875
 20
-8.0
 30
0.0
 11
19.875
 21
-28.0
 31
0.0
1001
GRPNAME
1000
PASTMD36
  0
LINE
  5
955F
330
9528
100
AcDbEntity
  8
241
100
AcDbLine
 10
12.11171390365564
 20
-20.0
 30
0.0
 11
16.125
 21
-20.0
 31
0.0
1001
GRPNAME
1000
PASTMD36
  0
LINE
  5
9560
330
9528
100
AcDbEntity
  8
240
100
AcDbLine
 10
16.125
 20
-28.89759526419186
 30
0.0
 11
14.62250092524072
 21
-31.5
 31
0.0
1001
GRPNAME
1000
PASTMD36
  0
LINE
  5
9561
330
9528
100
AcDbEntity
  8
241
100
AcDbLine
 10
14.62250092524072
 20
-24.33618704727592
 30
0.0
 11
16.125
 21
-20.85835592881289
 31
0.0
1001
GRPNAME
1000
PASTMD36
  0
LINE
  5
9562
330
9528
100
AcDbEntity
  8
241
100
AcDbLine
 10
14.62250092524072
 20
-24.33618704727592
 30
0.0
 11
14.62250092524072
 21
-31.5
 31
0.0
1001
GRPNAME
1000
PASTMD36
  0
LINE
  5
9563
330
9528
100
AcDbEntity
  8
240
100
AcDbLine
 10
16.625
 20
-27.5
 30
0.0
 11
19.375
 21
-27.5
 31
0.0
1001
GRPNAME
1000
PASTMD36
  0
LINE
  5
9564
330
9528
100
AcDbEntity
  8
240
100
AcDbLine
 10
16.125
 20
-28.0
 30
0.0
 11
16.125
 21
-28.89759526419186
 31
0.0
1001
GRPNAME
1000
PASTMD36
  0
ARC
  5
9565
330
9528
100
AcDbEntity
  8
240
100
AcDbCircle
 10
16.625
 20
-28.0
 30
0.0
 40
0.5
100
AcDbArc
 50
89.99999998971475
 51
179.9999999897147
1001
GRPNAME
1000
PASTMD36
  0
LINE
  5
9566
330
9528
100
AcDbEntity
  8
240
100
AcDbLine
 10
19.875
 20
-28.0
 30
0.0
 11
19.875
 21
-28.89759526419186
 31
0.0
1001
GRPNAME
1000
PASTMD36
  0
ARC
  5
9567
330
9528
100
AcDbEntity
  8
240
100
AcDbCircle
 10
19.375
 20
-28.0
 30
0.0
 40
0.5
100
AcDbArc
 50
0.0000000899747877
 51
90.0000000899813
1001
GRPNAME
1000
PASTMD36
  0
LINE
  5
9568
330
9528
100
AcDbEntity
  8
241
100
AcDbLine
 10
26.50000000000011
 20
-7.518000000000029
 30
0.0
 11
34.00000000000011
 21
-7.518000000000029
 31
0.0
1001
GRPNAME
1000
PASTMD3Z
  0
LINE
  5
9569
330
9528
100
AcDbEntity
  8
241
100
AcDbLine
 10
26.50000000000011
 20
-25.70500000000009
 30
0.0
 11
33.91431668474052
 21
-25.70500000000009
 31
0.0
1001
GRPNAME
1000
PASTMD3Z
  0
LINE
  5
956A
330
9528
100
AcDbEntity
  8
240
100
AcDbLine
 10
26.39999999999986
 20
-26.30000000000029
 30
0.0
 11
32.99999999999716
 21
-26.30000000000029
 31
0.0
1001
GRPNAME
1000
PASTMD3P
  0
LINE
  5
956B
330
9528
100
AcDbEntity
  8
242
100
AcDbLine
 10
26.50000000000011
 20
-25.70500000000009
 30
0.0
 11
34.00000000000011
 21
-7.518000000000029
 31
0.0
1001
GRPNAME
1000
PASTMD3Z
  0
LINE
  5
956C
330
9528
100
AcDbEntity
  8
242
100
AcDbLine
 10
26.50000000000011
 20
-7.518000000000029
 30
0.0
 11
33.9621379273301
 21
-25.57256303635603
 31
0.0
1001
GRPNAME
1000
PASTMD3Z
  0
LINE
  5
956D
330
9528
100
AcDbEntity
  8
241
100
AcDbLine
 10
21.37749907475927
 20
-8.0
 30
0.0
 11
21.37749907475927
 21
-20.0
 31
0.0
1001
GRPNAME
1000
PASTMD36
  0
LINE
  5
956E
330
9528
100
AcDbEntity
  8
241
100
AcDbLine
 10
26.50000000000011
 20
-25.70500000000009
 30
0.0
 11
26.50000000000011
 21
-7.518000000000029
 31
0.0
1001
GRPNAME
1000
PASTMD3Z
  0
LINE
  5
956F
330
9528
100
AcDbEntity
  8
241
100
AcDbLine
 10
21.37749907475927
 20
-24.33618704727592
 30
0.0
 11
26.0
 21
-24.33618704727592
 31
0.0
1001
GRPNAME
1000
PASTMD36
  0
LINE
  5
9570
330
9528
100
AcDbEntity
  8
240
100
AcDbLine
 10
21.37749907475927
 20
-31.5
 30
0.0
 11
25.0
 21
-31.5
 31
0.0
1001
GRPNAME
1000
PASTMD36
  0
LINE
  5
9571
330
9528
100
AcDbEntity
  8
241
100
AcDbLine
 10
21.37749907475927
 20
-24.33618704727592
 30
0.0
 11
21.37749907475927
 21
-31.5
 31
0.0
1001
GRPNAME
1000
PASTMD36
  0
ARC
  5
9572
330
9528
100
AcDbEntity
  8
240
100
AcDbCircle
 10
26.39999999999986
 20
-26.70000000000015
 30
0.0
 40
0.3999999999998636
100
AcDbArc
 50
89.99999998198941
 51
179.9999999819894
1001
GRPNAME
1000
PASTMD3P
  0
LINE
  5
9573
330
9528
100
AcDbEntity
  8
240
100
AcDbLine
 10
25.0
 20
-31.5
 30
0.0
 11
25.49999999946112
 21
-31.50000000000034
 31
0.0
  0
ARC
  5
9574
330
9528
100
AcDbEntity
  8
240
100
AcDbCircle
 10
25.49999999999988
 20
-31.00000000000034
 30
0.0
 40
0.5
100
AcDbArc
 50
269.9999999382591
 51
359.9999999382494
1001
GRPNAME
1000
PASTMD3P
  0
LINE
  5
9575
330
9528
100
AcDbEntity
  8
240
100
AcDbLine
 10
25.99999999999988
 20
-26.00000000000034
 30
0.0
 11
25.99999999999988
 21
-31.00000000000034
 31
0.0
1001
GRPNAME
1000
PASTMD3P
  0
LINE
  5
9576
330
9528
100
AcDbEntity
  8
241
100
AcDbLine
 10
25.5
 20
-8.0
 30
0.0
 11
26.0
 21
-8.5
 31
0.0
1001
GRPNAME
1000
PASTMD36
  0
LINE
  5
9577
330
9528
100
AcDbEntity
  8
243
100
AcDbLine
 10
40.89999999999136
 20
-14.55746629594148
 30
0.0
 11
40.89999999999136
 21
-17.14999999999997
 31
0.0
1001
GRPNAME
1000
PASTMD13
  0
ARC
  5
9578
330
9528
100
AcDbEntity
  8
240
100
AcDbCircle
 10
39.99999999999138
 20
-23.14999999999997
 30
0.0
 40
6.0
100
AcDbArc
 50
89.99999999742705
 51
180.0
1001
GRPNAME
1000
PASTMD13
  0
LINE
  5
9579
330
9528
100
AcDbEntity
  8
240
100
AcDbLine
 10
33.99999999998644
 20
-25.30000000000029
 30
0.0
 11
33.99999999998644
 21
-23.14999999999997
 31
0.0
1001
GRPNAME
1000
PASTMD2N
  0
ARC
  5
957A
330
9528
100
AcDbEntity
  8
240
100
AcDbCircle
 10
32.99999999998644
 20
-25.30000000000029
 30
0.0
 40
1.0
100
AcDbArc
 50
269.9999999665582
 51
359.9999999665517
1001
GRPNAME
1000
PASTMD2N
  0
LINE
  5
957B
330
9528
100
AcDbEntity
  8
240
100
AcDbLine
 10
40.89999999999136
 20
-17.14999999999997
 30
0.0
 11
40.99999999999133
 21
-17.25
 31
0.0
1001
GRPNAME
1000
PASTMD13
  0
LINE
  5
957C
330
9528
100
AcDbEntity
  8
240
100
AcDbLine
 10
39.99999999999138
 20
-17.14999999999997
 30
0.0
 11
40.89999999999136
 21
-17.14999999999997
 31
0.0
1001
GRPNAME
1000
PASTMD13
  0
LINE
  5
957D
330
9528
100
AcDbEntity
  8
240
100
AcDbLine
 10
19.875
 20
28.89759526419175
 30
0.0
 11
21.37749907475927
 21
31.5
 31
0.0
1001
GRPNAME
1000
PASTMD36
  0
LINE
  5
957E
330
9528
100
AcDbEntity
  8
241
100
AcDbLine
 10
13.0
 20
8.0
 30
0.0
 11
25.5
 21
8.0
 31
0.0
1001
GRPNAME
1000
PASTMD37
  0
LINE
  5
957F
330
9528
100
AcDbEntity
  8
240
100
AcDbLine
 10
1.0
 20
31.5
 30
0.0
 11
14.62250092524072
 21
31.5
 31
0.0
1001
GRPNAME
1000
PASTMD36
  0
LINE
  5
9580
330
9528
100
AcDbEntity
  8
247
100
AcDbLine
 10
5.032671990524761
 20
16.80747434209377
 30
0.0
 11
3.890033700712763
 21
17.95011263190576
 31
0.0
  0
ARC
  5
9581
330
9528
100
AcDbEntity
  8
247
100
AcDbCircle
 10
4.022249760757915
 20
16.94837861917596
 30
0.0
 40
1.010421752929687
100
AcDbArc
 50
0.0
 51
130.3298406541676
  0
LINE
  5
9582
330
9528
100
AcDbEntity
  8
247
100
AcDbLine
 10
3.852374393782326
 20
17.08974632672914
 30
0.0
 11
2.52706815920709
 21
18.41505256130437
 31
0.0
  0
LINE
  5
9583
330
9528
100
AcDbEntity
  8
247
100
AcDbLine
 10
2.092540822833882
 20
17.50254147951727
 30
0.0
 11
1.588564711443211
 21
18.00651759090806
 31
0.0
  0
ARC
  5
9584
330
9528
100
AcDbEntity
  8
247
100
AcDbCircle
 10
2.405550542007915
 20
17.41195588968378
 30
0.0
 40
1.010430335998535
100
AcDbArc
 50
17.66957754739792
 51
180.2361598426716
  0
LINE
  5
9585
330
9528
100
AcDbEntity
  8
247
100
AcDbLine
 10
2.489749894253293
 20
17.55434521415134
 30
0.0
 11
1.813402377498675
 21
18.23069273090595
 31
0.0
  0
LINE
  5
9586
330
9528
100
AcDbEntity
  8
247
100
AcDbLine
 10
3.560098720820235
 20
16.93300919363787
 30
0.0
 11
2.113767777353984
 21
18.37934013710412
 31
0.0
  0
LINE
  5
9587
102
{ACAD_REACTORS
330
9588
102
}
330
9528
100
AcDbEntity
  8
247
100
AcDbLine
 10
5.234759392868511
 20
15.05905061624639
 30
0.0
 11
5.234759392868511
 21
23.26374727151971
 31
0.0
  0
HATCH
  5
9588
330
9528
100
AcDbEntity
  8
247
100
AcDbHatch
 10
0.0
 20
0.0
 30
0.0
210
0.0
220
0.0
230
1.0
  2
ANSI31
 70
     0
 71
     1
 91
        1
 92
       33
 93
       10
 72
     1
 10
1.395128789078228
 20
15.8937216367542
 11
1.799303593765728
 21
15.77783113382452
 72
     1
 10
1.395128789078228
 20
15.05905061624639
 11
1.395128789078228
 21
15.8937216367542
 72
     1
 10
1.799303593765728
 20
15.05905061624639
 11
1.799303593765728
 21
15.77783113382452
 72
     2
 10
3.51703125489854
 20
15.05905061624639
 40
1.717727661132812
 50
180.0
 51
360.0
 73
     1
 72
     2
 10
3.51703125489854
 20
15.05905061624639
 40
2.121902465820312
 50
180.0
 51
360.0
 73
     1
 72
     1
 10
5.63893418715412
 20
15.05905061624639
 11
5.63893418715412
 21
23.26374727151971
 72
     1
 10
5.234759392868511
 20
15.05905061624639
 11
5.234759392868511
 21
23.26374727151971
 72
     2
 10
3.51703125489854
 20
23.26374727151971
 40
2.121902465820312
 50
0.0
 51
194.7707939660941
 73
     1
 72
     2
 10
3.51703125489854
 20
23.26374727151971
 40
1.717727661132812
 50
0.0
 51
194.1274364964119
 73
     1
 72
     1
 10
1.851244511734478
 20
22.8444815244494
 11
1.465242924820415
 21
22.72276216409784
 97
       10
330
9594
330
9593
330
9595
330
9592
330
9591
330
958A
330
9587
330
95BB
330
95A4
330
95D8
 75
     0
 76
     1
 52
90.0
 41
0.1
 77
     0
 78
     1
 53
135.0
 43
21.38892418397568
 44
-106.8628384981334
 45
-0.2245064030267288
 46
-0.2245064030267288
 79
     0
 98
        1
 10
21.38892418397568
 20
-106.8628384981334
  0
TEXT
  5
9589
330
9528
100
AcDbEntity
  8
247
100
AcDbText
 10
9.033888196292366
 20
7.318678726801749
 30
0.0
 40
2.5
  1
HSK-A63-NBS13-165
 50
90.0
 41
0.55
  7
YOKO
 11
9.033888196292366
 21
7.318678726801749
 31
0.0
100
AcDbText
 73
     1
  0
LINE
  5
958A
102
{ACAD_REACTORS
330
9588
102
}
330
9528
100
AcDbEntity
  8
247
100
AcDbLine
 10
5.63893418715412
 20
15.05905061624639
 30
0.0
 11
5.63893418715412
 21
23.26374727151971
 31
0.0
  0
ARC
  5
958B
330
9528
100
AcDbEntity
  8
247
100
AcDbCircle
 10
3.981829228531353
 20
16.49746614359003
 30
0.0
 40
0.6062626242637635
100
AcDbArc
 50
351.6628542111489
 51
156.3381921591137
  0
LINE
  5
958C
330
9528
100
AcDbEntity
  8
247
100
AcDbLine
 10
3.426534838000009
 20
16.74078180158107
 30
0.0
 11
4.581684891922236
 21
16.40955964396096
 31
0.0
  0
LINE
  5
958D
330
9528
100
AcDbEntity
  8
247
100
AcDbLine
 10
4.668553030520456
 20
15.37554207788423
 30
0.0
 11
2.958447068623797
 21
17.08564803978083
 31
0.0
  0
LINE
  5
958E
330
9528
100
AcDbEntity
  8
247
100
AcDbLine
 10
5.032671990524761
 20
16.35846153604029
 30
0.0
 11
3.549662737381083
 21
17.84147078918385
 31
0.0
  0
LINE
  5
958F
330
9528
100
AcDbEntity
  8
247
100
AcDbLine
 10
4.039026062231016
 20
15.55605624012025
 30
0.0
 11
2.624240456551262
 21
16.97084184580001
 31
0.0
  0
LINE
  5
9590
330
9528
100
AcDbEntity
  8
247
100
AcDbLine
 10
5.032671990524761
 20
15.27113252542608
 30
0.0
 11
1.799303593766865
 21
16.19828706644125
 31
0.0
  0
ARC
  5
9591
102
{ACAD_REACTORS
330
9588
102
}
330
9528
100
AcDbEntity
  8
247
100
AcDbCircle
 10
3.51703125489854
 20
15.05905061624639
 30
0.0
 40
2.121902465820312
100
AcDbArc
 50
180.0
 51
0.0
  0
ARC
  5
9592
102
{ACAD_REACTORS
330
9588
102
}
330
9528
100
AcDbEntity
  8
247
100
AcDbCircle
 10
3.51703125489854
 20
15.05905061624639
 30
0.0
 40
1.717727661132812
100
AcDbArc
 50
180.0
 51
0.0
  0
LINE
  5
9593
102
{ACAD_REACTORS
330
9588
102
}
330
9528
100
AcDbEntity
  8
247
100
AcDbLine
 10
1.395128789078228
 20
15.05905061624639
 30
0.0
 11
1.395128789078228
 21
15.8937216367542
 31
0.0
  0
LINE
  5
9594
102
{ACAD_REACTORS
330
9588
102
}
330
9528
100
AcDbEntity
  8
247
100
AcDbLine
 10
1.395128789078228
 20
15.8937216367542
 30
0.0
 11
1.799303593765728
 21
15.77783113382452
 31
0.0
  0
LINE
  5
9595
102
{ACAD_REACTORS
330
9588
102
}
330
9528
100
AcDbEntity
  8
247
100
AcDbLine
 10
1.799303593765728
 20
15.05905061624639
 30
0.0
 11
1.799303593765728
 21
15.77783113382452
 31
0.0
  0
LINE
  5
9596
330
9528
100
AcDbEntity
  8
247
100
AcDbLine
 10
1.855972398311507
 20
17.29009709798629
 30
0.0
 11
1.439135758799068
 21
17.70693373749873
 31
0.0
  0
LINE
  5
9597
330
9528
100
AcDbEntity
  8
247
100
AcDbLine
 10
2.150445157362753
 20
16.09759872682809
 30
0.0
 11
1.395128789078285
 21
16.8529150951125
 31
0.0
  0
LINE
  5
9598
330
9528
100
AcDbEntity
  8
247
100
AcDbLine
 10
1.799303593765728
 20
15.98805147073812
 30
0.0
 11
1.799303593766865
 21
16.19828706644125
 31
0.0
  0
LINE
  5
9599
330
9528
100
AcDbEntity
  8
247
100
AcDbLine
 10
1.395128789078228
 20
16.10394197366849
 30
0.0
 11
1.799303593765728
 21
15.98805147073812
 31
0.0
  0
LINE
  5
959A
330
9528
100
AcDbEntity
  8
247
100
AcDbLine
 10
1.799303593765728
 20
15.99972748437164
 30
0.0
 11
1.395128789078228
 21
16.40390228905914
 31
0.0
  0
LINE
  5
959B
330
9528
100
AcDbEntity
  8
247
100
AcDbLine
 10
1.395128789078228
 20
16.10394197366849
 30
0.0
 11
1.395128789078341
 21
17.40779114324789
 31
0.0
  0
LINE
  5
959C
330
9528
100
AcDbEntity
  8
247
100
AcDbLine
 10
2.779972125652136
 20
15.91708456459218
 30
0.0
 11
1.395128789078341
 21
17.30192790116598
 31
0.0
  0
LINE
  5
959D
330
9528
100
AcDbEntity
  8
247
100
AcDbLine
 10
1.809867701310338
 20
17.20435424818868
 30
0.0
 11
2.964983493344163
 21
16.87313753950206
 31
0.0
  0
ARC
  5
959E
330
9528
100
AcDbEntity
  8
247
100
AcDbCircle
 10
2.365145268570415
 20
16.96104341409784
 30
0.0
 40
0.6062452793121338
100
AcDbArc
 50
351.6626016879293
 51
156.3381550951899
  0
LINE
  5
959F
330
9528
100
AcDbEntity
  8
247
100
AcDbLine
 10
3.409499093941633
 20
15.73657040235616
 30
0.0
 11
1.994719446537942
 21
17.15135004975979
 31
0.0
  0
LINE
  5
95A0
330
9528
100
AcDbEntity
  8
247
100
AcDbLine
 10
5.032671990524761
 20
15.46043592393345
 30
0.0
 11
3.883295448279852
 21
16.60981246617825
 31
0.0
  0
LINE
  5
95A1
330
9528
100
AcDbEntity
  8
247
100
AcDbLine
 10
5.032671990524761
 20
15.27113252542608
 30
0.0
 11
5.032671990524761
 21
16.94837861917596
 31
0.0
  0
LINE
  5
95A2
330
9528
100
AcDbEntity
  8
247
100
AcDbLine
 10
5.032671990524761
 20
15.90944872998682
 30
0.0
 11
4.512813115362519
 21
16.429307605149
 31
0.0
  0
LINE
  5
95A3
330
9528
100
AcDbEntity
  8
247
100
AcDbLine
 10
4.956915247175118
 20
17.33224389149677
 30
0.0
 11
4.406115033078719
 21
17.88304410559328
 31
0.0
  0
ARC
  5
95A4
102
{ACAD_REACTORS
330
9588
102
}
330
9528
100
AcDbEntity
  8
247
100
AcDbCircle
 10
3.51703125489854
 20
23.26374727151971
 30
0.0
 40
1.717727661132812
100
AcDbArc
 50
0.0
 51
194.1274364964119
  0
LINE
  5
95A5
102
{ACAD_REACTORS
330
95B9
102
}
330
9528
100
AcDbEntity
  8
247
100
AcDbLine
 10
4.046724858414165
 20
20.72549348734003
 30
0.0
 11
2.147112431656353
 21
21.27020173929315
 31
0.0
  0
POLYLINE
  5
95A6
102
{ACAD_REACTORS
330
95AF
102
}
330
9528
100
AcDbEntity
  8
247
100
AcDb2dPolyline
 66
     1
 10
0.0
 20
0.0
 30
0.0
 70
     1
  0
VERTEX
  5
95A7
330
95A6
100
AcDbEntity
  8
247
100
AcDbVertex
100
AcDb2dVertex
 10
1.395128789078228
 20
19.06819063089471
 30
0.0
  0
VERTEX
  5
95A8
330
95A6
100
AcDbEntity
  8
247
100
AcDbVertex
100
AcDb2dVertex
 10
1.839708867203228
 20
18.94070344827753
 30
0.0
  0
VERTEX
  5
95A9
330
95A6
100
AcDbEntity
  8
247
100
AcDbVertex
100
AcDb2dVertex
 10
1.839708867203228
 20
19.08787446878534
 30
0.0
  0
VERTEX
  5
95AA
330
95A6
100
AcDbEntity
  8
247
100
AcDbVertex
100
AcDb2dVertex
 10
5.032671990524761
 20
18.17230134866815
 30
0.0
  0
VERTEX
  5
95AB
330
95A6
100
AcDbEntity
  8
247
100
AcDbVertex
100
AcDb2dVertex
 10
5.032671990524761
 20
19.0762930478869
 30
0.0
  0
VERTEX
  5
95AC
330
95A6
100
AcDbEntity
  8
247
100
AcDbVertex
100
AcDb2dVertex
 10
1.395128789078228
 20
20.11933809183222
 30
0.0
  0
SEQEND
  5
95AD
330
95A6
100
AcDbEntity
  8
247
  0
LINE
  5
95AE
330
9528
100
AcDbEntity
  8
247
100
AcDbLine
 10
5.032671990524761
 20
18.17230134866815
 30
0.0
 11
1.839708867203228
 21
19.08787446878534
 31
0.0
  0
HATCH
  5
95AF
330
9528
100
AcDbEntity
  8
247
100
AcDbHatch
 10
0.0
 20
0.0
 30
0.0
210
0.0
220
0.0
230
1.0
  2
ANSI31
 70
     0
 71
     1
 91
        1
 92
        7
 72
     0
 73
     1
 93
        6
 10
1.395128789078228
 20
20.11933809183221
 10
1.395128789078228
 20
19.06819063089471
 10
1.839708867203228
 20
18.94070344827753
 10
1.839708867203228
 20
19.08787446878534
 10
5.032671990524761
 20
18.17230134866816
 10
5.032671990524762
 20
19.0762930478869
 97
        1
330
95A6
 75
     0
 76
     1
 52
90.0
 41
0.1
 77
     0
 78
     1
 53
135.0
 43
21.38892418397568
 44
-106.8628384981334
 45
-0.2245064030267288
 46
-0.2245064030267288
 79
     0
 47
0.0134348504236232
 98
        1
 10
3.11865317574319
 20
19.17435582689347
  0
POLYLINE
  5
95B0
330
9528
100
AcDbEntity
  8
247
100
AcDb2dPolyline
 66
     1
 10
0.0
 20
0.0
 30
0.0
 70
     1
1001
HATCH_DISTANCE
1040
1.0
1001
HATCH_DISPLAY
1070
     0
1001
HATCH_TYPE
1070
     7
  0
VERTEX
  5
95B1
330
95B0
100
AcDbEntity
  8
247
100
AcDbVertex
100
AcDb2dVertex
 10
1.395128789078228
 20
19.06819063089471
 30
0.0
  0
VERTEX
  5
95B2
330
95B0
100
AcDbEntity
  8
247
100
AcDbVertex
100
AcDb2dVertex
 10
1.839708867203228
 20
18.94070344827753
 30
0.0
  0
VERTEX
  5
95B3
330
95B0
100
AcDbEntity
  8
247
100
AcDbVertex
100
AcDb2dVertex
 10
1.839708867203228
 20
19.08787446878534
 30
0.0
  0
VERTEX
  5
95B4
330
95B0
100
AcDbEntity
  8
247
100
AcDbVertex
100
AcDb2dVertex
 10
5.032671990524761
 20
18.17230134866815
 30
0.0
  0
VERTEX
  5
95B5
330
95B0
100
AcDbEntity
  8
247
100
AcDbVertex
100
AcDb2dVertex
 10
5.032671990524761
 20
19.0762930478869
 30
0.0
  0
VERTEX
  5
95B6
330
95B0
100
AcDbEntity
  8
247
100
AcDbVertex
100
AcDb2dVertex
 10
1.395128789078228
 20
20.11933809183222
 30
0.0
  0
SEQEND
  5
95B7
330
95B0
100
AcDbEntity
  8
247
  0
LINE
  5
95B8
330
9528
100
AcDbEntity
  8
247
100
AcDbLine
 10
5.032671990524761
 20
19.0762930478869
 30
0.0
 11
1.395128789078228
 21
20.11933809183222
 31
0.0
  0
HATCH
  5
95B9
330
9528
100
AcDbEntity
  8
247
100
AcDbHatch
 10
0.0
 20
0.0
 30
0.0
210
0.0
220
0.0
230
1.0
  2
ANSI31
 70
     0
 71
     1
 91
        1
 92
       33
 93
       15
 72
     1
 10
1.912020268570415
 20
22.65174775980097
 11
1.526018681656353
 21
22.5300283994494
 72
     2
 10
3.51703125489854
 20
23.26374727151971
 40
1.717732429504394
 50
200.8721834020736
 51
222.5419489373881
 73
     1
 72
     2
 10
2.26410156739854
 20
21.67814546487909
 40
0.4243833422660828
 50
91.71012138206274
 51
253.9983983544486
 73
     1
 72
     1
 10
4.046724858414165
 20
20.72549348734003
 11
2.147112431656353
 21
21.27020173929315
 72
     2
 10
4.16369873536729
 20
21.13343721292597
 40
0.4243830442428589
 50
254.0002730571842
 51
434.0002730571843
 73
     1
 72
     1
 10
4.280672612320415
 20
21.5413809385119
 11
3.375567021500103
 21
21.80091768167597
 72
     1
 10
3.375567021500103
 20
21.46455293558222
 11
3.375567021500103
 21
21.80091768167597
 72
     1
 10
3.375567021500103
 20
21.46455293558222
 11
2.971392216812603
 21
21.5804434385119
 72
     1
 10
2.971392216812603
 20
21.5804434385119
 11
2.971392216812603
 21
22.75773530862909
 72
     1
 10
5.032671990524761
 20
22.16667085550409
 11
2.971392216812603
 21
22.75773530862909
 72
     1
 10
4.795596184860698
 20
21.92957979105096
 11
5.032671990524761
 21
22.16667085550409
 72
     2
 10
3.71911865724229
 20
21.17683320901972
 40
1.313568115234375
 50
253.9997507017293
 51
394.9638732916308
 73
     1
 72
     2
 10
3.788179936539165
 20
23.32444673441034
 40
3.43743896484375
 50
245.2051773698407
 51
262.7948259620522
 73
     1
 72
     2
 10
2.70868164552354
 20
21.46656709573846
 40
1.313554763793945
 50
143.4440121970578
 51
254.0001843876854
 73
     1
 72
     2
 10
3.51703125489854
 20
23.26374727151971
 40
2.121903419494628
 50
200.2296450633201
 51
208.5716889237166
 73
     1
 97
       15
330
95DA
330
95DC
330
95D9
330
95A5
330
95E7
330
95BD
330
95E3
330
95E2
330
95E4
330
95BC
330
95E8
330
95BA
330
95E0
330
95E1
330
95DB
 75
     0
 76
     1
 52
90.0
 41
0.1
 77
     0
 78
     1
 53
135.0
 43
21.38892418397568
 44
-106.8628384981334
 45
-0.2245064030267288
 46
-0.2245064030267288
 79
     0
 98
        1
 10
21.38892418397568
 20
-106.8628384981334
  0
ARC
  5
95BA
102
{ACAD_REACTORS
330
95B9
102
}
330
9528
100
AcDbEntity
  8
247
100
AcDbCircle
 10
3.71911865724229
 20
21.17683320901972
 30
0.0
 40
1.313568115234375
100
AcDbArc
 50
253.9997507017293
 51
34.96387329163082
  0
ARC
  5
95BB
102
{ACAD_REACTORS
330
9588
102
}
330
9528
100
AcDbEntity
  8
247
100
AcDbCircle
 10
3.51703125489854
 20
23.26374727151971
 30
0.0
 40
2.121902465820312
100
AcDbArc
 50
0.0
 51
194.7707939660941
  0
LINE
  5
95BC
102
{ACAD_REACTORS
330
95B9
102
}
330
9528
100
AcDbEntity
  8
247
100
AcDbLine
 10
5.032671990524761
 20
22.16667085550409
 30
0.0
 11
2.971392216812603
 21
22.75773530862909
 31
0.0
  0
LINE
  5
95BD
102
{ACAD_REACTORS
330
95B9
102
}
330
9528
100
AcDbEntity
  8
247
100
AcDbLine
 10
4.280672612320415
 20
21.5413809385119
 30
0.0
 11
3.375567021500103
 21
21.80091768167597
 31
0.0
  0
LINE
  5
95BE
330
9528
100
AcDbEntity
  8
240
100
AcDbLine
 10
0.0
 20
24.21499999999991
 30
0.0
 11
0.0
 21
30.5
 31
0.0
1001
GRPNAME
1000
PASTMD36
  0
LINE
  5
95BF
330
9528
100
AcDbEntity
  8
240
100
AcDbLine
 10
-2.0
 20
24.21499999999991
 30
0.0
 11
0.0
 21
24.21499999999991
 31
0.0
  0
POLYLINE
  5
95C0
330
9528
100
AcDbEntity
  8
247
100
AcDb2dPolyline
 66
     1
 10
0.0
 20
0.0
 30
0.0
 70
     1
1001
HATCH_DISTANCE
1040
1.0
1001
HATCH_DISPLAY
1070
     0
1001
HATCH_TYPE
1070
     7
  0
VERTEX
  5
95C1
330
95C0
100
AcDbEntity
  8
247
100
AcDbVertex
100
AcDb2dVertex
 10
1.851244511734478
 20
22.8444815244494
 30
0.0
  0
VERTEX
  5
95C2
330
95C0
100
AcDbEntity
  8
247
100
AcDbVertex
100
AcDb2dVertex
 10
1.465242924820415
 20
22.72276216409784
 30
0.0
  0
VERTEX
  5
95C3
330
95C0
100
AcDbEntity
  8
247
100
AcDbVertex
100
AcDb2dVertex
 10
1.465242924820415
 20
22.72276216409784
 30
0.0
  0
VERTEX
  5
95C4
330
95C0
100
AcDbEntity
  8
247
100
AcDbVertex
100
AcDb2dVertex
 10
1.851244511734478
 20
22.8444815244494
 30
0.0
  0
SEQEND
  5
95C5
330
95C0
100
AcDbEntity
  8
247
  0
POLYLINE
  5
95C6
330
9528
100
AcDbEntity
  8
247
100
AcDb2dPolyline
 66
     1
 10
0.0
 20
0.0
 30
0.0
 70
     1
  0
VERTEX
  5
95C7
330
95C6
100
AcDbEntity
  8
247
100
AcDbVertex
100
AcDb2dVertex
 10
1.851244511734478
 20
22.8444815244494
 30
0.0
  0
VERTEX
  5
95C8
330
95C6
100
AcDbEntity
  8
247
100
AcDbVertex
100
AcDb2dVertex
 10
1.465242924820415
 20
22.72276216409784
 30
0.0
  0
VERTEX
  5
95C9
330
95C6
100
AcDbEntity
  8
247
100
AcDbVertex
100
AcDb2dVertex
 10
1.465242924820415
 20
22.72276216409784
 30
0.0
  0
VERTEX
  5
95CA
330
95C6
100
AcDbEntity
  8
247
100
AcDbVertex
100
AcDb2dVertex
 10
1.851244511734478
 20
22.8444815244494
 30
0.0
  0
SEQEND
  5
95CB
330
95C6
100
AcDbEntity
  8
247
  0
POLYLINE
  5
95CC
330
9528
100
AcDbEntity
  8
247
100
AcDb2dPolyline
 66
     1
 10
0.0
 20
0.0
 30
0.0
 70
     1
1001
HATCH_DISTANCE
1040
1.0
1001
HATCH_DISPLAY
1070
     0
1001
HATCH_TYPE
1070
     7
  0
VERTEX
  5
95CD
330
95CC
100
AcDbEntity
  8
247
100
AcDbVertex
100
AcDb2dVertex
 10
1.851244511734478
 20
22.8444815244494
 30
0.0
  0
VERTEX
  5
95CE
330
95CC
100
AcDbEntity
  8
247
100
AcDbVertex
100
AcDb2dVertex
 10
1.465242924820415
 20
22.72276216409784
 30
0.0
  0
VERTEX
  5
95CF
330
95CC
100
AcDbEntity
  8
247
100
AcDbVertex
100
AcDb2dVertex
 10
1.465242924820415
 20
22.72276216409784
 30
0.0
  0
VERTEX
  5
95D0
330
95CC
100
AcDbEntity
  8
247
100
AcDbVertex
100
AcDb2dVertex
 10
1.851244511734478
 20
22.8444815244494
 30
0.0
  0
SEQEND
  5
95D1
330
95CC
100
AcDbEntity
  8
247
  0
POLYLINE
  5
95D2
330
9528
100
AcDbEntity
  8
247
100
AcDb2dPolyline
 66
     1
 10
0.0
 20
0.0
 30
0.0
 70
     1
  0
VERTEX
  5
95D3
330
95D2
100
AcDbEntity
  8
247
100
AcDbVertex
100
AcDb2dVertex
 10
1.851244511734478
 20
22.8444815244494
 30
0.0
  0
VERTEX
  5
95D4
330
95D2
100
AcDbEntity
  8
247
100
AcDbVertex
100
AcDb2dVertex
 10
1.465242924820415
 20
22.72276216409784
 30
0.0
  0
VERTEX
  5
95D5
330
95D2
100
AcDbEntity
  8
247
100
AcDbVertex
100
AcDb2dVertex
 10
1.465242924820415
 20
22.72276216409784
 30
0.0
  0
VERTEX
  5
95D6
330
95D2
100
AcDbEntity
  8
247
100
AcDbVertex
100
AcDb2dVertex
 10
1.851244511734478
 20
22.8444815244494
 30
0.0
  0
SEQEND
  5
95D7
330
95D2
100
AcDbEntity
  8
247
  0
LINE
  5
95D8
102
{ACAD_REACTORS
330
9588
102
}
330
9528
100
AcDbEntity
  8
247
100
AcDbLine
 10
1.851244511734478
 20
22.8444815244494
 30
0.0
 11
1.465242924820415
 21
22.72276216409784
 31
0.0
  0
ARC
  5
95D9
102
{ACAD_REACTORS
330
95B9
102
}
330
9528
100
AcDbEntity
  8
247
100
AcDbCircle
 10
2.26410156739854
 20
21.67814546487909
 30
0.0
 40
0.4243833422660828
100
AcDbArc
 50
91.71012138206274
 51
253.9983983544486
  0
LINE
  5
95DA
102
{ACAD_REACTORS
330
95B9
102
}
330
9528
100
AcDbEntity
  8
247
100
AcDbLine
 10
1.912020268570415
 20
22.65174775980097
 30
0.0
 11
1.526018681656353
 21
22.5300283994494
 31
0.0
  0
ARC
  5
95DB
102
{ACAD_REACTORS
330
95B9
102
}
330
9528
100
AcDbEntity
  8
247
100
AcDbCircle
 10
3.51703125489854
 20
23.26374727151971
 30
0.0
 40
2.121903419494628
100
AcDbArc
 50
200.2296450633201
 51
208.5716889237166
  0
ARC
  5
95DC
102
{ACAD_REACTORS
330
95B9
102
}
330
9528
100
AcDbEntity
  8
247
100
AcDbCircle
 10
3.51703125489854
 20
23.26374727151971
 30
0.0
 40
1.717732429504394
100
AcDbArc
 50
200.8721834020736
 51
222.5419489373881
  0
LINE
  5
95DD
330
9528
100
AcDbEntity
  8
247
100
AcDbLine
 10
1.395128789078228
 20
19.06819063089471
 30
0.0
 11
1.395128789078228
 21
20.11933809183222
 31
0.0
  0
LINE
  5
95DE
330
9528
100
AcDbEntity
  8
247
100
AcDbLine
 10
1.839708867203228
 20
18.94070344827753
 30
0.0
 11
1.839708867203228
 21
19.08787446878534
 31
0.0
  0
LINE
  5
95DF
330
9528
100
AcDbEntity
  8
247
100
AcDbLine
 10
1.839708867203228
 20
18.94070344827753
 30
0.0
 11
1.395128789078228
 21
19.06819063089471
 31
0.0
  0
ARC
  5
95E0
102
{ACAD_REACTORS
330
95B9
102
}
330
9528
100
AcDbEntity
  8
247
100
AcDbCircle
 10
3.788179936539165
 20
23.32444673441034
 30
0.0
 40
3.43743896484375
100
AcDbArc
 50
245.2051773698407
 51
262.7948259620522
  0
ARC
  5
95E1
102
{ACAD_REACTORS
330
95B9
102
}
330
9528
100
AcDbEntity
  8
247
100
AcDbCircle
 10
2.70868164552354
 20
21.46656709573846
 30
0.0
 40
1.313554763793945
100
AcDbArc
 50
143.4440121970578
 51
254.0001843876854
  0
LINE
  5
95E2
102
{ACAD_REACTORS
330
95B9
102
}
330
9528
100
AcDbEntity
  8
247
100
AcDbLine
 10
3.375567021500103
 20
21.46455293558222
 30
0.0
 11
2.971392216812603
 21
21.5804434385119
 31
0.0
  0
LINE
  5
95E3
102
{ACAD_REACTORS
330
95B9
102
}
330
9528
100
AcDbEntity
  8
247
100
AcDbLine
 10
3.375567021500103
 20
21.46455293558222
 30
0.0
 11
3.375567021500103
 21
21.80091768167597
 31
0.0
  0
LINE
  5
95E4
102
{ACAD_REACTORS
330
95B9
102
}
330
9528
100
AcDbEntity
  8
247
100
AcDbLine
 10
2.971392216812603
 20
21.5804434385119
 30
0.0
 11
2.971392216812603
 21
22.75773530862909
 31
0.0
  0
ARC
  5
95E5
330
9528
100
AcDbEntity
  8
240
100
AcDbCircle
 10
1.0
 20
30.5
 30
0.0
 40
1.0
100
AcDbArc
 50
89.99999998970823
 51
179.9999999897082
1001
GRPNAME
1000
PASTMD36
  0
LINE
  5
95E6
330
9528
100
AcDbEntity
  8
247
100
AcDbLine
 10
5.032671990524761
 20
18.17230134866815
 30
0.0
 11
5.032671990524761
 21
19.0762930478869
 31
0.0
  0
ARC
  5
95E7
102
{ACAD_REACTORS
330
95B9
102
}
330
9528
100
AcDbEntity
  8
247
100
AcDbCircle
 10
4.16369873536729
 20
21.13343721292597
 30
0.0
 40
0.4243830442428589
100
AcDbArc
 50
254.0002730571842
 51
74.00027305718428
  0
LINE
  5
95E8
102
{ACAD_REACTORS
330
95B9
102
}
330
9528
100
AcDbEntity
  8
247
100
AcDbLine
 10
4.795596184860698
 20
21.92957979105096
 30
0.0
 11
5.032671990524761
 21
22.16667085550409
 31
0.0
  0
LINE
  5
95E9
330
9528
100
AcDbEntity
  8
241
100
AcDbLine
 10
14.62250092524072
 20
8.0
 30
0.0
 11
14.62250092524072
 21
31.5
 31
0.0
1001
GRPNAME
1000
PASTMD37
  0
LINE
  5
95EA
330
9528
100
AcDbEntity
  8
241
100
AcDbLine
 10
16.125
 20
8.0
 30
0.0
 11
16.125
 21
28.0
 31
0.0
1001
GRPNAME
1000
PASTMD37
  0
LINE
  5
95EB
330
9528
100
AcDbEntity
  8
241
100
AcDbLine
 10
19.875
 20
8.0
 30
0.0
 11
19.875
 21
28.0
 31
0.0
1001
GRPNAME
1000
PASTMD37
  0
LINE
  5
95EC
330
9528
100
AcDbEntity
  8
240
100
AcDbLine
 10
16.125
 20
28.89759526419175
 30
0.0
 11
14.62250092524072
 21
31.5
 31
0.0
1001
GRPNAME
1000
PASTMD36
  0
LINE
  5
95ED
330
9528
100
AcDbEntity
  8
240
100
AcDbLine
 10
16.625
 20
27.5
 30
0.0
 11
19.375
 21
27.5
 31
0.0
1001
GRPNAME
1000
PASTMD36
  0
ARC
  5
95EE
330
9528
100
AcDbEntity
  8
240
100
AcDbCircle
 10
16.625
 20
28.0
 30
0.0
 40
0.5
100
AcDbArc
 50
180.0000000796895
 51
270.0000000796895
1001
GRPNAME
1000
PASTMD36
  0
LINE
  5
95EF
330
9528
100
AcDbEntity
  8
240
100
AcDbLine
 10
16.125
 20
28.0
 30
0.0
 11
16.125
 21
28.89759526419175
 31
0.0
1001
GRPNAME
1000
PASTMD36
  0
LINE
  5
95F0
330
9528
100
AcDbEntity
  8
240
100
AcDbLine
 10
19.875
 20
28.0
 30
0.0
 11
19.875
 21
28.89759526419175
 31
0.0
1001
GRPNAME
1000
PASTMD36
  0
ARC
  5
95F1
330
9528
100
AcDbEntity
  8
240
100
AcDbCircle
 10
19.375
 20
28.0
 30
0.0
 40
0.5
100
AcDbArc
 50
269.9999999691312
 51
359.9999999691312
1001
GRPNAME
1000
PASTMD36
  0
LINE
  5
95F2
330
9528
100
AcDbEntity
  8
240
100
AcDbLine
 10
26.39999999973068
 20
26.29999999999984
 30
0.0
 11
33.00000000021592
 21
26.30000000000018
 31
0.0
  0
LINE
  5
95F3
330
9528
100
AcDbEntity
  8
241
100
AcDbLine
 10
21.37749907475927
 20
8.0
 30
0.0
 11
21.37749907475927
 21
31.5
 31
0.0
1001
GRPNAME
1000
PASTMD37
  0
LINE
  5
95F4
330
9528
100
AcDbEntity
  8
241
100
AcDbLine
 10
25.5
 20
8.0
 30
0.0
 11
26.0
 21
8.5
 31
0.0
1001
GRPNAME
1000
PASTMD37
  0
ARC
  5
95F5
330
9528
100
AcDbEntity
  8
240
100
AcDbCircle
 10
26.40000000000009
 20
26.69999999999982
 30
0.0
 40
0.3999999999999772
100
AcDbArc
 50
179.9999999613993
 51
269.9999999614091
1001
GRPNAME
1000
PASTMD3P
  0
LINE
  5
95F6
330
9528
100
AcDbEntity
  8
240
100
AcDbLine
 10
21.37749907475927
 20
31.5
 30
0.0
 11
25.0
 21
31.5
 31
0.0
1001
GRPNAME
1000
PASTMD36
  0
LINE
  5
95F7
330
9528
100
AcDbEntity
  8
240
100
AcDbLine
 10
26.00000000000011
 20
30.99999999999954
 30
0.0
 11
26.00000000000011
 21
26.69999999999982
 31
0.0
1001
GRPNAME
1000
PASTMD3P
  0
LINE
  5
95F8
330
9528
100
AcDbEntity
  8
240
100
AcDbLine
 10
25.0
 20
31.5
 30
0.0
 11
25.50000000000011
 21
31.49999999999954
 31
0.0
  0
ARC
  5
95F9
330
9528
100
AcDbEntity
  8
240
100
AcDbCircle
 10
25.50000000000011
 20
30.99999999999954
 30
0.0
 40
0.5
100
AcDbArc
 50
0.0
 51
90.0
1001
GRPNAME
1000
PASTMD3P
  0
ARC
  5
95FA
330
9528
100
AcDbEntity
  8
240
100
AcDbCircle
 10
39.99999999999138
 20
23.14999999999997
 30
0.0
 40
6.0
100
AcDbArc
 50
179.9999999922811
 51
269.9999999922811
1001
GRPNAME
1000
PASTMD13
  0
LINE
  5
95FB
330
9528
100
AcDbEntity
  8
240
100
AcDbLine
 10
39.99999999999138
 20
17.14999999999997
 30
0.0
 11
40.89999999999136
 21
17.14999999999997
 31
0.0
1001
GRPNAME
1000
PASTMD13
  0
LINE
  5
95FC
330
9528
100
AcDbEntity
  8
240
100
AcDbLine
 10
40.89999999999136
 20
17.14999999999997
 30
0.0
 11
40.99999999999133
 21
17.25
 31
0.0
1001
GRPNAME
1000
PASTMD13
  0
LINE
  5
95FD
330
9528
100
AcDbEntity
  8
243
100
AcDbLine
 10
40.89999999999136
 20
14.55746629594148
 30
0.0
 11
40.89999999999136
 21
17.14999999999997
 31
0.0
1001
GRPNAME
1000
PASTMD13
  0
ARC
  5
95FE
330
9528
100
AcDbEntity
  8
240
100
AcDbCircle
 10
32.99999999998644
 20
25.30000000000018
 30
0.0
 40
1.0
100
AcDbArc
 50
0.0000000899747877
 51
90.00000008997805
1001
GRPNAME
1000
PASTMD2N
  0
LINE
  5
95FF
330
9528
100
AcDbEntity
  8
240
100
AcDbLine
 10
33.99999999998644
 20
23.14999999999997
 30
0.0
 11
33.99999999998644
 21
25.30000000000018
 31
0.0
1001
GRPNAME
1000
PASTMD2N
  0
LINE
  5
9600
330
9528
100
AcDbEntity
  8
246
100
AcDbLine
 10
159.3999999999915
 20
10.25
 30
0.0
 11
133.9999999999913
 21
7.580352424251884
 31
0.0
1001
GRPNAME
1000
PASTMD0M
  0
LINE
  5
9601
330
9528
100
AcDbEntity
  8
246
100
AcDbLine
 10
133.9999999999914
 20
6.5
 30
0.0
 11
164.9999999999915
 21
6.5
 31
0.0
1001
GRPNAME
1000
PASTMD0M
  0
LINE
  5
9602
330
9528
100
AcDbEntity
  8
246
100
AcDbLine
 10
159.3999999999915
 20
-10.25
 30
0.0
 11
133.9999999999914
 21
-7.580352424251771
 31
0.0
1001
GRPNAME
1000
PASTMD0M
  0
LINE
  5
9603
330
9528
100
AcDbEntity
  8
246
100
AcDbLine
 10
133.9999999999914
 20
-6.5
 30
0.0
 11
164.9999999999915
 21
-6.5
 31
0.0
1001
GRPNAME
1000
PASTMD0M
  0
LINE
  5
9604
330
9528
100
AcDbEntity
  8
246
100
AcDbLine
 10
111.30940107675
 20
-2.30940107675849
 30
0.0
 11
111.30940107675
 21
2.30940107675849
 31
0.0
1001
GRPNAME
1000
PASTMD0M
  0
LINE
  5
9605
330
9528
100
AcDbEntity
  8
246
100
AcDbLine
 10
107.398717474227
 20
-2.30940107675849
 30
0.0
 11
107.398717474227
 21
2.30940107675849
 31
0.0
1001
GRPNAME
1000
PASTMD0M
  0
LINE
  5
9606
330
9528
100
AcDbEntity
  8
246
100
AcDbLine
 10
94.99999999999156
 20
-5.25
 30
0.0
 11
94.99999999999156
 21
5.25
 31
0.0
1001
GRPNAME
1000
PASTMD0M
  0
LINE
  5
9607
330
9528
100
AcDbEntity
  8
246
100
AcDbLine
 10
133.9999999999913
 20
7.580352424251884
 30
0.0
 11
133.9999999999914
 21
-7.580352424251771
 31
0.0
1001
GRPNAME
1000
PASTMD0M
  0
LINE
  5
9608
330
9528
100
AcDbEntity
  8
246
100
AcDbLine
 10
114.9999999999915
 20
6.299999999999954
 30
0.0
 11
114.9999999999915
 21
-6.300000000000068
 31
0.0
1001
GRPNAME
1000
PASTMD0M
  0
LINE
  5
9609
330
9528
100
AcDbEntity
  8
246
100
AcDbLine
 10
114.9999999999915
 20
-6.0
 30
0.0
 11
111.30940107675
 21
-2.30940107675849
 31
0.0
1001
GRPNAME
1000
PASTMD0M
  0
LINE
  5
960A
330
9528
100
AcDbEntity
  8
246
100
AcDbLine
 10
100.7499999999915
 20
-7.0
 30
0.0
 11
114.2999999999915
 21
-7.0
 31
0.0
1001
GRPNAME
1000
PASTMD0M
  0
LINE
  5
960B
330
9528
100
AcDbEntity
  8
246
100
AcDbLine
 10
100.3999999999915
 20
-6.649999999999977
 30
0.0
 11
114.6499999999915
 21
-6.649999999999977
 31
0.0
1001
GRPNAME
1000
PASTMD0M
  0
LINE
  5
960C
330
9528
100
AcDbEntity
  8
246
100
AcDbLine
 10
106.9999999999915
 20
-3.0
 30
0.0
 11
94.99999999999156
 21
-3.0
 31
0.0
1001
GRPNAME
1000
PASTMD0M
  0
LINE
  5
960D
330
9528
100
AcDbEntity
  8
246
100
AcDbLine
 10
95.99999999999155
 20
-6.25
 30
0.0
 11
99.99999999999156
 21
-6.25
 31
0.0
1001
GRPNAME
1000
PASTMD0M
  0
ARC
  5
960E
330
9528
100
AcDbEntity
  8
246
100
AcDbCircle
 10
95.99999999999155
 20
-5.25
 30
0.0
 40
1.0
100
AcDbArc
 50
179.9999999845656
 51
269.9999999845623
1001
GRPNAME
1000
PASTMD0M
  0
LINE
  5
960F
330
9528
100
AcDbEntity
  8
246
100
AcDbLine
 10
99.99999999999156
 20
-6.25
 30
0.0
 11
100.7499999999915
 21
-7.0
 31
0.0
1001
GRPNAME
1000
PASTMD0M
  0
LINE
  5
9610
330
9528
100
AcDbEntity
  8
246
100
AcDbLine
 10
107.398717474227
 20
-2.30940107675849
 30
0.0
 11
111.30940107675
 21
-2.30940107675849
 31
0.0
1001
GRPNAME
1000
PASTMD0M
  0
LINE
  5
9611
330
9528
100
AcDbEntity
  8
246
100
AcDbLine
 10
107.398717474227
 20
-1.154700538379302
 30
0.0
 11
111.30940107675
 21
-1.154700538379302
 31
0.0
1001
GRPNAME
1000
PASTMD0M
  0
LINE
  5
9612
330
9528
100
AcDbEntity
  8
246
100
AcDbLine
 10
107.398717474227
 20
-2.30940107675849
 30
0.0
 11
106.9999999999915
 21
-3.0
 31
0.0
1001
GRPNAME
1000
PASTMD0M
  0
LINE
  5
9613
330
9528
100
AcDbEntity
  8
246
100
AcDbLine
 10
106.9999999999915
 20
-3.0
 30
0.0
 11
106.9999999999915
 21
-1.772515030365866
 31
0.0
1001
GRPNAME
1000
PASTMD0M
  0
LINE
  5
9614
330
9528
100
AcDbEntity
  8
246
100
AcDbLine
 10
114.2999999999915
 20
-7.0
 30
0.0
 11
114.9999999999915
 21
-6.300000000000068
 31
0.0
1001
GRPNAME
1000
PASTMD0M
  0
LINE
  5
9615
330
9528
100
AcDbEntity
  8
246
100
AcDbLine
 10
100.7499999999915
 20
7.0
 30
0.0
 11
114.2999999999915
 21
7.0
 31
0.0
1001
GRPNAME
1000
PASTMD0M
  0
LINE
  5
9616
330
9528
100
AcDbEntity
  8
246
100
AcDbLine
 10
100.3999999999915
 20
6.649999999999977
 30
0.0
 11
114.6499999999915
 21
6.649999999999977
 31
0.0
1001
GRPNAME
1000
PASTMD0M
  0
LINE
  5
9617
330
9528
100
AcDbEntity
  8
246
100
AcDbLine
 10
114.9999999999915
 20
6.0
 30
0.0
 11
111.30940107675
 21
2.30940107675849
 31
0.0
1001
GRPNAME
1000
PASTMD0M
  0
LINE
  5
9618
330
9528
100
AcDbEntity
  8
246
100
AcDbLine
 10
106.9999999999915
 20
3.0
 30
0.0
 11
94.99999999999156
 21
3.0
 31
0.0
1001
GRPNAME
1000
PASTMD0M
  0
LINE
  5
9619
330
9528
100
AcDbEntity
  8
246
100
AcDbLine
 10
95.99999999999155
 20
6.25
 30
0.0
 11
99.99999999999156
 21
6.25
 31
0.0
1001
GRPNAME
1000
PASTMD0M
  0
ARC
  5
961A
330
9528
100
AcDbEntity
  8
246
100
AcDbCircle
 10
95.99999999999155
 20
5.25
 30
0.0
 40
1.0
100
AcDbArc
 50
89.9999999897115
 51
179.9999999897082
1001
GRPNAME
1000
PASTMD0M
  0
LINE
  5
961B
330
9528
100
AcDbEntity
  8
246
100
AcDbLine
 10
99.99999999999156
 20
6.25
 30
0.0
 11
100.7499999999915
 21
7.0
 31
0.0
1001
GRPNAME
1000
PASTMD0M
  0
LINE
  5
961C
330
9528
100
AcDbEntity
  8
246
100
AcDbLine
 10
107.398717474227
 20
1.154700538379302
 30
0.0
 11
111.30940107675
 21
1.154700538379302
 31
0.0
1001
GRPNAME
1000
PASTMD0M
  0
LINE
  5
961D
330
9528
100
AcDbEntity
  8
246
100
AcDbLine
 10
107.398717474227
 20
2.30940107675849
 30
0.0
 11
111.30940107675
 21
2.30940107675849
 31
0.0
1001
GRPNAME
1000
PASTMD0M
  0
LINE
  5
961E
330
9528
100
AcDbEntity
  8
246
100
AcDbLine
 10
106.9999999999915
 20
3.0
 30
0.0
 11
106.9999999999915
 21
1.772515030365866
 31
0.0
1001
GRPNAME
1000
PASTMD0M
  0
LINE
  5
961F
330
9528
100
AcDbEntity
  8
246
100
AcDbLine
 10
107.398717474227
 20
2.30940107675849
 30
0.0
 11
106.9999999999915
 21
3.0
 31
0.0
1001
GRPNAME
1000
PASTMD0M
  0
LINE
  5
9620
330
9528
100
AcDbEntity
  8
246
100
AcDbLine
 10
114.9999999999915
 20
6.299999999999954
 30
0.0
 11
114.2999999999915
 21
7.0
 31
0.0
1001
GRPNAME
1000
PASTMD0M
  0
LINE
  5
9621
330
9528
100
AcDbEntity
  8
241
100
AcDbLine
 10
158.4999999999915
 20
2.0
 30
0.0
 11
158.4999999999915
 21
0.0
 31
0.0
1001
GRPNAME
1000
PASTMD0M
  0
LINE
  5
9622
330
9528
100
AcDbEntity
  8
240
100
AcDbLine
 10
164.9999999999915
 20
15.9600505063388
 30
0.0
 11
164.9999999999915
 21
-15.9600505063388
 31
0.0
1001
GRPNAME
1000
PASTMD0M
  0
LINE
  5
9623
330
9528
100
AcDbEntity
  8
241
100
AcDbLine
 10
163.4186291500929
 20
17.00094607379367
 30
0.0
 11
163.4186291500929
 21
-17.15231788079472
 31
0.0
1001
GRPNAME
1000
PASTMD0M
  0
LINE
  5
9624
330
9528
100
AcDbEntity
  8
246
100
AcDbLine
 10
164.9999999999915
 20
-8.51794919243116
 30
0.0
 11
164.9999999999915
 21
8.51794919243116
 31
0.0
1001
GRPNAME
1000
PASTMD0M
  0
LINE
  5
9625
330
9528
100
AcDbEntity
  8
241
100
AcDbLine
 10
144.4999999999915
 20
14.0
 30
0.0
 11
144.4999999999915
 21
0.0
 31
0.0
1001
GRPNAME
1000
PASTMD0M
  0
LINE
  5
9626
330
9528
100
AcDbEntity
  8
241
100
AcDbLine
 10
146.4999999999915
 20
12.5
 30
0.0
 11
146.4999999999915
 21
0.0
 31
0.0
1001
GRPNAME
1000
PASTMD0M
  0
LINE
  5
9627
330
9528
100
AcDbEntity
  8
241
100
AcDbLine
 10
149.4999999999914
 20
14.99999999999988
 30
0.0
 11
149.4999999999915
 21
0.0
 31
0.0
1001
GRPNAME
1000
PASTMD0M
  0
LINE
  5
9628
330
9528
100
AcDbEntity
  8
241
100
AcDbLine
 10
148.9999999999915
 20
13.0
 30
0.0
 11
148.9999999999915
 21
0.0
 31
0.0
1001
GRPNAME
1000
PASTMD0M
  0
LINE
  5
9629
330
9528
100
AcDbEntity
  8
246
100
AcDbLine
 10
159.3999999999915
 20
-8.75
 30
0.0
 11
161.7999999999914
 21
-8.75
 31
0.0
1001
GRPNAME
1000
PASTMD0M
  0
LINE
  5
962A
330
9528
100
AcDbEntity
  8
240
100
AcDbLine
 10
150.2999999999915
 20
-17.5
 30
0.0
 11
163.4186291500929
 21
-17.5
 31
0.0
1001
GRPNAME
1000
PASTMD0M
  0
LINE
  5
962B
330
9528
100
AcDbEntity
  8
240
100
AcDbLine
 10
145.4999999999915
 20
-13.0
 30
0.0
 11
148.9999999999915
 21
-13.0
 31
0.0
1001
GRPNAME
1000
PASTMD0M
  0
LINE
  5
962C
330
9528
100
AcDbEntity
  8
242
100
AcDbLine
 10
148.9999999999915
 20
-12.5
 30
0.0
 11
146.4999999999915
 21
-12.5
 31
0.0
1001
GRPNAME
1000
PASTMD0M
  0
LINE
  5
962D
330
9528
100
AcDbEntity
  8
240
100
AcDbLine
 10
144.4999999999915
 20
-16.25
 30
0.0
 11
144.4999999999915
 21
-14.0
 31
0.0
1001
GRPNAME
1000
PASTMD0M
  0
ARC
  5
962E
330
9528
100
AcDbEntity
  8
240
100
AcDbCircle
 10
143.4999999999915
 20
-16.25
 30
0.0
 40
1.0
100
AcDbArc
 50
269.9999999742771
 51
359.9999999742771
1001
GRPNAME
1000
PASTMD0M
  0
LINE
  5
962F
330
9528
100
AcDbEntity
  8
241
100
AcDbLine
 10
144.4999999999915
 20
-14.0
 30
0.0
 11
144.4999999999915
 21
0.0
 31
0.0
1001
GRPNAME
1000
PASTMD0M
  0
LINE
  5
9630
330
9528
100
AcDbEntity
  8
241
100
AcDbLine
 10
146.4999999999915
 20
-12.5
 30
0.0
 11
146.4999999999915
 21
0.0
 31
0.0
1001
GRPNAME
1000
PASTMD0M
  0
ARC
  5
9631
330
9528
100
AcDbEntity
  8
240
100
AcDbCircle
 10
145.4999999999915
 20
-14.0
 30
0.0
 40
1.0
100
AcDbArc
 50
89.99999999228117
 51
179.9999999922811
1001
GRPNAME
1000
PASTMD0M
  0
LINE
  5
9632
330
9528
100
AcDbEntity
  8
242
100
AcDbLine
 10
146.4999999999915
 20
-12.5
 30
0.0
 11
145.9999999999915
 21
-13.0
 31
0.0
1001
GRPNAME
1000
PASTMD0M
  0
LINE
  5
9633
330
9528
100
AcDbEntity
  8
241
100
AcDbLine
 10
158.4999999999915
 20
-16.05614492491361
 30
0.0
 11
158.4999999999915
 21
-14.05614492491361
 31
0.0
1001
GRPNAME
1000
PASTMD0M
  0
LINE
  5
9634
330
9528
100
AcDbEntity
  8
240
100
AcDbLine
 10
149.4999999999914
 20
-16.70000000000004
 30
0.0
 11
149.4999999999914
 21
-15.0
 31
0.0
1001
GRPNAME
1000
PASTMD0M
  0
LINE
  5
9635
330
9528
100
AcDbEntity
  8
241
100
AcDbLine
 10
158.4999999999915
 20
-16.05614492491361
 30
0.0
 11
149.4999999999914
 21
-16.05614492491361
 31
0.0
1001
GRPNAME
1000
PASTMD0M
  0
ARC
  5
9636
330
9528
100
AcDbEntity
  8
240
100
AcDbCircle
 10
150.2999999999915
 20
-16.70000000000004
 30
0.0
 40
0.8000000000000682
100
AcDbArc
 50
179.9999999819894
 51
269.9999999819894
1001
GRPNAME
1000
PASTMD0M
  0
LINE
  5
9637
330
9528
100
AcDbEntity
  8
241
100
AcDbLine
 10
158.4999999999915
 20
-14.05614492491361
 30
0.0
 11
149.4999999999914
 21
-14.05614492491361
 31
0.0
1001
GRPNAME
1000
PASTMD0M
  0
LINE
  5
9638
330
9528
100
AcDbEntity
  8
241
100
AcDbLine
 10
158.4999999999915
 20
-2.0
 30
0.0
 11
149.4999999999914
 21
-2.0
 31
0.0
1001
GRPNAME
1000
PASTMD0M
  0
LINE
  5
9639
330
9528
100
AcDbEntity
  8
241
100
AcDbLine
 10
148.9999999999915
 20
-13.0
 30
0.0
 11
148.9999999999915
 21
0.0
 31
0.0
1001
GRPNAME
1000
PASTMD0M
  0
LINE
  5
963A
330
9528
100
AcDbEntity
  8
241
100
AcDbLine
 10
149.4999999999914
 20
-15.0
 30
0.0
 11
149.4999999999915
 21
0.0
 31
0.0
1001
GRPNAME
1000
PASTMD0M
  0
LINE
  5
963B
330
9528
100
AcDbEntity
  8
240
100
AcDbLine
 10
148.9999999999915
 20
-14.5
 30
0.0
 11
149.4999999999915
 21
-15.0
 31
0.0
1001
GRPNAME
1000
PASTMD0M
  0
LINE
  5
963C
330
9528
100
AcDbEntity
  8
240
100
AcDbLine
 10
148.9999999999915
 20
-14.5
 30
0.0
 11
148.9999999999915
 21
-13.0
 31
0.0
1001
GRPNAME
1000
PASTMD0M
  0
LINE
  5
963D
330
9528
100
AcDbEntity
  8
246
100
AcDbLine
 10
159.3999999999915
 20
-10.25
 30
0.0
 11
159.3999999999915
 21
-8.75
 31
0.0
1001
GRPNAME
1000
PASTMD0M
  0
LINE
  5
963E
330
9528
100
AcDbEntity
  8
241
100
AcDbLine
 10
158.4999999999915
 20
-2.0
 30
0.0
 11
158.4999999999915
 21
0.0
 31
0.0
1001
GRPNAME
1000
PASTMD0M
  0
LINE
  5
963F
330
9528
100
AcDbEntity
  8
240
100
AcDbLine
 10
163.9843145750423
 20
-17.26568542494931
 30
0.0
 11
164.794974746822
 21
-16.45502525316942
 31
0.0
1001
GRPNAME
1000
PASTMD0M
  0
ARC
  5
9640
330
9528
100
AcDbEntity
  8
240
100
AcDbCircle
 10
164.2999999999914
 20
-15.9600505063388
 30
0.0
 40
0.700000000000054
100
AcDbArc
 50
315.0000000951177
 51
0.0000000951206707
1001
GRPNAME
1000
PASTMD0M
  0
ARC
  5
9641
330
9528
100
AcDbEntity
  8
240
100
AcDbCircle
 10
163.4186291500929
 20
-16.70000000000004
 30
0.0
 40
0.8000000000000113
100
AcDbArc
 50
270.0000000475668
 51
315.0000000475649
1001
GRPNAME
1000
PASTMD0M
  0
LINE
  5
9642
330
9528
100
AcDbEntity
  8
246
100
AcDbLine
 10
161.9999999999915
 20
-10.25
 30
0.0
 11
164.9999999999915
 21
-8.51794919243116
 31
0.0
1001
GRPNAME
1000
PASTMD0M
  0
LINE
  5
9643
330
9528
100
AcDbEntity
  8
246
100
AcDbLine
 10
161.7999999999914
 20
-10.25
 30
0.0
 11
161.9999999999915
 21
-10.25
 31
0.0
1001
GRPNAME
1000
PASTMD0M
  0
LINE
  5
9644
330
9528
100
AcDbEntity
  8
246
100
AcDbLine
 10
161.7999999999914
 20
-8.75
 30
0.0
 11
161.7999999999914
 21
-10.25
 31
0.0
1001
GRPNAME
1000
PASTMD0M
  0
LINE
  5
9645
330
9528
100
AcDbEntity
  8
240
100
AcDbLine
 10
150.2999999999915
 20
17.5
 30
0.0
 11
163.4186291500929
 21
17.5
 31
0.0
1001
GRPNAME
1000
PASTMD0M
  0
LINE
  5
9646
330
9528
100
AcDbEntity
  8
246
100
AcDbLine
 10
159.3999999999915
 20
8.75
 30
0.0
 11
161.7999999999914
 21
8.75
 31
0.0
1001
GRPNAME
1000
PASTMD0M
  0
LINE
  5
9647
330
9528
100
AcDbEntity
  8
240
100
AcDbLine
 10
145.4999999999915
 20
13.0
 30
0.0
 11
148.9999999999915
 21
13.0
 31
0.0
1001
GRPNAME
1000
PASTMD0M
  0
LINE
  5
9648
330
9528
100
AcDbEntity
  8
242
100
AcDbLine
 10
148.9999999999915
 20
12.5
 30
0.0
 11
146.4999999999915
 21
12.5
 31
0.0
1001
GRPNAME
1000
PASTMD0M
  0
ARC
  5
9649
330
9528
100
AcDbEntity
  8
240
100
AcDbCircle
 10
145.4999999999915
 20
14.0
 30
0.0
 40
1.0
100
AcDbArc
 50
179.9999999819926
 51
269.9999999819894
1001
GRPNAME
1000
PASTMD0M
  0
LINE
  5
964A
330
9528
100
AcDbEntity
  8
240
100
AcDbLine
 10
144.4999999999915
 20
16.25
 30
0.0
 11
144.4999999999915
 21
14.0
 31
0.0
1001
GRPNAME
1000
PASTMD0M
  0
ARC
  5
964B
330
9528
100
AcDbEntity
  8
240
100
AcDbCircle
 10
143.4999999999915
 20
16.25
 30
0.0
 40
1.0
100
AcDbArc
 50
0.0
 51
90.0
1001
GRPNAME
1000
PASTMD0M
  0
LINE
  5
964C
330
9528
100
AcDbEntity
  8
242
100
AcDbLine
 10
146.4999999999915
 20
12.5
 30
0.0
 11
145.9999999999915
 21
13.0
 31
0.0
1001
GRPNAME
1000
PASTMD0M
  0
LINE
  5
964D
330
9528
100
AcDbEntity
  8
241
100
AcDbLine
 10
158.4999999999915
 20
16.05614492491349
 30
0.0
 11
149.4999999999914
 21
16.05614492491349
 31
0.0
1001
GRPNAME
1000
PASTMD0M
  0
LINE
  5
964E
330
9528
100
AcDbEntity
  8
241
100
AcDbLine
 10
158.4999999999915
 20
14.05614492491361
 30
0.0
 11
149.4999999999914
 21
14.05614492491361
 31
0.0
1001
GRPNAME
1000
PASTMD0M
  0
LINE
  5
964F
330
9528
100
AcDbEntity
  8
241
100
AcDbLine
 10
158.4999999999915
 20
2.0
 30
0.0
 11
149.4999999999914
 21
2.0
 31
0.0
1001
GRPNAME
1000
PASTMD0M
  0
LINE
  5
9650
330
9528
100
AcDbEntity
  8
240
100
AcDbLine
 10
148.9999999999915
 20
14.5
 30
0.0
 11
149.4999999999915
 21
15.0
 31
0.0
1001
GRPNAME
1000
PASTMD0M
  0
LINE
  5
9651
330
9528
100
AcDbEntity
  8
240
100
AcDbLine
 10
149.4999999999914
 20
16.69999999999993
 30
0.0
 11
149.4999999999914
 21
14.99999999999988
 31
0.0
1001
GRPNAME
1000
PASTMD0M
  0
LINE
  5
9652
330
9528
100
AcDbEntity
  8
240
100
AcDbLine
 10
148.9999999999915
 20
14.5
 30
0.0
 11
148.9999999999915
 21
13.0
 31
0.0
1001
GRPNAME
1000
PASTMD0M
  0
ARC
  5
9653
330
9528
100
AcDbEntity
  8
240
100
AcDbCircle
 10
150.2999999999915
 20
16.69999999999993
 30
0.0
 40
0.8000000000000682
100
AcDbArc
 50
89.99999998971475
 51
179.9999999897082
1001
GRPNAME
1000
PASTMD0M
  0
LINE
  5
9654
330
9528
100
AcDbEntity
  8
246
100
AcDbLine
 10
159.3999999999915
 20
10.25
 30
0.0
 11
159.3999999999915
 21
8.75
 31
0.0
1001
GRPNAME
1000
PASTMD0M
  0
LINE
  5
9655
330
9528
100
AcDbEntity
  8
241
100
AcDbLine
 10
158.4999999999915
 20
16.05614492491349
 30
0.0
 11
158.4999999999915
 21
14.05614492491361
 31
0.0
1001
GRPNAME
1000
PASTMD0M
  0
LINE
  5
9656
330
9528
100
AcDbEntity
  8
246
100
AcDbLine
 10
161.7999999999914
 20
8.75
 30
0.0
 11
161.7999999999914
 21
10.25
 31
0.0
1001
GRPNAME
1000
PASTMD0M
  0
LINE
  5
9657
330
9528
100
AcDbEntity
  8
246
100
AcDbLine
 10
161.9999999999915
 20
10.25
 30
0.0
 11
164.9999999999915
 21
8.51794919243116
 31
0.0
1001
GRPNAME
1000
PASTMD0M
  0
LINE
  5
9658
330
9528
100
AcDbEntity
  8
246
100
AcDbLine
 10
161.7999999999914
 20
10.25
 30
0.0
 11
161.9999999999915
 21
10.25
 31
0.0
1001
GRPNAME
1000
PASTMD0M
  0
LINE
  5
9659
330
9528
100
AcDbEntity
  8
240
100
AcDbLine
 10
164.794974746822
 20
16.45502525316942
 30
0.0
 11
163.9843145750423
 21
17.26568542494919
 31
0.0
1001
GRPNAME
1000
PASTMD0M
  0
ARC
  5
965A
330
9528
100
AcDbEntity
  8
240
100
AcDbCircle
 10
164.2999999999914
 20
15.9600505063388
 30
0.0
 40
0.7000000000000455
100
AcDbArc
 50
359.999999937002
 51
44.99999993699944
1001
GRPNAME
1000
PASTMD0M
  0
ARC
  5
965B
330
9528
100
AcDbEntity
  8
240
100
AcDbCircle
 10
163.4186291500929
 20
16.69999999999993
 30
0.0
 40
0.7999999999999984
100
AcDbArc
 50
44.9999998817288
 51
89.99999988172611
1001
GRPNAME
1000
PASTMD0M
  0
ENDBLK
  5
965D
330
9528
100
AcDbEntity
  8
0
100
AcDbBlockEnd
  0
BLOCK
  5
9671
330
9667
100
AcDbEntity
  8
0
100
AcDbBlockBegin
  2
*D2
 70
     1
 10
0.0
 20
0.0
 30
0.0
  3
*D2
  1

  0
LINE
  5
977B
330
9667
100
AcDbEntity
  8
250
100
AcDbLine
 10
163.9186291500929
 20
-17.5
 30
0.0
 11
183.0
 21
-17.5
 31
0.0
  0
LINE
  5
977C
330
9667
100
AcDbEntity
  8
250
100
AcDbLine
 10
163.9186291500929
 20
17.5
 30
0.0
 11
183.0
 21
17.49999999999999
 31
0.0
  0
LINE
  5
977D
330
9667
100
AcDbEntity
  8
250
100
AcDbLine
 10
182.0
 20
-15.27
 30
0.0
 11
182.0
 21
15.26999999999999
 31
0.0
  0
INSERT
  5
977E
330
9667
100
AcDbEntity
  8
250
100
AcDbBlockReference
  2
_OPEN
 10
182.0
 20
-17.5
 30
0.0
 41
2.229999999999999
 42
2.229999999999999
 43
2.229999999999999
 50
270.0
  0
INSERT
  5
977F
330
9667
100
AcDbEntity
  8
250
100
AcDbBlockReference
  2
_OPEN
 10
182.0
 20
17.49999999999999
 30
0.0
 41
2.229999999999999
 42
2.229999999999999
 43
2.229999999999999
 50
90.0
  0
MTEXT
  5
9780
330
9667
100
AcDbEntity
  8
250
 62
    40
100
AcDbMText
 10
179.4999999999999
 20
0.0000000000000247
 30
0.0
 40
3.0
 41
0.0
 71
     5
 72
     1
  1
\A1;{\H3;\U+2205}35
 11
0.0000000000000001
 21
1.0
 31
0.0
1001
ACAD
1000
MTEXTBEGIN
1070
    73
1070
     1
1070
    44
1040
1.0
1070
    74
1070
     0
1000
MTEXTEND
  0
POINT
  5
9781
330
9667
100
AcDbEntity
  8
DEFPOINTS
 62
     0
100
AcDbPoint
 10
163.4186291500929
 20
-17.5
 30
0.0
  0
POINT
  5
9782
330
9667
100
AcDbEntity
  8
DEFPOINTS
 62
     0
100
AcDbPoint
 10
163.4186291500929
 20
17.5
 30
0.0
  0
POINT
  5
9783
330
9667
100
AcDbEntity
  8
DEFPOINTS
 62
     0
100
AcDbPoint
 10
182.0
 20
17.49999999999999
 30
0.0
  0
ENDBLK
  5
9672
330
9667
100
AcDbEntity
  8
0
100
AcDbBlockEnd
  0
BLOCK
  5
967D
330
9673
100
AcDbEntity
  8
0
100
AcDbBlockBegin
  2
*D3
 70
     1
 10
0.0
 20
0.0
 30
0.0
  3
*D3
  1

  0
LINE
  5
97BF
330
9673
100
AcDbEntity
  8
250
100
AcDbLine
 10
165.4999999999914
 20
-6.5
 30
0.0
 11
176.0
 21
-6.500000000000003
 31
0.0
  0
LINE
  5
97C0
330
9673
100
AcDbEntity
  8
250
100
AcDbLine
 10
165.4999999999914
 20
6.5
 30
0.0
 11
176.0
 21
6.499999999999996
 31
0.0
  0
LINE
  5
97C1
330
9673
100
AcDbEntity
  8
250
100
AcDbLine
 10
175.0
 20
-4.270000000000003
 30
0.0
 11
175.0
 21
4.269999999999996
 31
0.0
  0
MTEXT
  5
97C2
330
9673
100
AcDbEntity
  8
250
 62
    40
100
AcDbMText
 10
172.3653153488307
 20
2.851785146131419
 30
0.0
 40
3.0
 41
0.0
 71
     5
 72
     1
  1
\A1;MAX.%%c13
 11
0.0000000000000001
 21
1.0
 31
0.0
  0
INSERT
  5
97C3
330
9673
100
AcDbEntity
  8
250
100
AcDbBlockReference
  2
_OPEN
 10
175.0
 20
-6.500000000000003
 30
0.0
 41
2.229999999999999
 42
2.229999999999999
 43
2.229999999999999
 50
270.0
  0
INSERT
  5
97C4
330
9673
100
AcDbEntity
  8
250
100
AcDbBlockReference
  2
_OPEN
 10
175.0
 20
6.499999999999996
 30
0.0
 41
2.229999999999999
 42
2.229999999999999
 43
2.229999999999999
 50
90.0
  0
POINT
  5
97C5
330
9673
100
AcDbEntity
  8
DEFPOINTS
 62
     0
100
AcDbPoint
 10
164.9999999999915
 20
-6.5
 30
0.0
  0
POINT
  5
97C6
330
9673
100
AcDbEntity
  8
DEFPOINTS
 62
     0
100
AcDbPoint
 10
164.9999999999915
 20
6.5
 30
0.0
  0
POINT
  5
97C7
330
9673
100
AcDbEntity
  8
DEFPOINTS
 62
     0
100
AcDbPoint
 10
175.0
 20
6.499999999999996
 30
0.0
  0
ENDBLK
  5
967E
330
9673
100
AcDbEntity
  8
0
100
AcDbBlockEnd
  0
BLOCK
  5
9689
330
967F
100
AcDbEntity
  8
0
100
AcDbBlockBegin
  2
*D4
 70
     1
 10
0.0
 20
0.0
 30
0.0
  3
*D4
  1

  0
LINE
  5
9784
330
967F
100
AcDbEntity
  8
250
100
AcDbLine
 10
114.9999999999915
 20
-6.800000000000068
 30
0.0
 11
114.9999999999915
 21
-36.0
 31
0.0
  0
LINE
  5
9785
330
967F
100
AcDbEntity
  8
250
100
AcDbLine
 10
164.9999999999915
 20
-16.46005050517669
 30
0.0
 11
164.9999999999915
 21
-36.0
 31
0.0
  0
LINE
  5
9786
330
967F
100
AcDbEntity
  8
250
100
AcDbLine
 10
117.2299999999915
 20
-35.0
 30
0.0
 11
162.7699999999915
 21
-35.0
 31
0.0
  0
INSERT
  5
9787
330
967F
100
AcDbEntity
  8
250
100
AcDbBlockReference
  2
_OPEN
 10
114.9999999999915
 20
-35.0
 30
0.0
 41
2.229999999999999
 42
2.229999999999999
 43
2.229999999999999
 50
180.0
  0
INSERT
  5
9788
330
967F
100
AcDbEntity
  8
250
100
AcDbBlockReference
  2
_OPEN
 10
164.9999999999915
 20
-35.0
 30
0.0
 41
2.229999999999999
 42
2.229999999999999
 43
2.229999999999999
  0
MTEXT
  5
9789
330
967F
100
AcDbEntity
  8
250
 62
    40
100
AcDbMText
 10
139.9999999999915
 20
-32.5
 30
0.0
 40
3.0
 41
0.0
 71
     5
 72
     1
  1
\A1;41～60
1001
ACAD
1000
MTEXTBEGIN
1070
    73
1070
     1
1070
    44
1040
1.0
1070
    74
1070
     0
1000
MTEXTEND
  0
POINT
  5
978A
330
967F
100
AcDbEntity
  8
DEFPOINTS
 62
     0
100
AcDbPoint
 10
114.9999999999915
 20
-6.300000000000068
 30
0.0
  0
POINT
  5
978B
330
967F
100
AcDbEntity
  8
DEFPOINTS
 62
     0
100
AcDbPoint
 10
164.9999999999915
 20
-15.96005050517669
 30
0.0
  0
POINT
  5
978C
330
967F
100
AcDbEntity
  8
DEFPOINTS
 62
     0
100
AcDbPoint
 10
164.9999999999915
 20
-35.0
 30
0.0
  0
ENDBLK
  5
968A
330
967F
100
AcDbEntity
  8
0
100
AcDbBlockEnd
  0
BLOCK
  5
9695
330
968B
100
AcDbEntity
  8
0
100
AcDbBlockBegin
  2
*D5
 70
     1
 10
0.0
 20
0.0
 30
0.0
  3
*D5
  1

  0
LINE
  5
9769
330
968B
100
AcDbEntity
  8
250
100
AcDbLine
 10
0.0
 20
31.0
 30
0.0
 11
0.0000000000000012
 21
50.0
 31
0.0
  0
LINE
  5
976A
330
968B
100
AcDbEntity
  8
250
100
AcDbLine
 10
164.9999999999915
 20
16.46005050556914
 30
0.0
 11
164.9999999999915
 21
50.0
 31
0.0
  0
LINE
  5
976B
330
968B
100
AcDbEntity
  8
250
100
AcDbLine
 10
2.230000000000001
 20
49.0
 30
0.0
 11
162.7699999999915
 21
49.0
 31
0.0
  0
INSERT
  5
976C
330
968B
100
AcDbEntity
  8
250
100
AcDbBlockReference
  2
_OPEN
 10
0.0000000000000011
 20
49.0
 30
0.0
 41
2.229999999999999
 42
2.229999999999999
 43
2.229999999999999
 50
180.0
  0
INSERT
  5
976D
330
968B
100
AcDbEntity
  8
250
100
AcDbBlockReference
  2
_OPEN
 10
164.9999999999915
 20
49.0
 30
0.0
 41
2.229999999999999
 42
2.229999999999999
 43
2.229999999999999
  0
MTEXT
  5
976E
330
968B
100
AcDbEntity
  8
250
 62
    40
100
AcDbMText
 10
82.49999999999575
 20
51.5
 30
0.0
 40
3.0
 41
0.0
 71
     5
 72
     1
  1
\A1;165
1001
ACAD
1000
MTEXTBEGIN
1070
    73
1070
     1
1070
    44
1040
1.0
1070
    74
1070
     0
1000
MTEXTEND
  0
POINT
  5
976F
330
968B
100
AcDbEntity
  8
DEFPOINTS
 62
     0
100
AcDbPoint
 10
0.0
 20
30.5
 30
0.0
  0
POINT
  5
9770
330
968B
100
AcDbEntity
  8
DEFPOINTS
 62
     0
100
AcDbPoint
 10
164.9999999999915
 20
15.96005050556914
 30
0.0
  0
POINT
  5
9771
330
968B
100
AcDbEntity
  8
DEFPOINTS
 62
     0
100
AcDbPoint
 10
164.9999999999915
 20
49.0
 30
0.0
  0
ENDBLK
  5
9696
330
968B
100
AcDbEntity
  8
0
100
AcDbBlockEnd
  0
ENDSEC
  0
SECTION
  2
ENTITIES
  0
POINT
  5
1986
330
1A
100
AcDbEntity
  8
GRADE
  6
CONTINUOUS
100
AcDbPoint
 10
140.1053417483285
 20
535.4533938860174
 30
0.0
1001
DRAWING
1070
     0
1004
40A00000202020202020202020202020202020202020202020202020202020202020202020202020202020202020202020202020202020202020202020202020202020202020202020202020202020202020202020202020202020202020202020202020202020202020202020202020202020202020202020202020202020
1004
20202020202020202020202020202020202020202020202020202020202020202020202020202020202020202020202020202020202020202020202020202020202020202020202020202020202020202020202020202020202020202020202020202020202020202020202020202020202020202020202020202020202020
1004
20202020202020202020202020202020202020202020202020202020202020202020202020202020202020202020202020202020202020202020202020202020202020202020202020202020202020202020202020202020202020202020202020202020202020202020202020202020202020202020202020202020202020
1004
202020202020202020202020202020202020202020202080
1070
   256
1004
32303031303231373137313330362E3020533344
1070
   512
1004
2020202020202020000000F10000000000000001000000010000000000000000000000000000000000000000000000000000000000000000000000000000000000000000
1070
   513
1004
00000000000000000000000000000000000000000000000000000000000000000000000000000000000000000000000000000000000000000000000000000000000000000000000000000000000000000000000000000000000000000000000000000000000000000000000000000000000000000000000000000000000000
1004
00000000000000000000000000000000000000000000000000000000000000000000000000000000000000000000000000000000000000000000000000000000000000000000000000000000000000000000000000000000000000000000000000000000000000000000000000000000000000000000000000000000000000
1004
00000000000000000000000000000000000000000000000000000000000000000000000000000000000000000000000000000000000000000000000000000000000000000000000000000000000000000000000000000000000000000000000000000000000000000000000000000000000000000000000000000000000000
1004
00000000000000000000000000000000000000000000000000000000000000000000000000000000000000000000000000000000000000000000000000000000000000000000000000000000000000000000000000000000000000000000000000000000000000000000000000000000000000000000000000000000000000
1004
00000000000000000000000000000000000000000000000000000000000000000000000000000000000000000000000000000000000000000000000000000000000000000000000000000000000000000000000000000000000000000000000000000000000000000000000000000000000000000000000000000000000000
1004
00000000000000000000000000000000000000000000000000000000000000000000000000000000000000000000000000000000000000000000000000000000000000000000000000000000000000000000000000000000000000000000000000000000000000000000000000000000000000000000000000000000000000
1004
00000000000000000000000000000000000000000000000000000000000000000000000000000000000000000000000000000000000000000000000000000000000000000000000000000000000000000000000000000000000000000000000000000000000000000000000000000000000000000000000000000000000000
1004
00000000000000000000000000000000000000000000000000000000000000000000000000000000000000000000000000000000000000000000000000000000000000000000000000000000000000000000000000000000000000000000000000000000000000000000000000000000000000000000000000000000000000
1004
00000000000100020003000400050006000100070003000100070003000100070003000300030003000300030003000300030003000300030003000300030003000300030003000300030003000300030003000300030003000300030003000300030003000300030003000300030003000300030003000300030003000300
1004
03000300030003000300030003000300030003000300030003000300030003000300030003000300030003000300030003000300030003000300030003000300030003000300030003000300030003000300030003000300030003000300030003000300030003000300030003000300030003000300030003000300030003
1004
00030003000300030003000300030003000300030003000300030003000300030003000300030003000300030003000300030003000300030003000300030003000300030003000300030003000300030003000300030003000300030003000300030003000300030003000300030003000300030003000300030003000300
1004
03000300030003000300030003000300030003000300030003000300030003000300030003000300030003000300030003000300030003000300030003000300030003000300030003000300030003000300030003000300030003000300030003000300030006000400030004000300050003000C000300030003000A0003
1004
00030003000300000000000000000000000000000000000000000000000000000000000000000000000000000000000000000000000000000000000000000000000000000000000000000000000000000000000000000000000000000000000000000000000000000000000000000000000000000000000000000000000000
1004
00000000000000000000000000000000000000000000000000000000000000000000000000000000000000000000000000000000000000000000000000000000000000000000000000000000000000000000000000000000000000000000000000000000000000000000000000000000000000000000000000000000000000
1004
00000000000000000000000000000000000000000000000000000000000000000000000000000000000000000000000000000000000000000000000000000000000000000000000000000000000000000000000000000000000000000000000000000000000000000000000000000000000000000000000000000000000000
1004
00000000000000000000000000000000000000000000000000000000000000000000000000000000000000000000000000000000000000000000000000000000000000000000000000000000000000000000000000000000000000000000000000000000000000000000000000000000000000000000000000000000000000
1004
00000000000000000000000000000000000000000000000000000000000000000000000000000000000000000000000000000000000000000000000000000000000000000000000000
1070
   515
1004
00000001000000050000000100000001
1070
     2
1004
00000000000000000000000000000000000000000000000000000000000000000000000000000000000000000000000000000000000000000000000000000000000000000000000000000000000000000000000000000000000000000000000000000000000000000000000000000000000000000000000000000000000000
1004
000000000100000006000000000000000000000000FFFFF600000001D1000001D1000001D1FFFFF800000001740000017400000174000009FE000001D1000001D1000001D1000007FF000001740000017400000174000000000000000000000000000000000000000000000000000000000000000000000000000000000000
1004
00000000000000000000000000003FF0000000000000000000000000000000000000000000000000000000000000000000000000000000000000000000000000000000000000000000000000000000000000000000000000000000000000000000000000000000000000000000000000000000000000000000000000000000
1004
000000000000000000000000000000000000000000000000000000000000000000000000000000000000000000000000000000000000000000000000000000000000000000000000000000000000003FF000000000000000000000000000000000000000000000000000000000000000000000000000000000000000000000
1004
00000000000000000000000000000000000000000000000000000000000000000000000000000000000000000000000000000000000000000000000000000000000000000000000000000000000000000000000000000000000000000000000000000000000000000000000000000000000000000000000000000000000000
1004
00000000000000000000000000000000003FF000000000000000000000000000000000000000000000000000000000000000000000000000000000000000000000C01C00000000000000000000000000000000000000000000000000000000000000000000000000000000000000000000C046000000000000000000000000
1004
000000000000000000000000000000000000000000000000000000000000000000004072F00000000000000000000000000000000000000000000000000000000000000000000000000000000000000000004070A0000000000000000000000000000000000000000000000000000000000000000000000000000000000000
1004
000000404B4AEEBA5775D400000000000000000000000000000000000000000000000000000000000000000000000000000000405086B950F4EF540000000000000000000000000000000000000000000000000000000000000000000000000000000040631591DCAC8EE50000000000000000000000000000000000000000
1004
00000000000000000000000000000000000000004062124C4632CFCA000000000000000000000000000000000000000000000000000000000000000000000000000000003FF000000000000000000000000000000000000000000000000000000000000000000000000000000000000000000000479E17B84357691B000000
1004
00000000000000000000000000000000000000000000000000000000000000000000000000C79E17B84357691B00000000000000000000000000000000000000000000000100000000000000000000000000000000000000000000000100
1070
     3
1004
0000000153544420202020203FF00000000000000000000000000000000000000000000000000000000000003FF00000000000000000000000000000000000000000000000000000000000003FF0000000000000C01C000000000000C0460000000000004072F000000000004070A000000000003FF0000000000000479E17
1004
B84357691BC79E17B84357691B202020202020202000000000000000000000000000000000000000000000000000
1070
     3
1004
00000002424F5420202020203FF0000000000000000000000000000000000000000000000000000000000000BFF0000000000000000000000000000000000000000000000000000000000000BFF0000000000000C0D0000000000000C0D000000000000040CFFF800000000040CFFF80000000003FF0000000000000479E17
1004
B84357691BC79E17B84357691B202020202020202000000000000000000000000000000000000000000000000000
1070
     3
1004
0000000346525420202020203FF000000000000000000000000000000000000000000000000000000000000000000000000000003FF00000000000000000000000000000BFF00000000000000000000000000000C0D0000000000000C0D000000000000040CFFF800000000040CFFF80000000003FF0000000000000479E17
1004
B84357691BC79E17B84357691B202020202020202000000000000000000000000000000000000000000000000000
1070
     3
1004
000000044241434B20202020BFF000000000000000000000000000000000000000000000000000000000000000000000000000003FF000000000000000000000000000003FF00000000000000000000000000000C0D0000000000000C0D000000000000040CFFF800000000040CFFF80000000003FF0000000000000479E17
1004
B84357691BC79E17B84357691B202020202020202000000000000000000000000000000000000000000000000000
1070
     3
1004
00000005534944202020202000000000000000003FF00000000000000000000000000000000000000000000000000000000000003FF00000000000003FF000000000000000000000000000000000000000000000C0D0000000000000C0D000000000000040CFFF800000000040CFFF80000000003FF0000000000000479E17
1004
B84357691BC79E17B84357691B202020202020202000000000000000000000000000000000000000000000000000
1070
     3
1004
000000065349444C202020200000000000000000BFF00000000000000000000000000000000000000000000000000000000000003FF0000000000000BFF000000000000000000000000000000000000000000000C0D0000000000000C0D000000000000040CFFF800000000040CFFF80000000003FF0000000000000479E17
1004
B84357691BC79E17B84357691B202020202020202000000000000000000000000000000000000000000000000000
1070
     3
1004
0000000749534F20202020203FEBB67AE85FB4C43FDFFFFFFFE657BA0000000000000000BFCB0C2D77613EFA3FD76C83823A53E23FED0079301F12F53FDD00793007D214BFE91DC856441C0A3FDB0C2D7776EEB9C0D0000000000000C0D000000000000040CFFF800000000040CFFF80000000003FF0000000000000479E17
1004
B84357691BC79E17B84357691B202020202020202000000000000000000000000000000000000000000000000000
  0
TEXT
  5
2596
330
1A
100
AcDbEntity
  8
241
100
AcDbText
 10
-28.0
 20
63.0
 30
0.0
 40
5.0
  1
HSK-A63-NBS13-165
  7
YOKO
 11
-28.0
 21
63.0
 31
0.0
100
AcDbText
 73
     1
  0
INSERT
  5
965E
330
1A
100
AcDbEntity
  8
240
100
AcDbBlockReference
  2
A$C7C4B2E9C
 10
0.0
 20
0.0
 30
0.0
  0
LEADER
  5
9660
102
{ACAD_REACTORS
330
96BB
102
}
330
1A
100
AcDbEntity
  8
250
100
AcDbLeader
  3
BIGT
 76
     2
 10
-11.84460828537027
 20
-23.7227695857315
 30
0.0
 10
-20.8297679149183
 20
-39.28552257822548
 30
0.0
1001
ACAD
1000
DSTYLE
1002
{
1070
     5
1000
OPEN
1070
    78
1070
     8
1070
   140
1040
3.0
1002
}
  0
LINE
  5
9661
102
{ACAD_REACTORS
330
96BB
102
}
330
1A
100
AcDbEntity
  8
250
100
AcDbLine
 10
-20.8297679149183
 20
-39.28552257822548
 30
0.0
 11
-46.82976791491831
 21
-39.28552257822548
 31
0.0
1001
ITEMNAME
1000
LNSP2
  0
MTEXT
  5
9662
102
{ACAD_REACTORS
330
96BB
102
}
330
1A
100
AcDbEntity
  8
250
 62
    40
100
AcDbMText
 10
-43.8297679149183
 20
-38.28552257822548
 30
0.0
 40
3.0
 41
0.0
 71
     7
 72
     1
  1
HSK-A63
  7
YOKO
1001
ITEMNAME
1000
LNSP3
1001
ACAD
1000
MTEXTBEGIN
1070
    73
1070
     1
1070
    44
1040
1.0
1070
    74
1070
     0
1000
MTEXTEND
  0
DIMENSION
  5
9663
330
1A
100
AcDbEntity
  8
250
100
AcDbDimension
  2
*D4
 10
164.9999999999915
 20
-35.0
 30
0.0
 11
139.9999999999915
 21
-32.5
 31
0.0
 70
    32
  1
41～60
  3
BIGT
100
AcDbAlignedDimension
 13
114.9999999999915
 23
-6.300000000000068
 33
0.0
 14
164.9999999999915
 24
-15.96005050517669
 34
0.0
100
AcDbRotatedDimension
1001
ACAD
1000
DSTYLE
1002
{
1070
    78
1070
     8
1070
   140
1040
3.0
1002
}
  0
DIMENSION
  5
9664
330
1A
100
AcDbEntity
  8
250
100
AcDbDimension
  2
*D2
 10
182.0
 20
17.49999999999999
 30
0.0
 11
179.4999999999999
 21
0.0000000000000247
 31
0.0
 70
    32
  1
{\H3;\U+2205}<>
  3
BIGT
100
AcDbAlignedDimension
 13
163.4186291500929
 23
-17.5
 33
0.0
 14
163.4186291500929
 24
17.5
 34
0.0
 50
90.0
100
AcDbRotatedDimension
1001
ACAD
1000
DSTYLE
1002
{
1070
    78
1070
     8
1070
   140
1040
3.0
1002
}
  0
DIMENSION
  5
9665
330
1A
100
AcDbEntity
  8
250
100
AcDbDimension
  2
*D3
 10
175.0
 20
6.499999999999996
 30
0.0
 11
172.3653153488307
 21
2.851785146131419
 31
0.0
 70
   160
  1
MAX.%%c<>
  3
BIGT
100
AcDbAlignedDimension
 13
164.9999999999915
 23
-6.5
 33
0.0
 14
164.9999999999915
 24
6.5
 34
0.0
 50
90.0
100
AcDbRotatedDimension
1001
ACAD
1000
DSTYLE
1002
{
1070
   287
1070
     5
1070
    78
1070
     8
1070
   140
1040
3.0
1070
   279
1070
     2
1002
}
  0
DIMENSION
  5
9666
330
1A
100
AcDbEntity
  8
250
100
AcDbDimension
  2
*D5
 10
164.9999999999915
 20
49.0
 30
0.0
 11
82.49999999999575
 21
51.5
 31
0.0
 70
    32
  3
BIGT
100
AcDbAlignedDimension
 13
0.0
 23
30.5
 33
0.0
 14
164.9999999999915
 24
15.96005050556914
 34
0.0
100
AcDbRotatedDimension
1001
ACAD
1000
DSTYLE
1002
{
1070
    78
1070
     8
1070
   140
1040
3.0
1002
}
  0
VIEWPORT
  5
22
330
17
100
AcDbEntity
 67
     1
  8
0
100
AcDbViewport
 10
261.5176991150442
 20
148.5
 30
0.0
 40
523.0353982300885
 41
297.0
 68
     1
 69
     1
1001
ACAD
1000
MVIEW
1002
{
1070
    16
1010
0.0
1020
0.0
1030
0.0
1010
0.0
1020
0.0
1030
1.0
1040
0.0
1040
297.0
1040
261.5176991150442
1040
148.5
1040
50.0
1040
0.0
1040
0.0
1070
     0
1070
   100
1070
     1
1070
     1
1070
     0
1070
     0
1070
     0
1070
     0
1040
0.0
1040
0.0
1040
0.0
1040
1.0
1040
1.0
1040
10.0
1040
10.0
1070
     0
1002
{
1002
}
1002
}
  0
ENDSEC
  0
SECTION
  2
OBJECTS
  0
DICTIONARY
  5
C
330
0
100
AcDbDictionary
  3
ACAD_GROUP
350
D
  3
ACAD_LAYOUT
350
565
  3
ACAD_MLINESTYLE
350
E
  3
ACAD_PLOTSETTINGS
350
566
  3
ACAD_PLOTSTYLENAME
350
563
  3
ACDBHEADERROUNDTRIPXREC
350
979A
  3
ACDBVARIABLEDICTIONARY
350
5F96
  3
GRADE_DWG
350
540
  0
DICTIONARY
  5
97BD
330
1A
100
AcDbDictionary
280
     1
  3
ACAD_LAYOUTSELFREF
360
97BE
  0
DICTIONARY
  5
97BB
330
17
100
AcDbDictionary
280
     1
  3
ACAD_LAYOUTSELFREF
360
97BC
  0
DICTIONARY
  5
D
102
{ACAD_REACTORS
330
C
102
}
330
C
100
AcDbDictionary
  3
*A1
350
E50
  3
*A10
350
E52
  3
*A11
350
195A
  3
*A12
350
E5F
  3
*A13
350
195B
  3
*A14
350
195C
  3
*A15
350
195D
  3
*A16
350
94AF
  3
*A17
350
195E
  3
*A18
350
195F
  3
*A19
350
1960
  3
*A2
350
1953
  3
*A20
350
1961
  3
*A21
350
1962
  3
*A22
350
1963
  3
*A23
350
E60
  3
*A24
350
E53
  3
*A25
350
1964
  3
*A26
350
1965
  3
*A27
350
1966
  3
*A28
350
96BB
  3
*A29
350
1967
  3
*A3
350
1954
  3
*A30
350
1968
  3
*A31
350
1969
  3
*A32
350
196A
  3
*A33
350
196B
  3
*A34
350
194E
  3
*A35
350
196C
  3
*A36
350
196D
  3
*A37
350
E54
  3
*A38
350
196E
  3
*A39
350
196F
  3
*A4
350
E59
  3
*A40
350
E5A
  3
*A41
350
1970
  3
*A42
350
1971
  3
*A43
350
1972
  3
*A44
350
1973
  3
*A45
350
194F
  3
*A46
350
1974
  3
*A47
350
1975
  3
*A48
350
19BA
  3
*A49
350
19BB
  3
*A5
350
1955
  3
*A50
350
E55
  3
*A51
350
19BC
  3
*A52
350
E5B
  3
*A53
350
2084
  3
*A54
350
2085
  3
*A55
350
2086
  3
*A56
350
E51
  3
*A57
350
2087
  3
*A58
350
2088
  3
*A59
350
2089
  3
*A6
350
1956
  3
*A60
350
208A
  3
*A61
350
208B
  3
*A62
350
208C
  3
*A63
350
E56
  3
*A64
350
E5C
  3
*A65
350
208D
  3
*A66
350
25EF
  3
*A67
350
1950
  3
*A68
350
2B36
  3
*A69
350
2D69
  3
*A7
350
1957
  3
*A70
350
329E
  3
*A71
350
34B9
  3
*A72
350
3A22
  3
*A73
350
3C33
  3
*A74
350
414B
  3
*A75
350
E57
  3
*A76
350
E5D
  3
*A77
350
4882
  3
*A78
350
1951
  3
*A79
350
4A87
  3
*A8
350
1958
  3
*A80
350
519A
  3
*A81
350
56CF
  3
*A82
350
5CCA
  3
*A83
350
61D2
  3
*A84
350
63B5
  3
*A85
350
6899
  3
*A86
350
E58
  3
*A87
350
6FE8
  3
*A88
350
E5E
  3
*A89
350
1952
  3
*A9
350
1959
  3
*A90
350
721B
  3
*A91
350
7764
  3
*A92
350
798C
  3
*A93
350
7E7E
  3
*A94
350
80E3
  3
*A95
350
85B8
  3
*A96
350
8847
  3
*A97
350
8D58
  3
*A98
350
8F6F
  3
DREC-1
350
5FC
  3
DREC-2
350
654
  3
DREC-3
350
673
  3
LNSP-1
350
23BF
  0
DICTIONARY
  5
565
102
{ACAD_REACTORS
330
C
102
}
330
C
100
AcDbDictionary
  0
DICTIONARY
  5
E
102
{ACAD_REACTORS
330
C
102
}
330
C
100
AcDbDictionary
  3
STANDARD
350
13
  0
DICTIONARY
  5
566
102
{ACAD_REACTORS
330
C
102
}
330
C
100
AcDbDictionary
  0
ACDBDICTIONARYWDFLT
  5
563
102
{ACAD_REACTORS
330
C
102
}
330
C
100
AcDbDictionary
281
     1
  3
Normal
350
564
100
AcDbDictionaryWithDefault
340
564
  0
DICTIONARY
  5
979A
102
{ACAD_REACTORS
330
C
102
}
330
C
100
AcDbDictionary
  3
CEPSNTYPE
350
97A4
  3
DIMSTYLEDATA
350
97A8
  3
FINGERPRINTGUID
350
97A5
  3
HYPERLINKBASE
350
979D
  3
INSUNITS
350
97A3
  3
LAYOUTDICT
350
979F
  3
LWETCUNION
350
97A2
  3
PLOTSETDICT
350
97A0
  3
PLOTSTYLNAMDICT
350
97A1
  3
PSVPSCALE
350
97A7
  3
PUCSBASE
350
97AB
  3
PUCSORGBACK
350
97B1
  3
PUCSORGBOTTOM
350
97AD
  3
PUCSORGFRONT
350
97B0
  3
PUCSORGLEFT
350
97AE
  3
PUCSORGRIGHT
350
97AF
  3
PUCSORGTOP
350
97AC
  3
PUCSORTHOREF
350
97A9
  3
PUCSORTHOVIEW
350
97AA
  3
STYLESHEET
350
979E
  3
TSTACKALIGN
350
979B
  3
TSTACKSIZE
350
979C
  3
UCSBASE
350
97B4
  3
UCSORGBACK
350
97BA
  3
UCSORGBOTTOM
350
97B6
  3
UCSORGFRONT
350
97B9
  3
UCSORGLEFT
350
97B7
  3
UCSORGRIGHT
350
97B8
  3
UCSORGTOP
350
97B5
  3
UCSORTHOREF
350
97B2
  3
UCSORTHOVIEW
350
97B3
  3
VERSIONGUID
350
97A6
  0
DICTIONARY
  5
5F96
102
{ACAD_REACTORS
330
C
102
}
330
C
100
AcDbDictionary
  3
SORTENTS
350
5F97
  0
DICTIONARY
  5
540
102
{ACAD_REACTORS
330
C
102
}
330
C
100
AcDbDictionary
  3
VERSION
350
560
  0
XRECORD
  5
97BE
102
{ACAD_REACTORS
330
97BD
102
}
330
97BD
100
AcDbXrecord
340
1A
  0
XRECORD
  5
97BC
102
{ACAD_REACTORS
330
97BB
102
}
330
97BB
100
AcDbXrecord
340
17
  0
GROUP
  5
E50
102
{ACAD_REACTORS
330
D
102
}
330
D
100
AcDbGroup
300

 70
     1
 71
     1
1001
GRPNAME
1000
LNSP
  0
GROUP
  5
E52
102
{ACAD_REACTORS
330
D
102
}
330
D
100
AcDbGroup
300

 70
     1
 71
     1
1001
GRPNAME
1000
LNSP
  0
GROUP
  5
195A
102
{ACAD_REACTORS
330
D
102
}
330
D
100
AcDbGroup
300

 70
     1
 71
     1
1001
GRPNAME
1000
LNSP
  0
GROUP
  5
E5F
102
{ACAD_REACTORS
330
D
102
}
330
D
100
AcDbGroup
300

 70
     0
 71
     1
1001
GRPNAME
1000
DM10001B
  0
GROUP
  5
195B
102
{ACAD_REACTORS
330
D
102
}
330
D
100
AcDbGroup
300

 70
     0
 71
     1
1001
GRPNAME
1000
PASTMD0G
  0
GROUP
  5
195C
102
{ACAD_REACTORS
330
D
102
}
330
D
100
AcDbGroup
300

 70
     3
 71
     1
1001
GRPNAME
1000
PASTMD0I
  0
GROUP
  5
195D
102
{ACAD_REACTORS
330
D
102
}
330
D
100
AcDbGroup
300

 70
     0
 71
     1
1001
GRPNAME
1000
PASTMD0J
  0
GROUP
  5
94AF
102
{ACAD_REACTORS
330
D
102
}
330
D
100
AcDbGroup
300

 70
     1
 71
     1
1001
GRPNAME
1000
LNSP
  0
GROUP
  5
195E
102
{ACAD_REACTORS
330
D
102
}
330
D
100
AcDbGroup
300

 70
     0
 71
     1
1001
GRPNAME
1000
PASTMD0K
  0
GROUP
  5
195F
102
{ACAD_REACTORS
330
D
102
}
330
D
100
AcDbGroup
300

 70
     0
 71
     1
1001
GRPNAME
1000
PASTMD0L
  0
GROUP
  5
1960
102
{ACAD_REACTORS
330
D
102
}
330
D
100
AcDbGroup
300

 70
     0
 71
     1
1001
GRPNAME
1000
PASTMD19
  0
GROUP
  5
1953
102
{ACAD_REACTORS
330
D
102
}
330
D
100
AcDbGroup
300

 70
     1
 71
     1
1001
GRPNAME
1000
LNSP
  0
GROUP
  5
1961
102
{ACAD_REACTORS
330
D
102
}
330
D
100
AcDbGroup
300

 70
     0
 71
     1
1001
GRPNAME
1000
PASTMD1A
  0
GROUP
  5
1962
102
{ACAD_REACTORS
330
D
102
}
330
D
100
AcDbGroup
300

 70
     0
 71
     1
1001
GRPNAME
1000
PASTMD1B
  0
GROUP
  5
1963
102
{ACAD_REACTORS
330
D
102
}
330
D
100
AcDbGroup
300

 70
     0
 71
     1
1001
GRPNAME
1000
PASTMD1C
  0
GROUP
  5
E60
102
{ACAD_REACTORS
330
D
102
}
330
D
100
AcDbGroup
300

 70
     0
 71
     1
1001
GRPNAME
1000
DM10001C
  0
GROUP
  5
E53
102
{ACAD_REACTORS
330
D
102
}
330
D
100
AcDbGroup
300

 70
     3
 71
     1
1001
GRPNAME
1000
LNSP
  0
GROUP
  5
1964
102
{ACAD_REACTORS
330
D
102
}
330
D
100
AcDbGroup
300

 70
     0
 71
     1
1001
GRPNAME
1000
PASTMD1D
  0
GROUP
  5
1965
102
{ACAD_REACTORS
330
D
102
}
330
D
100
AcDbGroup
300

 70
     0
 71
     1
1001
GRPNAME
1000
PASTMD1E
  0
GROUP
  5
1966
102
{ACAD_REACTORS
330
D
102
}
330
D
100
AcDbGroup
300

 70
     0
 71
     1
1001
GRPNAME
1000
PASTMD1F
  0
GROUP
  5
96BB
102
{ACAD_REACTORS
330
D
102
}
330
D
100
AcDbGroup
300

 70
     1
 71
     1
340
9660
340
9662
340
9661
1001
GRPNAME
1000
LNSP
  0
GROUP
  5
1967
102
{ACAD_REACTORS
330
D
102
}
330
D
100
AcDbGroup
300

 70
     0
 71
     1
1001
GRPNAME
1000
PASTMD1J
  0
GROUP
  5
1954
102
{ACAD_REACTORS
330
D
102
}
330
D
100
AcDbGroup
300

 70
     1
 71
     1
1001
GRPNAME
1000
LNSP
  0
GROUP
  5
1968
102
{ACAD_REACTORS
330
D
102
}
330
D
100
AcDbGroup
300

 70
     0
 71
     1
1001
GRPNAME
1000
PASTMD21
  0
GROUP
  5
1969
102
{ACAD_REACTORS
330
D
102
}
330
D
100
AcDbGroup
300

 70
     0
 71
     1
1001
GRPNAME
1000
DMIT
  0
GROUP
  5
196A
102
{ACAD_REACTORS
330
D
102
}
330
D
100
AcDbGroup
300

 70
     0
 71
     1
1001
GRPNAME
1000
DREC-
1001
GPARA
1000
xsiz
1000
44.182
1000
ysiz
1000
40.677
1000
angl
1000
0
1000
ctyp
1000
0
1000
csiz
1000
5
1000
lfnt
1000
cont
1000
hcnt
1000
hoff
1000
vcnt
1000
voff
1000
opnt
1000
4
1000
dxpt
1000
0
1000
dypt
1000
0
  0
GROUP
  5
196B
102
{ACAD_REACTORS
330
D
102
}
330
D
100
AcDbGroup
300

 70
     0
 71
     1
1001
GRPNAME
1000
DREC-
1001
GPARA
1000
xsiz
1000
54.592
1000
ysiz
1000
53.036
1000
angl
1000
0
1000
ctyp
1000
0
1000
csiz
1000
5
1000
lfnt
1000
cont
1000
hcnt
1000
hoff
1000
vcnt
1000
voff
1000
opnt
1000
4
1000
dxpt
1000
0
1000
dypt
1000
0
  0
GROUP
  5
194E
102
{ACAD_REACTORS
330
D
102
}
330
D
100
AcDbGroup
300

 70
     1
 71
     1
1001
GRPNAME
1000
LNSP
  0
GROUP
  5
196C
102
{ACAD_REACTORS
330
D
102
}
330
D
100
AcDbGroup
300

 70
     0
 71
     1
1001
GRPNAME
1000
DREC-
1001
GPARA
1000
xsiz
1000
30.363
1000
ysiz
1000
36.175
1000
angl
1000
0
1000
ctyp
1000
0
1000
csiz
1000
5
1000
lfnt
1000
cont
1000
hcnt
1000
hoff
1000
vcnt
1000
voff
1000
opnt
1000
4
1000
dxpt
1000
0
1000
dypt
1000
0
  0
GROUP
  5
196D
102
{ACAD_REACTORS
330
D
102
}
330
D
100
AcDbGroup
300

 70
     0
 71
     1
1001
GRPNAME
1000
DIMGRP01
  0
GROUP
  5
E54
102
{ACAD_REACTORS
330
D
102
}
330
D
100
AcDbGroup
300

 70
     3
 71
     1
1001
GRPNAME
1000
PASTMD1E
  0
GROUP
  5
196E
102
{ACAD_REACTORS
330
D
102
}
330
D
100
AcDbGroup
300

 70
     0
 71
     1
1001
GRPNAME
1000
DIMGRP08
  0
GROUP
  5
196F
102
{ACAD_REACTORS
330
D
102
}
330
D
100
AcDbGroup
300

 70
     0
 71
     1
1001
GRPNAME
1000
LNSP
  0
GROUP
  5
E59
102
{ACAD_REACTORS
330
D
102
}
330
D
100
AcDbGroup
300

 70
     0
 71
     1
1001
GRPNAME
1000
DREC-
1001
GPARA
1000
xsiz
1000
44.182
1000
ysiz
1000
40.677
1000
angl
1000
0
1000
ctyp
1000
0
1000
csiz
1000
5
1000
lfnt
1000
cont
1000
hcnt
1000
hoff
1000
vcnt
1000
voff
1000
opnt
1000
4
1000
dxpt
1000
0
1000
dypt
1000
0
  0
GROUP
  5
E5A
102
{ACAD_REACTORS
330
D
102
}
330
D
100
AcDbGroup
300

 70
     0
 71
     1
1001
GRPNAME
1000
DREC-
1001
GPARA
1000
xsiz
1000
54.592
1000
ysiz
1000
53.036
1000
angl
1000
0
1000
ctyp
1000
0
1000
csiz
1000
5
1000
lfnt
1000
cont
1000
hcnt
1000
hoff
1000
vcnt
1000
voff
1000
opnt
1000
4
1000
dxpt
1000
0
1000
dypt
1000
0
  0
GROUP
  5
1970
102
{ACAD_REACTORS
330
D
102
}
330
D
100
AcDbGroup
300

 70
     0
 71
     1
1001
GRPNAME
1000
LNSP
  0
GROUP
  5
1971
102
{ACAD_REACTORS
330
D
102
}
330
D
100
AcDbGroup
300

 70
     0
 71
     1
1001
GRPNAME
1000
LNSP
  0
GROUP
  5
1972
102
{ACAD_REACTORS
330
D
102
}
330
D
100
AcDbGroup
300

 70
     0
 71
     1
1001
GRPNAME
1000
DM100001
  0
GROUP
  5
1973
102
{ACAD_REACTORS
330
D
102
}
330
D
100
AcDbGroup
300

 70
     0
 71
     1
1001
GRPNAME
1000
DM100002
  0
GROUP
  5
194F
102
{ACAD_REACTORS
330
D
102
}
330
D
100
AcDbGroup
300

 70
     1
 71
     1
1001
GRPNAME
1000
LNSP
  0
GROUP
  5
1974
102
{ACAD_REACTORS
330
D
102
}
330
D
100
AcDbGroup
300

 70
     0
 71
     1
1001
GRPNAME
1000
DM100003
  0
GROUP
  5
1975
102
{ACAD_REACTORS
330
D
102
}
330
D
100
AcDbGroup
300

 70
     0
 71
     1
1001
GRPNAME
1000
DM100004
  0
GROUP
  5
19BA
102
{ACAD_REACTORS
330
D
102
}
330
D
100
AcDbGroup
300

 70
     1
 71
     1
1001
GRPNAME
1000
PASTMD0I
  0
GROUP
  5
19BB
102
{ACAD_REACTORS
330
D
102
}
330
D
100
AcDbGroup
300

 70
     1
 71
     1
1001
GRPNAME
1000
LNSP
  0
GROUP
  5
1955
102
{ACAD_REACTORS
330
D
102
}
330
D
100
AcDbGroup
300

 70
     3
 71
     1
1001
GRPNAME
1000
LNSP
  0
GROUP
  5
E55
102
{ACAD_REACTORS
330
D
102
}
330
D
100
AcDbGroup
300

 70
     0
 71
     1
1001
GRPNAME
1000
PASTMD1H
  0
GROUP
  5
19BC
102
{ACAD_REACTORS
330
D
102
}
330
D
100
AcDbGroup
300

 70
     1
 71
     1
1001
GRPNAME
1000
LNSP
  0
GROUP
  5
E5B
102
{ACAD_REACTORS
330
D
102
}
330
D
100
AcDbGroup
300

 70
     0
 71
     1
1001
GRPNAME
1000
DREC-
1001
GPARA
1000
xsiz
1000
30.363
1000
ysiz
1000
36.175
1000
angl
1000
0
1000
ctyp
1000
0
1000
csiz
1000
5
1000
lfnt
1000
cont
1000
hcnt
1000
hoff
1000
vcnt
1000
voff
1000
opnt
1000
4
1000
dxpt
1000
0
1000
dypt
1000
0
  0
GROUP
  5
2084
102
{ACAD_REACTORS
330
D
102
}
330
D
100
AcDbGroup
300

 70
     0
 71
     1
1001
GRPNAME
1000
DREC-
1001
GPARA
1000
xsiz
1000
44.182
1000
ysiz
1000
40.677
1000
angl
1000
0
1000
ctyp
1000
0
1000
csiz
1000
5
1000
lfnt
1000
cont
1000
hcnt
1000
hoff
1000
vcnt
1000
voff
1000
opnt
1000
4
1000
dxpt
1000
0
1000
dypt
1000
0
  0
GROUP
  5
2085
102
{ACAD_REACTORS
330
D
102
}
330
D
100
AcDbGroup
300

 70
     0
 71
     1
1001
GRPNAME
1000
DREC-
1001
GPARA
1000
xsiz
1000
54.592
1000
ysiz
1000
53.036
1000
angl
1000
0
1000
ctyp
1000
0
1000
csiz
1000
5
1000
lfnt
1000
cont
1000
hcnt
1000
hoff
1000
vcnt
1000
voff
1000
opnt
1000
4
1000
dxpt
1000
0
1000
dypt
1000
0
  0
GROUP
  5
2086
102
{ACAD_REACTORS
330
D
102
}
330
D
100
AcDbGroup
300

 70
     0
 71
     1
1001
GRPNAME
1000
DREC-
1001
GPARA
1000
xsiz
1000
30.363
1000
ysiz
1000
36.175
1000
angl
1000
0
1000
ctyp
1000
0
1000
csiz
1000
5
1000
lfnt
1000
cont
1000
hcnt
1000
hoff
1000
vcnt
1000
voff
1000
opnt
1000
4
1000
dxpt
1000
0
1000
dypt
1000
0
  0
GROUP
  5
E51
102
{ACAD_REACTORS
330
D
102
}
330
D
100
AcDbGroup
300

 70
     1
 71
     1
1001
GRPNAME
1000
LNSP
  0
GROUP
  5
2087
102
{ACAD_REACTORS
330
D
102
}
330
D
100
AcDbGroup
300

 70
     0
 71
     1
1001
GRPNAME
1000
DREC-
1001
GPARA
1000
xsiz
1000
44.182
1000
ysiz
1000
40.677
1000
angl
1000
0
1000
ctyp
1000
0
1000
csiz
1000
5
1000
lfnt
1000
cont
1000
hcnt
1000
hoff
1000
vcnt
1000
voff
1000
opnt
1000
4
1000
dxpt
1000
0
1000
dypt
1000
0
  0
GROUP
  5
2088
102
{ACAD_REACTORS
330
D
102
}
330
D
100
AcDbGroup
300

 70
     0
 71
     1
1001
GRPNAME
1000
DREC-
1001
GPARA
1000
xsiz
1000
54.592
1000
ysiz
1000
53.036
1000
angl
1000
0
1000
ctyp
1000
0
1000
csiz
1000
5
1000
lfnt
1000
cont
1000
hcnt
1000
hoff
1000
vcnt
1000
voff
1000
opnt
1000
4
1000
dxpt
1000
0
1000
dypt
1000
0
  0
GROUP
  5
2089
102
{ACAD_REACTORS
330
D
102
}
330
D
100
AcDbGroup
300

 70
     0
 71
     1
1001
GRPNAME
1000
DREC-
1001
GPARA
1000
xsiz
1000
30.363
1000
ysiz
1000
36.175
1000
angl
1000
0
1000
ctyp
1000
0
1000
csiz
1000
5
1000
lfnt
1000
cont
1000
hcnt
1000
hoff
1000
vcnt
1000
voff
1000
opnt
1000
4
1000
dxpt
1000
0
1000
dypt
1000
0
  0
GROUP
  5
1956
102
{ACAD_REACTORS
330
D
102
}
330
D
100
AcDbGroup
300

 70
     3
 71
     1
1001
GRPNAME
1000
LNSP
  0
GROUP
  5
208A
102
{ACAD_REACTORS
330
D
102
}
330
D
100
AcDbGroup
300

 70
     0
 71
     1
1001
GRPNAME
1000
LNSP
  0
GROUP
  5
208B
102
{ACAD_REACTORS
330
D
102
}
330
D
100
AcDbGroup
300

 70
     0
 71
     1
1001
GRPNAME
1000
DREC-
1001
GPARA
1000
xsiz
1000
44.182
1000
ysiz
1000
40.677
1000
angl
1000
0
1000
ctyp
1000
0
1000
csiz
1000
5
1000
lfnt
1000
cont
1000
hcnt
1000
hoff
1000
vcnt
1000
voff
1000
opnt
1000
4
1000
dxpt
1000
0
1000
dypt
1000
0
  0
GROUP
  5
208C
102
{ACAD_REACTORS
330
D
102
}
330
D
100
AcDbGroup
300

 70
     0
 71
     1
1001
GRPNAME
1000
DREC-
1001
GPARA
1000
xsiz
1000
54.592
1000
ysiz
1000
53.036
1000
angl
1000
0
1000
ctyp
1000
0
1000
csiz
1000
5
1000
lfnt
1000
cont
1000
hcnt
1000
hoff
1000
vcnt
1000
voff
1000
opnt
1000
4
1000
dxpt
1000
0
1000
dypt
1000
0
  0
GROUP
  5
E56
102
{ACAD_REACTORS
330
D
102
}
330
D
100
AcDbGroup
300

 70
     0
 71
     1
1001
GRPNAME
1000
PASTMD1K
  0
GROUP
  5
E5C
102
{ACAD_REACTORS
330
D
102
}
330
D
100
AcDbGroup
300

 70
     0
 71
     1
1001
GRPNAME
1000
LNSP
  0
GROUP
  5
208D
102
{ACAD_REACTORS
330
D
102
}
330
D
100
AcDbGroup
300

 70
     0
 71
     1
1001
GRPNAME
1000
DREC-
1001
GPARA
1000
xsiz
1000
30.363
1000
ysiz
1000
36.175
1000
angl
1000
0
1000
ctyp
1000
0
1000
csiz
1000
5
1000
lfnt
1000
cont
1000
hcnt
1000
hoff
1000
vcnt
1000
voff
1000
opnt
1000
4
1000
dxpt
1000
0
1000
dypt
1000
0
  0
GROUP
  5
25EF
102
{ACAD_REACTORS
330
D
102
}
330
D
100
AcDbGroup
300

 70
     1
 71
     1
1001
GRPNAME
1000
LNSP
  0
GROUP
  5
1950
102
{ACAD_REACTORS
330
D
102
}
330
D
100
AcDbGroup
300

 70
     1
 71
     1
1001
GRPNAME
1000
LNSP
  0
GROUP
  5
2B36
102
{ACAD_REACTORS
330
D
102
}
330
D
100
AcDbGroup
300

 70
     1
 71
     1
1001
GRPNAME
1000
LNSP
  0
GROUP
  5
2D69
102
{ACAD_REACTORS
330
D
102
}
330
D
100
AcDbGroup
300

 70
     1
 71
     1
1001
GRPNAME
1000
LNSP
  0
GROUP
  5
1957
102
{ACAD_REACTORS
330
D
102
}
330
D
100
AcDbGroup
300

 70
     1
 71
     1
1001
GRPNAME
1000
LNSP
  0
GROUP
  5
329E
102
{ACAD_REACTORS
330
D
102
}
330
D
100
AcDbGroup
300

 70
     1
 71
     1
1001
GRPNAME
1000
LNSP
  0
GROUP
  5
34B9
102
{ACAD_REACTORS
330
D
102
}
330
D
100
AcDbGroup
300

 70
     1
 71
     1
1001
GRPNAME
1000
LNSP
  0
GROUP
  5
3A22
102
{ACAD_REACTORS
330
D
102
}
330
D
100
AcDbGroup
300

 70
     1
 71
     1
1001
GRPNAME
1000
LNSP
  0
GROUP
  5
3C33
102
{ACAD_REACTORS
330
D
102
}
330
D
100
AcDbGroup
300

 70
     1
 71
     1
1001
GRPNAME
1000
LNSP
  0
GROUP
  5
414B
102
{ACAD_REACTORS
330
D
102
}
330
D
100
AcDbGroup
300

 70
     1
 71
     1
1001
GRPNAME
1000
LNSP
  0
GROUP
  5
E57
102
{ACAD_REACTORS
330
D
102
}
330
D
100
AcDbGroup
300

 70
     0
 71
     1
1001
GRPNAME
1000
PASTMD42
  0
GROUP
  5
E5D
102
{ACAD_REACTORS
330
D
102
}
330
D
100
AcDbGroup
300

 70
     0
 71
     1
1001
GRPNAME
1000
DM100019
  0
GROUP
  5
4882
102
{ACAD_REACTORS
330
D
102
}
330
D
100
AcDbGroup
300

 70
     1
 71
     1
1001
GRPNAME
1000
LNSP
  0
GROUP
  5
1951
102
{ACAD_REACTORS
330
D
102
}
330
D
100
AcDbGroup
300

 70
     1
 71
     1
1001
GRPNAME
1000
LNSP
  0
GROUP
  5
4A87
102
{ACAD_REACTORS
330
D
102
}
330
D
100
AcDbGroup
300

 70
     1
 71
     1
1001
GRPNAME
1000
LNSP
  0
GROUP
  5
1958
102
{ACAD_REACTORS
330
D
102
}
330
D
100
AcDbGroup
300

 70
     1
 71
     1
1001
GRPNAME
1000
LNSP
  0
GROUP
  5
519A
102
{ACAD_REACTORS
330
D
102
}
330
D
100
AcDbGroup
300

 70
     1
 71
     1
1001
GRPNAME
1000
LNSP
  0
GROUP
  5
56CF
102
{ACAD_REACTORS
330
D
102
}
330
D
100
AcDbGroup
300

 70
     1
 71
     1
1001
GRPNAME
1000
LNSP
  0
GROUP
  5
5CCA
102
{ACAD_REACTORS
330
D
102
}
330
D
100
AcDbGroup
300

 70
     1
 71
     1
1001
GRPNAME
1000
LNSP
  0
GROUP
  5
61D2
102
{ACAD_REACTORS
330
D
102
}
330
D
100
AcDbGroup
300

 70
     1
 71
     1
1001
GRPNAME
1000
LNSP
  0
GROUP
  5
63B5
102
{ACAD_REACTORS
330
D
102
}
330
D
100
AcDbGroup
300

 70
     1
 71
     1
1001
GRPNAME
1000
LNSP
  0
GROUP
  5
6899
102
{ACAD_REACTORS
330
D
102
}
330
D
100
AcDbGroup
300

 70
     1
 71
     1
1001
GRPNAME
1000
LNSP
  0
GROUP
  5
E58
102
{ACAD_REACTORS
330
D
102
}
330
D
100
AcDbGroup
300

 70
     0
 71
     1
1001
GRPNAME
1000
PASTMD43
  0
GROUP
  5
6FE8
102
{ACAD_REACTORS
330
D
102
}
330
D
100
AcDbGroup
300

 70
     1
 71
     1
1001
GRPNAME
1000
LNSP
  0
GROUP
  5
E5E
102
{ACAD_REACTORS
330
D
102
}
330
D
100
AcDbGroup
300

 70
     0
 71
     1
1001
GRPNAME
1000
DM10001A
  0
GROUP
  5
1952
102
{ACAD_REACTORS
330
D
102
}
330
D
100
AcDbGroup
300

 70
     1
 71
     1
1001
GRPNAME
1000
LNSP
  0
GROUP
  5
1959
102
{ACAD_REACTORS
330
D
102
}
330
D
100
AcDbGroup
300

 70
     1
 71
     1
1001
GRPNAME
1000
LNSP
  0
GROUP
  5
721B
102
{ACAD_REACTORS
330
D
102
}
330
D
100
AcDbGroup
300

 70
     1
 71
     1
1001
GRPNAME
1000
LNSP
  0
GROUP
  5
7764
102
{ACAD_REACTORS
330
D
102
}
330
D
100
AcDbGroup
300

 70
     1
 71
     1
1001
GRPNAME
1000
LNSP
  0
GROUP
  5
798C
102
{ACAD_REACTORS
330
D
102
}
330
D
100
AcDbGroup
300

 70
     1
 71
     1
1001
GRPNAME
1000
LNSP
  0
GROUP
  5
7E7E
102
{ACAD_REACTORS
330
D
102
}
330
D
100
AcDbGroup
300

 70
     1
 71
     1
1001
GRPNAME
1000
LNSP
  0
GROUP
  5
80E3
102
{ACAD_REACTORS
330
D
102
}
330
D
100
AcDbGroup
300

 70
     1
 71
     1
1001
GRPNAME
1000
LNSP
  0
GROUP
  5
85B8
102
{ACAD_REACTORS
330
D
102
}
330
D
100
AcDbGroup
300

 70
     1
 71
     1
1001
GRPNAME
1000
LNSP
  0
GROUP
  5
8847
102
{ACAD_REACTORS
330
D
102
}
330
D
100
AcDbGroup
300

 70
     1
 71
     1
1001
GRPNAME
1000
LNSP
  0
GROUP
  5
8D58
102
{ACAD_REACTORS
330
D
102
}
330
D
100
AcDbGroup
300

 70
     1
 71
     1
1001
GRPNAME
1000
LNSP
  0
GROUP
  5
8F6F
102
{ACAD_REACTORS
330
D
102
}
330
D
100
AcDbGroup
300

 70
     1
 71
     1
1001
GRPNAME
1000
LNSP
  0
GROUP
  5
5FC
102
{ACAD_REACTORS
330
D
102
}
330
D
100
AcDbGroup
300

 70
     0
 71
     1
1001
GRPNAME
1000
DREC-
1001
GPARA
1000
xsiz
1000
44.182
1000
ysiz
1000
40.677
1000
angl
1000
0
1000
ctyp
1000
0
1000
csiz
1000
5
1000
lfnt
1000
cont
1000
hcnt
1000
hoff
1000
vcnt
1000
voff
1000
opnt
1000
4
1000
dxpt
1000
0
1000
dypt
1000
0
  0
GROUP
  5
654
102
{ACAD_REACTORS
330
D
102
}
330
D
100
AcDbGroup
300

 70
     0
 71
     1
1001
GRPNAME
1000
DREC-
1001
GPARA
1000
xsiz
1000
54.592
1000
ysiz
1000
53.036
1000
angl
1000
0
1000
ctyp
1000
0
1000
csiz
1000
5
1000
lfnt
1000
cont
1000
hcnt
1000
hoff
1000
vcnt
1000
voff
1000
opnt
1000
4
1000
dxpt
1000
0
1000
dypt
1000
0
  0
GROUP
  5
673
102
{ACAD_REACTORS
330
D
102
}
330
D
100
AcDbGroup
300

 70
     0
 71
     1
1001
GRPNAME
1000
DREC-
1001
GPARA
1000
xsiz
1000
30.363
1000
ysiz
1000
36.175
1000
angl
1000
0
1000
ctyp
1000
0
1000
csiz
1000
5
1000
lfnt
1000
cont
1000
hcnt
1000
hoff
1000
vcnt
1000
voff
1000
opnt
1000
4
1000
dxpt
1000
0
1000
dypt
1000
0
  0
GROUP
  5
23BF
102
{ACAD_REACTORS
330
D
102
}
330
D
100
AcDbGroup
300

 70
     0
 71
     1
1001
GRPNAME
1000
LNSP
  0
MLINESTYLE
  5
13
102
{ACAD_REACTORS
330
E
102
}
330
E
100
AcDbMlineStyle
  2
STANDARD
 70
     0
  3

 62
     0
 51
90.0
 52
90.0
 71
     2
 49
0.5
 62
   256
  6
BYLAYER
 49
-0.5
 62
   256
  6
BYLAYER
  0
ACDBPLACEHOLDER
  5
564
102
{ACAD_REACTORS
330
563
102
}
330
563
100
AcDbPlaceHolder
280
     0
  0
XRECORD
  5
97A4
102
{ACAD_REACTORS
330
979A
102
}
330
979A
100
AcDbXrecord
 90
        0
  0
XRECORD
  5
97A8
102
{ACAD_REACTORS
330
979A
102
}
330
979A
100
AcDbXrecord
1000
DSTYLE
1002
{
1070
    79
 70
     2
1070
   179
 70
     3
1070
   289
 70
     2
1070
   341
340
594
1070
   342
340
594
1070
   371
 70
    -1
1070
   372
 70
    -1
1002
}
  0
XRECORD
  5
97A5
102
{ACAD_REACTORS
330
979A
102
}
330
979A
100
AcDbXrecord
  1
{51294030-9CB4-11D3-8E18-00A0C925D94D}
  0
XRECORD
  5
979D
102
{ACAD_REACTORS
330
979A
102
}
330
979A
100
AcDbXrecord
  1

  0
XRECORD
  5
97A3
102
{ACAD_REACTORS
330
979A
102
}
330
979A
100
AcDbXrecord
 90
        0
  0
XRECORD
  5
979F
102
{ACAD_REACTORS
330
979A
102
}
330
979A
100
AcDbXrecord
340
565
  0
XRECORD
  5
97A2
102
{ACAD_REACTORS
330
979A
102
}
330
979A
100
AcDbXrecord
 90
    10781
  0
XRECORD
  5
97A0
102
{ACAD_REACTORS
330
979A
102
}
330
979A
100
AcDbXrecord
340
566
  0
XRECORD
  5
97A1
102
{ACAD_REACTORS
330
979A
102
}
330
979A
100
AcDbXrecord
340
563
  0
XRECORD
  5
97A7
102
{ACAD_REACTORS
330
979A
102
}
330
979A
100
AcDbXrecord
 40
0.0
  0
XRECORD
  5
97AB
102
{ACAD_REACTORS
330
979A
102
}
330
979A
100
AcDbXrecord
340
0
  0
XRECORD
  5
97B1
102
{ACAD_REACTORS
330
979A
102
}
330
979A
100
AcDbXrecord
 10
0.0
 20
0.0
 30
0.0
  0
XRECORD
  5
97AD
102
{ACAD_REACTORS
330
979A
102
}
330
979A
100
AcDbXrecord
 10
0.0
 20
0.0
 30
0.0
  0
XRECORD
  5
97B0
102
{ACAD_REACTORS
330
979A
102
}
330
979A
100
AcDbXrecord
 10
0.0
 20
0.0
 30
0.0
  0
XRECORD
  5
97AE
102
{ACAD_REACTORS
330
979A
102
}
330
979A
100
AcDbXrecord
 10
0.0
 20
0.0
 30
0.0
  0
XRECORD
  5
97AF
102
{ACAD_REACTORS
330
979A
102
}
330
979A
100
AcDbXrecord
 10
0.0
 20
0.0
 30
0.0
  0
XRECORD
  5
97AC
102
{ACAD_REACTORS
330
979A
102
}
330
979A
100
AcDbXrecord
 10
0.0
 20
0.0
 30
0.0
  0
XRECORD
  5
97A9
102
{ACAD_REACTORS
330
979A
102
}
330
979A
100
AcDbXrecord
340
0
  0
XRECORD
  5
97AA
102
{ACAD_REACTORS
330
979A
102
}
330
979A
100
AcDbXrecord
 70
     0
  0
XRECORD
  5
979E
102
{ACAD_REACTORS
330
979A
102
}
330
979A
100
AcDbXrecord
  1
big.ctb
  0
XRECORD
  5
979B
102
{ACAD_REACTORS
330
979A
102
}
330
979A
100
AcDbXrecord
 90
        1
  0
XRECORD
  5
979C
102
{ACAD_REACTORS
330
979A
102
}
330
979A
100
AcDbXrecord
 90
       70
  0
XRECORD
  5
97B4
102
{ACAD_REACTORS
330
979A
102
}
330
979A
100
AcDbXrecord
340
0
  0
XRECORD
  5
97BA
102
{ACAD_REACTORS
330
979A
102
}
330
979A
100
AcDbXrecord
 10
0.0
 20
0.0
 30
0.0
  0
XRECORD
  5
97B6
102
{ACAD_REACTORS
330
979A
102
}
330
979A
100
AcDbXrecord
 10
0.0
 20
0.0
 30
0.0
  0
XRECORD
  5
97B9
102
{ACAD_REACTORS
330
979A
102
}
330
979A
100
AcDbXrecord
 10
0.0
 20
0.0
 30
0.0
  0
XRECORD
  5
97B7
102
{ACAD_REACTORS
330
979A
102
}
330
979A
100
AcDbXrecord
 10
0.0
 20
0.0
 30
0.0
  0
XRECORD
  5
97B8
102
{ACAD_REACTORS
330
979A
102
}
330
979A
100
AcDbXrecord
 10
0.0
 20
0.0
 30
0.0
  0
XRECORD
  5
97B5
102
{ACAD_REACTORS
330
979A
102
}
330
979A
100
AcDbXrecord
 10
0.0
 20
0.0
 30
0.0
  0
XRECORD
  5
97B2
102
{ACAD_REACTORS
330
979A
102
}
330
979A
100
AcDbXrecord
340
0
  0
XRECORD
  5
97B3
102
{ACAD_REACTORS
330
979A
102
}
330
979A
100
AcDbXrecord
 70
     0
  0
XRECORD
  5
97A6
102
{ACAD_REACTORS
330
979A
102
}
330
979A
100
AcDbXrecord
  1
{E48E2655-DA46-11D6-9655-006094EB2375}
  0
DICTIONARYVAR
  5
5F97
102
{ACAD_REACTORS
330
5F96
102
}
330
5F96
100
DictionaryVariables
280
     0
  1
96
  0
XRECORD
  5
560
102
{ACAD_REACTORS
330
540
102
}
330
540
100
AcDbXrecord
  1
2.0.0
  0
ENDSEC
  0
EOF
