  0
SECTION
  2
HEADER
  9
$ACADVER
  1
AC1015
  9
$ACADMAINTVER
 70
    20
  9
$DWGCODEPAGE
  3
ANSI_932
  9
$INSBASE
 10
0.0
 20
0.0
 30
0.0
  9
$EXTMIN
 10
-42.73069920202874
 20
-34.95513984493198
 30
-0.0015258207003583
  9
$EXTMAX
 10
155.0337564513322
 20
61.00277954533158
 30
0.0000000349246037
  9
$LIMMIN
 10
0.0
 20
0.0
  9
$LIMMAX
 10
420.0
 20
297.0
  9
$ORTHOMODE
 70
     0
  9
$REGENMODE
 70
     1
  9
$FILLMODE
 70
     1
  9
$QTEXTMODE
 70
     0
  9
$MIRRTEXT
 70
     1
  9
$LTSCALE
 40
10.0
  9
$ATTMODE
 70
     1
  9
$TEXTSIZE
 40
3.0
  9
$TRACEWID
 40
1.0
  9
$TEXTSTYLE
  7
YOKO
  9
$CLAYER
  8
245
  9
$CELTYPE
  6
BYLAYER
  9
$CECOLOR
 62
   256
  9
$CELTSCALE
 40
1.0
  9
$DISPSILH
 70
     0
  9
$DIMSCALE
 40
1.0
  9
$DIMASZ
 40
2.0
  9
$DIMEXO
 40
0.5
  9
$DIMDLI
 40
2.5
  9
$DIMRND
 40
0.0
  9
$DIMDLE
 40
0.0
  9
$DIMEXE
 40
1.0
  9
$DIMTP
 40
0.0
  9
$DIMTM
 40
0.0
  9
$DIMTXT
 40
2.799999999999999
  9
$DIMCEN
 40
0.0
  9
$DIMTSZ
 40
0.0
  9
$DIMTOL
 70
     0
  9
$DIMLIM
 70
     0
  9
$DIMTIH
 70
     0
  9
$DIMTOH
 70
     0
  9
$DIMSE1
 70
     0
  9
$DIMSE2
 70
     0
  9
$DIMTAD
 70
     3
  9
$DIMZIN
 70
     8
  9
$DIMBLK
  1

  9
$DIMASO
 70
     1
  9
$DIMSHO
 70
     1
  9
$DIMPOST
  1

  9
$DIMAPOST
  1

  9
$DIMALT
 70
     0
  9
$DIMALTD
 70
     2
  9
$DIMALTF
 40
25.4
  9
$DIMLFAC
 40
1.0
  9
$DIMTOFL
 70
     1
  9
$DIMTVP
 40
0.0
  9
$DIMTIX
 70
     1
  9
$DIMSOXD
 70
     0
  9
$DIMSAH
 70
     1
  9
$DIMBLK1
  1
OPEN
  9
$DIMBLK2
  1
OPEN
  9
$DIMSTYLE
  2
BIGT
  9
$DIMCLRD
 70
   256
  9
$DIMCLRE
 70
   256
  9
$DIMCLRT
 70
    40
  9
$DIMTFAC
 40
1.0
  9
$DIMGAP
 40
1.0
  9
$DIMJUST
 70
     0
  9
$DIMSD1
 70
     0
  9
$DIMSD2
 70
     0
  9
$DIMTOLJ
 70
     1
  9
$DIMTZIN
 70
     8
  9
$DIMALTZ
 70
     0
  9
$DIMALTTZ
 70
     0
  9
$DIMUPT
 70
     0
  9
$DIMDEC
 70
     3
  9
$DIMTDEC
 70
     3
  9
$DIMALTU
 70
     2
  9
$DIMALTTD
 70
     2
  9
$DIMTXSTY
  7
STANDARD
  9
$DIMAUNIT
 70
     0
  9
$DIMADEC
 70
     3
  9
$DIMALTRND
 40
0.0
  9
$DIMAZIN
 70
     2
  9
$DIMDSEP
 70
    46
  9
$DIMATFIT
 70
     3
  9
$DIMFRAC
 70
     0
  9
$DIMLDRBLK
  1
OPEN
  9
$DIMLUNIT
 70
     2
  9
$DIMLWD
 70
    -1
  9
$DIMLWE
 70
    -1
  9
$DIMTMOVE
 70
     0
  9
$LUNITS
 70
     2
  9
$LUPREC
 70
     3
  9
$SKETCHINC
 40
1.0
  9
$FILLETRAD
 40
1.0
  9
$AUNITS
 70
     0
  9
$AUPREC
 70
     3
  9
$MENU
  1
.
  9
$ELEVATION
 40
0.0
  9
$PELEVATION
 40
0.0
  9
$THICKNESS
 40
0.0
  9
$LIMCHECK
 70
     0
  9
$CHAMFERA
 40
10.0
  9
$CHAMFERB
 40
10.0
  9
$CHAMFERC
 40
0.0
  9
$CHAMFERD
 40
0.0
  9
$SKPOLY
 70
     0
  9
$TDCREATE
 40
2455363.665169271
  9
$TDUCREATE
 40
2455363.290169271
  9
$TDUPDATE
 40
2456605.720653206
  9
$TDUUPDATE
 40
2456605.345653206
  9
$TDINDWG
 40
0.0136120139
  9
$TDUSRTIMER
 40
0.0136076736
  9
$USRTIMER
 70
     1
  9
$ANGBASE
 50
0.0
  9
$ANGDIR
 70
     0
  9
$PDMODE
 70
     0
  9
$PDSIZE
 40
-5.0
  9
$PLINEWID
 40
0.0
  9
$SPLFRAME
 70
     0
  9
$SPLINETYPE
 70
     6
  9
$SPLINESEGS
 70
     8
  9
$HANDSEED
  5
FB4
  9
$SURFTAB1
 70
     6
  9
$SURFTAB2
 70
     6
  9
$SURFTYPE
 70
     6
  9
$SURFU
 70
     6
  9
$SURFV
 70
     6
  9
$UCSBASE
  2

  9
$UCSNAME
  2

  9
$UCSORG
 10
0.0
 20
0.0
 30
0.0
  9
$UCSXDIR
 10
1.0
 20
0.0
 30
0.0
  9
$UCSYDIR
 10
0.0
 20
1.0
 30
0.0
  9
$UCSORTHOREF
  2

  9
$UCSORTHOVIEW
 70
     0
  9
$UCSORGTOP
 10
0.0
 20
0.0
 30
0.0
  9
$UCSORGBOTTOM
 10
0.0
 20
0.0
 30
0.0
  9
$UCSORGLEFT
 10
0.0
 20
0.0
 30
0.0
  9
$UCSORGRIGHT
 10
0.0
 20
0.0
 30
0.0
  9
$UCSORGFRONT
 10
0.0
 20
0.0
 30
0.0
  9
$UCSORGBACK
 10
0.0
 20
0.0
 30
0.0
  9
$PUCSBASE
  2

  9
$PUCSNAME
  2

  9
$PUCSORG
 10
0.0
 20
0.0
 30
0.0
  9
$PUCSXDIR
 10
1.0
 20
0.0
 30
0.0
  9
$PUCSYDIR
 10
0.0
 20
1.0
 30
0.0
  9
$PUCSORTHOREF
  2

  9
$PUCSORTHOVIEW
 70
     0
  9
$PUCSORGTOP
 10
0.0
 20
0.0
 30
0.0
  9
$PUCSORGBOTTOM
 10
0.0
 20
0.0
 30
0.0
  9
$PUCSORGLEFT
 10
0.0
 20
0.0
 30
0.0
  9
$PUCSORGRIGHT
 10
0.0
 20
0.0
 30
0.0
  9
$PUCSORGFRONT
 10
0.0
 20
0.0
 30
0.0
  9
$PUCSORGBACK
 10
0.0
 20
0.0
 30
0.0
  9
$USERI1
 70
     1
  9
$USERI2
 70
     0
  9
$USERI3
 70
     0
  9
$USERI4
 70
     0
  9
$USERI5
 70
     0
  9
$USERR1
 40
0.0
  9
$USERR2
 40
0.0
  9
$USERR3
 40
0.0
  9
$USERR4
 40
0.0
  9
$USERR5
 40
0.0
  9
$WORLDVIEW
 70
     1
  9
$SHADEDGE
 70
     3
  9
$SHADEDIF
 70
    70
  9
$TILEMODE
 70
     1
  9
$MAXACTVP
 70
    16
  9
$PINSBASE
 10
0.0
 20
0.0
 30
0.0
  9
$PLIMCHECK
 70
     0
  9
$PEXTMIN
 10
1.000000000000000E+20
 20
1.000000000000000E+20
 30
1.000000000000000E+20
  9
$PEXTMAX
 10
-1.000000000000000E+20
 20
-1.000000000000000E+20
 30
-1.000000000000000E+20
  9
$PLIMMIN
 10
0.0
 20
0.0
  9
$PLIMMAX
 10
420.0
 20
297.0
  9
$UNITMODE
 70
     0
  9
$VISRETAIN
 70
     0
  9
$PLINEGEN
 70
     0
  9
$PSLTSCALE
 70
     1
  9
$TREEDEPTH
 70
  3020
  9
$CMLSTYLE
  2
STANDARD
  9
$CMLJUST
 70
     0
  9
$CMLSCALE
 40
1.0
  9
$PROXYGRAPHICS
 70
     1
  9
$MEASUREMENT
 70
     1
  9
$CELWEIGHT
370
    -1
  9
$ENDCAPS
280
     0
  9
$JOINSTYLE
280
     0
  9
$LWDISPLAY
290
     0
  9
$INSUNITS
 70
     0
  9
$HYPERLINKBASE
  1

  9
$STYLESHEET
  1
big.ctb
  9
$XEDIT
290
     1
  9
$CEPSNTYPE
380
     0
  9
$PSTYLEMODE
290
     1
  9
$FINGERPRINTGUID
  2
{51294030-9CB4-11D3-8E18-00A0C925D94D}
  9
$VERSIONGUID
  2
{F3CFF056-585A-43DE-966D-0738213FDFA3}
  9
$EXTNAMES
290
     1
  9
$PSVPSCALE
 40
0.0
  9
$OLESTARTUP
290
     0
  0
ENDSEC
  0
SECTION
  2
CLASSES
  0
CLASS
  1
ACDBDICTIONARYWDFLT
  2
AcDbDictionaryWithDefault
  3
ObjectDBX Classes
 90
        0
280
     0
281
     0
  0
CLASS
  1
ACDBPLACEHOLDER
  2
AcDbPlaceHolder
  3
ObjectDBX Classes
 90
        0
280
     0
281
     0
  0
CLASS
  1
LAYOUT
  2
AcDbLayout
  3
ObjectDBX Classes
 90
        0
280
     0
281
     0
  0
CLASS
  1
PLOTSETTINGS
  2
AcDbPlotSettings
  3
ObjectDBX Classes
 90
        0
280
     0
281
     0
  0
CLASS
  1
MATERIAL
  2
AcDbMaterial
  3
ObjectDBX Classes
 90
     1024
280
     0
281
     0
  0
CLASS
  1
VISUALSTYLE
  2
AcDbVisualStyle
  3
ObjectDBX Classes
 90
     4095
280
     0
281
     0
  0
CLASS
  1
TABLESTYLE
  2
AcDbTableStyle
  3
ObjectDBX Classes
 90
     4095
280
     0
281
     0
  0
CLASS
  1
SORTENTSTABLE
  2
AcDbSortentsTable
  3
ObjectDBX Classes
 90
        0
280
     0
281
     0
  0
CLASS
  1
DICTIONARYVAR
  2
AcDbDictionaryVar
  3
ObjectDBX Classes
 90
        0
280
     0
281
     0
  0
ENDSEC
  0
SECTION
  2
TABLES
  0
TABLE
  2
VPORT
  5
8
330
0
100
AcDbSymbolTable
 70
     1
  0
VPORT
  5
E26
330
8
100
AcDbSymbolTableRecord
100
AcDbViewportTableRecord
  2
*ACTIVE
 70
     0
 10
0.0
 20
0.0
 11
1.0
 21
1.0
 12
56.15152862465173
 22
13.0238198501998
 13
0.0
 23
0.0
 14
7.0
 24
7.0
 15
7.0
 25
7.0
 16
0.0
 26
0.0
 36
1.0
 17
0.0
 27
0.0
 37
0.0
 40
138.2803343822023
 41
1.436127744510978
 42
50.0
 43
0.0
 44
0.0
 50
0.0
 51
0.0
 71
     0
 72
  2000
 73
     1
 74
     0
 75
     0
 76
     0
 77
     0
 78
     0
281
     0
 65
     1
110
0.0
120
0.0
130
0.0
111
1.0
121
0.0
131
0.0
112
0.0
122
1.0
132
0.0
 79
     0
146
0.0
  0
ENDTAB
  0
TABLE
  2
LTYPE
  5
5
330
0
100
AcDbSymbolTable
 70
     3
  0
LTYPE
  5
14
330
5
100
AcDbSymbolTableRecord
100
AcDbLinetypeTableRecord
  2
BYBLOCK
 70
     0
  3

 72
    65
 73
     0
 40
0.0
  0
LTYPE
  5
15
330
5
100
AcDbSymbolTableRecord
100
AcDbLinetypeTableRecord
  2
BYLAYER
 70
     0
  3

 72
    65
 73
     0
 40
0.0
  0
LTYPE
  5
16
330
5
100
AcDbSymbolTableRecord
100
AcDbLinetypeTableRecord
  2
CONTINUOUS
 70
     0
  3
Solid line
 72
    65
 73
     0
 40
0.0
  0
LTYPE
  5
258
330
5
100
AcDbSymbolTableRecord
100
AcDbLinetypeTableRecord
  2
CENTER2
 70
     0
  3
___ _ ___ _ ___ _ ___ _ ___ _ ___ _ ___ _ ___ _
 72
    65
 73
     4
 40
1.125
 49
0.75
 74
     0
 49
-0.125
 74
     0
 49
0.125
 74
     0
 49
-0.125
 74
     0
  0
LTYPE
  5
25C
330
5
100
AcDbSymbolTableRecord
100
AcDbLinetypeTableRecord
  2
HIDDEN2
 70
     0
  3
_ _ _ _ _ _ _ _ _ _ _ _ _ _ _ _ _ _ _ _ _ _ _ _
 72
    65
 73
     2
 40
0.1875
 49
0.125
 74
     0
 49
-0.0625
 74
     0
  0
ENDTAB
  0
TABLE
  2
LAYER
  5
2
102
{ACAD_XDICTIONARY
360
EE2
102
}
330
0
100
AcDbSymbolTable
 70
     9
  0
LAYER
  5
F
330
2
100
AcDbSymbolTableRecord
100
AcDbLayerTableRecord
  2
0
 70
     0
 62
     7
  6
CONTINUOUS
370
    -3
390
564
  0
LAYER
  5
1AA
330
2
100
AcDbSymbolTableRecord
100
AcDbLayerTableRecord
  2
240
 70
     0
 62
     4
  6
CONTINUOUS
370
    -3
390
564
  0
LAYER
  5
1AB
330
2
100
AcDbSymbolTableRecord
100
AcDbLayerTableRecord
  2
241
 70
     0
 62
   211
  6
CONTINUOUS
370
    -3
390
564
  0
LAYER
  5
1AC
330
2
100
AcDbSymbolTableRecord
100
AcDbLayerTableRecord
  2
242
 70
     0
 62
     3
  6
CONTINUOUS
370
    -3
390
564
  0
LAYER
  5
1AF
330
2
100
AcDbSymbolTableRecord
100
AcDbLayerTableRecord
  2
245
 70
     0
 62
     2
  6
CENTER2
370
    -3
390
564
  0
LAYER
  5
21E
330
2
100
AcDbSymbolTableRecord
100
AcDbLayerTableRecord
  2
250
 70
     0
 62
     3
  6
CONTINUOUS
370
    -3
390
564
  0
LAYER
  5
21F
330
2
100
AcDbSymbolTableRecord
100
AcDbLayerTableRecord
  2
251
 70
     0
 62
    40
  6
CONTINUOUS
370
    -3
390
564
  0
LAYER
  5
5C4
330
2
100
AcDbSymbolTableRecord
100
AcDbLayerTableRecord
  2
DEFPOINTS
 70
     0
 62
     7
  6
CONTINUOUS
290
     0
370
    -3
390
564
  0
LAYER
  5
A59
330
2
100
AcDbSymbolTableRecord
100
AcDbLayerTableRecord
  2
DETAIL
 70
     0
 62
     3
  6
CONTINUOUS
370
    -3
390
564
  0
ENDTAB
  0
TABLE
  2
STYLE
  5
3
330
0
100
AcDbSymbolTable
 70
     2
  0
STYLE
  5
10
330
3
100
AcDbSymbolTableRecord
100
AcDbTextStyleTableRecord
  2
STANDARD
 70
     0
 40
0.0
 41
1.0
 50
0.0
 71
     0
 42
3.0
  3
romans.shx
  4
BIGFONT.SHX
  0
STYLE
  5
339
330
3
100
AcDbSymbolTableRecord
100
AcDbTextStyleTableRecord
  2
YOKO
 70
     0
 40
0.0
 41
1.0
 50
0.0
 71
     0
 42
3.0
  3
romans.shx
  4
extfont.shx
  0
ENDTAB
  0
TABLE
  2
VIEW
  5
6
330
0
100
AcDbSymbolTable
 70
     0
  0
ENDTAB
  0
TABLE
  2
UCS
  5
7
330
0
100
AcDbSymbolTable
 70
     0
  0
ENDTAB
  0
TABLE
  2
APPID
  5
9
330
0
100
AcDbSymbolTable
 70
     9
  0
APPID
  5
11
330
9
100
AcDbSymbolTableRecord
100
AcDbRegAppTableRecord
  2
ACAD
 70
     0
  0
APPID
  5
1B1
330
9
100
AcDbSymbolTableRecord
100
AcDbRegAppTableRecord
  2
GLOBAL
 70
     0
  0
APPID
  5
2A4
330
9
100
AcDbSymbolTableRecord
100
AcDbRegAppTableRecord
  2
DETAIL
 70
     0
  0
APPID
  5
5FD
330
9
100
AcDbSymbolTableRecord
100
AcDbRegAppTableRecord
  2
GRPNAME
 70
     0
  0
APPID
  5
5FE
330
9
100
AcDbSymbolTableRecord
100
AcDbRegAppTableRecord
  2
GPARA
 70
     0
  0
APPID
  5
6C4
330
9
100
AcDbSymbolTableRecord
100
AcDbRegAppTableRecord
  2
DCO15
 70
     0
  0
APPID
  5
6C5
330
9
100
AcDbSymbolTableRecord
100
AcDbRegAppTableRecord
  2
ITEMNAME
 70
     0
  0
APPID
  5
6C6
330
9
100
AcDbSymbolTableRecord
100
AcDbRegAppTableRecord
  2
GRADE_0
 70
     0
  0
APPID
  5
A4E
330
9
100
AcDbSymbolTableRecord
100
AcDbRegAppTableRecord
  2
CONTENTBLOCKICON
 70
     0
  0
ENDTAB
  0
TABLE
  2
DIMSTYLE
  5
A
330
0
100
AcDbSymbolTable
 70
     1
100
AcDbDimStyleTable
 71
     0
  0
DIMSTYLE
105
725
102
{ACAD_REACTORS
330
8C9
330
D4F
330
D5E
102
}
330
A
100
AcDbSymbolTableRecord
100
AcDbDimStyleTableRecord
  2
BIGT
 70
     0
 41
2.229999999999999
 42
0.5
 43
2.5
 44
1.0
 73
     0
 74
     0
 77
     3
 78
     8
140
2.799999999999999
141
0.0
147
1.0
172
     1
173
     1
174
     1
176
   256
177
   256
178
    40
271
     3
272
     3
284
     8
340
10
341
594
343
594
344
594
  0
ENDTAB
  0
TABLE
  2
BLOCK_RECORD
  5
1
330
0
100
AcDbSymbolTable
 70
     7
  0
BLOCK_RECORD
  5
1A
102
{ACAD_XDICTIONARY
360
A44
102
}
330
1
100
AcDbSymbolTableRecord
100
AcDbBlockTableRecord
  2
*MODEL_SPACE
340
E72
  0
BLOCK_RECORD
  5
17
102
{ACAD_XDICTIONARY
360
A42
102
}
330
1
100
AcDbSymbolTableRecord
100
AcDbBlockTableRecord
  2
*PAPER_SPACE
340
E73
  0
BLOCK_RECORD
  5
594
330
1
100
AcDbSymbolTableRecord
100
AcDbBlockTableRecord
  2
_OPEN
340
0
102
{BLKREFS
331
D2A
331
D2B
331
E4E
331
D77
331
D78
102
}
  0
BLOCK_RECORD
  5
6E3
330
1
100
AcDbSymbolTableRecord
100
AcDbBlockTableRecord
  2
矢印なし
340
0
102
{BLKREFS
331
E4D
331
6E6
102
}
  0
BLOCK_RECORD
  5
8CA
330
1
100
AcDbSymbolTableRecord
100
AcDbBlockTableRecord
  2
*D2
340
0
  0
BLOCK_RECORD
  5
982
330
1
100
AcDbSymbolTableRecord
100
AcDbBlockTableRecord
  2
1
340
0
310
2800000020000000200000000100080000000000000400000000000000000000000000000000000000000000000080000080000000808000800000008000800080800000C0C0C000C0DCC000F0CAA6000020400000206000002080000020A0000020C0000020E00000400000004020000040400000406000004080000040A0
310
000040C0000040E00000600000006020000060400000606000006080000060A0000060C0000060E00000800000008020000080400000806000008080000080A0000080C0000080E00000A0000000A0200000A0400000A0600000A0800000A0A00000A0C00000A0E00000C0000000C0200000C0400000C0600000C0800000C0
310
A00000C0C00000C0E00000E0000000E0200000E0400000E0600000E0800000E0A00000E0C00000E0E00040000000400020004000400040006000400080004000A0004000C0004000E00040200000402020004020400040206000402080004020A0004020C0004020E000404000004040200040404000404060004040800040
310
40A0004040C0004040E00040600000406020004060400040606000406080004060A0004060C0004060E00040800000408020004080400040806000408080004080A0004080C0004080E00040A0000040A0200040A0400040A0600040A0800040A0A00040A0C00040A0E00040C0000040C0200040C0400040C0600040C08000
310
40C0A00040C0C00040C0E00040E0000040E0200040E0400040E0600040E0800040E0A00040E0C00040E0E00080000000800020008000400080006000800080008000A0008000C0008000E00080200000802020008020400080206000802080008020A0008020C0008020E00080400000804020008040400080406000804080
310
008040A0008040C0008040E00080600000806020008060400080606000806080008060A0008060C0008060E00080800000808020008080400080806000808080008080A0008080C0008080E00080A0000080A0200080A0400080A0600080A0800080A0A00080A0C00080A0E00080C0000080C0200080C0400080C0600080C0
310
800080C0A00080C0C00080C0E00080E0000080E0200080E0400080E0600080E0800080E0A00080E0C00080E0E000C0000000C0002000C0004000C0006000C0008000C000A000C000C000C000E000C0200000C0202000C0204000C0206000C0208000C020A000C020C000C020E000C0400000C0402000C0404000C0406000C0
310
408000C040A000C040C000C040E000C0600000C0602000C0604000C0606000C0608000C060A000C060C000C060E000C0800000C0802000C0804000C0806000C0808000C080A000C080C000C080E000C0A00000C0A02000C0A04000C0A06000C0A08000C0A0A000C0A0C000C0A0E000C0C00000C0C02000C0C04000C0C06000
310
C0C08000C0C0A000F0FBFF00A4A0A000808080000000FF0000FF000000FFFF00FF000000FF00FF00FFFF0000FFFFFF0000000000000000000000000000000000000000000000000000000000000000000000000000000000000000000000000000000000000000000000000000000000000000000000000000000000000000
310
00000000000000000000000000000000000000000000000000000000000000000000000000000000000000000000000000000000000000000000000000000000000000000000000000000000000000000000000000000000000000000000000000000000000000000000000000000000000000000000000000000000000000
310
00000000000000000000000000000000000000000000000000000000000000000000000000000000000000000000000000000000000000000000000000000000000000000000000000000000000000000000000000000000000000000000000000000000000000000000000000000000000000000000000000FEFEFEFEFE00
310
000000000000000000000000000000000000000000000000FEFEFEE7E7E7FEFE0000000000000000000000000000000000000000FEFEFEFE00E7E700E7E7E7FEFEFEFEFEFEFEFEFEFEFEFEFEFEFEFEFEFE000000FE00000000E7E700E7E7E7FA00000000000000000000000000000000FE000000FEE7E70000E7E700E7E7E7
310
FA00000000000000000000000000000000FE00000000FEE700FBE7E700E7FBE7E7E7E7E7E7000000000000000000000000FE000000FBFEE7FBFBE7E7E7FBFBE7E7FBFBFBE7E7FBFBFBFBFBFBFBFBFBFBFBFEFB0000FEFEE70000E7E700E7E7E7E70000E7E7E7E7E7E7E7E7E7E7E7E7E7E7FE000000FE00000000E7E700E7FB
310
E7E700000000000000000000000000000000FE000000FEFEFE0000E7E700E7FBE7FEFEFEFEFEFEFEFEFEFEFEFEFEFEFEFEFEFE000000000000FEFEFEFE00FEFEFEFE0000000000000000000000000000000000000000000000000000FEFEFEFEFE000000000000000000000000000000000000000000000000000000000000
310
00000000000000000000000000000000000000000000000000000000000000000000000000000000000000000000000000000000000000000000000000000000000000000000000000000000000000000000000000000000000000000000000000000000000000000000000000000000000000000000000000000000000000
310
00000000000000000000000000000000000000000000000000000000000000000000000000000000000000000000000000000000000000000000000000000000000000000000000000000000000000000000000000000000000000000000000000000000000000000000000000000000000000000000000000000000000000
310
0000000000000000000000000000000000000000000000000000000000000000000000000000000000000000000000000000000000000000
102
{BLKREFS
331
F70
102
}
  0
BLOCK_RECORD
  5
D50
330
1
100
AcDbSymbolTableRecord
100
AcDbBlockTableRecord
  2
*D4
340
0
  0
BLOCK_RECORD
  5
D5F
330
1
100
AcDbSymbolTableRecord
100
AcDbBlockTableRecord
  2
*D5
340
0
  0
ENDTAB
  0
ENDSEC
  0
SECTION
  2
BLOCKS
  0
BLOCK
  5
1B
330
1A
100
AcDbEntity
  8
0
100
AcDbBlockBegin
  2
*MODEL_SPACE
 70
     0
 10
0.0
 20
0.0
 30
0.0
  3
*MODEL_SPACE
  1

  0
ENDBLK
  5
1C
330
1A
100
AcDbEntity
  8
0
100
AcDbBlockEnd
  0
BLOCK
  5
18
330
17
100
AcDbEntity
 67
     1
  8
0
100
AcDbBlockBegin
  2
*PAPER_SPACE
 70
     0
 10
0.0
 20
0.0
 30
0.0
  3
*PAPER_SPACE
  1

  0
ENDBLK
  5
19
330
17
100
AcDbEntity
 67
     1
  8
0
100
AcDbBlockEnd
  0
BLOCK
  5
598
330
594
100
AcDbEntity
  8
0
100
AcDbBlockBegin
  2
_OPEN
 70
     0
 10
0.0
 20
0.0
 30
0.0
  3
_OPEN
  1

  0
LINE
  5
595
330
594
100
AcDbEntity
  8
0
  6
ByBlock
 62
     0
100
AcDbLine
 10
-1.0
 20
0.16666667
 30
0.0
 11
0.0
 21
0.0
 31
0.0
  0
LINE
  5
596
330
594
100
AcDbEntity
  8
0
  6
ByBlock
 62
     0
100
AcDbLine
 10
-1.0
 20
-0.16666667
 30
0.0
 11
0.0
 21
0.0
 31
0.0
  0
LINE
  5
597
330
594
100
AcDbEntity
  8
0
  6
ByBlock
 62
     0
100
AcDbLine
 10
0.0
 20
0.0
 30
0.0
 11
-1.0
 21
0.0
 31
0.0
  0
ENDBLK
  5
599
330
594
100
AcDbEntity
  8
0
100
AcDbBlockEnd
  0
BLOCK
  5
6E4
330
6E3
100
AcDbEntity
  8
0
100
AcDbBlockBegin
  2
矢印なし
 70
     0
 10
0.0
 20
0.0
 30
0.0
  3
矢印なし
  1

  0
ENDBLK
  5
6E5
330
6E3
100
AcDbEntity
  8
0
100
AcDbBlockEnd
  0
BLOCK
  5
8D4
330
8CA
100
AcDbEntity
  8
0
100
AcDbBlockBegin
  2
*D2
 70
     1
 10
0.0
 20
0.0
 30
0.0
  3
*D2
  1

  0
LINE
  5
D27
330
8CA
100
AcDbEntity
  8
DETAIL
  6
Continuous
100
AcDbLine
 10
0.0
 20
31.0
 30
0.0
 11
0.0
 21
43.0
 31
0.0
  0
LINE
  5
D28
330
8CA
100
AcDbEntity
  8
DETAIL
  6
Continuous
100
AcDbLine
 10
135.0
 20
19.5
 30
0.0
 11
135.0
 21
43.0
 31
0.0
  0
LINE
  5
D29
330
8CA
100
AcDbEntity
  8
DETAIL
  6
Continuous
100
AcDbLine
 10
2.229999999999999
 20
42.0
 30
0.0
 11
132.77
 21
42.0
 31
0.0
  0
INSERT
  5
D2A
330
8CA
100
AcDbEntity
  8
DETAIL
  6
Continuous
100
AcDbBlockReference
  2
_OPEN
 10
0.0
 20
42.0
 30
0.0
 41
2.229999999999999
 42
2.229999999999999
 43
2.229999999999999
 50
180.0
  0
INSERT
  5
D2B
330
8CA
100
AcDbEntity
  8
DETAIL
  6
Continuous
100
AcDbBlockReference
  2
_OPEN
 10
135.0
 20
42.0
 30
0.0
 41
2.229999999999999
 42
2.229999999999999
 43
2.229999999999999
  0
MTEXT
  5
D2C
330
8CA
100
AcDbEntity
  8
DETAIL
  6
Continuous
 62
    40
100
AcDbMText
 10
67.5
 20
44.4
 30
0.0
 40
2.799999999999999
 41
0.0
 71
     5
 72
     1
  1
\A1;135
 73
     1
 44
1.0
1001
ACAD
1000
MTEXTBEGIN
1070
    73
1070
     1
1070
    44
1040
1.0
1070
    74
1070
     0
1000
MTEXTEND
  0
POINT
  5
D2D
330
8CA
100
AcDbEntity
  8
DEFPOINTS
  6
Continuous
 62
     0
100
AcDbPoint
 10
0.0
 20
30.5
 30
0.0
  0
POINT
  5
D2E
330
8CA
100
AcDbEntity
  8
DEFPOINTS
  6
Continuous
 62
     0
100
AcDbPoint
 10
135.0
 20
19.0
 30
0.0
  0
POINT
  5
D2F
330
8CA
100
AcDbEntity
  8
DEFPOINTS
  6
Continuous
 62
     0
100
AcDbPoint
 10
135.0
 20
42.0
 30
0.0
  0
ENDBLK
  5
8D5
330
8CA
100
AcDbEntity
  8
0
100
AcDbBlockEnd
  0
BLOCK
  5
983
330
982
100
AcDbEntity
  8
0
100
AcDbBlockBegin
  2
1
 70
     0
 10
0.0
 20
0.0
 30
0.0
  3
1
  1

  0
LINE
  5
F06
330
982
100
AcDbEntity
  8
241
  6
Continuous
100
AcDbLine
 10
34.1
 20
5.099999999999999
 30
0.0
 11
52.9
 21
5.099999999999999
 31
0.0
1001
GRPNAME
1000
PASTMD0L
  0
LINE
  5
F07
330
982
100
AcDbEntity
  8
241
  6
Continuous
100
AcDbLine
 10
34.1
 20
-5.099999999999999
 30
0.0
 11
52.9
 21
-5.099999999999999
 31
0.0
1001
GRPNAME
1000
PASTMD0L
  0
LINE
  5
F08
330
982
100
AcDbEntity
  8
240
  6
Continuous
100
AcDbLine
 10
35.0
 20
20.0
 30
0.0
 11
134.0
 21
20.0
 31
0.0
1001
GRPNAME
1000
PASTMD0L
  0
LINE
  5
F09
330
982
100
AcDbEntity
  8
240
  6
Continuous
100
AcDbLine
 10
35.0
 20
-20.0
 30
0.0
 11
134.0
 21
-20.0
 31
0.0
1001
GRPNAME
1000
PASTMD0L
  0
LINE
  5
F0A
330
982
100
AcDbEntity
  8
241
  6
Continuous
100
AcDbLine
 10
34.1
 20
-4.099999999999999
 30
0.0
 11
52.9
 21
-4.099999999999999
 31
0.0
1001
GRPNAME
1000
PASTMD0L
  0
LINE
  5
F0B
330
982
100
AcDbEntity
  8
241
  6
Continuous
100
AcDbLine
 10
34.1
 20
4.099999999999999
 30
0.0
 11
52.9
 21
4.099999999999999
 31
0.0
1001
GRPNAME
1000
PASTMD0L
  0
LINE
  5
F0C
330
982
100
AcDbEntity
  8
245
  6
CENTER2
100
AcDbLine
 10
-32.0
 20
0.0
 30
0.0
 11
136.0
 21
0.0
 31
0.0
  0
LINE
  5
F0D
330
982
100
AcDbEntity
  8
241
  6
Continuous
100
AcDbLine
 10
19.875
 20
8.0
 30
0.0
 11
19.875
 21
27.5
 31
0.0
  0
LINE
  5
F0E
330
982
100
AcDbEntity
  8
241
  6
Continuous
100
AcDbLine
 10
21.37749907
 20
8.0
 30
0.0
 11
21.37749907
 21
31.5
 31
0.0
  0
LINE
  5
F0F
330
982
100
AcDbEntity
  8
241
  6
Continuous
100
AcDbLine
 10
14.62250093
 20
8.0
 30
0.0
 11
14.62250093
 21
31.5
 31
0.0
  0
LINE
  5
F10
330
982
100
AcDbEntity
  8
241
  6
Continuous
100
AcDbLine
 10
16.125
 20
8.0
 30
0.0
 11
16.125
 21
27.5
 31
0.0
  0
LINE
  5
F11
330
982
100
AcDbEntity
  8
240
  6
Continuous
100
AcDbLine
 10
25.99999999999999
 20
25.00000000000001
 30
0.0
 11
26.0
 21
30.5
 31
0.0
  0
LINE
  5
F12
330
982
100
AcDbEntity
  8
240
  6
Continuous
100
AcDbLine
 10
0.0
 20
24.215
 30
0.0
 11
0.0
 21
30.5
 31
0.0
  0
LINE
  5
F13
330
982
100
AcDbEntity
  8
245
  6
CENTER2
100
AcDbLine
 10
18.0
 20
-31.5
 30
0.0
 11
18.0
 21
31.5
 31
0.0
  0
LINE
  5
F14
330
982
100
AcDbEntity
  8
240
  6
Continuous
100
AcDbLine
 10
-31.0
 20
-6.269999999999999
 30
0.0
 11
-27.5
 21
-6.269999999999999
 31
0.0
  0
LINE
  5
F15
330
982
100
AcDbEntity
  8
240
  6
Continuous
100
AcDbLine
 10
-31.0
 20
6.269999999999999
 30
0.0
 11
-27.5
 21
6.269999999999999
 31
0.0
  0
LINE
  5
F16
330
982
100
AcDbEntity
  8
240
  6
Continuous
100
AcDbLine
 10
-2.0
 20
24.215
 30
0.0
 11
-30.85992514
 21
22.77200374
 31
0.0
  0
LINE
  5
F17
330
982
100
AcDbEntity
  8
240
  6
Continuous
100
AcDbLine
 10
-2.0
 20
-24.215
 30
0.0
 11
-30.85992514
 21
-22.77200374
 31
0.0
  0
LINE
  5
F18
330
982
100
AcDbEntity
  8
240
  6
Continuous
100
AcDbLine
 10
-32.0
 20
-21.57350094
 30
0.0
 11
-32.0
 21
-7.269999999999999
 31
0.0
  0
ARC
  5
F19
330
982
100
AcDbEntity
  8
240
  6
Continuous
100
AcDbCircle
 10
-30.8
 20
-21.57350094
 30
0.0
 40
1.199999999999988
100
AcDbArc
 50
180.0
 51
267.13759477
  0
LINE
  5
F1A
330
982
100
AcDbEntity
  8
240
  6
Continuous
100
AcDbLine
 10
-32.0
 20
-7.269999999999999
 30
0.0
 11
-31.0
 21
-6.269999999999999
 31
0.0
  0
LINE
  5
F1B
330
982
100
AcDbEntity
  8
240
  6
Continuous
100
AcDbLine
 10
-32.0
 20
7.269999999999999
 30
0.0
 11
-32.0
 21
21.57350094
 31
0.0
  0
LINE
  5
F1C
330
982
100
AcDbEntity
  8
240
  6
Continuous
100
AcDbLine
 10
-31.0
 20
6.269999999999999
 30
0.0
 11
-32.0
 21
7.269999999999999
 31
0.0
  0
ARC
  5
F1D
330
982
100
AcDbEntity
  8
240
  6
Continuous
100
AcDbCircle
 10
-30.8
 20
21.57350094
 30
0.0
 40
1.199999999999994
100
AcDbArc
 50
92.86240522999998
 51
180.0
  0
LINE
  5
F1E
330
982
100
AcDbEntity
  8
240
  6
Continuous
100
AcDbLine
 10
0.0
 20
-30.5
 30
0.0
 11
0.0
 21
-24.215
 31
0.0
  0
LINE
  5
F1F
330
982
100
AcDbEntity
  8
241
  6
Continuous
100
AcDbLine
 10
21.37749907
 20
-24.33618705
 30
0.0
 11
21.37749907
 21
-31.5
 31
0.0
  0
LINE
  5
F20
330
982
100
AcDbEntity
  8
241
  6
Continuous
100
AcDbLine
 10
14.62250093
 20
-24.33618705
 30
0.0
 11
14.62250093
 21
-31.5
 31
0.0
  0
LINE
  5
F21
330
982
100
AcDbEntity
  8
241
  6
Continuous
100
AcDbLine
 10
19.875
 20
-8.0
 30
0.0
 11
19.875
 21
-27.5
 31
0.0
  0
LINE
  5
F22
330
982
100
AcDbEntity
  8
241
  6
Continuous
100
AcDbLine
 10
16.125
 20
-8.0
 30
0.0
 11
16.125
 21
-27.5
 31
0.0
  0
LINE
  5
F23
330
982
100
AcDbEntity
  8
241
  6
Continuous
100
AcDbLine
 10
26.0
 20
-25.0
 30
0.0
 11
26.0
 21
0.0
 31
0.0
  0
LINE
  5
F24
330
982
100
AcDbEntity
  8
240
  6
Continuous
100
AcDbLine
 10
1.0
 20
-31.5
 30
0.0
 11
14.62250093
 21
-31.5
 31
0.0
  0
ARC
  5
F25
330
982
100
AcDbEntity
  8
240
  6
Continuous
100
AcDbCircle
 10
1.0
 20
-30.5
 30
0.0
 40
1.0
100
AcDbArc
 50
180.0
 51
270.0
  0
ARC
  5
F26
330
982
100
AcDbEntity
  8
240
  6
Continuous
100
AcDbCircle
 10
25.0
 20
-30.5
 30
0.0
 40
1.0
100
AcDbArc
 50
270.0
 51
0.0
  0
LINE
  5
F27
330
982
100
AcDbEntity
  8
240
  6
Continuous
100
AcDbLine
 10
16.125
 20
-27.5
 30
0.0
 11
19.875
 21
-27.5
 31
0.0
  0
LINE
  5
F28
330
982
100
AcDbEntity
  8
240
  6
Continuous
100
AcDbLine
 10
16.125
 20
-28.89759526
 30
0.0
 11
14.62250093
 21
-31.5
 31
0.0
  0
LINE
  5
F29
330
982
100
AcDbEntity
  8
240
  6
Continuous
100
AcDbLine
 10
16.125
 20
-27.5
 30
0.0
 11
16.125
 21
-28.89759526
 31
0.0
  0
LINE
  5
F2A
330
982
100
AcDbEntity
  8
240
  6
Continuous
100
AcDbLine
 10
19.875
 20
-28.89759526
 30
0.0
 11
21.37749907
 21
-31.5
 31
0.0
  0
LINE
  5
F2B
330
982
100
AcDbEntity
  8
240
  6
Continuous
100
AcDbLine
 10
21.37749907
 20
-31.5
 30
0.0
 11
25.0
 21
-31.5
 31
0.0
  0
LINE
  5
F2C
330
982
100
AcDbEntity
  8
240
  6
Continuous
100
AcDbLine
 10
19.875
 20
-27.5
 30
0.0
 11
19.875
 21
-28.89759526
 31
0.0
  0
LINE
  5
F2D
330
982
100
AcDbEntity
  8
240
  6
Continuous
100
AcDbLine
 10
26.0
 20
-30.5
 30
0.0
 11
25.99999999999999
 21
-25.0
 31
0.0
  0
ARC
  5
F2E
330
982
100
AcDbEntity
  8
241
  6
Continuous
100
AcDbCircle
 10
13.0
 20
0.0
 30
0.0
 40
8.0
100
AcDbArc
 50
90.0
 51
180.0
  0
LINE
  5
F2F
330
982
100
AcDbEntity
  8
241
  6
Continuous
100
AcDbLine
 10
5.0
 20
-24.33618705
 30
0.0
 11
14.62250093
 21
-24.33618705
 31
0.0
  0
ARC
  5
F30
330
982
100
AcDbEntity
  8
241
  6
Continuous
100
AcDbCircle
 10
12.1117139
 20
-28.0
 30
0.0
 40
8.0
100
AcDbArc
 50
90.0
 51
152.74338069
  0
ARC
  5
F31
330
982
100
AcDbEntity
  8
241
  6
Continuous
100
AcDbCircle
 10
13.0
 20
0.0
 30
0.0
 40
8.0
100
AcDbArc
 50
180.0
 51
270.0
  0
LINE
  5
F32
330
982
100
AcDbEntity
  8
240
  6
Continuous
100
AcDbLine
 10
-26.0
 20
4.769999999999999
 30
0.0
 11
-26.0
 21
0.0
 31
0.0
  0
LINE
  5
F33
330
982
100
AcDbEntity
  8
241
  6
HIDDEN2
100
AcDbLine
 10
-22.0
 20
4.769999999999999
 30
0.0
 11
-22.0
 21
0.0
 31
0.0
  0
CIRCLE
  5
F34
330
982
100
AcDbEntity
  8
241
  6
Continuous
100
AcDbCircle
 10
-9.0
 20
0.0
 30
0.0
 40
3.75
  0
LINE
  5
F35
330
982
100
AcDbEntity
  8
245
  6
CENTER2
100
AcDbLine
 10
-9.0
 20
-4.75
 30
0.0
 11
-9.0
 21
4.75
 31
0.0
  0
LINE
  5
F36
330
982
100
AcDbEntity
  8
241
100
AcDbLine
 10
0.0
 20
24.215
 30
0.0
 11
0.0
 21
0.0
 31
0.0
  0
LINE
  5
F37
330
982
100
AcDbEntity
  8
241
  6
Continuous
100
AcDbLine
 10
-2.0
 20
24.215
 30
0.0
 11
-2.0
 21
0.0
 31
0.0
  0
ARC
  5
F38
330
982
100
AcDbEntity
  8
240
  6
Continuous
100
AcDbCircle
 10
-27.5
 20
-4.769999999999999
 30
0.0
 40
1.499999999999985
100
AcDbArc
 50
270.0
 51
0.0
  0
ARC
  5
F39
330
982
100
AcDbEntity
  8
241
  6
HIDDEN2
100
AcDbCircle
 10
-23.5
 20
-4.769999999999999
 30
0.0
 40
1.499999999999985
100
AcDbArc
 50
270.0
 51
0.0
  0
LINE
  5
F3A
330
982
100
AcDbEntity
  8
241
  6
HIDDEN2
100
AcDbLine
 10
-27.5
 20
-6.269999999999999
 30
0.0
 11
-23.5
 21
-6.269999999999999
 31
0.0
  0
LINE
  5
F3B
330
982
100
AcDbEntity
  8
240
  6
Continuous
100
AcDbLine
 10
-26.0
 20
-4.769999999999999
 30
0.0
 11
-26.0
 21
0.0
 31
0.0
  0
LINE
  5
F3C
330
982
100
AcDbEntity
  8
241
  6
HIDDEN2
100
AcDbLine
 10
-22.0
 20
-4.769999999999999
 30
0.0
 11
-22.0
 21
0.0
 31
0.0
  0
LINE
  5
F3D
330
982
100
AcDbEntity
  8
241
  6
Continuous
100
AcDbLine
 10
-2.0
 20
-24.215
 30
0.0
 11
-2.0
 21
0.0
 31
0.0
  0
LINE
  5
F3E
330
982
100
AcDbEntity
  8
241
100
AcDbLine
 10
0.0
 20
-24.215
 30
0.0
 11
0.0
 21
0.0
 31
0.0
  0
LINE
  5
F3F
330
982
100
AcDbEntity
  8
240
100
AcDbLine
 10
-2.0
 20
-24.215
 30
0.0
 11
0.0
 21
-24.215
 31
0.0
  0
LINE
  5
F40
330
982
100
AcDbEntity
  8
241
  6
HIDDEN2
100
AcDbLine
 10
-27.5
 20
6.269999999999999
 30
0.0
 11
-23.5
 21
6.269999999999999
 31
0.0
  0
ARC
  5
F41
330
982
100
AcDbEntity
  8
240
  6
Continuous
100
AcDbCircle
 10
-27.5
 20
4.769999999999999
 30
0.0
 40
1.5
100
AcDbArc
 50
0.0
 51
90.0
  0
ARC
  5
F42
330
982
100
AcDbEntity
  8
241
  6
HIDDEN2
100
AcDbCircle
 10
-23.5
 20
4.769999999999999
 30
0.0
 40
1.5
100
AcDbArc
 50
0.0
 51
90.0
  0
LINE
  5
F43
330
982
100
AcDbEntity
  8
240
100
AcDbLine
 10
-2.0
 20
24.215
 30
0.0
 11
0.0
 21
24.215
 31
0.0
  0
ARC
  5
F44
330
982
100
AcDbEntity
  8
241
  6
Continuous
100
AcDbCircle
 10
34.1
 20
0.0
 30
0.0
 40
5.100000000000035
100
AcDbArc
 50
90.0
 51
180.0
1001
GRPNAME
1000
PASTMD0L
  0
ARC
  5
F45
330
982
100
AcDbEntity
  8
241
  6
Continuous
100
AcDbCircle
 10
34.1
 20
0.0
 30
0.0
 40
4.099999999999993
100
AcDbArc
 50
90.0
 51
269.9999999899999
1001
GRPNAME
1000
PASTMD0L
  0
LINE
  5
F46
330
982
100
AcDbEntity
  8
241
  6
Continuous
100
AcDbLine
 10
26.0
 20
0.0
 30
0.0
 11
26.0
 21
25.00000000000001
 31
0.0
  0
LINE
  5
F47
330
982
100
AcDbEntity
  8
241
  6
Continuous
100
AcDbLine
 10
13.0
 20
-8.0
 30
0.0
 11
26.0
 21
-8.0
 31
0.0
  0
LINE
  5
F48
330
982
100
AcDbEntity
  8
241
  6
Continuous
100
AcDbLine
 10
19.875
 20
-20.0
 30
0.0
 11
26.0
 21
-20.0
 31
0.0
  0
LINE
  5
F49
330
982
100
AcDbEntity
  8
241
  6
Continuous
100
AcDbLine
 10
21.37749907
 20
-24.33618705
 30
0.0
 11
26.0
 21
-24.33618705
 31
0.0
  0
LINE
  5
F4A
330
982
100
AcDbEntity
  8
241
  6
Continuous
100
AcDbLine
 10
21.37749907
 20
-8.0
 30
0.0
 11
21.37749907
 21
-20.0
 31
0.0
  0
LINE
  5
F4B
330
982
100
AcDbEntity
  8
241
  6
Continuous
100
AcDbLine
 10
14.62250093
 20
-8.0
 30
0.0
 11
14.62250093
 21
-20.0
 31
0.0
  0
LINE
  5
F4C
330
982
100
AcDbEntity
  8
241
  6
Continuous
100
AcDbLine
 10
12.1117139
 20
-20.0
 30
0.0
 11
16.125
 21
-20.0
 31
0.0
  0
LINE
  5
F4D
330
982
100
AcDbEntity
  8
241
  6
Continuous
100
AcDbLine
 10
14.62250093
 20
-24.33618705
 30
0.0
 11
16.125
 21
-20.85835593
 31
0.0
  0
LINE
  5
F4E
330
982
100
AcDbEntity
  8
241
  6
Continuous
100
AcDbLine
 10
21.37749907
 20
-24.33618705
 30
0.0
 11
19.875
 21
-20.85835593
 31
0.0
  0
LINE
  5
F4F
330
982
100
AcDbEntity
  8
241
100
AcDbLine
 10
34.0
 20
-21.0
 30
0.0
 11
34.0
 21
-5.099999999999999
 31
0.0
  0
ARC
  5
F50
330
982
100
AcDbEntity
  8
240
  6
Continuous
100
AcDbCircle
 10
35.0
 20
-21.0
 30
0.0
 40
1.0
100
AcDbArc
 50
90.0
 51
180.0
  0
ARC
  5
F51
330
982
100
AcDbEntity
  8
241
  6
Continuous
100
AcDbCircle
 10
34.1
 20
0.0
 30
0.0
 40
5.100000000000035
100
AcDbArc
 50
180.0
 51
270.0
1001
GRPNAME
1000
PASTMD0L
  0
LINE
  5
F52
330
982
100
AcDbEntity
  8
241
  6
Continuous
100
AcDbLine
 10
13.0
 20
8.0
 30
0.0
 11
26.0
 21
8.0
 31
0.0
  0
LINE
  5
F53
330
982
100
AcDbEntity
  8
241
100
AcDbLine
 10
34.0
 20
21.0
 30
0.0
 11
34.0
 21
5.099999999999999
 31
0.0
  0
ARC
  5
F54
330
982
100
AcDbEntity
  8
240
  6
Continuous
100
AcDbCircle
 10
35.0
 20
21.0
 30
0.0
 40
1.0
100
AcDbArc
 50
180.0
 51
270.0
  0
LINE
  5
F55
330
982
100
AcDbEntity
  8
240
  6
Continuous
100
AcDbLine
 10
1.0
 20
31.5
 30
0.0
 11
14.62250093
 21
31.5
 31
0.0
  0
ARC
  5
F56
330
982
100
AcDbEntity
  8
240
  6
Continuous
100
AcDbCircle
 10
1.0
 20
30.5
 30
0.0
 40
1.0
100
AcDbArc
 50
90.0
 51
180.0
  0
ARC
  5
F57
330
982
100
AcDbEntity
  8
240
  6
Continuous
100
AcDbCircle
 10
25.0
 20
30.5
 30
0.0
 40
1.0
100
AcDbArc
 50
0.0
 51
90.0
  0
LINE
  5
F58
330
982
100
AcDbEntity
  8
240
  6
Continuous
100
AcDbLine
 10
16.125
 20
27.5
 30
0.0
 11
19.875
 21
27.5
 31
0.0
  0
LINE
  5
F59
330
982
100
AcDbEntity
  8
240
  6
Continuous
100
AcDbLine
 10
16.125
 20
28.89759526
 30
0.0
 11
14.62250093
 21
31.5
 31
0.0
  0
LINE
  5
F5A
330
982
100
AcDbEntity
  8
240
  6
Continuous
100
AcDbLine
 10
16.125
 20
27.5
 30
0.0
 11
16.125
 21
28.89759526
 31
0.0
  0
LINE
  5
F5B
330
982
100
AcDbEntity
  8
240
  6
Continuous
100
AcDbLine
 10
21.37749907
 20
31.5
 30
0.0
 11
25.0
 21
31.5
 31
0.0
  0
LINE
  5
F5C
330
982
100
AcDbEntity
  8
240
  6
Continuous
100
AcDbLine
 10
19.875
 20
28.89759526
 30
0.0
 11
21.37749907
 21
31.5
 31
0.0
  0
LINE
  5
F5D
330
982
100
AcDbEntity
  8
240
  6
Continuous
100
AcDbLine
 10
19.875
 20
27.5
 30
0.0
 11
19.875
 21
28.89759526
 31
0.0
  0
LINE
  5
F5E
330
982
100
AcDbEntity
  8
241
  6
HIDDEN2
100
AcDbLine
 10
135.0
 20
11.9125
 30
0.0
 11
49.0
 21
9.75408217
 31
0.0
1001
GRPNAME
1000
PASTMD0L
  0
ARC
  5
F5F
330
982
100
AcDbEntity
  8
241
  6
Continuous
100
AcDbCircle
 10
52.9
 20
0.0
 30
0.0
 40
5.099999999999994
100
AcDbArc
 50
0.0
 51
90.00000000999998
1001
GRPNAME
1000
PASTMD0L
  0
ARC
  5
F60
330
982
100
AcDbEntity
  8
241
  6
Continuous
100
AcDbCircle
 10
52.9
 20
0.0
 30
0.0
 40
4.099999999999993
100
AcDbArc
 50
269.9999999899999
 51
89.99999999000001
1001
GRPNAME
1000
PASTMD0L
  0
ARC
  5
F61
330
982
100
AcDbEntity
  8
241
  6
Continuous
100
AcDbCircle
 10
52.9
 20
0.0
 30
0.0
 40
5.099999999999994
100
AcDbArc
 50
269.9999999899999
 51
0.0
1001
GRPNAME
1000
PASTMD0L
  0
LINE
  5
F62
330
982
100
AcDbEntity
  8
240
  6
Continuous
100
AcDbLine
 10
135.0
 20
19.0
 30
0.0
 11
135.0
 21
0.0
 31
0.0
1001
GRPNAME
1000
PASTMD0L
  0
ARC
  5
F63
330
982
100
AcDbEntity
  8
240
  6
Continuous
100
AcDbCircle
 10
134.0
 20
-19.0
 30
0.0
 40
1.0
100
AcDbArc
 50
269.9999999899999
 51
359.99999999
1001
GRPNAME
1000
PASTMD0L
  0
LINE
  5
F64
330
982
100
AcDbEntity
  8
240
  6
Continuous
100
AcDbLine
 10
135.0
 20
-19.0
 30
0.0
 11
135.0
 21
0.0
 31
0.0
1001
GRPNAME
1000
PASTMD0L
  0
ARC
  5
F65
330
982
100
AcDbEntity
  8
240
  6
Continuous
100
AcDbCircle
 10
134.0
 20
19.0
 30
0.0
 40
1.0
100
AcDbArc
 50
359.99999999
 51
89.99999999000001
1001
GRPNAME
1000
PASTMD0L
  0
LINE
  5
F66
330
982
100
AcDbEntity
  8
240
  6
Continuous
100
AcDbLine
 10
34.0
 20
24.0
 30
0.0
 11
34.0
 21
21.0
 31
0.0
  0
ARC
  5
F67
330
982
100
AcDbEntity
  8
240
  6
Continuous
100
AcDbCircle
 10
33.0
 20
24.0
 30
0.0
 40
1.0
100
AcDbArc
 50
0.0
 51
90.0
  0
LINE
  5
F68
330
982
100
AcDbEntity
  8
241
  6
Continuous
100
AcDbLine
 10
26.5
 20
-7.190282350409772
 30
0.0
 11
34.0
 21
-7.19028235040977
 31
0.0
  0
LINE
  5
F69
330
982
100
AcDbEntity
  8
242
  6
Continuous
100
AcDbLine
 10
26.49999999999993
 20
-25.0
 30
0.0
 11
34.0
 21
-7.19028235040977
 31
0.0
  0
LINE
  5
F6A
330
982
100
AcDbEntity
  8
242
  6
Continuous
100
AcDbLine
 10
26.5
 20
-7.190282350409772
 30
0.0
 11
33.87030020088918
 21
-24.4925216343799
 31
0.0
  0
LINE
  5
F6B
330
982
100
AcDbEntity
  8
241
  6
Continuous
100
AcDbLine
 10
26.5
 20
-7.190282350409772
 30
0.0
 11
26.49999999999993
 21
-25.0
 31
0.0
  0
LINE
  5
F6C
330
982
100
AcDbEntity
  8
240
  6
Continuous
100
AcDbLine
 10
34.0
 20
-24.0
 30
0.0
 11
34.0
 21
-21.0
 31
0.0
  0
ARC
  5
F6D
330
982
100
AcDbEntity
  8
240
  6
Continuous
100
AcDbCircle
 10
33.0
 20
-24.0
 30
0.0
 40
1.0
100
AcDbArc
 50
270.0
 51
0.0
  0
LINE
  5
F6E
330
982
100
AcDbEntity
  8
240
  6
Continuous
100
AcDbLine
 10
25.99999999999999
 20
-25.0
 30
0.0
 11
33.0
 21
-25.0
 31
0.0
  0
LINE
  5
F6F
330
982
100
AcDbEntity
  8
240
  6
Continuous
100
AcDbLine
 10
25.99999999999999
 20
25.00000000000001
 30
0.0
 11
33.0
 21
25.0
 31
0.0
  0
ENDBLK
  5
984
330
982
100
AcDbEntity
  8
0
100
AcDbBlockEnd
  0
BLOCK
  5
D5A
330
D50
100
AcDbEntity
  8
0
100
AcDbBlockBegin
  2
*D4
 70
     1
 10
0.0
 20
0.0
 30
0.0
  3
*D4
  1

  0
LINE
  5
E4B
330
D50
100
AcDbEntity
  8
250
  6
Continuous
100
AcDbLine
 10
135.5
 20
11.9125
 30
0.0
 11
148.0
 21
11.9125
 31
0.0
  0
LINE
  5
E4C
330
D50
100
AcDbEntity
  8
250
  6
Continuous
100
AcDbLine
 10
147.0
 20
-9.682499999999999
 30
0.0
 11
147.0
 21
9.682499999999999
 31
0.0
  0
INSERT
  5
E4D
330
D50
100
AcDbEntity
  8
250
  6
Continuous
100
AcDbBlockReference
  2
矢印なし
 10
147.0
 20
-11.9125
 30
0.0
 41
2.229999999999999
 42
2.229999999999999
 43
2.229999999999999
 50
270.0
  0
INSERT
  5
E4E
330
D50
100
AcDbEntity
  8
250
  6
Continuous
100
AcDbBlockReference
  2
_OPEN
 10
147.0
 20
11.9125
 30
0.0
 41
2.229999999999999
 42
2.229999999999999
 43
2.229999999999999
 50
90.0
  0
MTEXT
  5
E4F
330
D50
100
AcDbEntity
  8
250
  6
Continuous
 62
    40
100
AcDbMText
 10
144.6
 20
0.0
 30
0.0
 40
2.799999999999999
 41
0.0
 71
     5
 72
     1
  1
\A1;{\H2.8;\U+2205}23.825
 11
0.0
 21
1.0
 31
0.0
 73
     1
 44
1.0
1001
ACAD
1000
MTEXTBEGIN
1070
    73
1070
     1
1070
    44
1040
1.0
1070
    74
1070
     0
1000
MTEXTEND
  0
POINT
  5
E50
330
D50
100
AcDbEntity
  8
DEFPOINTS
  6
Continuous
 62
     0
100
AcDbPoint
 10
135.0
 20
-11.9125
 30
0.0
  0
POINT
  5
E51
330
D50
100
AcDbEntity
  8
DEFPOINTS
  6
Continuous
 62
     0
100
AcDbPoint
 10
135.0
 20
11.9125
 30
0.0
  0
POINT
  5
E52
330
D50
100
AcDbEntity
  8
DEFPOINTS
  6
Continuous
 62
     0
100
AcDbPoint
 10
147.0
 20
11.9125
 30
0.0
  0
ENDBLK
  5
D5B
330
D50
100
AcDbEntity
  8
0
100
AcDbBlockEnd
  0
BLOCK
  5
D69
330
D5F
100
AcDbEntity
  8
0
100
AcDbBlockBegin
  2
*D5
 70
     1
 10
0.0
 20
0.0
 30
0.0
  3
*D5
  1

  0
LINE
  5
D74
330
D5F
100
AcDbEntity
  8
250
  6
Continuous
100
AcDbLine
 10
134.5
 20
-20.0
 30
0.0
 11
155.0
 21
-20.0
 31
0.0
  0
LINE
  5
D75
330
D5F
100
AcDbEntity
  8
250
  6
Continuous
100
AcDbLine
 10
134.5
 20
20.0
 30
0.0
 11
155.0
 21
20.0
 31
0.0
  0
LINE
  5
D76
330
D5F
100
AcDbEntity
  8
250
  6
Continuous
100
AcDbLine
 10
154.0
 20
-17.77
 30
0.0
 11
154.0
 21
17.77
 31
0.0
  0
INSERT
  5
D77
330
D5F
100
AcDbEntity
  8
250
  6
Continuous
100
AcDbBlockReference
  2
_OPEN
 10
154.0
 20
-20.0
 30
0.0
 41
2.229999999999999
 42
2.229999999999999
 43
2.229999999999999
 50
270.0
  0
INSERT
  5
D78
330
D5F
100
AcDbEntity
  8
250
  6
Continuous
100
AcDbBlockReference
  2
_OPEN
 10
154.0
 20
20.0
 30
0.0
 41
2.229999999999999
 42
2.229999999999999
 43
2.229999999999999
 50
90.0
  0
MTEXT
  5
D79
330
D5F
100
AcDbEntity
  8
250
  6
Continuous
 62
    40
100
AcDbMText
 10
151.6
 20
0.0
 30
0.0
 40
2.799999999999999
 41
0.0
 71
     5
 72
     1
  1
\A1;{\H2.8;\U+2205}40
 11
0.0
 21
1.0
 31
0.0
 73
     1
 44
1.0
1001
ACAD
1000
MTEXTBEGIN
1070
    73
1070
     1
1070
    44
1040
1.0
1070
    74
1070
     0
1000
MTEXTEND
  0
POINT
  5
D7A
330
D5F
100
AcDbEntity
  8
DEFPOINTS
  6
Continuous
 62
     0
100
AcDbPoint
 10
134.0
 20
-20.0
 30
0.0
  0
POINT
  5
D7B
330
D5F
100
AcDbEntity
  8
DEFPOINTS
  6
Continuous
 62
     0
100
AcDbPoint
 10
134.0
 20
20.0
 30
0.0
  0
POINT
  5
D7C
330
D5F
100
AcDbEntity
  8
DEFPOINTS
  6
Continuous
 62
     0
100
AcDbPoint
 10
154.0
 20
20.0
 30
0.0
  0
ENDBLK
  5
D6A
330
D5F
100
AcDbEntity
  8
0
100
AcDbBlockEnd
  0
ENDSEC
  0
SECTION
  2
ENTITIES
  0
INSERT
  5
6E6
330
1A
100
AcDbEntity
  8
245
100
AcDbBlockReference
  2
矢印なし
 10
175.62382697
 20
90.55123571999999
 30
0.0
  0
MTEXT
  5
7BF
330
1A
100
AcDbEntity
  8
251
  6
Continuous
100
AcDbMText
 10
-39.91657929
 20
-33.94501046
 30
0.0
 40
2.799999999999999
 41
0.0
 71
     7
 72
     1
  1
HSK-A63
  7
YOKO
 73
     1
 44
1.0
1001
ITEMNAME
1000
LNSP3
1001
ACAD
1000
MTEXTBEGIN
1070
    73
1070
     1
1070
    44
1040
1.0
1070
    74
1070
     0
1000
MTEXTEND
  0
LINE
  5
7C0
330
1A
100
AcDbEntity
  8
250
  6
Continuous
100
AcDbLine
 10
-18.44991262
 20
-34.94501046
 30
0.0
 11
-42.71657928999999
 21
-34.94501046
 31
0.0
1001
ITEMNAME
1000
LNSP2
  0
LEADER
  5
7C3
330
1A
100
AcDbEntity
  8
250
  6
Continuous
100
AcDbLeader
  3
BIGT
 76
     2
 10
-11.96720963
 20
-23.71663952
 30
0.0
 10
-18.44991262
 20
-34.94501046
 30
0.0
1001
ACAD
1000
DSTYLE
1002
{
1070
     6
1000
OPEN
1070
   343
1005
594
1002
}
  0
DIMENSION
  5
8C9
330
1A
100
AcDbEntity
  8
DETAIL
  6
Continuous
100
AcDbDimension
  2
*D2
 10
135.0
 20
42.0
 30
0.0
 11
67.5
 21
44.4
 31
0.0
 70
    32
 71
     5
 42
-1.0
  3
BIGT
100
AcDbAlignedDimension
 13
0.0
 23
30.5
 33
0.0
 14
135.0
 24
19.0
 34
0.0
100
AcDbRotatedDimension
  0
TEXT
  5
943
330
1A
100
AcDbEntity
  8
241
100
AcDbText
 10
-32.0
 20
56.0
 30
0.0
 40
5.0
  1
HSK-A63-MTA3-135
  7
YOKO
 11
-32.0
 21
56.0
 31
0.0
100
AcDbText
 73
     1
  0
DIMENSION
  5
D4F
330
1A
100
AcDbEntity
  8
250
  6
Continuous
100
AcDbDimension
  2
*D4
 10
147.0
 20
11.9125
 30
0.0
 11
144.6
 21
0.0
 31
0.0
 70
    32
  1
{\H2.8;\U+2205}<>
 71
     5
 42
-1.0
  3
BIGT
100
AcDbAlignedDimension
 13
135.0
 23
-11.9125
 33
0.0
 14
135.0
 24
11.9125
 34
0.0
 50
90.0
100
AcDbRotatedDimension
1001
ACAD
1000
DSTYLE
1002
{
1070
    75
1070
     1
1070
    79
1070
     2
1070
   179
1070
     3
1070
     6
1000
矢印なし
1070
   371
1070
    -1
1070
   372
1070
    -1
1002
}
  0
DIMENSION
  5
D5E
330
1A
100
AcDbEntity
  8
250
  6
Continuous
100
AcDbDimension
  2
*D5
 10
154.0
 20
20.0
 30
0.0
 11
151.6
 21
0.0
 31
0.0
 70
    32
  1
{\H2.8;\U+2205}<>
 71
     5
 42
-1.0
  3
BIGT
100
AcDbAlignedDimension
 13
134.0
 23
-20.0
 33
0.0
 14
134.0
 24
20.0
 34
0.0
 50
90.0
100
AcDbRotatedDimension
1001
ACAD
1000
DSTYLE
1002
{
1070
    79
1070
     2
1070
   179
1070
     3
1070
   371
1070
    -1
1070
   372
1070
    -1
1002
}
  0
LEADER
  5
D86
102
{ACAD_REACTORS
330
D8B
102
}
330
1A
100
AcDbEntity
  8
250
  6
Continuous
100
AcDbLeader
  3
BIGT
 76
     2
 10
132.32162312
 20
11.84527841
 30
0.0
 10
141.63448031
 20
27.97562024
 30
0.0
1001
ACAD
1000
DSTYLE
1002
{
1070
     6
1000
OPEN
1070
    79
1070
     2
1070
   179
1070
     3
1070
   371
1070
    -1
1070
   372
1070
    -1
1002
}
  0
MTEXT
  5
D87
102
{ACAD_REACTORS
330
D8B
102
}
330
1A
100
AcDbEntity
  8
250
  6
Continuous
 62
    40
100
AcDbMText
 10
144.43448031
 20
28.97562024
 30
0.0
 40
2.799999999999999
 41
0.0
 71
     7
 72
     1
  1
MT3
  7
YOKO
 73
     1
 44
1.0
1001
ITEMNAME
1000
LNSP3
1001
ACAD
1000
MTEXTBEGIN
1070
    73
1070
     1
1070
    44
1040
1.0
1070
    74
1070
     0
1000
MTEXTEND
  0
LINE
  5
D89
102
{ACAD_REACTORS
330
D8B
102
}
330
1A
100
AcDbEntity
  8
250
  6
Continuous
100
AcDbLine
 10
141.63448031
 20
27.97562024
 30
0.0
 11
154.30114698
 21
27.97562024
 31
0.0
1001
ITEMNAME
1000
LNSP2
  0
INSERT
  5
F70
330
1A
100
AcDbEntity
  8
245
100
AcDbBlockReference
  2
1
 10
0.0
 20
0.0
 30
0.0
  0
VIEWPORT
  5
22
102
{ACAD_XDICTIONARY
360
F96
102
}
330
17
100
AcDbEntity
 67
     1
  8
0
100
AcDbViewport
 10
261.51769912
 20
148.5
 30
0.0
 40
523.03539823
 41
297.0
 68
     1
 69
     1
 12
261.51769912
 22
148.5
 13
0.0
 23
0.0
 14
1.0
 24
1.0
 15
10.0
 25
10.0
 16
0.0
 26
0.0
 36
1.0
 17
0.0
 27
0.0
 37
0.0
 42
50.0
 43
0.0
 44
0.0
 45
297.0
 50
0.0
 51
0.0
 72
   100
 90
    32800
  1

281
     0
 71
     1
 74
     0
110
0.0
120
0.0
130
0.0
111
1.0
121
0.0
131
0.0
112
0.0
122
1.0
132
0.0
 79
     0
146
0.0
  0
ENDSEC
  0
SECTION
  2
OBJECTS
  0
DICTIONARY
  5
C
330
0
100
AcDbDictionary
281
     1
  3
ACAD_COLOR
350
E6E
  3
ACAD_GROUP
350
D
  3
ACAD_LAYOUT
350
E71
  3
ACAD_MATERIAL
350
E59
  3
ACAD_MLINESTYLE
350
E
  3
ACAD_PLOTSETTINGS
350
566
  3
ACAD_PLOTSTYLENAME
350
563
  3
ACAD_TABLESTYLE
350
E6F
  3
ACAD_VISUALSTYLE
350
E5D
  3
AcDbVariableDictionary
350
F71
  3
DWGPROPS
350
F95
  3
GRADE_DWG
350
540
  0
DICTIONARY
  5
EE2
330
2
100
AcDbDictionary
280
     1
281
     1
  3
ACAD_LAYERSTATES
360
EE3
  0
DICTIONARY
  5
A44
330
1A
100
AcDbDictionary
280
     1
281
     1
  3
ACAD_LAYOUTSELFREF
360
E49
  3
ACAD_SORTENTS
360
EE1
  0
DICTIONARY
  5
A42
330
17
100
AcDbDictionary
280
     1
281
     1
  3
ACAD_LAYOUTSELFREF
360
E48
  0
DICTIONARY
  5
F96
330
22
100
AcDbDictionary
280
     1
281
     1
  3
ACAD_XREC_ROUNDTRIP
360
F97
  0
DICTIONARY
  5
E6E
102
{ACAD_REACTORS
330
C
102
}
330
C
100
AcDbDictionary
281
     1
  0
DICTIONARY
  5
D
102
{ACAD_REACTORS
330
C
102
}
330
C
100
AcDbDictionary
281
     1
  3
*A1
350
6C7
  3
*A2
350
6C8
  3
*A3
350
6D4
  3
*A4
350
6D5
  3
DREC-1
350
5FC
  3
DREC-2
350
654
  3
DREC-3
350
673
  3
LNSP-1
350
93F
  3
LNSP-2
350
BC1
  3
LNSP-3
350
D8B
  0
DICTIONARY
  5
E71
102
{ACAD_REACTORS
330
C
102
}
330
C
100
AcDbDictionary
281
     1
  3
Model
350
E72
  3
レイアウト1
350
E73
  0
DICTIONARY
  5
E59
102
{ACAD_REACTORS
330
C
102
}
330
C
100
AcDbDictionary
281
     1
  3
ByBlock
350
E5B
  3
ByLayer
350
E5A
  3
Global
350
E5C
  0
DICTIONARY
  5
E
102
{ACAD_REACTORS
330
C
102
}
330
C
100
AcDbDictionary
281
     1
  3
STANDARD
350
13
  0
DICTIONARY
  5
566
102
{ACAD_REACTORS
330
C
102
}
330
C
100
AcDbDictionary
281
     1
  3
A3_0_5倍_
350
758
  3
A3_1倍_
350
757
  3
A3_1倍__2000_
350
707
  3
A3_2倍_
350
759
  3
A4_0_5倍_
350
755
  3
A4_1倍_
350
754
  3
A4_1倍__2000_
350
708
  3
A4_2倍_
350
756
  0
ACDBDICTIONARYWDFLT
  5
563
102
{ACAD_REACTORS
330
C
102
}
330
C
100
AcDbDictionary
281
     1
  3
Normal
350
564
100
AcDbDictionaryWithDefault
340
564
  0
DICTIONARY
  5
E6F
102
{ACAD_REACTORS
330
C
102
}
330
C
100
AcDbDictionary
281
     1
  3
Standard
350
E70
  0
DICTIONARY
  5
E5D
102
{ACAD_REACTORS
330
C
102
}
330
C
100
AcDbDictionary
281
     1
  3
2dWireframe
350
E63
  3
3D Hidden
350
E65
  3
3dWireframe
350
E64
  3
Basic
350
E62
  3
Brighten
350
E69
  3
ColorChange
350
E6D
  3
Conceptual
350
E66
  3
Dim
350
E68
  3
Facepattern
350
E6C
  3
Flat
350
E5E
  3
FlatWithEdges
350
E5F
  3
Gouraud
350
E60
  3
GouraudWithEdges
350
E61
  3
Linepattern
350
E6B
  3
Realistic
350
E67
  3
Thicken
350
E6A
  0
DICTIONARY
  5
F71
102
{ACAD_REACTORS
330
C
102
}
330
C
100
AcDbDictionary
281
     1
  3
CTABLESTYLE
350
F72
  3
DIMASSOC
350
F75
  3
INDEXCTL
350
F74
  3
SORTENTS
350
F73
  0
XRECORD
  5
F95
102
{ACAD_REACTORS
330
C
102
}
330
C
100
AcDbXrecord
280
     1
  1
DWGPROPS COOKIE
  2

  3

  4

  6

  7

  8
AWTEC
  9

300
=
301
=
302
=
303
=
304
=
305
=
306
=
307
=
308
=
309
=
 40
0.0136114814814815
 41
2455363.665169271
 42
2456605.720653206
  1

 90
        0
  0
DICTIONARY
  5
540
102
{ACAD_REACTORS
330
C
102
}
330
C
100
AcDbDictionary
281
     1
  3
VERSION
350
560
  0
DICTIONARY
  5
EE3
102
{ACAD_REACTORS
330
EE2
102
}
330
EE2
100
AcDbDictionary
281
     1
  0
XRECORD
  5
E49
102
{ACAD_REACTORS
330
A44
102
}
330
A44
100
AcDbXrecord
280
     1
340
1A
  0
SORTENTSTABLE
  5
EE1
102
{ACAD_REACTORS
330
A44
102
}
330
A44
100
AcDbSortentsTable
330
1A
331
7C0
  5
7C0
331
D4F
  5
D4F
331
943
  5
943
331
D89
  5
D89
331
6E6
  5
6E6
331
D86
  5
D86
331
7C3
  5
7C3
331
D5E
  5
D5E
331
8C9
  5
8C9
331
7BF
  5
7BF
331
D87
  5
D87
  0
XRECORD
  5
E48
102
{ACAD_REACTORS
330
A42
102
}
330
A42
100
AcDbXrecord
280
     1
340
17
  0
XRECORD
  5
F97
102
{ACAD_REACTORS
330
F96
102
}
330
F96
100
AcDbXrecord
280
     1
102
SHADEPLOT
 70
     0
  0
GROUP
  5
6C7
102
{ACAD_REACTORS
330
D
102
}
330
D
100
AcDbGroup
300

 70
     0
 71
     1
1001
GRPNAME
1000
DMA00
  0
GROUP
  5
6C8
102
{ACAD_REACTORS
330
D
102
}
330
D
100
AcDbGroup
300

 70
     0
 71
     1
1001
GRPNAME
1000
DMA00
  0
GROUP
  5
6D4
102
{ACAD_REACTORS
330
D
102
}
330
D
100
AcDbGroup
300

 70
     0
 71
     1
1001
GRPNAME
1000
DMA00
  0
GROUP
  5
6D5
102
{ACAD_REACTORS
330
D
102
}
330
D
100
AcDbGroup
300

 70
     0
 71
     1
1001
GRPNAME
1000
DMA00
  0
GROUP
  5
5FC
102
{ACAD_REACTORS
330
D
102
}
330
D
100
AcDbGroup
300

 70
     0
 71
     1
1001
GRPNAME
1000
DREC-
1001
GPARA
1000
xsiz
1000
44.182
1000
ysiz
1000
40.677
1000
angl
1000
0
1000
ctyp
1000
0
1000
csiz
1000
5
1000
lfnt
1000
cont
1000
hcnt
1000
hoff
1000
vcnt
1000
voff
1000
opnt
1000
4
1000
dxpt
1000
0
1000
dypt
1000
0
  0
GROUP
  5
654
102
{ACAD_REACTORS
330
D
102
}
330
D
100
AcDbGroup
300

 70
     0
 71
     1
1001
GRPNAME
1000
DREC-
1001
GPARA
1000
xsiz
1000
54.592
1000
ysiz
1000
53.036
1000
angl
1000
0
1000
ctyp
1000
0
1000
csiz
1000
5
1000
lfnt
1000
cont
1000
hcnt
1000
hoff
1000
vcnt
1000
voff
1000
opnt
1000
4
1000
dxpt
1000
0
1000
dypt
1000
0
  0
GROUP
  5
673
102
{ACAD_REACTORS
330
D
102
}
330
D
100
AcDbGroup
300

 70
     0
 71
     1
1001
GRPNAME
1000
DREC-
1001
GPARA
1000
xsiz
1000
30.363
1000
ysiz
1000
36.175
1000
angl
1000
0
1000
ctyp
1000
0
1000
csiz
1000
5
1000
lfnt
1000
cont
1000
hcnt
1000
hoff
1000
vcnt
1000
voff
1000
opnt
1000
4
1000
dxpt
1000
0
1000
dypt
1000
0
  0
GROUP
  5
93F
102
{ACAD_REACTORS
330
D
102
}
330
D
100
AcDbGroup
300

 70
     0
 71
     1
1001
GRPNAME
1000
LNSP
  0
GROUP
  5
BC1
102
{ACAD_REACTORS
330
D
102
}
330
D
100
AcDbGroup
300

 70
     0
 71
     1
1001
GRPNAME
1000
LNSP
  0
GROUP
  5
D8B
102
{ACAD_REACTORS
330
D
102
}
330
D
100
AcDbGroup
300

 70
     0
 71
     1
340
D86
340
D87
340
D89
1001
GRPNAME
1000
LNSP
  0
LAYOUT
  5
E72
102
{ACAD_XDICTIONARY
360
FB0
102
}
102
{ACAD_REACTORS
330
E71
102
}
330
E71
100
AcDbPlotSettings
  1

  2
Canon LBP5610
  4

  6

 40
0.0
 41
0.0
 42
0.0
 43
0.0
 44
0.0
 45
0.0
 46
0.0
 47
0.0
 48
0.0
 49
0.0
140
0.0
141
0.0
142
1.0
143
1.0
 70
  1712
 72
     0
 73
     0
 74
     0
  7

 75
     0
147
1.0
148
0.0
149
0.0
100
AcDbLayout
  1
Model
 70
     1
 71
     0
 10
0.0
 20
0.0
 11
12.0
 21
9.0
 12
0.0
 22
0.0
 32
0.0
 14
0.0
 24
0.0
 34
0.0
 15
0.0
 25
0.0
 35
0.0
146
0.0
 13
0.0
 23
0.0
 33
0.0
 16
1.0
 26
0.0
 36
0.0
 17
0.0
 27
1.0
 37
0.0
 76
     0
330
1A
331
E26
  0
LAYOUT
  5
E73
102
{ACAD_XDICTIONARY
360
FB2
102
}
102
{ACAD_REACTORS
330
E71
102
}
330
E71
100
AcDbPlotSettings
  1

  2
Canon LBP5610
  4

  6

 40
0.0
 41
0.0
 42
0.0
 43
0.0
 44
0.0
 45
0.0
 46
0.0
 47
0.0
 48
0.0
 49
0.0
140
0.0
141
0.0
142
1.0
143
1.0
 70
   688
 72
     0
 73
     0
 74
     5
  7

 75
    16
147
1.0
148
0.0
149
0.0
100
AcDbLayout
  1
レイアウト1
 70
     1
 71
     1
 10
0.0
 20
0.0
 11
420.0
 21
297.0
 12
0.0
 22
0.0
 32
0.0
 14
1.000000000000000E+20
 24
1.000000000000000E+20
 34
1.000000000000000E+20
 15
-1.000000000000000E+20
 25
-1.000000000000000E+20
 35
-1.000000000000000E+20
146
0.0
 13
0.0
 23
0.0
 33
0.0
 16
1.0
 26
0.0
 36
0.0
 17
0.0
 27
1.0
 37
0.0
 76
     0
330
17
331
22
  0
MATERIAL
  5
E5B
102
{ACAD_XDICTIONARY
360
FAA
102
}
102
{ACAD_REACTORS
330
E59
102
}
330
E59
100
AcDbMaterial
  1
ByBlock
  0
MATERIAL
  5
E5A
102
{ACAD_XDICTIONARY
360
FA8
102
}
102
{ACAD_REACTORS
330
E59
102
}
330
E59
100
AcDbMaterial
  1
ByLayer
  0
MATERIAL
  5
E5C
102
{ACAD_XDICTIONARY
360
FAC
102
}
102
{ACAD_REACTORS
330
E59
102
}
330
E59
100
AcDbMaterial
  1
Global
  0
MLINESTYLE
  5
13
102
{ACAD_REACTORS
330
E
102
}
330
E
100
AcDbMlineStyle
  2
STANDARD
 70
     0
  3

 62
     0
 51
90.0
 52
90.0
 71
     2
 49
0.5
 62
   256
  6
BYLAYER
 49
-0.5
 62
   256
  6
BYLAYER
  0
PLOTSETTINGS
  5
758
102
{ACAD_XDICTIONARY
360
FA4
102
}
102
{ACAD_REACTORS
330
566
102
}
330
566
100
AcDbPlotSettings
  1
A3(0.5倍)
  2
\\AWTECPC05\HP DeskJet 1120C
  4
A3
  6

 40
5.958416459999999
 41
13.49375153
 42
6.043090819999999
 43
3.67242432
 44
296.92599487
 45
419.94665527
 46
89.96
 47
127.14
 48
0.0
 49
0.0
140
0.0
141
0.0
142
1.0
143
2.0
 70
  1716
 72
     1
 73
     1
 74
     2
  7
big.ctb
 75
    17
147
0.5
148
0.0
149
0.0
  0
PLOTSETTINGS
  5
757
102
{ACAD_XDICTIONARY
360
FA2
102
}
102
{ACAD_REACTORS
330
566
102
}
330
566
100
AcDbPlotSettings
  1
A3(1倍)
  2
\\AWTECPC05\HP DeskJet 1120C
  4
A3
  6

 40
5.958416459999999
 41
13.49375153
 42
6.043090819999999
 43
3.67242432
 44
296.92599487
 45
419.94665527
 46
37.46
 47
52.89
 48
0.0
 49
0.0
140
0.0
141
0.0
142
1.0
143
1.0
 70
  1716
 72
     1
 73
     1
 74
     2
  7
big.ctb
 75
    16
147
1.0
148
0.0
149
0.0
  0
PLOTSETTINGS
  5
707
102
{ACAD_XDICTIONARY
360
F98
102
}
102
{ACAD_REACTORS
330
566
102
}
330
566
100
AcDbPlotSettings
  1
A3(1倍)(2000)
  2
SII LS-1300 (D-SCAN)
  4
User258
  6

 40
3.17499995
 41
3.17499995
 42
3.174987789999999
 43
3.174987789999999
 44
419.98898315
 45
296.98950195
 46
58.32
 47
40.32
 48
0.0
 49
0.0
140
0.0
141
0.0
142
1.0
143
1.0
 70
  1716
 72
     1
 73
     0
 74
     2
  7
big.ctb
 75
    16
147
1.0
148
0.0
149
0.0
  0
PLOTSETTINGS
  5
759
102
{ACAD_XDICTIONARY
360
FA6
102
}
102
{ACAD_REACTORS
330
566
102
}
330
566
100
AcDbPlotSettings
  1
A3(2倍)
  2
\\AWTECPC05\HP DeskJet 1120C
  4
A3
  6

 40
5.958416459999999
 41
13.49375153
 42
6.043090819999999
 43
3.67242432
 44
296.92599487
 45
419.94665527
 46
-67.54000000000001
 47
-95.60999999999999
 48
0.0
 49
0.0
140
0.0
141
0.0
142
1.0
143
0.5
 70
  1716
 72
     1
 73
     1
 74
     2
  7
big.ctb
 75
    27
147
2.0
148
0.0
149
0.0
  0
PLOTSETTINGS
  5
755
102
{ACAD_XDICTIONARY
360
F9E
102
}
102
{ACAD_REACTORS
330
566
102
}
330
566
100
AcDbPlotSettings
  1
A4(0.5倍)
  2
\\AWTECPC05\HP DeskJet 1120C
  4
A4
  6

 40
4.18041658
 41
13.49374962
 42
4.180404659999999
 43
3.926422119999999
 44
209.97332764
 45
296.92599487
 46
48.31
 47
65.5
 48
0.0
 49
0.0
140
0.0
141
0.0
142
1.0
143
2.0
 70
  1716
 72
     1
 73
     1
 74
     2
  7
big.ctb
 75
    17
147
0.5
148
0.0
149
0.0
  0
PLOTSETTINGS
  5
754
102
{ACAD_XDICTIONARY
360
F9C
102
}
102
{ACAD_REACTORS
330
566
102
}
330
566
100
AcDbPlotSettings
  1
A4(1倍)
  2
\\AWTECPC05\HP DeskJet 1120C
  4
A4
  6

 40
4.18041658
 41
13.49374962
 42
4.180404659999999
 43
3.926422119999999
 44
209.97332764
 45
296.92599487
 46
-4.19
 47
-8.75
 48
0.0
 49
0.0
140
0.0
141
0.0
142
1.0
143
1.0
 70
  1716
 72
     1
 73
     1
 74
     2
  7
big.ctb
 75
    16
147
1.0
148
0.0
149
0.0
  0
PLOTSETTINGS
  5
708
102
{ACAD_XDICTIONARY
360
F9A
102
}
102
{ACAD_REACTORS
330
566
102
}
330
566
100
AcDbPlotSettings
  1
A4(1倍)(2000)
  2
SII LS-1300 (D-SCAN)
  4
User259
  6

 40
3.17499995
 41
3.17499995
 42
3.174987789999999
 43
3.175003049999999
 44
296.98950195
 45
209.99449158
 46
-3.18
 47
-3.18
 48
0.0
 49
0.0
140
0.0
141
0.0
142
1.0
143
1.0
 70
  1716
 72
     1
 73
     0
 74
     2
  7
big.ctb
 75
    16
147
1.0
148
0.0
149
0.0
  0
PLOTSETTINGS
  5
756
102
{ACAD_XDICTIONARY
360
FA0
102
}
102
{ACAD_REACTORS
330
566
102
}
330
566
100
AcDbPlotSettings
  1
A4(2倍)
  2
\\AWTECPC05\HP DeskJet 1120C
  4
A4
  6

 40
4.18041658
 41
13.49374962
 42
4.180404659999999
 43
3.926422119999999
 44
209.97332764
 45
296.92599487
 46
-109.19
 47
-157.25
 48
0.0
 49
0.0
140
0.0
141
0.0
142
1.0
143
0.5
 70
  1716
 72
     1
 73
     1
 74
     2
  7
big.ctb
 75
    27
147
2.0
148
0.0
149
0.0
  0
ACDBPLACEHOLDER
  5
564
102
{ACAD_REACTORS
330
563
102
}
330
563
  0
TABLESTYLE
  5
E70
102
{ACAD_XDICTIONARY
360
FAE
102
}
102
{ACAD_REACTORS
330
E6F
102
}
330
E6F
100
AcDbTableStyle
  3
Standard
 70
     0
 71
     0
 40
1.5
 41
1.5
280
     0
281
     0
  7
STANDARD
140
4.5
170
     2
 62
     0
 63
     7
283
     0
274
    -2
284
     1
 64
     0
275
    -2
285
     1
 65
     0
276
    -2
286
     1
 66
     0
277
    -2
287
     1
 67
     0
278
    -2
288
     1
 68
     0
279
    -2
289
     1
 69
     0
  7
STANDARD
140
6.0
170
     5
 62
     0
 63
     7
283
     0
274
    -2
284
     1
 64
     0
275
    -2
285
     1
 65
     0
276
    -2
286
     1
 66
     0
277
    -2
287
     1
 67
     0
278
    -2
288
     1
 68
     0
279
    -2
289
     1
 69
     0
  7
STANDARD
140
4.5
170
     5
 62
     0
 63
     7
283
     0
274
    -2
284
     1
 64
     0
275
    -2
285
     1
 65
     0
276
    -2
286
     1
 66
     0
277
    -2
287
     1
 67
     0
278
    -2
288
     1
 68
     0
279
    -2
289
     1
 69
     0
  0
VISUALSTYLE
  5
E63
102
{ACAD_REACTORS
330
E5D
102
}
330
E5D
100
AcDbVisualStyle
  2
2dWireframe
 70
     4
 71
     0
 72
     2
 73
     0
 90
        0
 40
-0.6
 41
-30.0
 62
     5
 63
     7
 74
     1
 91
        4
 64
     7
 65
   257
 75
     1
175
     1
 42
1.0
 92
        0
 66
   257
 43
1.0
 76
     1
 77
     6
 78
     2
 67
     7
 79
     5
170
     0
171
     0
290
     0
174
     0
 93
        1
 44
0.0
173
     0
291
     0
 45
0.0
1001
ACAD
1000
AcDbSavedByObjectVersion
1070
     0
  0
VISUALSTYLE
  5
E65
102
{ACAD_REACTORS
330
E5D
102
}
330
E5D
100
AcDbVisualStyle
  2
3D Hidden
 70
     6
 71
     1
 72
     2
 73
     2
 90
        0
 40
-0.6
 41
-30.0
 62
     5
 63
     7
 74
     2
 91
        2
 64
     7
 65
   257
 75
     2
175
     1
 42
40.0
 92
        0
 66
   257
 43
1.0
 76
     1
 77
     6
 78
     2
 67
     7
 79
     3
170
     0
171
     0
290
     0
174
     0
 93
        1
 44
0.0
173
     0
291
     0
 45
0.0
1001
ACAD
1000
AcDbSavedByObjectVersion
1070
     0
  0
VISUALSTYLE
  5
E64
102
{ACAD_REACTORS
330
E5D
102
}
330
E5D
100
AcDbVisualStyle
  2
3dWireframe
 70
     5
 71
     0
 72
     2
 73
     0
 90
        0
 40
-0.6
 41
-30.0
 62
     5
 63
     7
 74
     1
 91
        4
 64
     7
 65
   257
 75
     1
175
     1
 42
1.0
 92
        0
 66
   257
 43
1.0
 76
     1
 77
     6
 78
     2
 67
     7
 79
     5
170
     0
171
     0
290
     0
174
     0
 93
        1
 44
0.0
173
     0
291
     0
 45
0.0
1001
ACAD
1000
AcDbSavedByObjectVersion
1070
     0
  0
VISUALSTYLE
  5
E62
102
{ACAD_REACTORS
330
E5D
102
}
330
E5D
100
AcDbVisualStyle
  2
Basic
 70
     7
 71
     1
 72
     0
 73
     1
 90
        0
 40
-0.6
 41
-30.0
 62
     5
 63
     7
 74
     0
 91
        4
 64
     7
 65
   257
 75
     1
175
     1
 42
1.0
 92
        8
 66
     7
 43
1.0
 76
     1
 77
     6
 78
     2
 67
     7
 79
     5
170
     0
171
     0
290
     0
174
     0
 93
        1
 44
0.0
173
     0
291
     1
 45
0.0
1001
ACAD
1000
AcDbSavedByObjectVersion
1070
     0
  0
VISUALSTYLE
  5
E69
102
{ACAD_REACTORS
330
E5D
102
}
330
E5D
100
AcDbVisualStyle
  2
Brighten
 70
    12
 71
     2
 72
     2
 73
     0
 90
        0
 40
-0.6
 41
-30.0
 62
     5
 63
     7
 74
     1
 91
        4
 64
     7
 65
   257
 75
     1
175
     1
 42
1.0
 92
        8
 66
     7
 43
1.0
 76
     1
 77
     6
 78
     2
 67
     7
 79
     5
170
     0
171
     0
290
     0
174
     0
 93
        1
 44
50.0
173
     0
291
     1
 45
0.0
1001
ACAD
1000
AcDbSavedByObjectVersion
1070
     0
  0
VISUALSTYLE
  5
E6D
102
{ACAD_REACTORS
330
E5D
102
}
330
E5D
100
AcDbVisualStyle
  2
ColorChange
 70
    16
 71
     2
 72
     2
 73
     3
 90
        0
 40
-0.6
 41
-30.0
 62
     5
 63
     8
 74
     1
 91
        4
 64
     7
 65
   257
 75
     1
175
     1
 42
1.0
 92
        8
 66
     8
 43
1.0
 76
     1
 77
     6
 78
     2
 67
     7
 79
     5
170
     0
171
     0
290
     0
174
     0
 93
        1
 44
0.0
173
     0
291
     1
 45
0.0
1001
ACAD
1000
AcDbSavedByObjectVersion
1070
     0
  0
VISUALSTYLE
  5
E66
102
{ACAD_REACTORS
330
E5D
102
}
330
E5D
100
AcDbVisualStyle
  2
Conceptual
 70
     9
 71
     3
 72
     2
 73
     0
 90
        0
 40
-0.6
 41
-30.0
 62
     5
 63
     7
 74
     2
 91
        2
 64
     7
 65
   257
 75
     1
175
     1
 42
40.0
 92
        8
 66
     7
 43
1.0
 76
     1
 77
     6
 78
     2
 67
     7
 79
     3
170
     0
171
     0
290
     0
174
     0
 93
        1
 44
0.0
173
     0
291
     0
 45
0.0
1001
ACAD
1000
AcDbSavedByObjectVersion
1070
     0
  0
VISUALSTYLE
  5
E68
102
{ACAD_REACTORS
330
E5D
102
}
330
E5D
100
AcDbVisualStyle
  2
Dim
 70
    11
 71
     2
 72
     2
 73
     0
 90
        0
 40
-0.6
 41
-30.0
 62
     5
 63
     7
 74
     1
 91
        4
 64
     7
 65
   257
 75
     1
175
     1
 42
1.0
 92
        8
 66
     7
 43
1.0
 76
     1
 77
     6
 78
     2
 67
     7
 79
     5
170
     0
171
     0
290
     0
174
     0
 93
        1
 44
-50.0
173
     0
291
     1
 45
0.0
1001
ACAD
1000
AcDbSavedByObjectVersion
1070
     0
  0
VISUALSTYLE
  5
E6C
102
{ACAD_REACTORS
330
E5D
102
}
330
E5D
100
AcDbVisualStyle
  2
Facepattern
 70
    15
 71
     2
 72
     2
 73
     0
 90
        0
 40
-0.6
 41
-30.0
 62
     5
 63
     7
 74
     1
 91
        4
 64
     7
 65
   257
 75
     1
175
     1
 42
1.0
 92
        8
 66
     7
 43
1.0
 76
     1
 77
     6
 78
     2
 67
     7
 79
     5
170
     0
171
     0
290
     0
174
     0
 93
        1
 44
0.0
173
     0
291
     1
 45
0.0
1001
ACAD
1000
AcDbSavedByObjectVersion
1070
     0
  0
VISUALSTYLE
  5
E5E
102
{ACAD_REACTORS
330
E5D
102
}
330
E5D
100
AcDbVisualStyle
  2
Flat
 70
     0
 71
     2
 72
     1
 73
     1
 90
        2
 40
-0.6
 41
30.0
 62
     5
 63
     7
 74
     0
 91
        4
 64
     7
 65
   257
 75
     1
175
     1
 42
1.0
 92
        8
 66
     7
 43
1.0
 76
     1
 77
     6
 78
     2
 67
     7
 79
     5
170
     0
171
     0
290
     0
174
     0
 93
       13
 44
0.0
173
     0
291
     1
 45
0.0
1001
ACAD
1000
AcDbSavedByObjectVersion
1070
     0
  0
VISUALSTYLE
  5
E5F
102
{ACAD_REACTORS
330
E5D
102
}
330
E5D
100
AcDbVisualStyle
  2
FlatWithEdges
 70
     1
 71
     2
 72
     1
 73
     1
 90
        2
 40
-0.6
 41
30.0
 62
     5
 63
     7
 74
     1
 91
        4
 64
     7
 65
   257
 75
     1
175
     1
 42
1.0
 92
        0
 66
   257
 43
1.0
 76
     1
 77
     6
 78
     2
 67
     7
 79
     5
170
     0
171
     0
290
     0
174
     0
 93
       13
 44
0.0
173
     0
291
     1
 45
0.0
1001
ACAD
1000
AcDbSavedByObjectVersion
1070
     0
  0
VISUALSTYLE
  5
E60
102
{ACAD_REACTORS
330
E5D
102
}
330
E5D
100
AcDbVisualStyle
  2
Gouraud
 70
     2
 71
     2
 72
     2
 73
     1
 90
        2
 40
-0.6
 41
30.0
 62
     5
 63
     7
 74
     0
 91
        4
 64
     7
 65
   257
 75
     1
175
     1
 42
1.0
 92
        0
 66
     7
 43
1.0
 76
     1
 77
     6
 78
     2
 67
     7
 79
     5
170
     0
171
     0
290
     0
174
     0
 93
       13
 44
0.0
173
     0
291
     1
 45
0.0
1001
ACAD
1000
AcDbSavedByObjectVersion
1070
     0
  0
VISUALSTYLE
  5
E61
102
{ACAD_REACTORS
330
E5D
102
}
330
E5D
100
AcDbVisualStyle
  2
GouraudWithEdges
 70
     3
 71
     2
 72
     2
 73
     1
 90
        2
 40
-0.6
 41
30.0
 62
     5
 63
     7
 74
     1
 91
        4
 64
     7
 65
   257
 75
     1
175
     1
 42
1.0
 92
        0
 66
   257
 43
1.0
 76
     1
 77
     6
 78
     2
 67
     7
 79
     5
170
     0
171
     0
290
     0
174
     0
 93
       13
 44
0.0
173
     0
291
     1
 45
0.0
1001
ACAD
1000
AcDbSavedByObjectVersion
1070
     0
  0
VISUALSTYLE
  5
E6B
102
{ACAD_REACTORS
330
E5D
102
}
330
E5D
100
AcDbVisualStyle
  2
Linepattern
 70
    14
 71
     2
 72
     2
 73
     0
 90
        0
 40
-0.6
 41
-30.0
 62
     5
 63
     7
 74
     1
 91
        4
 64
     7
 65
   257
 75
     7
175
     7
 42
1.0
 92
        8
 66
     7
 43
1.0
 76
     1
 77
     6
 78
     2
 67
     7
 79
     5
170
     0
171
     0
290
     0
174
     0
 93
        1
 44
0.0
173
     0
291
     1
 45
0.0
1001
ACAD
1000
AcDbSavedByObjectVersion
1070
     0
  0
VISUALSTYLE
  5
E67
102
{ACAD_REACTORS
330
E5D
102
}
330
E5D
100
AcDbVisualStyle
  2
Realistic
 70
     8
 71
     2
 72
     2
 73
     0
 90
        0
 40
-0.6
 41
-30.0
 62
     5
 63
     7
 74
     1
 91
        0
 64
     7
 65
   257
 75
     1
175
     1
 42
1.0
 92
        8
 66
     8
 43
1.0
 76
     1
 77
     6
 78
     2
 67
     7
 79
     5
170
     0
171
     0
290
     0
174
     0
 93
       13
 44
0.0
173
     0
291
     0
 45
0.0
1001
ACAD
1000
AcDbSavedByObjectVersion
1070
     0
  0
VISUALSTYLE
  5
E6A
102
{ACAD_REACTORS
330
E5D
102
}
330
E5D
100
AcDbVisualStyle
  2
Thicken
 70
    13
 71
     2
 72
     2
 73
     0
 90
        0
 40
-0.6
 41
-30.0
 62
     5
 63
     7
 74
     1
 91
        4
 64
     7
 65
   257
 75
     1
175
     1
 42
1.0
 92
       12
 66
     7
 43
1.0
 76
     1
 77
     6
 78
     2
 67
     7
 79
     5
170
     0
171
     0
290
     0
174
     0
 93
        1
 44
0.0
173
     0
291
     1
 45
0.0
1001
ACAD
1000
AcDbSavedByObjectVersion
1070
     0
  0
DICTIONARYVAR
  5
F72
102
{ACAD_REACTORS
330
F71
102
}
330
F71
100
DictionaryVariables
280
     0
  1
STANDARD
  0
DICTIONARYVAR
  5
F75
102
{ACAD_REACTORS
330
F71
102
}
330
F71
100
DictionaryVariables
280
     0
  1
1
  0
DICTIONARYVAR
  5
F74
102
{ACAD_REACTORS
330
F71
102
}
330
F71
100
DictionaryVariables
280
     0
  1
0
  0
DICTIONARYVAR
  5
F73
102
{ACAD_REACTORS
330
F71
102
}
330
F71
100
DictionaryVariables
280
     0
  1
127
  0
XRECORD
  5
560
102
{ACAD_REACTORS
330
540
102
}
330
540
100
AcDbXrecord
280
     1
  1
2.0.0
  0
DICTIONARY
  5
FB0
330
E72
100
AcDbDictionary
280
     1
281
     1
  3
ACAD_XREC_ROUNDTRIP
360
FB1
  0
DICTIONARY
  5
FB2
330
E73
100
AcDbDictionary
280
     1
281
     1
  3
ACAD_XREC_ROUNDTRIP
360
FB3
  0
DICTIONARY
  5
FAA
330
E5B
100
AcDbDictionary
280
     1
281
     1
  3
ACAD_XREC_ROUNDTRIP
360
FAB
  0
DICTIONARY
  5
FA8
330
E5A
100
AcDbDictionary
280
     1
281
     1
  3
ACAD_XREC_ROUNDTRIP
360
FA9
  0
DICTIONARY
  5
FAC
330
E5C
100
AcDbDictionary
280
     1
281
     1
  3
ACAD_XREC_ROUNDTRIP
360
FAD
  0
DICTIONARY
  5
FA4
330
758
100
AcDbDictionary
280
     1
281
     1
  3
ACAD_XREC_ROUNDTRIP
360
FA5
  0
DICTIONARY
  5
FA2
330
757
100
AcDbDictionary
280
     1
281
     1
  3
ACAD_XREC_ROUNDTRIP
360
FA3
  0
DICTIONARY
  5
F98
330
707
100
AcDbDictionary
280
     1
281
     1
  3
ACAD_XREC_ROUNDTRIP
360
F99
  0
DICTIONARY
  5
FA6
330
759
100
AcDbDictionary
280
     1
281
     1
  3
ACAD_XREC_ROUNDTRIP
360
FA7
  0
DICTIONARY
  5
F9E
330
755
100
AcDbDictionary
280
     1
281
     1
  3
ACAD_XREC_ROUNDTRIP
360
F9F
  0
DICTIONARY
  5
F9C
330
754
100
AcDbDictionary
280
     1
281
     1
  3
ACAD_XREC_ROUNDTRIP
360
F9D
  0
DICTIONARY
  5
F9A
330
708
100
AcDbDictionary
280
     1
281
     1
  3
ACAD_XREC_ROUNDTRIP
360
F9B
  0
DICTIONARY
  5
FA0
330
756
100
AcDbDictionary
280
     1
281
     1
  3
ACAD_XREC_ROUNDTRIP
360
FA1
  0
DICTIONARY
  5
FAE
330
E70
100
AcDbDictionary
280
     1
281
     1
  3
ACAD_XREC_ROUNDTRIP
360
FAF
  0
XRECORD
  5
FB1
102
{ACAD_REACTORS
330
FB0
102
}
330
FB0
100
AcDbXrecord
280
     1
102
SHADEPLOT
 70
     0
102
SHADEPLOTRESLEVEL
 70
     2
102
SHADEPLOTCUSTOMDPI
 70
   300
  0
XRECORD
  5
FB3
102
{ACAD_REACTORS
330
FB2
102
}
330
FB2
100
AcDbXrecord
280
     1
102
SHADEPLOT
 70
     0
102
SHADEPLOTRESLEVEL
 70
     2
102
SHADEPLOTCUSTOMDPI
 70
   300
  0
XRECORD
  5
FAB
102
{ACAD_REACTORS
330
FAA
102
}
330
FAA
100
AcDbXrecord
280
     1
102
MATERIAL
148
0.0
149
0.0
149
0.0
 93
        0
 94
       63
282
     0
 72
     1
 77
     1
171
     1
175
     1
179
     1
273
     0
  0
XRECORD
  5
FA9
102
{ACAD_REACTORS
330
FA8
102
}
330
FA8
100
AcDbXrecord
280
     1
102
MATERIAL
148
0.0
149
0.0
149
0.0
 93
        0
 94
       63
282
     0
 72
     1
 77
     1
171
     1
175
     1
179
     1
273
     0
  0
XRECORD
  5
FAD
102
{ACAD_REACTORS
330
FAC
102
}
330
FAC
100
AcDbXrecord
280
     1
102
MATERIAL
148
0.0
149
0.0
149
0.0
 93
        0
 94
       63
282
     0
 72
     1
 77
     1
171
     1
175
     1
179
     1
273
     0
  0
XRECORD
  5
FA5
102
{ACAD_REACTORS
330
FA4
102
}
330
FA4
100
AcDbXrecord
280
     1
102
SHADEPLOT
 70
     0
102
SHADEPLOTRESLEVEL
 70
     2
102
SHADEPLOTCUSTOMDPI
 70
   300
  0
XRECORD
  5
FA3
102
{ACAD_REACTORS
330
FA2
102
}
330
FA2
100
AcDbXrecord
280
     1
102
SHADEPLOT
 70
     0
102
SHADEPLOTRESLEVEL
 70
     2
102
SHADEPLOTCUSTOMDPI
 70
   300
  0
XRECORD
  5
F99
102
{ACAD_REACTORS
330
F98
102
}
330
F98
100
AcDbXrecord
280
     1
102
SHADEPLOT
 70
     0
102
SHADEPLOTRESLEVEL
 70
     2
102
SHADEPLOTCUSTOMDPI
 70
   300
  0
XRECORD
  5
FA7
102
{ACAD_REACTORS
330
FA6
102
}
330
FA6
100
AcDbXrecord
280
     1
102
SHADEPLOT
 70
     0
102
SHADEPLOTRESLEVEL
 70
     2
102
SHADEPLOTCUSTOMDPI
 70
   300
  0
XRECORD
  5
F9F
102
{ACAD_REACTORS
330
F9E
102
}
330
F9E
100
AcDbXrecord
280
     1
102
SHADEPLOT
 70
     0
102
SHADEPLOTRESLEVEL
 70
     2
102
SHADEPLOTCUSTOMDPI
 70
   300
  0
XRECORD
  5
F9D
102
{ACAD_REACTORS
330
F9C
102
}
330
F9C
100
AcDbXrecord
280
     1
102
SHADEPLOT
 70
     0
102
SHADEPLOTRESLEVEL
 70
     2
102
SHADEPLOTCUSTOMDPI
 70
   300
  0
XRECORD
  5
F9B
102
{ACAD_REACTORS
330
F9A
102
}
330
F9A
100
AcDbXrecord
280
     1
102
SHADEPLOT
 70
     0
102
SHADEPLOTRESLEVEL
 70
     2
102
SHADEPLOTCUSTOMDPI
 70
   300
  0
XRECORD
  5
FA1
102
{ACAD_REACTORS
330
FA0
102
}
330
FA0
100
AcDbXrecord
280
     1
102
SHADEPLOT
 70
     0
102
SHADEPLOTRESLEVEL
 70
     2
102
SHADEPLOTCUSTOMDPI
 70
   300
  0
XRECORD
  5
FAF
102
{ACAD_REACTORS
330
FAE
102
}
330
FAE
100
AcDbXrecord
280
     1
102
ACAD_ROUNDTRIP_PRE2007_TABLESTYLE
 90
      512
 91
        0
  1

 92
      512
 93
        0
  2

 94
      512
 95
        0
  3

  0
ENDSEC
  0
EOF
