  0
SECTION
  2
HEADER
  9
$ACADVER
  1
AC1015
  9
$ACADMAINTVER
 70
    20
  9
$DWGCODEPAGE
  3
ANSI_932
  9
$INSBASE
 10
0.0
 20
0.0
 30
0.0
  9
$EXTMIN
 10
-43.00707379375035
 20
-34.98862316131539
 30
-0.0015258207003583
  9
$EXTMAX
 10
122.1509292897315
 20
68.01515351930641
 30
0.0000000349246037
  9
$LIMMIN
 10
0.0
 20
0.0
  9
$LIMMAX
 10
297.0
 20
210.0
  9
$ORTHOMODE
 70
     1
  9
$REGENMODE
 70
     1
  9
$FILLMODE
 70
     1
  9
$QTEXTMODE
 70
     0
  9
$MIRRTEXT
 70
     1
  9
$LTSCALE
 40
10.0
  9
$ATTMODE
 70
     1
  9
$TEXTSIZE
 40
3.0
  9
$TRACEWID
 40
1.0
  9
$TEXTSTYLE
  7
YOKO
  9
$CLAYER
  8
245
  9
$CELTYPE
  6
BYLAYER
  9
$CECOLOR
 62
   256
  9
$CELTSCALE
 40
1.0
  9
$DISPSILH
 70
     0
  9
$DIMSCALE
 40
1.0
  9
$DIMASZ
 40
2.0
  9
$DIMEXO
 40
0.5
  9
$DIMDLI
 40
2.5
  9
$DIMRND
 40
0.0
  9
$DIMDLE
 40
0.0
  9
$DIMEXE
 40
1.0
  9
$DIMTP
 40
0.0
  9
$DIMTM
 40
0.0
  9
$DIMTXT
 40
2.799999999999999
  9
$DIMCEN
 40
0.0
  9
$DIMTSZ
 40
0.0
  9
$DIMTOL
 70
     0
  9
$DIMLIM
 70
     0
  9
$DIMTIH
 70
     0
  9
$DIMTOH
 70
     0
  9
$DIMSE1
 70
     0
  9
$DIMSE2
 70
     0
  9
$DIMTAD
 70
     3
  9
$DIMZIN
 70
     8
  9
$DIMBLK
  1

  9
$DIMASO
 70
     1
  9
$DIMSHO
 70
     1
  9
$DIMPOST
  1

  9
$DIMAPOST
  1

  9
$DIMALT
 70
     0
  9
$DIMALTD
 70
     2
  9
$DIMALTF
 40
25.4
  9
$DIMLFAC
 40
1.0
  9
$DIMTOFL
 70
     1
  9
$DIMTVP
 40
0.0
  9
$DIMTIX
 70
     1
  9
$DIMSOXD
 70
     0
  9
$DIMSAH
 70
     1
  9
$DIMBLK1
  1
Open
  9
$DIMBLK2
  1
Open
  9
$DIMSTYLE
  2
BIGT
  9
$DIMCLRD
 70
   256
  9
$DIMCLRE
 70
   256
  9
$DIMCLRT
 70
    40
  9
$DIMTFAC
 40
1.0
  9
$DIMGAP
 40
1.0
  9
$DIMJUST
 70
     0
  9
$DIMSD1
 70
     0
  9
$DIMSD2
 70
     0
  9
$DIMTOLJ
 70
     1
  9
$DIMTZIN
 70
     8
  9
$DIMALTZ
 70
     0
  9
$DIMALTTZ
 70
     0
  9
$DIMUPT
 70
     0
  9
$DIMDEC
 70
     3
  9
$DIMTDEC
 70
     3
  9
$DIMALTU
 70
     2
  9
$DIMALTTD
 70
     2
  9
$DIMTXSTY
  7
STANDARD
  9
$DIMAUNIT
 70
     0
  9
$DIMADEC
 70
     3
  9
$DIMALTRND
 40
0.0
  9
$DIMAZIN
 70
     2
  9
$DIMDSEP
 70
    46
  9
$DIMATFIT
 70
     2
  9
$DIMFRAC
 70
     0
  9
$DIMLDRBLK
  1
Open
  9
$DIMLUNIT
 70
     2
  9
$DIMLWD
 70
    -1
  9
$DIMLWE
 70
    -1
  9
$DIMTMOVE
 70
     0
  9
$LUNITS
 70
     2
  9
$LUPREC
 70
     3
  9
$SKETCHINC
 40
1.0
  9
$FILLETRAD
 40
3.0
  9
$AUNITS
 70
     0
  9
$AUPREC
 70
     3
  9
$MENU
  1
.
  9
$ELEVATION
 40
0.0
  9
$PELEVATION
 40
0.0
  9
$THICKNESS
 40
0.0
  9
$LIMCHECK
 70
     0
  9
$CHAMFERA
 40
10.0
  9
$CHAMFERB
 40
10.0
  9
$CHAMFERC
 40
0.0
  9
$CHAMFERD
 40
0.0
  9
$SKPOLY
 70
     0
  9
$TDCREATE
 40
2456454.408923785
  9
$TDUCREATE
 40
2456454.033923785
  9
$TDUPDATE
 40
2457014.659485671
  9
$TDUUPDATE
 40
2457014.284485671
  9
$TDINDWG
 40
0.0141342940
  9
$TDUSRTIMER
 40
0.0141210880
  9
$USRTIMER
 70
     1
  9
$ANGBASE
 50
0.0
  9
$ANGDIR
 70
     0
  9
$PDMODE
 70
     0
  9
$PDSIZE
 40
-5.0
  9
$PLINEWID
 40
0.0
  9
$SPLFRAME
 70
     0
  9
$SPLINETYPE
 70
     6
  9
$SPLINESEGS
 70
     8
  9
$HANDSEED
  5
13E3
  9
$SURFTAB1
 70
     6
  9
$SURFTAB2
 70
     6
  9
$SURFTYPE
 70
     6
  9
$SURFU
 70
     6
  9
$SURFV
 70
     6
  9
$UCSBASE
  2

  9
$UCSNAME
  2

  9
$UCSORG
 10
0.0
 20
0.0
 30
0.0
  9
$UCSXDIR
 10
1.0
 20
0.0
 30
0.0
  9
$UCSYDIR
 10
0.0
 20
1.0
 30
0.0
  9
$UCSORTHOREF
  2

  9
$UCSORTHOVIEW
 70
     0
  9
$UCSORGTOP
 10
0.0
 20
0.0
 30
0.0
  9
$UCSORGBOTTOM
 10
0.0
 20
0.0
 30
0.0
  9
$UCSORGLEFT
 10
0.0
 20
0.0
 30
0.0
  9
$UCSORGRIGHT
 10
0.0
 20
0.0
 30
0.0
  9
$UCSORGFRONT
 10
0.0
 20
0.0
 30
0.0
  9
$UCSORGBACK
 10
0.0
 20
0.0
 30
0.0
  9
$PUCSBASE
  2

  9
$PUCSNAME
  2

  9
$PUCSORG
 10
0.0
 20
0.0
 30
0.0
  9
$PUCSXDIR
 10
1.0
 20
0.0
 30
0.0
  9
$PUCSYDIR
 10
0.0
 20
1.0
 30
0.0
  9
$PUCSORTHOREF
  2

  9
$PUCSORTHOVIEW
 70
     0
  9
$PUCSORGTOP
 10
0.0
 20
0.0
 30
0.0
  9
$PUCSORGBOTTOM
 10
0.0
 20
0.0
 30
0.0
  9
$PUCSORGLEFT
 10
0.0
 20
0.0
 30
0.0
  9
$PUCSORGRIGHT
 10
0.0
 20
0.0
 30
0.0
  9
$PUCSORGFRONT
 10
0.0
 20
0.0
 30
0.0
  9
$PUCSORGBACK
 10
0.0
 20
0.0
 30
0.0
  9
$USERI1
 70
     1
  9
$USERI2
 70
     0
  9
$USERI3
 70
     0
  9
$USERI4
 70
     0
  9
$USERI5
 70
     0
  9
$USERR1
 40
0.0
  9
$USERR2
 40
0.0
  9
$USERR3
 40
0.0
  9
$USERR4
 40
0.0
  9
$USERR5
 40
0.0
  9
$WORLDVIEW
 70
     1
  9
$SHADEDGE
 70
     3
  9
$SHADEDIF
 70
    70
  9
$TILEMODE
 70
     1
  9
$MAXACTVP
 70
    16
  9
$PINSBASE
 10
0.0
 20
0.0
 30
0.0
  9
$PLIMCHECK
 70
     0
  9
$PEXTMIN
 10
1.000000000000000E+20
 20
1.000000000000000E+20
 30
1.000000000000000E+20
  9
$PEXTMAX
 10
-1.000000000000000E+20
 20
-1.000000000000000E+20
 30
-1.000000000000000E+20
  9
$PLIMMIN
 10
0.0
 20
0.0
  9
$PLIMMAX
 10
420.0
 20
297.0
  9
$UNITMODE
 70
     0
  9
$VISRETAIN
 70
     0
  9
$PLINEGEN
 70
     0
  9
$PSLTSCALE
 70
     1
  9
$TREEDEPTH
 70
  3020
  9
$CMLSTYLE
  2
STANDARD
  9
$CMLJUST
 70
     0
  9
$CMLSCALE
 40
1.0
  9
$PROXYGRAPHICS
 70
     1
  9
$MEASUREMENT
 70
     1
  9
$CELWEIGHT
370
    -1
  9
$ENDCAPS
280
     0
  9
$JOINSTYLE
280
     0
  9
$LWDISPLAY
290
     0
  9
$INSUNITS
 70
     0
  9
$HYPERLINKBASE
  1

  9
$STYLESHEET
  1
big.ctb
  9
$XEDIT
290
     1
  9
$CEPSNTYPE
380
     0
  9
$PSTYLEMODE
290
     1
  9
$FINGERPRINTGUID
  2
{98FAE3F7-FECD-475D-8FC3-BAD79110D50A}
  9
$VERSIONGUID
  2
{D6139D63-1604-4CFC-8B3F-4D9D1F055FAE}
  9
$EXTNAMES
290
     1
  9
$PSVPSCALE
 40
0.0
  9
$OLESTARTUP
290
     0
  0
ENDSEC
  0
SECTION
  2
CLASSES
  0
CLASS
  1
ACDBDICTIONARYWDFLT
  2
AcDbDictionaryWithDefault
  3
ObjectDBX Classes
 90
        0
280
     0
281
     0
  0
CLASS
  1
ACDBPLACEHOLDER
  2
AcDbPlaceHolder
  3
ObjectDBX Classes
 90
        0
280
     0
281
     0
  0
CLASS
  1
LAYOUT
  2
AcDbLayout
  3
ObjectDBX Classes
 90
        0
280
     0
281
     0
  0
CLASS
  1
PLOTSETTINGS
  2
AcDbPlotSettings
  3
ObjectDBX Classes
 90
        0
280
     0
281
     0
  0
CLASS
  1
MATERIAL
  2
AcDbMaterial
  3
ObjectDBX Classes
 90
     1024
280
     0
281
     0
  0
CLASS
  1
VISUALSTYLE
  2
AcDbVisualStyle
  3
ObjectDBX Classes
 90
     4095
280
     0
281
     0
  0
CLASS
  1
TABLESTYLE
  2
AcDbTableStyle
  3
ObjectDBX Classes
 90
     4095
280
     0
281
     0
  0
CLASS
  1
SORTENTSTABLE
  2
AcDbSortentsTable
  3
ObjectDBX Classes
 90
        0
280
     0
281
     0
  0
CLASS
  1
DICTIONARYVAR
  2
AcDbDictionaryVar
  3
ObjectDBX Classes
 90
        0
280
     0
281
     0
  0
ENDSEC
  0
SECTION
  2
TABLES
  0
TABLE
  2
VPORT
  5
8
330
0
100
AcDbSymbolTable
 70
     1
  0
VPORT
  5
77A
330
8
100
AcDbSymbolTableRecord
100
AcDbViewportTableRecord
  2
*Active
 70
     0
 10
0.0
 20
0.0
 11
1.0
 21
1.0
 12
39.57192774799057
 22
16.51326517899551
 13
0.0
 23
0.0
 14
7.0
 24
7.0
 15
7.0
 25
7.0
 16
0.0
 26
0.0
 36
1.0
 17
0.0
 27
0.0
 37
0.0
 40
103.6199508182925
 41
1.755489021956088
 42
50.0
 43
0.0
 44
0.0
 50
0.0
 51
0.0
 71
     0
 72
 20000
 73
     1
 74
     0
 75
     0
 76
     0
 77
     0
 78
     0
281
     0
 65
     1
110
0.0
120
0.0
130
0.0
111
1.0
121
0.0
131
0.0
112
0.0
122
1.0
132
0.0
 79
     0
146
0.0
  0
ENDTAB
  0
TABLE
  2
LTYPE
  5
5
330
0
100
AcDbSymbolTable
 70
     3
  0
LTYPE
  5
14
330
5
100
AcDbSymbolTableRecord
100
AcDbLinetypeTableRecord
  2
BYBLOCK
 70
     0
  3

 72
    65
 73
     0
 40
0.0
  0
LTYPE
  5
15
330
5
100
AcDbSymbolTableRecord
100
AcDbLinetypeTableRecord
  2
BYLAYER
 70
     0
  3

 72
    65
 73
     0
 40
0.0
  0
LTYPE
  5
16
330
5
100
AcDbSymbolTableRecord
100
AcDbLinetypeTableRecord
  2
CONTINUOUS
 70
     0
  3
Solid line
 72
    65
 73
     0
 40
0.0
  0
LTYPE
  5
258
330
5
100
AcDbSymbolTableRecord
100
AcDbLinetypeTableRecord
  2
CENTER2
 70
     0
  3
___ _ ___ _ ___ _ ___ _ ___ _ ___ _ ___ _ ___ _
 72
    65
 73
     4
 40
1.125
 49
0.75
 74
     0
 49
-0.125
 74
     0
 49
0.125
 74
     0
 49
-0.125
 74
     0
  0
LTYPE
  5
25C
330
5
100
AcDbSymbolTableRecord
100
AcDbLinetypeTableRecord
  2
HIDDEN2
 70
     0
  3
_ _ _ _ _ _ _ _ _ _ _ _ _ _ _ _ _ _ _ _ _ _ _ _
 72
    65
 73
     2
 40
0.1875
 49
0.125
 74
     0
 49
-0.0625
 74
     0
  0
ENDTAB
  0
TABLE
  2
LAYER
  5
2
102
{ACAD_XDICTIONARY
360
7AB
102
}
330
0
100
AcDbSymbolTable
 70
     7
  0
LAYER
  5
F
330
2
100
AcDbSymbolTableRecord
100
AcDbLayerTableRecord
  2
0
 70
     0
 62
     7
  6
CONTINUOUS
370
    -3
390
564
  0
LAYER
  5
1AA
330
2
100
AcDbSymbolTableRecord
100
AcDbLayerTableRecord
  2
240
 70
     0
 62
     4
  6
CONTINUOUS
370
    -3
390
564
  0
LAYER
  5
1AB
330
2
100
AcDbSymbolTableRecord
100
AcDbLayerTableRecord
  2
241
 70
     0
 62
   211
  6
CONTINUOUS
370
    -3
390
564
  0
LAYER
  5
1AC
330
2
100
AcDbSymbolTableRecord
100
AcDbLayerTableRecord
  2
242
 70
     0
 62
     3
  6
CONTINUOUS
370
    -3
390
564
  0
LAYER
  5
1AF
330
2
100
AcDbSymbolTableRecord
100
AcDbLayerTableRecord
  2
245
 70
     0
 62
     2
  6
CENTER2
370
    -3
390
564
  0
LAYER
  5
21E
330
2
100
AcDbSymbolTableRecord
100
AcDbLayerTableRecord
  2
250
 70
     0
 62
     3
  6
CONTINUOUS
370
    -3
390
564
  0
LAYER
  5
5C4
330
2
100
AcDbSymbolTableRecord
100
AcDbLayerTableRecord
  2
Defpoints
 70
     0
 62
     7
  6
CONTINUOUS
290
     0
370
    -3
390
564
  0
ENDTAB
  0
TABLE
  2
STYLE
  5
3
330
0
100
AcDbSymbolTable
 70
     3
  0
STYLE
  5
10
330
3
100
AcDbSymbolTableRecord
100
AcDbTextStyleTableRecord
  2
STANDARD
 70
     0
 40
0.0
 41
1.0
 50
0.0
 71
     0
 42
2.799999999999998
  3
romans.shx
  4
BIGFONT.SHX
  0
STYLE
  5
339
330
3
100
AcDbSymbolTableRecord
100
AcDbTextStyleTableRecord
  2
YOKO
 70
     0
 40
0.0
 41
1.0
 50
0.0
 71
     0
 42
3.0
  3
romans.shx
  4
extfont.shx
  0
ENDTAB
  0
TABLE
  2
VIEW
  5
6
330
0
100
AcDbSymbolTable
 70
     0
  0
ENDTAB
  0
TABLE
  2
UCS
  5
7
330
0
100
AcDbSymbolTable
 70
     0
  0
ENDTAB
  0
TABLE
  2
APPID
  5
9
330
0
100
AcDbSymbolTable
 70
    12
  0
APPID
  5
11
330
9
100
AcDbSymbolTableRecord
100
AcDbRegAppTableRecord
  2
ACAD
 70
     0
  0
APPID
  5
1B1
330
9
100
AcDbSymbolTableRecord
100
AcDbRegAppTableRecord
  2
GLOBAL
 70
     0
  0
APPID
  5
2A4
330
9
100
AcDbSymbolTableRecord
100
AcDbRegAppTableRecord
  2
DETAIL
 70
     0
  0
APPID
  5
5FD
330
9
100
AcDbSymbolTableRecord
100
AcDbRegAppTableRecord
  2
GRPNAME
 70
     0
  0
APPID
  5
5FE
330
9
100
AcDbSymbolTableRecord
100
AcDbRegAppTableRecord
  2
GPARA
 70
     0
  0
APPID
  5
6C4
330
9
100
AcDbSymbolTableRecord
100
AcDbRegAppTableRecord
  2
DCO15
 70
     0
  0
APPID
  5
6C5
330
9
100
AcDbSymbolTableRecord
100
AcDbRegAppTableRecord
  2
ITEMNAME
 70
     0
  0
APPID
  5
6C6
330
9
100
AcDbSymbolTableRecord
100
AcDbRegAppTableRecord
  2
GRADE_0
 70
     0
  0
APPID
  5
7A8
330
9
100
AcDbSymbolTableRecord
100
AcDbRegAppTableRecord
  2
GENIUS_GENODEF_13
 70
     0
  0
APPID
  5
7A9
330
9
100
AcDbSymbolTableRecord
100
AcDbRegAppTableRecord
  2
GENIUS_GENOBJ-N-FIL_13
 70
     0
  0
APPID
  5
7AA
330
9
100
AcDbSymbolTableRecord
100
AcDbRegAppTableRecord
  2
ACAD_PSEXT
 70
     0
  0
APPID
  5
B0D
330
9
100
AcDbSymbolTableRecord
100
AcDbRegAppTableRecord
  2
ACAD_EXEMPT_FROM_CAD_STANDARDS
 70
     0
  0
ENDTAB
  0
TABLE
  2
DIMSTYLE
  5
A
330
0
100
AcDbSymbolTable
 70
     3
100
AcDbDimStyleTable
 71
     1
340
725
  0
DIMSTYLE
105
725
102
{ACAD_REACTORS
330
A6B
330
DE0
330
DE5
330
11EB
330
11EC
102
}
330
A
100
AcDbSymbolTableRecord
100
AcDbDimStyleTableRecord
  2
BIGT
 70
     0
 41
2.229999999999999
 42
0.5
 43
2.5
 44
1.0
 73
     0
 74
     0
 77
     3
 78
     8
 79
     2
140
2.799999999999998
141
0.0
147
1.0
172
     1
173
     1
174
     1
176
   256
177
   256
178
    40
179
     3
271
     3
272
     3
284
     8
289
     2
340
10
341
594
343
594
344
594
371
    -1
372
    -1
  0
DIMSTYLE
105
CD9
102
{ACAD_REACTORS
330
DEA
330
109B
330
11F1
102
}
330
A
100
AcDbSymbolTableRecord
100
AcDbDimStyleTableRecord
  2
BIGT$0
 70
     0
  4
"
 41
2.229999999999999
 42
0.5
 43
7.0
 44
1.0
 47
0.1
 48
0.1
 73
     0
 74
     0
 77
     3
 78
     8
140
3.0
141
0.0
143
0.0393701
146
0.71
147
1.0
172
     1
176
     3
177
     3
178
    40
271
     3
272
     3
284
     8
340
10
341
594
342
594
  0
ENDTAB
  0
TABLE
  2
BLOCK_RECORD
  5
1
330
0
100
AcDbSymbolTable
 70
    13
  0
BLOCK_RECORD
  5
1A
102
{ACAD_XDICTIONARY
360
B04
102
}
330
1
100
AcDbSymbolTableRecord
100
AcDbBlockTableRecord
  2
*MODEL_SPACE
340
567
  0
BLOCK_RECORD
  5
17
330
1
100
AcDbSymbolTableRecord
100
AcDbBlockTableRecord
  2
*PAPER_SPACE
340
568
  0
BLOCK_RECORD
  5
594
330
1
100
AcDbSymbolTableRecord
100
AcDbBlockTableRecord
  2
_Open
340
0
102
{BLKREFS
331
DE7
331
10E2
331
10E3
331
10EB
331
10EC
331
10F4
331
10F5
331
10FD
331
10FE
331
1106
331
1107
331
11D4
331
11D5
331
11E0
331
11E1
331
11EE
331
11C8
331
11C9
102
}
  0
BLOCK_RECORD
  5
6E3
330
1
100
AcDbSymbolTableRecord
100
AcDbBlockTableRecord
  2
矢印なし
340
0
102
{BLKREFS
331
6E6
102
}
  0
BLOCK_RECORD
  5
ABC
330
1
100
AcDbSymbolTableRecord
100
AcDbBlockTableRecord
  2
*D2
340
0
  0
BLOCK_RECORD
  5
B93
330
1
100
AcDbSymbolTableRecord
100
AcDbBlockTableRecord
  2
1
340
0
310
2800000020000000200000000100080000000000000400000000000000000000000000000000000000000000000080000080000000808000800000008000800080800000C0C0C000C0DCC000F0CAA6000020400000206000002080000020A0000020C0000020E00000400000004020000040400000406000004080000040A0
310
000040C0000040E00000600000006020000060400000606000006080000060A0000060C0000060E00000800000008020000080400000806000008080000080A0000080C0000080E00000A0000000A0200000A0400000A0600000A0800000A0A00000A0C00000A0E00000C0000000C0200000C0400000C0600000C0800000C0
310
A00000C0C00000C0E00000E0000000E0200000E0400000E0600000E0800000E0A00000E0C00000E0E00040000000400020004000400040006000400080004000A0004000C0004000E00040200000402020004020400040206000402080004020A0004020C0004020E000404000004040200040404000404060004040800040
310
40A0004040C0004040E00040600000406020004060400040606000406080004060A0004060C0004060E00040800000408020004080400040806000408080004080A0004080C0004080E00040A0000040A0200040A0400040A0600040A0800040A0A00040A0C00040A0E00040C0000040C0200040C0400040C0600040C08000
310
40C0A00040C0C00040C0E00040E0000040E0200040E0400040E0600040E0800040E0A00040E0C00040E0E00080000000800020008000400080006000800080008000A0008000C0008000E00080200000802020008020400080206000802080008020A0008020C0008020E00080400000804020008040400080406000804080
310
008040A0008040C0008040E00080600000806020008060400080606000806080008060A0008060C0008060E00080800000808020008080400080806000808080008080A0008080C0008080E00080A0000080A0200080A0400080A0600080A0800080A0A00080A0C00080A0E00080C0000080C0200080C0400080C0600080C0
310
800080C0A00080C0C00080C0E00080E0000080E0200080E0400080E0600080E0800080E0A00080E0C00080E0E000C0000000C0002000C0004000C0006000C0008000C000A000C000C000C000E000C0200000C0202000C0204000C0206000C0208000C020A000C020C000C020E000C0400000C0402000C0404000C0406000C0
310
408000C040A000C040C000C040E000C0600000C0602000C0604000C0606000C0608000C060A000C060C000C060E000C0800000C0802000C0804000C0806000C0808000C080A000C080C000C080E000C0A00000C0A02000C0A04000C0A06000C0A08000C0A0A000C0A0C000C0A0E000C0C00000C0C02000C0C04000C0C06000
310
C0C08000C0C0A000F0FBFF00A4A0A000808080000000FF0000FF000000FFFF00FF000000FF00FF00FFFF0000FFFFFF0000000000000000000000000000000000000000000000000000000000000000000000000000000000000000000000000000000000000000000000000000000000000000000000000000000000000000
310
00000000000000000000000000000000000000000000000000000000000000000000000000000000000000000000000000000000000000000000000000000000000000000000000000000000000000000000000000000000000000000000000000000000000000000000000000000000000000000000000000000000000000
310
000000000000000000000000000000000000000000000000000000000000000000000000000000000000000000000000000000000000000000000000000000000000000000000000000000000000000000000000000000000000FEFEFEFEFEFEFE0000000000000000000000000000000000000000000000FEFEE7E7E7E7FE
310
E7FEFE0000000000000000000000000000000000FEFEFEFEFE0000E700E7E7E7E7E7FE0000000000000000000000000000000000FE000000000000E70000E7E7E7E7FE0000000000000000000000000000000000FE000000000000E70000E7E7E7E7E7FEFEFEFEFEFEFEFEFEFE00000000000000FEFEE7E700FB00E70000E7
310
E7E7E7E70000000000E7E70000E7E7FEFEFE0000000000FEE700FB00E700E700FB00E7E70000000000E7E70000E7E7E700FE000000FBFBFEE7E7FBE7E7E7FBFBFBFBE7E7FBFBFBFBFBE7E7FBE7E7E7E7E7FEFB0000FEFEE7E700FB00E700E7E7E7E7E7E700000000FBE7E70000E7E7E7FEFE000000FE000000000000E70000
310
E7E7E7E7E7FEFEFEFEFBE7E7FEFEFE00000000000000FE000000000000E70000E7E7E7E7FE0000000000000000000000000000000000FEFEFEFE000000E70000E7E7E7E7FE000000000000000000000000000000000000000000FEFEFEE70000E7E7E7FEFE000000000000000000000000000000000000000000000000FEFE
310
FEE7FEE7FE0000000000000000000000000000000000000000000000000000000000000000000000000000000000000000000000000000000000000000000000000000000000000000000000000000000000000000000000000000000000000000000000000000000000000000000000000000000000000000000000000000
310
00000000000000000000000000000000000000000000000000000000000000000000000000000000000000000000000000000000000000000000000000000000000000000000000000000000000000000000000000000000000000000000000000000000000000000000000000000000000000000000000000000000000000
310
0000000000000000000000000000000000000000000000000000000000000000000000000000000000000000000000000000000000000000
102
{BLKREFS
331
13C0
102
}
  0
BLOCK_RECORD
  5
E45
330
1
100
AcDbSymbolTableRecord
100
AcDbBlockTableRecord
  2
*D4
340
0
  0
BLOCK_RECORD
  5
E51
330
1
100
AcDbSymbolTableRecord
100
AcDbBlockTableRecord
  2
*D5
340
0
  0
BLOCK_RECORD
  5
E69
330
1
100
AcDbSymbolTableRecord
100
AcDbBlockTableRecord
  2
*D6
340
0
  0
BLOCK_RECORD
  5
109C
330
1
100
AcDbSymbolTableRecord
100
AcDbBlockTableRecord
  2
*D7
340
0
  0
ENDTAB
  0
ENDSEC
  0
SECTION
  2
BLOCKS
  0
BLOCK
  5
1B
330
1A
100
AcDbEntity
  8
0
100
AcDbBlockBegin
  2
*MODEL_SPACE
 70
     0
 10
0.0
 20
0.0
 30
0.0
  3
*MODEL_SPACE
  1

  0
ENDBLK
  5
1C
330
1A
100
AcDbEntity
  8
0
100
AcDbBlockEnd
  0
BLOCK
  5
18
330
17
100
AcDbEntity
 67
     1
  8
0
100
AcDbBlockBegin
  2
*PAPER_SPACE
 70
     0
 10
0.0
 20
0.0
 30
0.0
  3
*PAPER_SPACE
  1

  0
ENDBLK
  5
19
330
17
100
AcDbEntity
 67
     1
  8
0
100
AcDbBlockEnd
  0
BLOCK
  5
598
330
594
100
AcDbEntity
  8
0
100
AcDbBlockBegin
  2
_Open
 70
     0
 10
0.0
 20
0.0
 30
0.0
  3
_Open
  1

  0
LINE
  5
595
330
594
100
AcDbEntity
  8
0
  6
ByBlock
 62
     0
370
    -2
100
AcDbLine
 10
-1.0
 20
0.1666666666666666
 30
0.0
 11
0.0
 21
0.0
 31
0.0
  0
LINE
  5
596
330
594
100
AcDbEntity
  8
0
  6
ByBlock
 62
     0
370
    -2
100
AcDbLine
 10
-1.0
 20
-0.1666666666666666
 30
0.0
 11
0.0
 21
0.0
 31
0.0
  0
LINE
  5
597
330
594
100
AcDbEntity
  8
0
  6
ByBlock
 62
     0
370
    -2
100
AcDbLine
 10
0.0
 20
0.0
 30
0.0
 11
-1.0
 21
0.0
 31
0.0
  0
ENDBLK
  5
599
330
594
100
AcDbEntity
  8
0
100
AcDbBlockEnd
  0
BLOCK
  5
6E4
330
6E3
100
AcDbEntity
  8
0
100
AcDbBlockBegin
  2
矢印なし
 70
     0
 10
0.0
 20
0.0
 30
0.0
  3
矢印なし
  1

  0
ENDBLK
  5
6E5
330
6E3
100
AcDbEntity
  8
0
100
AcDbBlockEnd
  0
BLOCK
  5
AC6
330
ABC
100
AcDbEntity
  8
0
100
AcDbBlockBegin
  2
*D2
 70
     1
 10
0.0
 20
0.0
 30
0.0
  3
*D2
  1

  0
LINE
  5
10DF
330
ABC
100
AcDbEntity
  8
250
  6
Continuous
100
AcDbLine
 10
-0.0000000000000284
 20
31.0
 30
0.0
 11
-0.0000000000000272
 21
49.99999999999991
 31
0.0
  0
LINE
  5
10E0
330
ABC
100
AcDbEntity
  8
250
  6
Continuous
100
AcDbLine
 10
100.0
 20
5.500000711691831
 30
0.0
 11
100.0
 21
49.99999999999991
 31
0.0
  0
LINE
  5
10E1
330
ABC
100
AcDbEntity
  8
250
  6
Continuous
100
AcDbLine
 10
1.999999999999971
 20
48.99999999999991
 30
0.0
 11
98.0
 21
48.99999999999991
 31
0.0
  0
INSERT
  5
10E2
330
ABC
100
AcDbEntity
  8
250
  6
Continuous
100
AcDbBlockReference
  2
_Open
 10
-0.0000000000000273
 20
48.99999999999991
 30
0.0
 41
2.0
 42
2.0
 43
2.0
 50
180.0
  0
INSERT
  5
10E3
330
ABC
100
AcDbEntity
  8
250
  6
Continuous
100
AcDbBlockReference
  2
_Open
 10
100.0
 20
48.99999999999991
 30
0.0
 41
2.0
 42
2.0
 43
2.0
  0
MTEXT
  5
10E4
330
ABC
100
AcDbEntity
  8
250
  6
Continuous
 62
    40
370
    -3
100
AcDbMText
 10
50.0
 20
51.39999999999989
 30
0.0
 40
2.799999999999998
 41
0.0
 71
     5
 72
     1
  1
\A1;100
 73
     1
 44
1.0
1001
ACAD
1000
MTEXTBEGIN
1070
    73
1070
     1
1070
    44
1040
1.0
1070
    74
1070
     0
1000
MTEXTEND
  0
POINT
  5
10E5
330
ABC
100
AcDbEntity
  8
Defpoints
  6
Continuous
 62
     0
100
AcDbPoint
 10
-0.0000000000000284
 20
30.5
 30
0.0
  0
POINT
  5
10E6
330
ABC
100
AcDbEntity
  8
Defpoints
  6
Continuous
 62
     0
100
AcDbPoint
 10
100.0
 20
5.000000711691831
 30
0.0
  0
POINT
  5
10E7
330
ABC
100
AcDbEntity
  8
Defpoints
  6
Continuous
 62
     0
100
AcDbPoint
 10
100.0
 20
48.99999999999991
 30
0.0
  0
ENDBLK
  5
AC7
330
ABC
100
AcDbEntity
  8
0
100
AcDbBlockEnd
  0
BLOCK
  5
B94
330
B93
100
AcDbEntity
  8
0
100
AcDbBlockBegin
  2
1
 70
     0
 10
0.0
 20
0.0
 30
0.0
  3
1
  1

  0
LINE
  5
1318
330
B93
100
AcDbEntity
  8
245
  6
CENTER2
100
AcDbLine
 10
-32.00000000000004
 20
0.0
 30
0.0
 11
101.0
 21
0.0
 31
0.0
  0
LINE
  5
1319
330
B93
100
AcDbEntity
  8
245
  6
CENTER2
100
AcDbLine
 10
18.0
 20
31.50000000000003
 30
0.0
 11
18.0
 21
-31.49999999999987
 31
0.0
  0
LINE
  5
131A
330
B93
100
AcDbEntity
  8
240
  6
Continuous
100
AcDbLine
 10
-2.000000000000083
 20
-24.21499999999993
 30
0.0
 11
-30.85992514033269
 21
-22.77200374298336
 31
0.0
  0
CIRCLE
  5
131B
330
B93
100
AcDbEntity
  8
241
  6
Continuous
100
AcDbCircle
 10
-9.000000000000023
 20
0.0
 30
0.0
 40
3.75
  0
LINE
  5
131C
330
B93
100
AcDbEntity
  8
240
  6
Continuous
100
AcDbLine
 10
-32.00000000000004
 20
-21.57350093632995
 30
0.0
 11
-32.00000000000004
 21
-7.269999999999754
 31
0.0
  0
ARC
  5
131D
330
B93
100
AcDbEntity
  8
240
  6
Continuous
100
AcDbCircle
 10
-30.80000000000004
 20
-21.57350093632995
 30
0.0
 40
1.199999999999999
100
AcDbArc
 50
180.0
 51
267.137594773889
  0
ARC
  5
131E
330
B93
100
AcDbEntity
  8
240
  6
Continuous
100
AcDbCircle
 10
-27.50000000000003
 20
-4.770000000000009
 30
0.0
 40
1.499999999999984
100
AcDbArc
 50
270.0
 51
0.0
  0
LINE
  5
131F
330
B93
100
AcDbEntity
  8
241
  6
HIDDEN2
100
AcDbLine
 10
-27.50000000000003
 20
-6.26999999999998
 30
0.0
 11
-23.50000000000003
 21
-6.26999999999998
 31
0.0
  0
LINE
  5
1320
330
B93
100
AcDbEntity
  8
240
  6
Continuous
100
AcDbLine
 10
-31.00000000000026
 20
-6.26999999999998
 30
0.0
 11
-27.50000000000003
 21
-6.26999999999998
 31
0.0
  0
LINE
  5
1321
330
B93
100
AcDbEntity
  8
240
  6
Continuous
100
AcDbLine
 10
-32.00000000000004
 20
-7.269999999999754
 30
0.0
 11
-31.00000000000026
 21
-6.26999999999998
 31
0.0
  0
LINE
  5
1322
330
B93
100
AcDbEntity
  8
240
  6
Continuous
100
AcDbLine
 10
-26.00000000000003
 20
-4.770000000000009
 30
0.0
 11
-26.00000000000003
 21
0.0
 31
0.0
  0
LINE
  5
1323
330
B93
100
AcDbEntity
  8
241
  6
HIDDEN2
100
AcDbLine
 10
-22.00000000000003
 20
-4.770000000000009
 30
0.0
 11
-22.00000000000003
 21
0.0
 31
0.0
  0
ARC
  5
1324
330
B93
100
AcDbEntity
  8
241
  6
HIDDEN2
100
AcDbCircle
 10
-23.50000000000003
 20
-4.770000000000009
 30
0.0
 40
1.499999999999984
100
AcDbArc
 50
270.0
 51
0.0
  0
LINE
  5
1325
330
B93
100
AcDbEntity
  8
240
  6
Continuous
100
AcDbLine
 10
19.87499999999997
 20
-28.89759526419183
 30
0.0
 11
21.37749907475924
 21
-31.5
 31
0.0
  0
LINE
  5
1326
330
B93
100
AcDbEntity
  8
240
  6
Continuous
100
AcDbLine
 10
16.12499999999997
 20
-28.89759526419183
 30
0.0
 11
14.6225009252407
 21
-31.5
 31
0.0
  0
LINE
  5
1327
330
B93
100
AcDbEntity
  8
241
  6
Continuous
100
AcDbLine
 10
21.37749907475924
 20
-24.33618704727593
 30
0.0
 11
21.37749907475924
 21
-31.5
 31
0.0
  0
LINE
  5
1328
330
B93
100
AcDbEntity
  8
241
  6
Continuous
100
AcDbLine
 10
14.6225009252407
 20
-24.33618704727593
 30
0.0
 11
14.6225009252407
 21
-31.5
 31
0.0
  0
LINE
  5
1329
330
B93
100
AcDbEntity
  8
240
  6
Continuous
100
AcDbLine
 10
21.37749907475924
 20
-31.5
 30
0.0
 11
24.99999999999995
 21
-31.5
 31
0.0
  0
LINE
  5
132A
330
B93
100
AcDbEntity
  8
240
  6
Continuous
100
AcDbLine
 10
0.9999999999999715
 20
-31.50000000000003
 30
0.0
 11
14.6225009252407
 21
-31.5
 31
0.0
  0
LINE
  5
132B
330
B93
100
AcDbEntity
  8
241
  6
Continuous
100
AcDbLine
 10
12.99999999999997
 20
-8.0
 30
0.0
 11
26.0
 21
-8.0
 31
0.0
  0
LINE
  5
132C
330
B93
100
AcDbEntity
  8
241
  6
Continuous
100
AcDbLine
 10
21.37749907475924
 20
-24.33618704727593
 30
0.0
 11
25.99999999999997
 21
-24.33618704727593
 31
0.0
  0
LINE
  5
132D
330
B93
100
AcDbEntity
  8
241
  6
Continuous
100
AcDbLine
 10
19.87499999999997
 20
-20.0
 30
0.0
 11
25.99999999999997
 21
-20.0
 31
0.0
  0
LINE
  5
132E
330
B93
100
AcDbEntity
  8
240
  6
Continuous
100
AcDbLine
 10
-0.0000000000000284
 20
-30.50000000000003
 30
0.0
 11
0.0
 21
-24.215
 31
0.0
  0
ARC
  5
132F
330
B93
100
AcDbEntity
  8
240
  6
Continuous
100
AcDbCircle
 10
0.9999999999999715
 20
-30.50000000000003
 30
0.0
 40
1.0
100
AcDbArc
 50
180.0
 51
270.0
  0
ARC
  5
1330
330
B93
100
AcDbEntity
  8
241
  6
Continuous
100
AcDbCircle
 10
12.99999999999997
 20
0.0
 30
0.0
 40
8.0
100
AcDbArc
 50
180.0
 51
270.0
  0
LINE
  5
1331
330
B93
100
AcDbEntity
  8
241
  6
Continuous
100
AcDbLine
 10
-2.000000000000053
 20
-24.21499999999999
 30
0.0
 11
-2.000000000000025
 21
0.0
 31
0.0
  0
LINE
  5
1332
330
B93
100
AcDbEntity
  8
241
  6
Continuous
100
AcDbLine
 10
4.999999999999744
 20
-24.33618704727593
 30
0.0
 11
14.6225009252407
 21
-24.33618704727593
 31
0.0
  0
ARC
  5
1333
330
B93
100
AcDbEntity
  8
241
  6
Continuous
100
AcDbCircle
 10
12.11171390365561
 20
-28.0
 30
0.0
 40
8.0
100
AcDbArc
 50
90.0
 51
152.7433806908377
  0
LINE
  5
1334
330
B93
100
AcDbEntity
  8
241
  6
Continuous
100
AcDbLine
 10
14.6225009252407
 20
-8.0
 30
0.0
 11
14.6225009252407
 21
-20.0
 31
0.0
  0
LINE
  5
1335
330
B93
100
AcDbEntity
  8
241
  6
Continuous
100
AcDbLine
 10
16.12499999999997
 20
-8.0
 30
0.0
 11
16.12499999999997
 21
-27.5
 31
0.0
  0
LINE
  5
1336
330
B93
100
AcDbEntity
  8
241
  6
Continuous
100
AcDbLine
 10
19.87499999999997
 20
-8.0
 30
0.0
 11
19.87499999999997
 21
-27.49999999999976
 31
0.0
  0
LINE
  5
1337
330
B93
100
AcDbEntity
  8
241
  6
Continuous
100
AcDbLine
 10
21.37749907475924
 20
-8.0
 30
0.0
 11
21.37749907475924
 21
-20.0
 31
0.0
  0
LINE
  5
1338
330
B93
100
AcDbEntity
  8
241
  6
Continuous
100
AcDbLine
 10
14.6225009252407
 20
-24.33618704727593
 30
0.0
 11
16.12499999999997
 21
-20.85835592881284
 31
0.0
  0
LINE
  5
1339
330
B93
100
AcDbEntity
  8
241
  6
Continuous
100
AcDbLine
 10
12.11171390365561
 20
-20.0
 30
0.0
 11
16.12499999999997
 21
-20.0
 31
0.0
  0
LINE
  5
133A
330
B93
100
AcDbEntity
  8
240
  6
Continuous
100
AcDbLine
 10
16.12500000000139
 20
-27.5
 30
0.0
 11
19.87500000000295
 21
-27.49999999999926
 31
0.0
  0
LINE
  5
133B
330
B93
100
AcDbEntity
  8
240
  6
Continuous
100
AcDbLine
 10
16.12500000000139
 20
-27.5
 30
0.0
 11
16.12499999999997
 21
-28.89759526419183
 31
0.0
  0
LINE
  5
133C
330
B93
100
AcDbEntity
  8
240
  6
Continuous
100
AcDbLine
 10
19.87500000000295
 20
-27.49999999999926
 30
0.0
 11
19.87499999999997
 21
-28.89759526419183
 31
0.0
  0
LINE
  5
133D
330
B93
100
AcDbEntity
  8
241
  6
Continuous
100
AcDbLine
 10
21.37749907475924
 20
-24.33618704727593
 30
0.0
 11
19.87499999999997
 21
-20.85835592881284
 31
0.0
  0
LINE
  5
133E
330
B93
100
AcDbEntity
  8
245
  6
CENTER2
100
AcDbLine
 10
-9.000000000000023
 20
-4.75
 30
0.0
 11
-9.000000000000023
 21
4.75
 31
0.0
  0
LINE
  5
133F
330
B93
100
AcDbEntity
  8
241
100
AcDbLine
 10
26.00000000000032
 20
-25.0000000000004
 30
0.0
 11
26.00000000000028
 21
0.0000000000002842
 31
0.0
  0
LINE
  5
1340
330
B93
100
AcDbEntity
  8
240
  6
Continuous
100
AcDbLine
 10
25.99999999999994
 20
-30.5
 30
0.0
 11
26.0000000000004
 21
-25.00000000000054
 31
0.0
  0
ARC
  5
1341
330
B93
100
AcDbEntity
  8
240
  6
Continuous
100
AcDbCircle
 10
24.99999999999995
 20
-30.5
 30
0.0
 40
1.0
100
AcDbArc
 50
270.0
 51
0.0
  0
LINE
  5
1342
330
B93
100
AcDbEntity
  8
240
100
AcDbLine
 10
-2.000000000000053
 20
-24.21499999999999
 30
0.0
 11
0.0
 21
-24.215
 31
0.0
  0
LINE
  5
1343
330
B93
100
AcDbEntity
  8
241
100
AcDbLine
 10
0.0
 20
-24.2150000000007
 30
0.0
 11
0.0
 21
0.0
 31
0.0
  0
LINE
  5
1344
330
B93
100
AcDbEntity
  8
240
  6
Continuous
100
AcDbLine
 10
-2.000000000000083
 20
24.21499999999993
 30
0.0
 11
-30.85992514033269
 21
22.77200374298337
 31
0.0
  0
CIRCLE
  5
1345
330
B93
100
AcDbEntity
  8
241
  6
Continuous
100
AcDbCircle
 10
-9.000000000000023
 20
0.0
 30
0.0
 40
3.75
  0
LINE
  5
1346
330
B93
100
AcDbEntity
  8
240
  6
Continuous
100
AcDbLine
 10
-32.00000000000004
 20
21.57350093632993
 30
0.0
 11
-32.00000000000004
 21
7.269999999999754
 31
0.0
  0
ARC
  5
1347
330
B93
100
AcDbEntity
  8
240
  6
Continuous
100
AcDbCircle
 10
-30.80000000000004
 20
21.57350093632993
 30
0.0
 40
1.199999999999999
100
AcDbArc
 50
92.86240522611095
 51
180.0
  0
ARC
  5
1348
330
B93
100
AcDbEntity
  8
240
  6
Continuous
100
AcDbCircle
 10
-27.50000000000003
 20
4.770000000000009
 30
0.0
 40
1.499999999999984
100
AcDbArc
 50
0.0
 51
90.0
  0
LINE
  5
1349
330
B93
100
AcDbEntity
  8
241
  6
HIDDEN2
100
AcDbLine
 10
-27.50000000000003
 20
6.26999999999998
 30
0.0
 11
-23.50000000000003
 21
6.26999999999998
 31
0.0
  0
LINE
  5
134A
330
B93
100
AcDbEntity
  8
240
  6
Continuous
100
AcDbLine
 10
-31.00000000000026
 20
6.26999999999998
 30
0.0
 11
-27.50000000000003
 21
6.26999999999998
 31
0.0
  0
LINE
  5
134B
330
B93
100
AcDbEntity
  8
240
  6
Continuous
100
AcDbLine
 10
-32.00000000000004
 20
7.269999999999754
 30
0.0
 11
-31.00000000000026
 21
6.26999999999998
 31
0.0
  0
LINE
  5
134C
330
B93
100
AcDbEntity
  8
240
  6
Continuous
100
AcDbLine
 10
-26.00000000000003
 20
4.770000000000009
 30
0.0
 11
-26.00000000000003
 21
0.0
 31
0.0
  0
LINE
  5
134D
330
B93
100
AcDbEntity
  8
241
  6
HIDDEN2
100
AcDbLine
 10
-22.00000000000003
 20
4.770000000000009
 30
0.0
 11
-22.00000000000003
 21
0.0
 31
0.0
  0
ARC
  5
134E
330
B93
100
AcDbEntity
  8
241
  6
HIDDEN2
100
AcDbCircle
 10
-23.50000000000003
 20
4.770000000000009
 30
0.0
 40
1.499999999999984
100
AcDbArc
 50
0.0
 51
90.0
  0
LINE
  5
134F
330
B93
100
AcDbEntity
  8
240
  6
Continuous
100
AcDbLine
 10
-0.0000000000000284
 20
30.5
 30
0.0
 11
0.0
 21
24.215
 31
0.0
  0
ARC
  5
1350
330
B93
100
AcDbEntity
  8
240
  6
Continuous
100
AcDbCircle
 10
0.9999999999999715
 20
30.5
 30
0.0
 40
1.0
100
AcDbArc
 50
90.0
 51
180.0
  0
LINE
  5
1351
330
B93
100
AcDbEntity
  8
241
  6
Continuous
100
AcDbLine
 10
-2.000000000000053
 20
24.21499999999998
 30
0.0
 11
-2.000000000000025
 21
0.0
 31
0.0
  0
LINE
  5
1352
330
B93
100
AcDbEntity
  8
245
  6
CENTER2
100
AcDbLine
 10
-9.000000000000023
 20
4.75
 30
0.0
 11
-9.000000000000023
 21
-4.75
 31
0.0
  0
LINE
  5
1353
330
B93
100
AcDbEntity
  8
240
100
AcDbLine
 10
-2.000000000000053
 20
24.21499999999998
 30
0.0
 11
0.0
 21
24.215
 31
0.0
  0
LINE
  5
1354
330
B93
100
AcDbEntity
  8
241
100
AcDbLine
 10
0.0
 20
24.21500000000071
 30
0.0
 11
0.0
 21
0.0
 31
0.0
  0
LINE
  5
1355
330
B93
100
AcDbEntity
  8
240
  6
Continuous
100
AcDbLine
 10
0.9999999999999715
 20
31.5
 30
0.0
 11
14.6225009252407
 21
31.5
 31
0.0
  0
LINE
  5
1356
330
B93
100
AcDbEntity
  8
240
  6
Continuous
100
AcDbLine
 10
19.87499999999997
 20
28.89759526419183
 30
0.0
 11
21.37749907475924
 21
31.5
 31
0.0
  0
LINE
  5
1357
330
B93
100
AcDbEntity
  8
240
  6
Continuous
100
AcDbLine
 10
16.12499999999997
 20
28.89759526419183
 30
0.0
 11
14.6225009252407
 21
31.5
 31
0.0
  0
LINE
  5
1358
330
B93
100
AcDbEntity
  8
240
  6
Continuous
100
AcDbLine
 10
16.12500000000139
 20
27.5
 30
0.0
 11
19.87500000000295
 21
27.49999999999926
 31
0.0
  0
LINE
  5
1359
330
B93
100
AcDbEntity
  8
240
  6
Continuous
100
AcDbLine
 10
16.12500000000139
 20
27.5
 30
0.0
 11
16.12499999999997
 21
28.89759526419183
 31
0.0
  0
LINE
  5
135A
330
B93
100
AcDbEntity
  8
240
  6
Continuous
100
AcDbLine
 10
19.87500000000295
 20
27.49999999999926
 30
0.0
 11
19.87499999999997
 21
28.89759526419183
 31
0.0
  0
LINE
  5
135B
330
B93
100
AcDbEntity
  8
240
  6
Continuous
100
AcDbLine
 10
21.37749907475924
 20
31.5
 30
0.0
 11
24.99999999999995
 21
31.5
 31
0.0
  0
LINE
  5
135C
330
B93
100
AcDbEntity
  8
241
  6
Continuous
100
AcDbLine
 10
12.99999999999997
 20
8.0
 30
0.0
 11
26.00000000000032
 21
8.0
 31
0.0
  0
ARC
  5
135D
330
B93
100
AcDbEntity
  8
241
  6
Continuous
100
AcDbCircle
 10
12.99999999999997
 20
0.0
 30
0.0
 40
8.0
100
AcDbArc
 50
90.0
 51
180.0
  0
LINE
  5
135E
330
B93
100
AcDbEntity
  8
240
  6
Continuous
100
AcDbLine
 10
25.99999999999994
 20
30.5000000000001
 30
0.0
 11
26.00000000000071
 21
25.0000000000004
 31
0.0
  0
ARC
  5
135F
330
B93
100
AcDbEntity
  8
240
  6
Continuous
100
AcDbCircle
 10
24.99999999999995
 20
30.5
 30
0.0
 40
1.0
100
AcDbArc
 50
0.0000000000048853
 51
90.0
  0
LINE
  5
1360
330
B93
100
AcDbEntity
  8
241
100
AcDbLine
 10
26.00000000000032
 20
25.00000000000043
 30
0.0
 11
26.00000000000028
 21
-0.0000000000002842
 31
0.0
  0
LINE
  5
1361
330
B93
100
AcDbEntity
  8
241
  6
Continuous
100
AcDbLine
 10
14.6225009252407
 20
8.000000000000026
 30
0.0
 11
14.62250092524084
 21
31.50000000000034
 31
0.0
  0
LINE
  5
1362
330
B93
100
AcDbEntity
  8
241
  6
Continuous
100
AcDbLine
 10
16.12499999999997
 20
8.000000000000026
 30
0.0
 11
16.12499999999997
 21
27.50000000000003
 31
0.0
  0
LINE
  5
1363
330
B93
100
AcDbEntity
  8
241
  6
Continuous
100
AcDbLine
 10
19.87499999999997
 20
8.000000000000026
 30
0.0
 11
19.87499999999997
 21
27.49999999999977
 31
0.0
  0
LINE
  5
1364
330
B93
100
AcDbEntity
  8
241
  6
Continuous
100
AcDbLine
 10
21.37749907475924
 20
8.000000000000026
 30
0.0
 11
21.37749907475907
 21
31.50000000000034
 31
0.0
  0
LINE
  5
1365
330
B93
100
AcDbEntity
  8
240
  6
Continuous
100
AcDbLine
 10
34.00000000000029
 20
24.00000000000029
 30
0.0
 11
34.00000000000029
 21
13.00000000000014
 31
0.0
  0
ARC
  5
1366
330
B93
100
AcDbEntity
  8
240
100
AcDbCircle
 10
37.00000000000029
 20
13.00000000000014
 30
0.0
 40
3.0
100
AcDbArc
 50
180.0
 51
270.0
  0
LINE
  5
1367
330
B93
100
AcDbEntity
  8
240
  6
Continuous
100
AcDbLine
 10
26.00000000000071
 20
25.0000000000004
 30
0.0
 11
33.00000000000031
 21
25.00000000000028
 31
0.0
  0
ARC
  5
1368
330
B93
100
AcDbEntity
  8
240
  6
Continuous
100
AcDbCircle
 10
33.00000000000029
 20
24.00000000000029
 30
0.0
 40
1.0
100
AcDbArc
 50
0.0
 51
89.99999999999836
  0
LINE
  5
1369
330
B93
100
AcDbEntity
  8
240
  6
Continuous
100
AcDbLine
 10
34.00000000000029
 20
-24.00000000000029
 30
0.0
 11
34.00000000000029
 21
-13.00000000000061
 31
0.0
  0
ARC
  5
136A
330
B93
100
AcDbEntity
  8
240
100
AcDbCircle
 10
37.00000000000029
 20
-13.00000000000061
 30
0.0
 40
3.0
100
AcDbArc
 50
90.00000000000161
 51
180.0
  0
ARC
  5
136B
330
B93
100
AcDbEntity
  8
240
  6
Continuous
100
AcDbCircle
 10
33.00000000000029
 20
-24.00000000000029
 30
0.0
 40
1.0
100
AcDbArc
 50
270.0000000000017
 51
0.0
  0
LINE
  5
136C
330
B93
100
AcDbEntity
  8
240
  6
Continuous
100
AcDbLine
 10
26.0000000000004
 20
-25.00000000000054
 30
0.0
 11
33.00000000000031
 21
-25.00000000000028
 31
0.0
  0
LINE
  5
136D
330
B93
100
AcDbEntity
  8
241
100
AcDbLine
 10
34.00000000000031
 20
-13.00000000000062
 30
0.0
 11
34.00000000000029
 21
0.0
 31
0.0
  0
LINE
  5
136E
330
B93
100
AcDbEntity
  8
241
100
AcDbLine
 10
34.00000000000031
 20
13.00000000000062
 30
0.0
 11
34.00000000000029
 21
0.0
 31
0.0
  0
LINE
  5
136F
330
B93
100
AcDbEntity
  8
241
100
AcDbLine
 10
66.19999999999035
 20
-9.999999999999886
 30
0.0
 11
66.19999999999035
 21
0.0
 31
0.0
  0
LINE
  5
1370
330
B93
100
AcDbEntity
  8
241
100
AcDbLine
 10
64.9999999999903
 20
-10.0
 30
0.0
 11
64.9999999999903
 21
0.0
 31
0.0
  0
LINE
  5
1371
330
B93
100
AcDbEntity
  8
241
100
AcDbLine
 10
63.99999999999029
 20
-10.0
 30
0.0
 11
63.99999999999018
 21
0.0
 31
0.0
  0
LINE
  5
1372
330
B93
100
AcDbEntity
  8
241
100
AcDbLine
 10
62.79999999999048
 20
-10.0
 30
0.0
 11
62.79999999999048
 21
0.0
 31
0.0
  0
ARC
  5
1373
330
B93
100
AcDbEntity
  8
240
100
AcDbCircle
 10
76.99999999999393
 20
-8.999999999999772
 30
0.0
 40
1.0
100
AcDbArc
 50
270.0
 51
359.9999999999608
1001
GENIUS_GENOBJ-N-FIL_13
1002
{
1000
OWNER
1000
GEN
1002
}
1001
GENIUS_GENODEF_13
1002
{
1000
HIER
1070
     0
1002
}
1002
{
1000
MANEDIT
1070
     0
1002
}
1002
{
1000
NOSEL
1070
     0
1002
}
1002
{
1000
BEHIND
1070
     0
1002
}
1002
{
1000
OTHER
1070
     0
1002
}
1002
{
1000
REACTOR
1002
}
  0
LINE
  5
1374
330
B93
100
AcDbEntity
  8
240
100
AcDbLine
 10
76.99999999999396
 20
-9.999999999999698
 30
0.0
 11
37.00000000000023
 21
-10.00000000000054
 31
0.0
  0
LINE
  5
1375
330
B93
100
AcDbEntity
  8
240
100
AcDbLine
 10
76.99999999999396
 20
9.999999999999559
 30
0.0
 11
37.00000000000022
 21
10.00000000000046
 31
0.0
  0
ARC
  5
1376
330
B93
100
AcDbEntity
  8
240
100
AcDbCircle
 10
76.99999999999393
 20
8.999999999999772
 30
0.0
 40
1.0
100
AcDbArc
 50
0.0000000000390827
 51
90.0
1001
GENIUS_GENOBJ-N-FIL_13
1002
{
1000
OWNER
1000
GEN
1002
}
1001
GENIUS_GENODEF_13
1002
{
1000
HIER
1070
     0
1002
}
1002
{
1000
MANEDIT
1070
     0
1002
}
1002
{
1000
NOSEL
1070
     0
1002
}
1002
{
1000
BEHIND
1070
     0
1002
}
1002
{
1000
OTHER
1070
     0
1002
}
1002
{
1000
REACTOR
1002
}
  0
LINE
  5
1377
330
B93
100
AcDbEntity
  8
245
  6
CENTER2
100
AcDbLine
 10
57.999999999993
 20
7.499999999999986
 30
0.0
 11
57.999999999993
 21
12.49999999999999
 31
0.0
  0
LINE
  5
1378
330
B93
100
AcDbEntity
  8
241
100
AcDbLine
 10
66.19999999999035
 20
9.999999999999902
 30
0.0
 11
66.19999999999035
 21
0.0000000000000142
 31
0.0
  0
LINE
  5
1379
330
B93
100
AcDbEntity
  8
241
100
AcDbLine
 10
64.9999999999903
 20
10.00000000000001
 30
0.0
 11
64.9999999999903
 21
0.0000000000000142
 31
0.0
  0
LINE
  5
137A
330
B93
100
AcDbEntity
  8
241
100
AcDbLine
 10
63.99999999999029
 20
10.00000000000001
 30
0.0
 11
63.99999999999018
 21
0.0000000000000142
 31
0.0
  0
LINE
  5
137B
330
B93
100
AcDbEntity
  8
241
100
AcDbLine
 10
62.79999999999048
 20
10.00000000000001
 30
0.0
 11
62.79999999999048
 21
0.0000000000000142
 31
0.0
  0
LINE
  5
137C
330
B93
100
AcDbEntity
  8
241
  6
HIDDEN2
100
AcDbLine
 10
88.77004648037175
 20
5.250000096962367
 30
0.0
 11
85.49999847412108
 21
5.250000096962336
 31
0.0
1001
GRPNAME
1000
PASTMD0E
  0
LINE
  5
137D
330
B93
100
AcDbEntity
  8
241
  6
HIDDEN2
100
AcDbLine
 10
86.87600351162181
 20
2.700004674599
 30
0.0
 11
76.02004600353456
 21
2.700004674599084
 31
0.0
1001
GRPNAME
1000
PASTMD0E
  0
LINE
  5
137E
330
B93
100
AcDbEntity
  8
241
  6
HIDDEN2
100
AcDbLine
 10
88.46226688146597
 20
2.100000267502935
 30
0.0
 11
76.02000137090688
 21
2.100000267502936
 31
0.0
1001
GRPNAME
1000
PASTMD0K
  0
LINE
  5
137F
330
B93
100
AcDbEntity
  8
240
  6
Continuous
100
AcDbLine
 10
85.79999847412112
 20
6.150000711691887
 30
0.0
 11
87.49999847412111
 21
6.150000711691887
 31
0.0
1001
GRPNAME
1000
PASTMD0J
  0
LINE
  5
1380
330
B93
100
AcDbEntity
  8
240
  6
Continuous
100
AcDbLine
 10
85.79999847412112
 20
-6.150000711691887
 30
0.0
 11
87.49999847412112
 21
-6.150000711691879
 31
0.0
1001
GRPNAME
1000
PASTMD0J
  0
ARC
  5
1381
330
B93
100
AcDbEntity
  8
240
  6
Continuous
100
AcDbCircle
 10
85.05098670725685
 20
5.650000000000003
 30
0.0
 40
0.3999999999999821
100
AcDbArc
 50
209.9999999922866
 51
269.9999999922812
1001
GRPNAME
1000
PASTMD04
  0
LINE
  5
1382
330
B93
100
AcDbEntity
  8
241
  6
HIDDEN2
100
AcDbLine
 10
73.52004600353456
 20
3.000000096962366
 30
0.0
 11
76.02004600353456
 21
3.000000096962366
 31
0.0
1001
GRPNAME
1000
PASTMD0E
  0
LINE
  5
1383
330
B93
100
AcDbEntity
  8
241
  6
HIDDEN2
100
AcDbLine
 10
73.52004600353456
 20
3.000000096962366
 30
0.0
 11
73.52004600353456
 21
0.0
 31
0.0
1001
GRPNAME
1000
PASTMD0E
  0
LINE
  5
1384
330
B93
100
AcDbEntity
  8
241
  6
HIDDEN2
100
AcDbLine
 10
76.02000137090688
 20
3.000000096962366
 30
0.0
 11
76.02000137090688
 21
0.0
 31
0.0
1001
GRPNAME
1000
PASTMD0K
  0
ARC
  5
1385
330
B93
100
AcDbEntity
  8
240
  6
Continuous
100
AcDbCircle
 10
85.05098670725685
 20
-5.650000000000003
 30
0.0
 40
0.4000000000000057
100
AcDbArc
 50
90.00000006427468
 51
150.0000000642707
1001
GRPNAME
1000
PASTMD04
  0
LINE
  5
1386
330
B93
100
AcDbEntity
  8
240
  6
Continuous
100
AcDbLine
 10
85.05098670725685
 20
-5.249999903037917
 30
0.0
 11
85.49999847412113
 21
-5.249999903038865
 31
0.0
1001
GRPNAME
1000
PASTMD0E
  0
ARC
  5
1387
330
B93
100
AcDbEntity
  8
240
  6
Continuous
100
AcDbCircle
 10
85.79999847412112
 20
-5.84999994875244
 30
0.0
 40
0.3000000000000114
100
AcDbArc
 50
179.9999999845639
 51
270.0000006678135
1001
GRPNAME
1000
PASTMD0F
  0
LINE
  5
1388
330
B93
100
AcDbEntity
  8
240
  6
Continuous
100
AcDbLine
 10
84.70457654574301
 20
5.450000000000017
 30
0.0
 11
84.51717566032668
 21
5.774587854924532
 31
0.0
1001
GRPNAME
1000
PASTMD04
  0
ARC
  5
1389
330
B93
100
AcDbEntity
  8
240
  6
Continuous
100
AcDbCircle
 10
85.79999847412112
 20
5.84999994875244
 30
0.0
 40
0.3000000000000114
100
AcDbArc
 50
89.99999930646685
 51
179.999999994854
1001
GRPNAME
1000
PASTMD0J
  0
LINE
  5
138A
330
B93
100
AcDbEntity
  8
240
  6
Continuous
100
AcDbLine
 10
85.05098670725685
 20
5.250000096962452
 30
0.0
 11
85.49999847412109
 21
5.250000096963196
 31
0.0
1001
GRPNAME
1000
PASTMD0E
  0
LINE
  5
138B
330
B93
100
AcDbEntity
  8
241
  6
Continuous
100
AcDbLine
 10
88.69999847412108
 20
-6.000000711691882
 30
0.0
 11
88.69999847412108
 21
-0.0000000000000213
 31
0.0
1001
GRPNAME
1000
PASTMD0I
  0
LINE
  5
138C
330
B93
100
AcDbEntity
  8
241
  6
Continuous
100
AcDbLine
 10
87.49999847412111
 20
-6.150000711691887
 30
0.0
 11
87.49999847412111
 21
-0.000000000000021
 31
0.0
1001
GRPNAME
1000
PASTMD0J
  0
LINE
  5
138D
330
B93
100
AcDbEntity
  8
241
  6
HIDDEN2
100
AcDbLine
 10
89.02004648037175
 20
5.000000096962367
 30
0.0
 11
88.77004648037175
 21
5.250000096962367
 31
0.0
1001
GRPNAME
1000
PASTMD0E
  0
LINE
  5
138E
330
B93
100
AcDbEntity
  8
242
  6
HIDDEN2
100
AcDbLine
 10
89.52004648037172
 20
4.500000096962367
 30
0.0
 11
96.02004659958105
 21
4.500000096962367
 31
0.0
1001
GRPNAME
1000
PASTMD0E
  0
LINE
  5
138F
330
B93
100
AcDbEntity
  8
241
  6
HIDDEN2
100
AcDbLine
 10
95.52004659958098
 20
5.000000096962367
 30
0.0
 11
89.02004648037175
 21
5.000000096962367
 31
0.0
1001
GRPNAME
1000
PASTMD0E
  0
LINE
  5
1390
330
B93
100
AcDbEntity
  8
241
  6
HIDDEN2
100
AcDbLine
 10
86.87600351162181
 20
2.700004674599
 30
0.0
 11
96.55738672915234
 21
3.547016052520774
 31
0.0
1001
GRPNAME
1000
PASTMD0E
  0
LINE
  5
1391
330
B93
100
AcDbEntity
  8
241
  6
HIDDEN2
100
AcDbLine
 10
88.52000041723256
 20
2.000000005242495
 30
0.0
 11
98.50000000000004
 21
2.000000005242495
 31
0.0
1001
GRPNAME
1000
PASTMD0K
  0
LINE
  5
1392
330
B93
100
AcDbEntity
  8
240
  6
Continuous
100
AcDbLine
 10
87.7598060952565
 20
-6.000000711691882
 30
0.0
 11
99.00000000000005
 21
-6.000000711691882
 31
0.0
1001
GRPNAME
1000
PASTMD0F
  0
ARC
  5
1393
330
B93
100
AcDbEntity
  8
240
  6
Continuous
100
AcDbCircle
 10
99.00000000000005
 20
-5.000000711691882
 30
0.0
 40
1.0
100
AcDbArc
 50
270.0
 51
0.0000000000000891
1001
GRPNAME
1000
PASTMD0F
  0
LINE
  5
1394
330
B93
100
AcDbEntity
  8
242
  6
HIDDEN2
100
AcDbLine
 10
89.52004648037172
 20
4.500000096962367
 30
0.0
 11
89.02004648037175
 21
5.000000096962367
 31
0.0
1001
GRPNAME
1000
PASTMD0E
  0
LINE
  5
1395
330
B93
100
AcDbEntity
  8
241
  6
Continuous
100
AcDbLine
 10
88.52000041723256
 20
2.000000005242495
 30
0.0
 11
88.46226688146597
 21
2.100000267502935
 31
0.0
1001
GRPNAME
1000
PASTMD0K
  0
LINE
  5
1396
330
B93
100
AcDbEntity
  8
240
  6
Continuous
100
AcDbLine
 10
100.0
 20
-5.000000711691878
 30
0.0
 11
100.0
 21
-0.0000000000000241
 31
0.0
1001
GRPNAME
1000
PASTMD0F
  0
LINE
  5
1397
330
B93
100
AcDbEntity
  8
241
  6
HIDDEN2
100
AcDbLine
 10
98.10000225901609
 20
3.70000064897266
 30
0.0
 11
98.50000000000004
 21
3.299999123093753
 31
0.0
1001
GRPNAME
1000
PASTMD0K
  0
LINE
  5
1398
330
B93
100
AcDbEntity
  8
241
  6
HIDDEN2
100
AcDbLine
 10
95.52004659958098
 20
5.000000096962367
 30
0.0
 11
96.02004659958105
 21
4.500000096962367
 31
0.0
1001
GRPNAME
1000
PASTMD0E
  0
LINE
  5
1399
330
B93
100
AcDbEntity
  8
241
  6
HIDDEN2
100
AcDbLine
 10
96.02004659958105
 20
3.500004794980071
 30
0.0
 11
96.02004659958105
 21
4.500000096962367
 31
0.0
1001
GRPNAME
1000
PASTMD0E
  0
LINE
  5
139A
330
B93
100
AcDbEntity
  8
241
  6
HIDDEN2
100
AcDbLine
 10
96.55738672915234
 20
3.547016052520774
 30
0.0
 11
96.70000070333486
 21
3.299999123093753
 31
0.0
1001
GRPNAME
1000
PASTMD0K
  0
LINE
  5
139B
330
B93
100
AcDbEntity
  8
241
  6
HIDDEN2
100
AcDbLine
 10
96.70000070333486
 20
3.299999123093753
 30
0.0
 11
97.29999920725829
 21
3.299999123093753
 31
0.0
1001
GRPNAME
1000
PASTMD0K
  0
LINE
  5
139C
330
B93
100
AcDbEntity
  8
241
  6
HIDDEN2
100
AcDbLine
 10
97.70000074803832
 20
3.70000064897266
 30
0.0
 11
97.29999920725829
 21
3.299999123093753
 31
0.0
1001
GRPNAME
1000
PASTMD0K
  0
LINE
  5
139D
330
B93
100
AcDbEntity
  8
241
  6
HIDDEN2
100
AcDbLine
 10
97.70000074803832
 20
3.70000064897266
 30
0.0
 11
98.10000225901609
 21
3.70000064897266
 31
0.0
1001
GRPNAME
1000
PASTMD0K
  0
LINE
  5
139E
330
B93
100
AcDbEntity
  8
241
  6
HIDDEN2
100
AcDbLine
 10
98.50000000000004
 20
3.299999123093753
 30
0.0
 11
98.50000000000004
 21
0.0
 31
0.0
1001
GRPNAME
1000
PASTMD0K
  0
LINE
  5
139F
330
B93
100
AcDbEntity
  8
241
  6
HIDDEN2
100
AcDbLine
 10
99.50000000000004
 20
2.050000051247563
 30
0.0
 11
98.50000000000004
 21
2.05000005124757
 31
0.0
1001
GRPNAME
1000
PASTMD0F
  0
LINE
  5
13A0
330
B93
100
AcDbEntity
  8
241
  6
HIDDEN2
100
AcDbLine
 10
99.50000000000004
 20
2.050000051247563
 30
0.0
 11
100.0
 21
2.550000051247563
 31
0.0
1001
GRPNAME
1000
PASTMD0F
  0
LINE
  5
13A1
330
B93
100
AcDbEntity
  8
240
  6
Continuous
100
AcDbLine
 10
87.7598072391795
 20
6.000000051247577
 30
0.0
 11
99.00000000000005
 21
6.000000051247582
 31
0.0
1001
GRPNAME
1000
PASTMD0F
  0
ARC
  5
13A2
330
B93
100
AcDbEntity
  8
240
  6
Continuous
100
AcDbCircle
 10
99.00000000000005
 20
5.000000051247582
 30
0.0
 40
1.0
100
AcDbArc
 50
0.0
 51
90.0
1001
GRPNAME
1000
PASTMD0F
  0
LINE
  5
13A3
330
B93
100
AcDbEntity
  8
240
100
AcDbLine
 10
77.99999999999545
 20
6.749999999999983
 30
0.0
 11
83.66534546515545
 21
6.75
 31
0.0
  0
ARC
  5
13A4
330
B93
100
AcDbEntity
  8
240
100
AcDbCircle
 10
83.66534546515545
 20
6.25
 30
0.0
 40
0.5
100
AcDbArc
 50
30.00000000000361
 51
90.0
1001
GENIUS_GENODEF_13
1002
{
1000
HIER
1070
     0
1002
}
1002
{
1000
MANEDIT
1070
     0
1002
}
1002
{
1000
NOSEL
1070
     0
1002
}
1002
{
1000
BEHIND
1070
     0
1002
}
1002
{
1000
OTHER
1070
     0
1002
}
1002
{
1000
REACTOR
1002
}
1001
GENIUS_GENOBJ-N-FIL_13
1002
{
1000
OWNER
1000
GEN
1002
}
  0
LINE
  5
13A5
330
B93
100
AcDbEntity
  8
240
100
AcDbLine
 10
84.09835816704772
 20
6.5
 30
0.0
 11
84.70457594969703
 21
5.449999999999818
 31
0.0
  0
LINE
  5
13A6
330
B93
100
AcDbEntity
  8
240
100
AcDbLine
 10
84.09835816704772
 20
-6.500000000000111
 30
0.0
 11
84.70457594969703
 21
-5.450000000000045
 31
0.0
  0
ARC
  5
13A7
330
B93
100
AcDbEntity
  8
240
100
AcDbCircle
 10
83.66534546515545
 20
-6.25
 30
0.0
 40
0.5
100
AcDbArc
 50
270.0
 51
329.9999999999947
1001
GENIUS_GENODEF_13
1002
{
1000
HIER
1070
     0
1002
}
1002
{
1000
MANEDIT
1070
     0
1002
}
1002
{
1000
NOSEL
1070
     0
1002
}
1002
{
1000
BEHIND
1070
     0
1002
}
1002
{
1000
OTHER
1070
     0
1002
}
1002
{
1000
REACTOR
1002
}
1001
GENIUS_GENOBJ-N-FIL_13
1002
{
1000
OWNER
1000
GEN
1002
}
  0
LINE
  5
13A8
330
B93
100
AcDbEntity
  8
240
100
AcDbLine
 10
77.99999999999545
 20
-6.749999999999986
 30
0.0
 11
83.66534546515545
 21
-6.75
 31
0.0
  0
LINE
  5
13A9
330
B93
100
AcDbEntity
  8
241
100
AcDbLine
 10
83.95402059975022
 20
-3.649987813100096
 30
0.0
 11
83.95402059975022
 21
-3.092329219213068
 31
0.0
  0
ARC
  5
13AA
330
B93
100
AcDbEntity
  8
241
100
AcDbCircle
 10
73.12870305244809
 20
0.0
 30
0.0
 40
11.2583302491945
100
AcDbArc
 50
344.0576313943704
 51
0.0
  0
ARC
  5
13AB
330
B93
100
AcDbEntity
  8
241
100
AcDbCircle
 10
81.56016370188281
 20
-5.154118051782119
 30
0.0
 40
2.827182099261596
100
AcDbArc
 50
327.8576532445451
 51
32.14234675545815
  0
LINE
  5
13AC
330
B93
100
AcDbEntity
  8
241
100
AcDbLine
 10
83.95402059975022
 20
-3.649987813100209
 30
0.0
 11
77.99999999999755
 21
-3.649987813100205
 31
0.0
  0
LINE
  5
13AD
330
B93
100
AcDbEntity
  8
241
100
AcDbLine
 10
83.95402059974998
 20
-3.092329219213638
 30
0.0
 11
77.99999999999795
 21
-3.092329219213638
 31
0.0
  0
LINE
  5
13AE
330
B93
100
AcDbEntity
  8
241
100
AcDbLine
 10
83.95402059975022
 20
3.649987813100096
 30
0.0
 11
83.95402059975022
 21
3.092329219213068
 31
0.0
  0
ARC
  5
13AF
330
B93
100
AcDbEntity
  8
241
100
AcDbCircle
 10
73.12870305244809
 20
0.0
 30
0.0
 40
11.2583302491945
100
AcDbArc
 50
0.0
 51
15.94236860562958
  0
ARC
  5
13B0
330
B93
100
AcDbEntity
  8
241
100
AcDbCircle
 10
81.56016370188281
 20
5.154118051782119
 30
0.0
 40
2.827182099261596
100
AcDbArc
 50
327.8576532445419
 51
32.14234675545488
  0
LINE
  5
13B1
330
B93
100
AcDbEntity
  8
241
100
AcDbLine
 10
83.95402059975022
 20
3.649987813100209
 30
0.0
 11
78.00000000000254
 21
3.649987813100205
 31
0.0
  0
LINE
  5
13B2
330
B93
100
AcDbEntity
  8
241
100
AcDbLine
 10
83.95402059974998
 20
3.092329219213638
 30
0.0
 11
78.00000000000216
 21
3.092329219213638
 31
0.0
  0
LINE
  5
13B3
330
B93
100
AcDbEntity
  8
240
100
AcDbLine
 10
77.99999999999393
 20
9.000000000000452
 30
0.0
 11
77.99999999999545
 21
6.749999999999983
 31
0.0
  0
LINE
  5
13B4
330
B93
100
AcDbEntity
  8
241
100
AcDbLine
 10
77.99999999999549
 20
6.75
 30
0.0
 11
78.00000000000007
 21
0.0
 31
0.0
  0
LINE
  5
13B5
330
B93
100
AcDbEntity
  8
240
100
AcDbLine
 10
77.99999999999393
 20
-9.000000000000452
 30
0.0
 11
77.99999999999545
 21
-6.749999999999986
 31
0.0
  0
LINE
  5
13B6
330
B93
100
AcDbEntity
  8
241
100
AcDbLine
 10
77.99999999999545
 20
-6.75
 30
0.0
 11
78.00000000000007
 21
0.0
 31
0.0
  0
LINE
  5
13B7
330
B93
100
AcDbEntity
  8
240
  6
Continuous
100
AcDbLine
 10
85.49999847412111
 20
-5.84999994875244
 30
0.0
 11
85.49999847412113
 21
-5.249999903038828
 31
0.0
1001
GRPNAME
1000
PASTMD0F
  0
LINE
  5
13B8
330
B93
100
AcDbEntity
  8
241
  6
Continuous
100
AcDbLine
 10
85.49999847412113
 20
-5.249999903038865
 30
0.0
 11
85.49999847412113
 21
-0.0000000000000206
 31
0.0
1001
GRPNAME
1000
PASTMD0F
  0
LINE
  5
13B9
330
B93
100
AcDbEntity
  8
240
  6
Continuous
100
AcDbLine
 10
85.49999847412109
 20
5.250000096963196
 30
0.0
 11
85.49999847412111
 21
5.84999994875244
 31
0.0
1001
GRPNAME
1000
PASTMD0F
  0
LINE
  5
13BA
330
B93
100
AcDbEntity
  8
241
  6
Continuous
100
AcDbLine
 10
85.49999847412113
 20
5.249999903038824
 30
0.0
 11
85.49999847412113
 21
-0.0000000000000206
 31
0.0
1001
GRPNAME
1000
PASTMD0F
  0
LINE
  5
13BB
330
B93
100
AcDbEntity
  8
240
100
AcDbLine
 10
87.7598060952565
 20
-6.000000711691882
 30
0.0
 11
87.49999847412112
 21
-6.150000711691879
 31
0.0
  0
LINE
  5
13BC
330
B93
100
AcDbEntity
  8
240
100
AcDbLine
 10
87.7598072391795
 20
6.000000051247577
 30
0.0
 11
87.49999847412112
 21
6.150000711691836
 31
0.0
  0
LINE
  5
13BD
330
B93
100
AcDbEntity
  8
240
  6
Continuous
100
AcDbLine
 10
100.0
 20
5.000000711691831
 30
0.0
 11
100.0
 21
-0.0000000000000241
 31
0.0
1001
GRPNAME
1000
PASTMD0F
  0
LINE
  5
13BE
330
B93
100
AcDbEntity
  8
241
  6
Continuous
100
AcDbLine
 10
88.69999847412108
 20
6.000000711691837
 30
0.0
 11
88.69999847412108
 21
-0.0000000000000213
 31
0.0
1001
GRPNAME
1000
PASTMD0I
  0
LINE
  5
13BF
330
B93
100
AcDbEntity
  8
241
  6
Continuous
100
AcDbLine
 10
87.49999847412111
 20
6.150000711691843
 30
0.0
 11
87.49999847412111
 21
-0.000000000000021
 31
0.0
1001
GRPNAME
1000
PASTMD0J
  0
ENDBLK
  5
B95
330
B93
100
AcDbEntity
  8
0
100
AcDbBlockEnd
  0
BLOCK
  5
E4F
330
E45
100
AcDbEntity
  8
0
100
AcDbBlockBegin
  2
*D4
 70
     1
 10
0.0
 20
0.0
 30
0.0
  3
*D4
  1

  0
LINE
  5
10FA
330
E45
100
AcDbEntity
  8
250
  6
Continuous
 62
     3
370
    -2
100
AcDbLine
 10
99.50000000000004
 20
-6.000000710000024
 30
0.0
 11
119.5
 21
-6.000000710000028
 31
0.0
  0
LINE
  5
10FB
330
E45
100
AcDbEntity
  8
250
  6
Continuous
 62
     3
370
    -2
100
AcDbLine
 10
99.50000000000004
 20
6.000000049999973
 30
0.0
 11
119.5
 21
6.000000049999968
 31
0.0
  0
LINE
  5
10FC
330
E45
100
AcDbEntity
  8
250
  6
Continuous
 62
     3
370
    -2
100
AcDbLine
 10
118.5
 20
-3.770000710000028
 30
0.0
 11
118.5
 21
3.77000004999997
 31
0.0
  0
INSERT
  5
10FD
330
E45
100
AcDbEntity
  8
250
  6
Continuous
 62
     3
370
    -2
100
AcDbBlockReference
  2
_Open
 10
118.5
 20
-6.000000710000028
 30
0.0
 41
2.229999999999999
 42
2.229999999999999
 43
2.229999999999999
 50
270.0
  0
INSERT
  5
10FE
330
E45
100
AcDbEntity
  8
250
  6
Continuous
 62
     3
370
    -2
100
AcDbBlockReference
  2
_Open
 10
118.5
 20
6.000000049999968
 30
0.0
 41
2.229999999999999
 42
2.229999999999999
 43
2.229999999999999
 50
90.0
  0
MTEXT
  5
10FF
330
E45
100
AcDbEntity
  8
250
  6
Continuous
 62
    40
100
AcDbMText
 10
116.0
 20
-0.0000003300000237
 30
0.0
 40
2.799999999999998
 41
0.0
 71
     5
 72
     1
  1
\A1;{\H3;\U+2205}12
 11
0.0000000000000001
 21
1.0
 31
0.0
 73
     1
 44
1.0
1001
ACAD
1000
MTEXTBEGIN
1070
    73
1070
     1
1070
    44
1040
1.0
1070
    74
1070
     0
1000
MTEXTEND
  0
POINT
  5
1100
330
E45
100
AcDbEntity
  8
Defpoints
  6
Continuous
 62
     0
100
AcDbPoint
 10
99.00000000000005
 20
-6.000000710000024
 30
0.0
  0
POINT
  5
1101
330
E45
100
AcDbEntity
  8
Defpoints
  6
Continuous
 62
     0
100
AcDbPoint
 10
99.00000000000005
 20
6.000000049999973
 30
0.0
  0
POINT
  5
1102
330
E45
100
AcDbEntity
  8
Defpoints
  6
Continuous
 62
     0
100
AcDbPoint
 10
118.5
 20
6.000000049999968
 30
0.0
  0
ENDBLK
  5
E50
330
E45
100
AcDbEntity
  8
0
100
AcDbBlockEnd
  0
BLOCK
  5
E5B
330
E51
100
AcDbEntity
  8
0
100
AcDbBlockBegin
  2
*D5
 70
     1
 10
0.0
 20
0.0
 30
0.0
  3
*D5
  1

  0
LINE
  5
10E8
330
E51
100
AcDbEntity
  8
250
  6
Continuous
100
AcDbLine
 10
76.49999999999393
 20
-9.999999999999772
 30
0.0
 11
70.67809037108344
 21
-9.999999999999769
 31
0.0
  0
LINE
  5
10E9
330
E51
100
AcDbEntity
  8
250
  6
Continuous
100
AcDbLine
 10
76.49999999999393
 20
9.999999999999772
 30
0.0
 11
70.67809037108344
 21
9.999999999999772
 31
0.0
  0
LINE
  5
10EA
330
E51
100
AcDbEntity
  8
250
  6
Continuous
100
AcDbLine
 10
71.67809037108344
 20
-7.999999999999769
 30
0.0
 11
71.67809037108344
 21
7.999999999999773
 31
0.0
  0
INSERT
  5
10EB
330
E51
100
AcDbEntity
  8
250
  6
Continuous
100
AcDbBlockReference
  2
_Open
 10
71.67809037108344
 20
-9.999999999999769
 30
0.0
 41
2.0
 42
2.0
 43
2.0
 50
270.0
  0
INSERT
  5
10EC
330
E51
100
AcDbEntity
  8
250
  6
Continuous
100
AcDbBlockReference
  2
_Open
 10
71.67809037108344
 20
9.999999999999772
 30
0.0
 41
2.0
 42
2.0
 43
2.0
 50
90.0
  0
MTEXT
  5
10ED
330
E51
100
AcDbEntity
  8
250
  6
Continuous
 62
    40
370
    -3
100
AcDbMText
 10
69.27809037108343
 20
-1.132658164737277
 30
0.0
 40
2.799999999999998
 41
0.0
 71
     5
 72
     1
  1
\A1;{\H2.8;%%C}20
 11
0.0000000000000001
 21
1.0
 31
0.0
 73
     1
 44
1.0
1001
ACAD
1000
MTEXTBEGIN
1070
    73
1070
     1
1070
    44
1040
1.0
1070
    74
1070
     0
1000
MTEXTEND
  0
POINT
  5
10EE
330
E51
100
AcDbEntity
  8
Defpoints
  6
Continuous
 62
     0
100
AcDbPoint
 10
76.99999999999393
 20
-9.999999999999772
 30
0.0
  0
POINT
  5
10EF
330
E51
100
AcDbEntity
  8
Defpoints
  6
Continuous
 62
     0
100
AcDbPoint
 10
76.99999999999393
 20
9.999999999999772
 30
0.0
  0
POINT
  5
10F0
330
E51
100
AcDbEntity
  8
Defpoints
  6
Continuous
 62
     0
100
AcDbPoint
 10
71.67809037108344
 20
9.999999999999772
 30
0.0
  0
ENDBLK
  5
E5C
330
E51
100
AcDbEntity
  8
0
100
AcDbBlockEnd
  0
BLOCK
  5
E73
330
E69
100
AcDbEntity
  8
0
100
AcDbBlockBegin
  2
*D6
 70
     1
 10
0.0
 20
0.0
 30
0.0
  3
*D6
  1

  0
LINE
  5
10F1
330
E69
100
AcDbEntity
  8
250
  6
Continuous
100
AcDbLine
 10
77.99999999999393
 20
9.500000000000452
 30
0.0
 11
77.99999999999393
 21
36.0
 31
0.0
  0
LINE
  5
10F2
330
E69
100
AcDbEntity
  8
250
  6
Continuous
100
AcDbLine
 10
100.0
 20
5.500000051247582
 30
0.0
 11
100.0
 21
36.0
 31
0.0
  0
LINE
  5
10F3
330
E69
100
AcDbEntity
  8
250
  6
Continuous
100
AcDbLine
 10
79.99999999999393
 20
35.0
 30
0.0
 11
98.0
 21
35.0
 31
0.0
  0
INSERT
  5
10F4
330
E69
100
AcDbEntity
  8
250
  6
Continuous
100
AcDbBlockReference
  2
_Open
 10
77.99999999999393
 20
35.0
 30
0.0
 41
2.0
 42
2.0
 43
2.0
 50
180.0
  0
INSERT
  5
10F5
330
E69
100
AcDbEntity
  8
250
  6
Continuous
100
AcDbBlockReference
  2
_Open
 10
100.0
 20
35.0
 30
0.0
 41
2.0
 42
2.0
 43
2.0
  0
MTEXT
  5
10F6
330
E69
100
AcDbEntity
  8
250
  6
Continuous
 62
    40
370
    -3
100
AcDbMText
 10
88.99999999999694
 20
37.4
 30
0.0
 40
2.799999999999998
 41
0.0
 71
     5
 72
     1
  1
\A1;22
 73
     1
 44
1.0
1001
ACAD
1000
MTEXTBEGIN
1070
    73
1070
     1
1070
    44
1040
1.0
1070
    74
1070
     0
1000
MTEXTEND
  0
POINT
  5
10F7
330
E69
100
AcDbEntity
  8
Defpoints
  6
Continuous
 62
     0
100
AcDbPoint
 10
77.99999999999393
 20
9.000000000000452
 30
0.0
  0
POINT
  5
10F8
330
E69
100
AcDbEntity
  8
Defpoints
  6
Continuous
 62
     0
100
AcDbPoint
 10
100.0
 20
5.000000051247583
 30
0.0
  0
POINT
  5
10F9
330
E69
100
AcDbEntity
  8
Defpoints
  6
Continuous
 62
     0
100
AcDbPoint
 10
100.0
 20
35.0
 30
0.0
  0
ENDBLK
  5
E74
330
E69
100
AcDbEntity
  8
0
100
AcDbBlockEnd
  0
BLOCK
  5
10A6
330
109C
100
AcDbEntity
  8
0
370
    -3
100
AcDbBlockBegin
  2
*D7
 70
     1
 10
0.0
 20
0.0
 30
0.0
  3
*D7
  1

  0
LINE
  5
1103
330
109C
100
AcDbEntity
  8
250
  6
Continuous
 62
     3
370
    -2
100
AcDbLine
 10
34.00000000000029
 20
24.50000000000029
 30
0.0
 11
34.00000000000029
 21
43.0
 31
0.0
  0
LINE
  5
1104
330
109C
100
AcDbEntity
  8
250
  6
Continuous
 62
     3
370
    -2
100
AcDbLine
 10
100.0
 20
5.500000051247582
 30
0.0
 11
100.0
 21
43.0
 31
0.0
  0
LINE
  5
1105
330
109C
100
AcDbEntity
  8
250
  6
Continuous
 62
     3
370
    -2
100
AcDbLine
 10
36.00000000000029
 20
42.0
 30
0.0
 11
98.00000000000004
 21
42.0
 31
0.0
  0
INSERT
  5
1106
330
109C
100
AcDbEntity
  8
250
  6
Continuous
 62
     3
370
    -2
100
AcDbBlockReference
  2
_Open
 10
34.00000000000029
 20
42.0
 30
0.0
 41
2.0
 42
2.0
 43
2.0
 50
180.0
  0
INSERT
  5
1107
330
109C
100
AcDbEntity
  8
250
  6
Continuous
 62
     3
370
    -2
100
AcDbBlockReference
  2
_Open
 10
100.0
 20
42.0
 30
0.0
 41
2.0
 42
2.0
 43
2.0
  0
MTEXT
  5
1108
330
109C
100
AcDbEntity
  8
250
  6
Continuous
 62
    40
370
    -3
100
AcDbMText
 10
67.00000000000017
 20
44.4
 30
0.0
 40
2.799999999999998
 41
0.0
 71
     5
 72
     1
  1
\A1;66
 73
     1
 44
1.0
1001
ACAD
1000
MTEXTBEGIN
1070
    73
1070
     1
1070
    44
1040
1.0
1070
    74
1070
     0
1000
MTEXTEND
  0
POINT
  5
1109
330
109C
100
AcDbEntity
  8
Defpoints
  6
Continuous
 62
     0
100
AcDbPoint
 10
34.00000000000029
 20
24.00000000000029
 30
0.0
  0
POINT
  5
110A
330
109C
100
AcDbEntity
  8
Defpoints
  6
Continuous
 62
     0
100
AcDbPoint
 10
100.0
 20
5.000000051247582
 30
0.0
  0
POINT
  5
110B
330
109C
100
AcDbEntity
  8
Defpoints
  6
Continuous
 62
     0
100
AcDbPoint
 10
100.0
 20
42.0
 30
0.0
  0
ENDBLK
  5
10A7
330
109C
100
AcDbEntity
  8
0
370
    -3
100
AcDbBlockEnd
  0
ENDSEC
  0
SECTION
  2
ENTITIES
  0
INSERT
  5
6E6
330
1A
100
AcDbEntity
  8
245
100
AcDbBlockReference
  2
矢印なし
 10
175.6238269664377
 20
90.55123571690598
 30
0.0
  0
DIMENSION
  5
A6B
330
1A
100
AcDbEntity
  8
250
  6
Continuous
370
    -3
100
AcDbDimension
  2
*D2
 10
100.0
 20
48.99999999999991
 30
0.0
 11
50.0
 21
51.39999999999989
 31
0.0
 70
    32
 71
     5
 42
100.0
  3
BIGT
100
AcDbAlignedDimension
 13
-0.0000000000000284
 23
30.5
 33
0.0
 14
100.0
 24
5.000000711691831
 34
0.0
100
AcDbRotatedDimension
1001
ACAD
1000
DSTYLE
1002
{
1070
    41
1040
2.0
1002
}
  0
LEADER
  5
A6C
330
1A
100
AcDbEntity
  8
250
  6
Continuous
370
    -3
100
AcDbLeader
  3
BIGT
 76
     2
 10
-12.21919124458964
 20
-23.70404043777046
 30
0.0
 10
-18.73003204287318
 20
-34.98114750038985
 30
0.0
1001
ACAD
1000
DSTYLE
1002
{
1070
     3
1000
<>
1070
    41
1040
2.0
1070
   288
1070
     1
1070
   289
1070
     0
1002
}
  0
MTEXT
  5
A6D
330
1A
100
AcDbEntity
  8
250
  6
Continuous
 62
    40
370
    -3
100
AcDbMText
 10
-40.19669870953983
 20
-33.98114750038985
 30
0.0
 40
2.799999999999998
 41
0.0
 71
     7
 72
     1
  1
HSK-A63
  7
YOKO
 73
     1
 44
1.0
1001
ITEMNAME
1000
LNSP3
1001
ACAD
1000
MTEXTBEGIN
1070
    73
1070
     1
1070
    44
1040
1.0
1070
    74
1070
     0
1000
MTEXTEND
  0
LINE
  5
A6E
330
1A
100
AcDbEntity
  8
250
  6
Continuous
370
    -3
100
AcDbLine
 10
-18.73003204287318
 20
-34.98114750038985
 30
0.0
 11
-42.99669870953984
 21
-34.98114750038985
 31
0.0
1001
ITEMNAME
1000
LNSP2
  0
TEXT
  5
A6F
330
1A
100
AcDbEntity
  8
241
  6
Continuous
100
AcDbText
 10
-32.00000000000004
 20
63.0
 30
0.0
 40
5.0
  1
HSK-A63-MGT3-100
  7
YOKO
 11
-32.00000000000004
 21
63.0
 31
0.0
100
AcDbText
 73
     1
  0
LEADER
  5
B6B
102
{ACAD_REACTORS
330
B6E
102
}
330
1A
100
AcDbEntity
  8
250
  6
Continuous
370
    -3
100
AcDbLeader
  3
BIGT
 76
     2
 10
73.84727983400228
 20
9.999999999999726
 30
0.0
 10
80.27478405792718
 20
21.13276388170135
 30
0.0
1001
ACAD
1000
DSTYLE
1002
{
1070
    41
1040
2.0
1002
}
  0
MTEXT
  5
B6C
102
{ACAD_REACTORS
330
B6E
102
}
330
1A
100
AcDbEntity
  8
250
  6
Continuous
 62
    40
370
    -3
100
AcDbMText
 10
83.0747840579272
 20
22.13276388170135
 30
0.0
 40
2.799999999999998
 41
0.0
 71
     7
 72
     1
  1
MGT3
  7
YOKO
 73
     1
 44
1.0
1001
ITEMNAME
1000
LNSP3
1001
ACAD
1000
MTEXTBEGIN
1070
    73
1070
     1
1070
    44
1040
1.0
1070
    74
1070
     0
1000
MTEXTEND
  0
LINE
  5
B6D
102
{ACAD_REACTORS
330
B6E
102
}
330
1A
100
AcDbEntity
  8
250
  6
Continuous
370
    -3
100
AcDbLine
 10
80.27478405792718
 20
21.13276388170135
 30
0.0
 11
95.74145072459387
 21
21.13276388170135
 31
0.0
1001
ITEMNAME
1000
LNSP2
  0
DIMENSION
  5
DE0
330
1A
100
AcDbEntity
  8
250
  6
Continuous
370
    -3
100
AcDbDimension
  2
*D5
 10
71.67809037108344
 20
9.999999999999772
 30
0.0
 11
71.67809037108344
 21
-1.132658164737279
 31
0.0
 70
   160
  1
{\H2.8;%%C}<>
 71
     5
 42
19.99999999999953
  3
BIGT
100
AcDbAlignedDimension
 13
76.99999999999393
 23
-9.999999999999772
 33
0.0
 14
76.99999999999393
 24
9.999999999999772
 34
0.0
 50
90.0
100
AcDbRotatedDimension
1001
ACAD
1000
DSTYLE
1002
{
1070
    41
1040
2.0
1002
}
  0
DIMENSION
  5
DE5
330
1A
100
AcDbEntity
  8
250
  6
Continuous
370
    -3
100
AcDbDimension
  2
*D6
 10
100.0
 20
35.0
 30
0.0
 11
88.99999999999694
 21
35.0
 31
0.0
 70
   160
 71
     5
 42
22.00000000000607
  3
BIGT
100
AcDbAlignedDimension
 13
77.99999999999393
 23
9.000000000000452
 33
0.0
 14
100.0
 24
5.000000051247583
 34
0.0
100
AcDbRotatedDimension
1001
ACAD
1000
DSTYLE
1002
{
1070
    41
1040
2.0
1070
   140
1040
2.799999999999998
1002
}
  0
MTEXT
  5
DE6
330
1A
100
AcDbEntity
  8
250
  6
Continuous
 62
    40
100
AcDbMText
 10
109.0
 20
-0.000000000000024
 30
0.0
 40
3.0
 41
0.0
 71
     5
 72
     1
  1
max.φ4
 11
0.0
 21
1.0
 31
0.0
 73
     1
 44
1.0
1001
ITEMNAME
1000
DI010
1001
ACAD
1000
MTEXTBEGIN
1070
    73
1070
     1
1070
    44
1040
1.0
1070
    74
1070
     0
1000
MTEXTEND
  0
INSERT
  5
DE7
330
1A
100
AcDbEntity
  8
250
  6
Continuous
 62
     3
100
AcDbBlockReference
  2
_Open
 10
111.5
 20
2.000000009999975
 30
0.0
 41
2.229999999999999
 42
2.229999999999999
 43
2.229999999999999
 50
90.0
  0
LINE
  5
DE8
330
1A
100
AcDbEntity
  8
250
  6
Continuous
 62
     3
100
AcDbLine
 10
111.5
 20
2.000000009999975
 30
0.0
 11
111.5
 21
-4.736302310000023
 31
0.0
  0
LINE
  5
DE9
330
1A
100
AcDbEntity
  8
250
  6
Continuous
 62
     3
100
AcDbLine
 10
98.70000073000005
 20
2.000000009999975
 30
0.0
 11
112.5
 21
2.000000009999975
 31
0.0
  0
DIMENSION
  5
DEA
330
1A
100
AcDbEntity
  8
250
  6
Continuous
100
AcDbDimension
  2
*D4
 10
118.5
 20
6.000000049999968
 30
0.0
 11
118.5
 21
-0.000000330000024
 31
0.0
 70
   160
  1
{\H3;\U+2205}<>
 71
     5
 42
12.00000076
  3
BIGT$0
100
AcDbAlignedDimension
 13
99.00000000000005
 23
-6.000000710000024
 33
0.0
 14
99.00000000000005
 24
6.000000049999973
 34
0.0
 50
90.0
100
AcDbRotatedDimension
1001
ACAD
1000
DSTYLE
1002
{
1070
   140
1040
2.799999999999998
1002
}
  0
DIMENSION
  5
109B
330
1A
100
AcDbEntity
  8
250
  6
Continuous
370
    -3
100
AcDbDimension
  2
*D7
 10
100.0
 20
42.0
 30
0.0
 11
67.00000000000017
 21
44.4
 31
0.0
 70
    32
 71
     5
 42
65.99999999999974
  3
BIGT$0
100
AcDbAlignedDimension
 13
34.00000000000029
 23
24.00000000000029
 33
0.0
 14
100.0
 24
5.000000051247582
 34
0.0
100
AcDbRotatedDimension
1001
ACAD
1000
DSTYLE
1002
{
1070
    41
1040
2.0
1070
   140
1040
2.799999999999998
1002
}
  0
LEADER
  5
10AE
102
{ACAD_REACTORS
330
10B1
102
}
330
1A
100
AcDbEntity
  8
250
  6
Continuous
370
    -3
100
AcDbLeader
  3
BIGT
 76
     2
 10
94.93917063151542
 20
6.00000005124758
 30
0.0
 10
103.5924590557059
 20
20.98793525449315
 30
0.0
1001
ACAD
1000
DSTYLE
1002
{
1070
    41
1040
2.0
1070
   140
1040
2.799999999999998
1002
}
  0
MTEXT
  5
10AF
102
{ACAD_REACTORS
330
10B1
102
}
330
1A
100
AcDbEntity
  8
250
  6
Continuous
 62
    40
370
    -3
100
AcDbMText
 10
106.3924590557059
 20
21.98793525449315
 30
0.0
 40
2.799999999999998
 41
0.0
 71
     7
 72
     1
  1
NBC4S
  7
YOKO
 73
     1
 44
1.0
1001
ITEMNAME
1000
LNSP3
1001
ACAD
1000
MTEXTBEGIN
1070
    73
1070
     1
1070
    44
1040
1.0
1070
    74
1070
     0
1000
MTEXTEND
  0
LINE
  5
10B0
102
{ACAD_REACTORS
330
10B1
102
}
330
1A
100
AcDbEntity
  8
250
  6
Continuous
370
    -3
100
AcDbLine
 10
103.5924590557059
 20
20.98793525449315
 30
0.0
 11
122.1257923890392
 21
20.98793525449315
 31
0.0
1001
ITEMNAME
1000
LNSP2
  0
INSERT
  5
13C0
330
1A
100
AcDbEntity
  8
245
100
AcDbBlockReference
  2
1
 10
0.0
 20
0.0
 30
0.0
  0
VIEWPORT
  5
22
102
{ACAD_XDICTIONARY
360
13CB
102
}
330
17
100
AcDbEntity
 67
     1
  8
0
100
AcDbViewport
 10
261.5176991150442
 20
148.5
 30
0.0
 40
523.0353982300885
 41
297.0
 68
     1
 69
     1
 12
261.5176991150442
 22
148.5
 13
0.0
 23
0.0
 14
1.0
 24
1.0
 15
10.0
 25
10.0
 16
0.0
 26
0.0
 36
1.0
 17
0.0
 27
0.0
 37
0.0
 42
50.0
 43
0.0
 44
0.0
 45
297.0
 50
0.0
 51
0.0
 72
   100
 90
    32800
  1

281
     0
 71
     1
 74
     0
110
0.0
120
0.0
130
0.0
111
1.0
121
0.0
131
0.0
112
0.0
122
1.0
132
0.0
 79
     0
146
0.0
  0
ENDSEC
  0
SECTION
  2
OBJECTS
  0
DICTIONARY
  5
C
330
0
100
AcDbDictionary
281
     1
  3
ACAD_COLOR
350
791
  3
ACAD_GROUP
350
D
  3
ACAD_LAYOUT
350
565
  3
ACAD_MATERIAL
350
77C
  3
ACAD_MLINESTYLE
350
E
  3
ACAD_PLOTSETTINGS
350
566
  3
ACAD_PLOTSTYLENAME
350
563
  3
ACAD_TABLESTYLE
350
792
  3
ACAD_VISUALSTYLE
350
780
  3
AcDbVariableDictionary
350
C0A
  3
DWGPROPS
350
13CA
  3
GRADE_DWG
350
540
  0
DICTIONARY
  5
7AB
330
2
100
AcDbDictionary
280
     1
281
     1
  3
ACAD_LAYERSTATES
360
7AC
  0
DICTIONARY
  5
B04
330
1A
100
AcDbDictionary
280
     1
281
     1
  3
ACAD_SORTENTS
360
B05
  0
DICTIONARY
  5
13CB
330
22
100
AcDbDictionary
280
     1
281
     1
  3
ACAD_XREC_ROUNDTRIP
360
13CC
  0
DICTIONARY
  5
791
102
{ACAD_REACTORS
330
C
102
}
330
C
100
AcDbDictionary
281
     1
  0
DICTIONARY
  5
D
102
{ACAD_REACTORS
330
C
102
}
330
C
100
AcDbDictionary
281
     1
  3
*A1
350
6C7
  3
*A2
350
6C8
  3
*A3
350
6D4
  3
*A4
350
6D5
  3
DREC-1
350
5FC
  3
DREC-2
350
654
  3
DREC-3
350
673
  3
LNSP-1
350
B6E
  3
LNSP-2
350
10AC
  3
LNSP-3
350
10B1
  0
DICTIONARY
  5
565
102
{ACAD_REACTORS
330
C
102
}
330
C
100
AcDbDictionary
281
     1
  3
Model
350
567
  3
ﾚｲｱｳﾄ1
350
568
  0
DICTIONARY
  5
77C
102
{ACAD_REACTORS
330
C
102
}
330
C
100
AcDbDictionary
281
     1
  3
ByBlock
350
77E
  3
ByLayer
350
77D
  3
Global
350
77F
  0
DICTIONARY
  5
E
102
{ACAD_REACTORS
330
C
102
}
330
C
100
AcDbDictionary
281
     1
  3
STANDARD
350
13
  0
DICTIONARY
  5
566
102
{ACAD_REACTORS
330
C
102
}
330
C
100
AcDbDictionary
281
     1
  3
A3(0.5倍)
350
772
  3
A3(1倍)
350
773
  3
A3(1倍)(2000)
350
774
  3
A3(2倍)
350
775
  3
A4(0.5倍)
350
776
  3
A4(1倍)
350
777
  3
A4(1倍)(2000)
350
778
  3
A4(2倍)
350
779
  0
ACDBDICTIONARYWDFLT
  5
563
102
{ACAD_REACTORS
330
C
102
}
330
C
100
AcDbDictionary
281
     1
  3
Normal
350
564
100
AcDbDictionaryWithDefault
340
564
  0
DICTIONARY
  5
792
102
{ACAD_REACTORS
330
C
102
}
330
C
100
AcDbDictionary
281
     1
  3
Standard
350
793
  0
DICTIONARY
  5
780
102
{ACAD_REACTORS
330
C
102
}
330
C
100
AcDbDictionary
281
     1
  3
2dWireframe
350
786
  3
3D Hidden
350
788
  3
3dWireframe
350
787
  3
Basic
350
785
  3
Brighten
350
78C
  3
ColorChange
350
790
  3
Conceptual
350
789
  3
Dim
350
78B
  3
Facepattern
350
78F
  3
Flat
350
781
  3
FlatWithEdges
350
782
  3
Gouraud
350
783
  3
GouraudWithEdges
350
784
  3
Linepattern
350
78E
  3
Realistic
350
78A
  3
Thicken
350
78D
  0
DICTIONARY
  5
C0A
102
{ACAD_REACTORS
330
C
102
}
330
C
100
AcDbDictionary
281
     1
  3
CTABLESTYLE
350
C0B
  3
DIMASSOC
350
C0E
  3
INDEXCTL
350
C0D
  3
SORTENTS
350
C0C
  0
XRECORD
  5
13CA
102
{ACAD_REACTORS
330
C
102
}
330
C
100
AcDbXrecord
280
     1
  1
DWGPROPS COOKIE
  2

  3

  4

  6

  7

  8
AWTEC
  9

300
=
301
=
302
=
303
=
304
=
305
=
306
=
307
=
308
=
309
=
 40
0.01413375
 41
2456454.408923785
 42
2457014.659485671
  1

 90
        0
  0
DICTIONARY
  5
540
102
{ACAD_REACTORS
330
C
102
}
330
C
100
AcDbDictionary
281
     1
  3
VERSION
350
560
  0
DICTIONARY
  5
7AC
102
{ACAD_REACTORS
330
7AB
102
}
330
7AB
100
AcDbDictionary
281
     1
  0
SORTENTSTABLE
  5
B05
102
{ACAD_REACTORS
330
B04
102
}
330
B04
100
AcDbSortentsTable
330
1A
331
B6C
  5
B6C
331
DE9
  5
DE9
331
DE0
  5
DE0
331
A6E
  5
A6E
331
A6C
  5
A6C
331
6E6
  5
6E6
331
DE7
  5
DE7
331
DE5
  5
DE5
331
10AE
  5
10AE
331
B6D
  5
B6D
331
DEA
  5
DEA
331
B6B
  5
B6B
331
A6F
  5
A6F
331
DE8
  5
DE8
331
A6D
  5
A6D
331
A6B
  5
A6B
331
109B
  5
109B
331
10B0
  5
10B0
331
DE6
  5
DE6
331
10AF
  5
10AF
  0
XRECORD
  5
13CC
102
{ACAD_REACTORS
330
13CB
102
}
330
13CB
100
AcDbXrecord
280
     1
102
SHADEPLOT
 70
     0
  0
GROUP
  5
6C7
102
{ACAD_REACTORS
330
D
102
}
330
D
100
AcDbGroup
300

 70
     0
 71
     1
1001
GRPNAME
1000
DMA00
  0
GROUP
  5
6C8
102
{ACAD_REACTORS
330
D
102
}
330
D
100
AcDbGroup
300

 70
     0
 71
     1
1001
GRPNAME
1000
DMA00
  0
GROUP
  5
6D4
102
{ACAD_REACTORS
330
D
102
}
330
D
100
AcDbGroup
300

 70
     0
 71
     1
1001
GRPNAME
1000
DMA00
  0
GROUP
  5
6D5
102
{ACAD_REACTORS
330
D
102
}
330
D
100
AcDbGroup
300

 70
     0
 71
     1
1001
GRPNAME
1000
DMA00
  0
GROUP
  5
5FC
102
{ACAD_REACTORS
330
D
102
}
330
D
100
AcDbGroup
300

 70
     0
 71
     1
1001
GRPNAME
1000
DREC-
1001
GPARA
1000
xsiz
1000
44.182
1000
ysiz
1000
40.677
1000
angl
1000
0
1000
ctyp
1000
0
1000
csiz
1000
5
1000
lfnt
1000
cont
1000
hcnt
1000
hoff
1000
vcnt
1000
voff
1000
opnt
1000
4
1000
dxpt
1000
0
1000
dypt
1000
0
  0
GROUP
  5
654
102
{ACAD_REACTORS
330
D
102
}
330
D
100
AcDbGroup
300

 70
     0
 71
     1
1001
GRPNAME
1000
DREC-
1001
GPARA
1000
xsiz
1000
54.592
1000
ysiz
1000
53.036
1000
angl
1000
0
1000
ctyp
1000
0
1000
csiz
1000
5
1000
lfnt
1000
cont
1000
hcnt
1000
hoff
1000
vcnt
1000
voff
1000
opnt
1000
4
1000
dxpt
1000
0
1000
dypt
1000
0
  0
GROUP
  5
673
102
{ACAD_REACTORS
330
D
102
}
330
D
100
AcDbGroup
300

 70
     0
 71
     1
1001
GRPNAME
1000
DREC-
1001
GPARA
1000
xsiz
1000
30.363
1000
ysiz
1000
36.175
1000
angl
1000
0
1000
ctyp
1000
0
1000
csiz
1000
5
1000
lfnt
1000
cont
1000
hcnt
1000
hoff
1000
vcnt
1000
voff
1000
opnt
1000
4
1000
dxpt
1000
0
1000
dypt
1000
0
  0
GROUP
  5
B6E
102
{ACAD_REACTORS
330
D
102
}
330
D
100
AcDbGroup
300

 70
     0
 71
     1
340
B6B
340
B6C
340
B6D
1001
GRPNAME
1000
LNSP
  0
GROUP
  5
10AC
102
{ACAD_REACTORS
330
D
102
}
330
D
100
AcDbGroup
300

 70
     0
 71
     1
1001
GRPNAME
1000
LNSP
  0
GROUP
  5
10B1
102
{ACAD_REACTORS
330
D
102
}
330
D
100
AcDbGroup
300

 70
     0
 71
     1
340
10AE
340
10AF
340
10B0
1001
GRPNAME
1000
LNSP
  0
LAYOUT
  5
567
102
{ACAD_XDICTIONARY
360
13CD
102
}
102
{ACAD_REACTORS
330
565
102
}
330
565
100
AcDbPlotSettings
  1

  2
Canon LBP5610
  4
A4
  6

 40
5.789083003997802
 41
5.789072513580322
 42
5.789077758789062
 43
5.789093017578125
 44
209.9733276367186
 45
296.9259948730469
 46
51.20017852635763
 47
55.64625636829578
 48
0.0
 49
0.0
140
0.0
141
0.0
142
1.0
143
1.0
 70
 11956
 72
     1
 73
     1
 74
     1
  7
big.ctb
 75
    16
147
1.0
148
43.00707379375035
149
34.98862316131539
100
AcDbLayout
  1
Model
 70
     1
 71
     0
 10
0.0
 20
0.0
 11
12.0
 21
9.0
 12
0.0
 22
0.0
 32
0.0
 14
0.0
 24
0.0
 34
0.0
 15
0.0
 25
0.0
 35
0.0
146
0.0
 13
0.0
 23
0.0
 33
0.0
 16
1.0
 26
0.0
 36
0.0
 17
0.0
 27
1.0
 37
0.0
 76
     0
330
1A
331
77A
1001
ACAD_PSEXT
1000
Canon LBP5610
1000
Canon LBP5610
1000
IP_192.168.120.151
1000

1070
     0
  0
LAYOUT
  5
568
102
{ACAD_XDICTIONARY
360
13CF
102
}
102
{ACAD_REACTORS
330
565
102
}
330
565
100
AcDbPlotSettings
  1

  2
\\ICHIRO\FX Able Model-PRII ART4-ADV
  4

  6

 40
0.0
 41
0.0
 42
0.0
 43
0.0
 44
0.0
 45
0.0
 46
0.0
 47
0.0
 48
0.0
 49
0.0
140
0.0
141
0.0
142
1.0
143
1.0
 70
   688
 72
     0
 73
     0
 74
     5
  7
big.ctb
 75
    16
147
1.0
148
0.0
149
0.0
100
AcDbLayout
  1
ﾚｲｱｳﾄ1
 70
     1
 71
     1
 10
0.0
 20
0.0
 11
420.0
 21
297.0
 12
0.0
 22
0.0
 32
0.0
 14
1.000000000000000E+20
 24
1.000000000000000E+20
 34
1.000000000000000E+20
 15
-1.000000000000000E+20
 25
-1.000000000000000E+20
 35
-1.000000000000000E+20
146
0.0
 13
0.0
 23
0.0
 33
0.0
 16
1.0
 26
0.0
 36
0.0
 17
0.0
 27
1.0
 37
0.0
 76
     0
330
17
331
22
  0
MATERIAL
  5
77E
102
{ACAD_XDICTIONARY
360
C28
102
}
102
{ACAD_REACTORS
330
77C
102
}
330
77C
100
AcDbMaterial
  1
ByBlock
  0
MATERIAL
  5
77D
102
{ACAD_XDICTIONARY
360
C26
102
}
102
{ACAD_REACTORS
330
77C
102
}
330
77C
100
AcDbMaterial
  1
ByLayer
  0
MATERIAL
  5
77F
102
{ACAD_XDICTIONARY
360
C2A
102
}
102
{ACAD_REACTORS
330
77C
102
}
330
77C
100
AcDbMaterial
  1
Global
  0
MLINESTYLE
  5
13
102
{ACAD_REACTORS
330
E
102
}
330
E
100
AcDbMlineStyle
  2
STANDARD
 70
     0
  3

 62
     0
 51
90.0
 52
90.0
 71
     2
 49
0.5
 62
   256
  6
BYLAYER
 49
-0.5
 62
   256
  6
BYLAYER
  0
PLOTSETTINGS
  5
772
102
{ACAD_XDICTIONARY
360
13D1
102
}
102
{ACAD_REACTORS
330
566
102
}
330
566
100
AcDbPlotSettings
  1
A3(0.5倍)
  2
Canon LBP5600.pc3
  4
A3
  6

 40
5.873749732971191
 41
5.873747825622557
 42
5.873748779296875
 43
5.873748779296875
 44
296.9259948730469
 45
419.9466552734373
 46
90.09
 47
129.85
 48
0.0
 49
0.0
140
0.0
141
0.0
142
1.0
143
2.0
 70
  1716
 72
     1
 73
     1
 74
     2
  7
big.ctb
 75
    17
147
0.5
148
0.0
149
0.0
  0
PLOTSETTINGS
  5
773
102
{ACAD_XDICTIONARY
360
13D3
102
}
102
{ACAD_REACTORS
330
566
102
}
330
566
100
AcDbPlotSettings
  1
A3(1倍)
  2
Canon LBP5600.pc3
  4
A3
  6

 40
5.873749732971191
 41
5.873747825622557
 42
5.873748779296875
 43
5.873748779296875
 44
296.9259948730469
 45
419.9466552734373
 46
37.59
 47
55.6
 48
0.0
 49
0.0
140
0.0
141
0.0
142
1.0
143
1.0
 70
  1716
 72
     1
 73
     1
 74
     2
  7
big.ctb
 75
    16
147
1.0
148
0.0
149
0.0
  0
PLOTSETTINGS
  5
774
102
{ACAD_XDICTIONARY
360
13D5
102
}
102
{ACAD_REACTORS
330
566
102
}
330
566
100
AcDbPlotSettings
  1
A3(1倍)(2000)
  2
Canon LBP5600.pc3
  4
A3
  6

 40
5.873749732971191
 41
5.873747825622557
 42
5.873748779296875
 43
5.873748779296875
 44
296.9259948730469
 45
419.9466552734373
 46
37.59
 47
55.6
 48
0.0
 49
0.0
140
0.0
141
0.0
142
1.0
143
1.0
 70
  1716
 72
     1
 73
     1
 74
     2
  7
big.ctb
 75
    16
147
1.0
148
0.0
149
0.0
  0
PLOTSETTINGS
  5
775
102
{ACAD_XDICTIONARY
360
13D7
102
}
102
{ACAD_REACTORS
330
566
102
}
330
566
100
AcDbPlotSettings
  1
A3(2倍)
  2
Canon LBP5600.pc3
  4
A3
  6

 40
5.873749732971191
 41
5.873747825622557
 42
5.873748779296875
 43
5.873748779296875
 44
296.9259948730469
 45
419.9466552734373
 46
-67.40999999999999
 47
-92.9
 48
0.0
 49
0.0
140
0.0
141
0.0
142
1.0
143
0.5
 70
  1716
 72
     1
 73
     1
 74
     2
  7
big.ctb
 75
    27
147
2.0
148
0.0
149
0.0
  0
PLOTSETTINGS
  5
776
102
{ACAD_XDICTIONARY
360
13D9
102
}
102
{ACAD_REACTORS
330
566
102
}
330
566
100
AcDbPlotSettings
  1
A4(0.5倍)
  2
Canon LBP5600.pc3
  4
A3
  6

 40
5.873749732971191
 41
5.873747825622557
 42
5.873748779296875
 43
5.873748779296875
 44
296.9259948730469
 45
419.9466552734373
 46
90.09
 47
129.85
 48
0.0
 49
0.0
140
0.0
141
0.0
142
1.0
143
2.0
 70
  1716
 72
     1
 73
     1
 74
     2
  7
big.ctb
 75
    17
147
0.5
148
0.0
149
0.0
  0
PLOTSETTINGS
  5
777
102
{ACAD_XDICTIONARY
360
13DB
102
}
102
{ACAD_REACTORS
330
566
102
}
330
566
100
AcDbPlotSettings
  1
A4(1倍)
  2
Canon LBP5600.pc3
  4
A3
  6

 40
5.873749732971191
 41
5.873747825622557
 42
5.873748779296875
 43
5.873748779296875
 44
296.9259948730469
 45
419.9466552734373
 46
37.59
 47
55.6
 48
0.0
 49
0.0
140
0.0
141
0.0
142
1.0
143
1.0
 70
  1716
 72
     1
 73
     1
 74
     2
  7
big.ctb
 75
    16
147
1.0
148
0.0
149
0.0
  0
PLOTSETTINGS
  5
778
102
{ACAD_XDICTIONARY
360
13DD
102
}
102
{ACAD_REACTORS
330
566
102
}
330
566
100
AcDbPlotSettings
  1
A4(1倍)(2000)
  2
Canon LBP5600.pc3
  4
A3
  6

 40
5.873749732971191
 41
5.873747825622557
 42
5.873748779296875
 43
5.873748779296875
 44
296.9259948730469
 45
419.9466552734373
 46
37.59
 47
55.6
 48
0.0
 49
0.0
140
0.0
141
0.0
142
1.0
143
1.0
 70
  1716
 72
     1
 73
     1
 74
     2
  7
big.ctb
 75
    16
147
1.0
148
0.0
149
0.0
  0
PLOTSETTINGS
  5
779
102
{ACAD_XDICTIONARY
360
13DF
102
}
102
{ACAD_REACTORS
330
566
102
}
330
566
100
AcDbPlotSettings
  1
A4(2倍)
  2
Canon LBP5600.pc3
  4
A3
  6

 40
5.873749732971191
 41
5.873747825622557
 42
5.873748779296875
 43
5.873748779296875
 44
296.9259948730469
 45
419.9466552734373
 46
-67.40999999999999
 47
-92.9
 48
0.0
 49
0.0
140
0.0
141
0.0
142
1.0
143
0.5
 70
  1716
 72
     1
 73
     1
 74
     2
  7
big.ctb
 75
    27
147
2.0
148
0.0
149
0.0
  0
ACDBPLACEHOLDER
  5
564
102
{ACAD_REACTORS
330
563
102
}
330
563
  0
TABLESTYLE
  5
793
102
{ACAD_XDICTIONARY
360
13E1
102
}
102
{ACAD_REACTORS
330
792
102
}
330
792
100
AcDbTableStyle
  3
Standard
 70
     0
 71
     0
 40
1.5
 41
1.5
280
     0
281
     0
  7
STANDARD
140
4.5
170
     2
 62
     0
 63
     7
283
     0
274
    -2
284
     1
 64
     0
275
    -2
285
     1
 65
     0
276
    -2
286
     1
 66
     0
277
    -2
287
     1
 67
     0
278
    -2
288
     1
 68
     0
279
    -2
289
     1
 69
     0
  7
STANDARD
140
6.0
170
     5
 62
     0
 63
     7
283
     0
274
    -2
284
     1
 64
     0
275
    -2
285
     1
 65
     0
276
    -2
286
     1
 66
     0
277
    -2
287
     1
 67
     0
278
    -2
288
     1
 68
     0
279
    -2
289
     1
 69
     0
  7
STANDARD
140
4.5
170
     5
 62
     0
 63
     7
283
     0
274
    -2
284
     1
 64
     0
275
    -2
285
     1
 65
     0
276
    -2
286
     1
 66
     0
277
    -2
287
     1
 67
     0
278
    -2
288
     1
 68
     0
279
    -2
289
     1
 69
     0
  0
VISUALSTYLE
  5
786
102
{ACAD_REACTORS
330
780
102
}
330
780
100
AcDbVisualStyle
  2
2dWireframe
 70
     4
 71
     0
 72
     2
 73
     0
 90
        0
 40
-0.6
 41
-30.0
 62
     5
 63
     7
 74
     1
 91
        4
 64
     7
 65
   257
 75
     1
175
     1
 42
1.0
 92
        0
 66
   257
 43
1.0
 76
     1
 77
     6
 78
     2
 67
     7
 79
     5
170
     0
171
     0
290
     0
174
     0
 93
        1
 44
0.0
173
     0
291
     0
 45
0.0
1001
ACAD
1000
AcDbSavedByObjectVersion
1070
     0
1000
AcDbSavedByObjectVersion
1070
     0
1000
AcDbSavedByObjectVersion
1070
     0
1000
AcDbSavedByObjectVersion
1070
     0
  0
VISUALSTYLE
  5
788
102
{ACAD_REACTORS
330
780
102
}
330
780
100
AcDbVisualStyle
  2
3D Hidden
 70
     6
 71
     1
 72
     2
 73
     2
 90
        0
 40
-0.6
 41
-30.0
 62
     5
 63
     7
 74
     2
 91
        2
 64
     7
 65
   257
 75
     2
175
     1
 42
40.0
 92
        0
 66
   257
 43
1.0
 76
     1
 77
     6
 78
     2
 67
     7
 79
     3
170
     0
171
     0
290
     0
174
     0
 93
        1
 44
0.0
173
     0
291
     0
 45
0.0
1001
ACAD
1000
AcDbSavedByObjectVersion
1070
     0
1000
AcDbSavedByObjectVersion
1070
     0
1000
AcDbSavedByObjectVersion
1070
     0
1000
AcDbSavedByObjectVersion
1070
     0
  0
VISUALSTYLE
  5
787
102
{ACAD_REACTORS
330
780
102
}
330
780
100
AcDbVisualStyle
  2
3dWireframe
 70
     5
 71
     0
 72
     2
 73
     0
 90
        0
 40
-0.6
 41
-30.0
 62
     5
 63
     7
 74
     1
 91
        4
 64
     7
 65
   257
 75
     1
175
     1
 42
1.0
 92
        0
 66
   257
 43
1.0
 76
     1
 77
     6
 78
     2
 67
     7
 79
     5
170
     0
171
     0
290
     0
174
     0
 93
        1
 44
0.0
173
     0
291
     0
 45
0.0
1001
ACAD
1000
AcDbSavedByObjectVersion
1070
     0
1000
AcDbSavedByObjectVersion
1070
     0
1000
AcDbSavedByObjectVersion
1070
     0
1000
AcDbSavedByObjectVersion
1070
     0
  0
VISUALSTYLE
  5
785
102
{ACAD_REACTORS
330
780
102
}
330
780
100
AcDbVisualStyle
  2
Basic
 70
     7
 71
     1
 72
     0
 73
     1
 90
        0
 40
-0.6
 41
-30.0
 62
     5
 63
     7
 74
     0
 91
        4
 64
     7
 65
   257
 75
     1
175
     1
 42
1.0
 92
        8
 66
     7
 43
1.0
 76
     1
 77
     6
 78
     2
 67
     7
 79
     5
170
     0
171
     0
290
     0
174
     0
 93
        1
 44
0.0
173
     0
291
     1
 45
0.0
1001
ACAD
1000
AcDbSavedByObjectVersion
1070
     0
1000
AcDbSavedByObjectVersion
1070
     0
1000
AcDbSavedByObjectVersion
1070
     0
1000
AcDbSavedByObjectVersion
1070
     0
  0
VISUALSTYLE
  5
78C
102
{ACAD_REACTORS
330
780
102
}
330
780
100
AcDbVisualStyle
  2
Brighten
 70
    12
 71
     2
 72
     2
 73
     0
 90
        0
 40
-0.6
 41
-30.0
 62
     5
 63
     7
 74
     1
 91
        4
 64
     7
 65
   257
 75
     1
175
     1
 42
1.0
 92
        8
 66
     7
 43
1.0
 76
     1
 77
     6
 78
     2
 67
     7
 79
     5
170
     0
171
     0
290
     0
174
     0
 93
        1
 44
50.0
173
     0
291
     1
 45
0.0
1001
ACAD
1000
AcDbSavedByObjectVersion
1070
     0
1000
AcDbSavedByObjectVersion
1070
     0
1000
AcDbSavedByObjectVersion
1070
     0
1000
AcDbSavedByObjectVersion
1070
     0
  0
VISUALSTYLE
  5
790
102
{ACAD_REACTORS
330
780
102
}
330
780
100
AcDbVisualStyle
  2
ColorChange
 70
    16
 71
     2
 72
     2
 73
     3
 90
        0
 40
-0.6
 41
-30.0
 62
     5
 63
     8
 74
     1
 91
        4
 64
     7
 65
   257
 75
     1
175
     1
 42
1.0
 92
        8
 66
     8
 43
1.0
 76
     1
 77
     6
 78
     2
 67
     7
 79
     5
170
     0
171
     0
290
     0
174
     0
 93
        1
 44
0.0
173
     0
291
     1
 45
0.0
1001
ACAD
1000
AcDbSavedByObjectVersion
1070
     0
1000
AcDbSavedByObjectVersion
1070
     0
1000
AcDbSavedByObjectVersion
1070
     0
1000
AcDbSavedByObjectVersion
1070
     0
  0
VISUALSTYLE
  5
789
102
{ACAD_REACTORS
330
780
102
}
330
780
100
AcDbVisualStyle
  2
Conceptual
 70
     9
 71
     3
 72
     2
 73
     0
 90
        0
 40
-0.6
 41
-30.0
 62
     5
 63
     7
 74
     2
 91
        2
 64
     7
 65
   257
 75
     1
175
     1
 42
40.0
 92
        8
 66
     7
 43
1.0
 76
     1
 77
     6
 78
     2
 67
     7
 79
     3
170
     0
171
     0
290
     0
174
     0
 93
        1
 44
0.0
173
     0
291
     0
 45
0.0
1001
ACAD
1000
AcDbSavedByObjectVersion
1070
     0
1000
AcDbSavedByObjectVersion
1070
     0
1000
AcDbSavedByObjectVersion
1070
     0
1000
AcDbSavedByObjectVersion
1070
     0
  0
VISUALSTYLE
  5
78B
102
{ACAD_REACTORS
330
780
102
}
330
780
100
AcDbVisualStyle
  2
Dim
 70
    11
 71
     2
 72
     2
 73
     0
 90
        0
 40
-0.6
 41
-30.0
 62
     5
 63
     7
 74
     1
 91
        4
 64
     7
 65
   257
 75
     1
175
     1
 42
1.0
 92
        8
 66
     7
 43
1.0
 76
     1
 77
     6
 78
     2
 67
     7
 79
     5
170
     0
171
     0
290
     0
174
     0
 93
        1
 44
-50.0
173
     0
291
     1
 45
0.0
1001
ACAD
1000
AcDbSavedByObjectVersion
1070
     0
1000
AcDbSavedByObjectVersion
1070
     0
1000
AcDbSavedByObjectVersion
1070
     0
1000
AcDbSavedByObjectVersion
1070
     0
  0
VISUALSTYLE
  5
78F
102
{ACAD_REACTORS
330
780
102
}
330
780
100
AcDbVisualStyle
  2
Facepattern
 70
    15
 71
     2
 72
     2
 73
     0
 90
        0
 40
-0.6
 41
-30.0
 62
     5
 63
     7
 74
     1
 91
        4
 64
     7
 65
   257
 75
     1
175
     1
 42
1.0
 92
        8
 66
     7
 43
1.0
 76
     1
 77
     6
 78
     2
 67
     7
 79
     5
170
     0
171
     0
290
     0
174
     0
 93
        1
 44
0.0
173
     0
291
     1
 45
0.0
1001
ACAD
1000
AcDbSavedByObjectVersion
1070
     0
1000
AcDbSavedByObjectVersion
1070
     0
1000
AcDbSavedByObjectVersion
1070
     0
1000
AcDbSavedByObjectVersion
1070
     0
  0
VISUALSTYLE
  5
781
102
{ACAD_REACTORS
330
780
102
}
330
780
100
AcDbVisualStyle
  2
Flat
 70
     0
 71
     2
 72
     1
 73
     1
 90
        2
 40
-0.6
 41
30.0
 62
     5
 63
     7
 74
     0
 91
        4
 64
     7
 65
   257
 75
     1
175
     1
 42
1.0
 92
        8
 66
     7
 43
1.0
 76
     1
 77
     6
 78
     2
 67
     7
 79
     5
170
     0
171
     0
290
     0
174
     0
 93
       13
 44
0.0
173
     0
291
     1
 45
0.0
1001
ACAD
1000
AcDbSavedByObjectVersion
1070
     0
1000
AcDbSavedByObjectVersion
1070
     0
1000
AcDbSavedByObjectVersion
1070
     0
1000
AcDbSavedByObjectVersion
1070
     0
  0
VISUALSTYLE
  5
782
102
{ACAD_REACTORS
330
780
102
}
330
780
100
AcDbVisualStyle
  2
FlatWithEdges
 70
     1
 71
     2
 72
     1
 73
     1
 90
        2
 40
-0.6
 41
30.0
 62
     5
 63
     7
 74
     1
 91
        4
 64
     7
 65
   257
 75
     1
175
     1
 42
1.0
 92
        0
 66
   257
 43
1.0
 76
     1
 77
     6
 78
     2
 67
     7
 79
     5
170
     0
171
     0
290
     0
174
     0
 93
       13
 44
0.0
173
     0
291
     1
 45
0.0
1001
ACAD
1000
AcDbSavedByObjectVersion
1070
     0
1000
AcDbSavedByObjectVersion
1070
     0
1000
AcDbSavedByObjectVersion
1070
     0
1000
AcDbSavedByObjectVersion
1070
     0
  0
VISUALSTYLE
  5
783
102
{ACAD_REACTORS
330
780
102
}
330
780
100
AcDbVisualStyle
  2
Gouraud
 70
     2
 71
     2
 72
     2
 73
     1
 90
        2
 40
-0.6
 41
30.0
 62
     5
 63
     7
 74
     0
 91
        4
 64
     7
 65
   257
 75
     1
175
     1
 42
1.0
 92
        0
 66
     7
 43
1.0
 76
     1
 77
     6
 78
     2
 67
     7
 79
     5
170
     0
171
     0
290
     0
174
     0
 93
       13
 44
0.0
173
     0
291
     1
 45
0.0
1001
ACAD
1000
AcDbSavedByObjectVersion
1070
     0
1000
AcDbSavedByObjectVersion
1070
     0
1000
AcDbSavedByObjectVersion
1070
     0
1000
AcDbSavedByObjectVersion
1070
     0
  0
VISUALSTYLE
  5
784
102
{ACAD_REACTORS
330
780
102
}
330
780
100
AcDbVisualStyle
  2
GouraudWithEdges
 70
     3
 71
     2
 72
     2
 73
     1
 90
        2
 40
-0.6
 41
30.0
 62
     5
 63
     7
 74
     1
 91
        4
 64
     7
 65
   257
 75
     1
175
     1
 42
1.0
 92
        0
 66
   257
 43
1.0
 76
     1
 77
     6
 78
     2
 67
     7
 79
     5
170
     0
171
     0
290
     0
174
     0
 93
       13
 44
0.0
173
     0
291
     1
 45
0.0
1001
ACAD
1000
AcDbSavedByObjectVersion
1070
     0
1000
AcDbSavedByObjectVersion
1070
     0
1000
AcDbSavedByObjectVersion
1070
     0
1000
AcDbSavedByObjectVersion
1070
     0
  0
VISUALSTYLE
  5
78E
102
{ACAD_REACTORS
330
780
102
}
330
780
100
AcDbVisualStyle
  2
Linepattern
 70
    14
 71
     2
 72
     2
 73
     0
 90
        0
 40
-0.6
 41
-30.0
 62
     5
 63
     7
 74
     1
 91
        4
 64
     7
 65
   257
 75
     7
175
     7
 42
1.0
 92
        8
 66
     7
 43
1.0
 76
     1
 77
     6
 78
     2
 67
     7
 79
     5
170
     0
171
     0
290
     0
174
     0
 93
        1
 44
0.0
173
     0
291
     1
 45
0.0
1001
ACAD
1000
AcDbSavedByObjectVersion
1070
     0
1000
AcDbSavedByObjectVersion
1070
     0
1000
AcDbSavedByObjectVersion
1070
     0
1000
AcDbSavedByObjectVersion
1070
     0
  0
VISUALSTYLE
  5
78A
102
{ACAD_REACTORS
330
780
102
}
330
780
100
AcDbVisualStyle
  2
Realistic
 70
     8
 71
     2
 72
     2
 73
     0
 90
        0
 40
-0.6
 41
-30.0
 62
     5
 63
     7
 74
     1
 91
        0
 64
     7
 65
   257
 75
     1
175
     1
 42
1.0
 92
        8
 66
     8
 43
1.0
 76
     1
 77
     6
 78
     2
 67
     7
 79
     5
170
     0
171
     0
290
     0
174
     0
 93
       13
 44
0.0
173
     0
291
     0
 45
0.0
1001
ACAD
1000
AcDbSavedByObjectVersion
1070
     0
1000
AcDbSavedByObjectVersion
1070
     0
1000
AcDbSavedByObjectVersion
1070
     0
1000
AcDbSavedByObjectVersion
1070
     0
  0
VISUALSTYLE
  5
78D
102
{ACAD_REACTORS
330
780
102
}
330
780
100
AcDbVisualStyle
  2
Thicken
 70
    13
 71
     2
 72
     2
 73
     0
 90
        0
 40
-0.6
 41
-30.0
 62
     5
 63
     7
 74
     1
 91
        4
 64
     7
 65
   257
 75
     1
175
     1
 42
1.0
 92
       12
 66
     7
 43
1.0
 76
     1
 77
     6
 78
     2
 67
     7
 79
     5
170
     0
171
     0
290
     0
174
     0
 93
        1
 44
0.0
173
     0
291
     1
 45
0.0
1001
ACAD
1000
AcDbSavedByObjectVersion
1070
     0
1000
AcDbSavedByObjectVersion
1070
     0
1000
AcDbSavedByObjectVersion
1070
     0
1000
AcDbSavedByObjectVersion
1070
     0
  0
DICTIONARYVAR
  5
C0B
102
{ACAD_REACTORS
330
C0A
102
}
330
C0A
100
DictionaryVariables
280
     0
  1
STANDARD
  0
DICTIONARYVAR
  5
C0E
102
{ACAD_REACTORS
330
C0A
102
}
330
C0A
100
DictionaryVariables
280
     0
  1
1
  0
DICTIONARYVAR
  5
C0D
102
{ACAD_REACTORS
330
C0A
102
}
330
C0A
100
DictionaryVariables
280
     0
  1
0
  0
DICTIONARYVAR
  5
C0C
102
{ACAD_REACTORS
330
C0A
102
}
330
C0A
100
DictionaryVariables
280
     0
  1
127
  0
XRECORD
  5
560
102
{ACAD_REACTORS
330
540
102
}
330
540
100
AcDbXrecord
280
     1
  1
2.0.0
  0
DICTIONARY
  5
13CD
330
567
100
AcDbDictionary
280
     1
281
     1
  3
ACAD_XREC_ROUNDTRIP
360
13CE
  0
DICTIONARY
  5
13CF
330
568
100
AcDbDictionary
280
     1
281
     1
  3
ACAD_XREC_ROUNDTRIP
360
13D0
  0
DICTIONARY
  5
C28
330
77E
100
AcDbDictionary
280
     1
281
     1
  3
ACAD_XREC_ROUNDTRIP
360
C29
  0
DICTIONARY
  5
C26
330
77D
100
AcDbDictionary
280
     1
281
     1
  3
ACAD_XREC_ROUNDTRIP
360
C27
  0
DICTIONARY
  5
C2A
330
77F
100
AcDbDictionary
280
     1
281
     1
  3
ACAD_XREC_ROUNDTRIP
360
C2B
  0
DICTIONARY
  5
13D1
330
772
100
AcDbDictionary
280
     1
281
     1
  3
ACAD_XREC_ROUNDTRIP
360
13D2
  0
DICTIONARY
  5
13D3
330
773
100
AcDbDictionary
280
     1
281
     1
  3
ACAD_XREC_ROUNDTRIP
360
13D4
  0
DICTIONARY
  5
13D5
330
774
100
AcDbDictionary
280
     1
281
     1
  3
ACAD_XREC_ROUNDTRIP
360
13D6
  0
DICTIONARY
  5
13D7
330
775
100
AcDbDictionary
280
     1
281
     1
  3
ACAD_XREC_ROUNDTRIP
360
13D8
  0
DICTIONARY
  5
13D9
330
776
100
AcDbDictionary
280
     1
281
     1
  3
ACAD_XREC_ROUNDTRIP
360
13DA
  0
DICTIONARY
  5
13DB
330
777
100
AcDbDictionary
280
     1
281
     1
  3
ACAD_XREC_ROUNDTRIP
360
13DC
  0
DICTIONARY
  5
13DD
330
778
100
AcDbDictionary
280
     1
281
     1
  3
ACAD_XREC_ROUNDTRIP
360
13DE
  0
DICTIONARY
  5
13DF
330
779
100
AcDbDictionary
280
     1
281
     1
  3
ACAD_XREC_ROUNDTRIP
360
13E0
  0
DICTIONARY
  5
13E1
330
793
100
AcDbDictionary
280
     1
281
     1
  3
ACAD_XREC_ROUNDTRIP
360
13E2
  0
XRECORD
  5
13CE
102
{ACAD_REACTORS
330
13CD
102
}
330
13CD
100
AcDbXrecord
280
     1
102
SHADEPLOT
 70
     0
102
SHADEPLOTRESLEVEL
 70
     2
102
SHADEPLOTCUSTOMDPI
 70
   300
  0
XRECORD
  5
13D0
102
{ACAD_REACTORS
330
13CF
102
}
330
13CF
100
AcDbXrecord
280
     1
102
SHADEPLOT
 70
     0
102
SHADEPLOTRESLEVEL
 70
     2
102
SHADEPLOTCUSTOMDPI
 70
   300
  0
XRECORD
  5
C29
102
{ACAD_REACTORS
330
C28
102
}
330
C28
100
AcDbXrecord
280
     1
102
MATERIAL
148
0.0
149
0.0
149
0.0
 93
        0
 94
       63
282
     0
 72
     1
 77
     1
171
     1
175
     1
179
     1
273
     0
  0
XRECORD
  5
C27
102
{ACAD_REACTORS
330
C26
102
}
330
C26
100
AcDbXrecord
280
     1
102
MATERIAL
148
0.0
149
0.0
149
0.0
 93
        0
 94
       63
282
     0
 72
     1
 77
     1
171
     1
175
     1
179
     1
273
     0
  0
XRECORD
  5
C2B
102
{ACAD_REACTORS
330
C2A
102
}
330
C2A
100
AcDbXrecord
280
     1
102
MATERIAL
148
0.0
149
0.0
149
0.0
 93
        0
 94
       63
282
     0
 72
     1
 77
     1
171
     1
175
     1
179
     1
273
     0
  0
XRECORD
  5
13D2
102
{ACAD_REACTORS
330
13D1
102
}
330
13D1
100
AcDbXrecord
280
     1
102
SHADEPLOT
 70
     0
102
SHADEPLOTRESLEVEL
 70
     2
102
SHADEPLOTCUSTOMDPI
 70
   300
  0
XRECORD
  5
13D4
102
{ACAD_REACTORS
330
13D3
102
}
330
13D3
100
AcDbXrecord
280
     1
102
SHADEPLOT
 70
     0
102
SHADEPLOTRESLEVEL
 70
     2
102
SHADEPLOTCUSTOMDPI
 70
   300
  0
XRECORD
  5
13D6
102
{ACAD_REACTORS
330
13D5
102
}
330
13D5
100
AcDbXrecord
280
     1
102
SHADEPLOT
 70
     0
102
SHADEPLOTRESLEVEL
 70
     2
102
SHADEPLOTCUSTOMDPI
 70
   300
  0
XRECORD
  5
13D8
102
{ACAD_REACTORS
330
13D7
102
}
330
13D7
100
AcDbXrecord
280
     1
102
SHADEPLOT
 70
     0
102
SHADEPLOTRESLEVEL
 70
     2
102
SHADEPLOTCUSTOMDPI
 70
   300
  0
XRECORD
  5
13DA
102
{ACAD_REACTORS
330
13D9
102
}
330
13D9
100
AcDbXrecord
280
     1
102
SHADEPLOT
 70
     0
102
SHADEPLOTRESLEVEL
 70
     2
102
SHADEPLOTCUSTOMDPI
 70
   300
  0
XRECORD
  5
13DC
102
{ACAD_REACTORS
330
13DB
102
}
330
13DB
100
AcDbXrecord
280
     1
102
SHADEPLOT
 70
     0
102
SHADEPLOTRESLEVEL
 70
     2
102
SHADEPLOTCUSTOMDPI
 70
   300
  0
XRECORD
  5
13DE
102
{ACAD_REACTORS
330
13DD
102
}
330
13DD
100
AcDbXrecord
280
     1
102
SHADEPLOT
 70
     0
102
SHADEPLOTRESLEVEL
 70
     2
102
SHADEPLOTCUSTOMDPI
 70
   300
  0
XRECORD
  5
13E0
102
{ACAD_REACTORS
330
13DF
102
}
330
13DF
100
AcDbXrecord
280
     1
102
SHADEPLOT
 70
     0
102
SHADEPLOTRESLEVEL
 70
     2
102
SHADEPLOTCUSTOMDPI
 70
   300
  0
XRECORD
  5
13E2
102
{ACAD_REACTORS
330
13E1
102
}
330
13E1
100
AcDbXrecord
280
     1
102
ACAD_ROUNDTRIP_PRE2007_TABLESTYLE
 90
      512
 91
        0
  1

 92
      512
 93
        0
  2

 94
      512
 95
        0
  3

  0
ENDSEC
  0
EOF
