  0
SECTION
  2
HEADER
  9
$ACADVER
  1
AC1014
  9
$ACADMAINTVER
 70
     9
  9
$DWGCODEPAGE
  3
ANSI_932
  9
$INSBASE
 10
0.0
 20
0.0
 30
0.0
  9
$EXTMIN
 10
-42.72184689
 20
-34.94979814
 30
-0.00152582
  9
$EXTMAX
 10
119.0202489
 20
61.00433381
 30
0.00000003
  9
$LIMMIN
 10
0.0
 20
0.0
  9
$LIMMAX
 10
420.0
 20
297.0
  9
$ORTHOMODE
 70
     1
  9
$REGENMODE
 70
     1
  9
$FILLMODE
 70
     1
  9
$QTEXTMODE
 70
     0
  9
$MIRRTEXT
 70
     1
  9
$DRAGMODE
 70
     2
  9
$LTSCALE
 40
10.0
  9
$OSMODE
 70
   549
  9
$ATTMODE
 70
     1
  9
$TEXTSIZE
 40
3.0
  9
$TRACEWID
 40
1.0
  9
$TEXTSTYLE
  7
YOKO
  9
$CLAYER
  8
245
  9
$CELTYPE
  6
BYLAYER
  9
$CECOLOR
 62
   256
  9
$CELTSCALE
 40
1.0
  9
$DELOBJ
 70
     1
  9
$DISPSILH
 70
     0
  9
$DIMSCALE
 40
1.0
  9
$DIMASZ
 40
2.23
  9
$DIMEXO
 40
0.5
  9
$DIMDLI
 40
2.5
  9
$DIMRND
 40
0.0
  9
$DIMDLE
 40
0.0
  9
$DIMEXE
 40
1.0
  9
$DIMTP
 40
0.0
  9
$DIMTM
 40
0.0
  9
$DIMTXT
 40
2.8
  9
$DIMCEN
 40
0.0
  9
$DIMTSZ
 40
0.0
  9
$DIMTOL
 70
     0
  9
$DIMLIM
 70
     0
  9
$DIMTIH
 70
     0
  9
$DIMTOH
 70
     0
  9
$DIMSE1
 70
     0
  9
$DIMSE2
 70
     0
  9
$DIMTAD
 70
     3
  9
$DIMZIN
 70
     8
  9
$DIMBLK
  1

  9
$DIMASO
 70
     1
  9
$DIMSHO
 70
     1
  9
$DIMPOST
  1

  9
$DIMAPOST
  1

  9
$DIMALT
 70
     0
  9
$DIMALTD
 70
     2
  9
$DIMALTF
 40
25.4
  9
$DIMLFAC
 40
1.0
  9
$DIMTOFL
 70
     1
  9
$DIMTVP
 40
0.0
  9
$DIMTIX
 70
     1
  9
$DIMSOXD
 70
     0
  9
$DIMSAH
 70
     1
  9
$DIMBLK1
  1
OPEN
  9
$DIMBLK2
  1
OPEN
  9
$DIMSTYLE
  2
BIGT
  9
$DIMCLRD
 70
   256
  9
$DIMCLRE
 70
   256
  9
$DIMCLRT
 70
    40
  9
$DIMTFAC
 40
1.0
  9
$DIMGAP
 40
1.0
  9
$DIMJUST
 70
     0
  9
$DIMSD1
 70
     0
  9
$DIMSD2
 70
     0
  9
$DIMTOLJ
 70
     1
  9
$DIMTZIN
 70
     8
  9
$DIMALTZ
 70
     0
  9
$DIMALTTZ
 70
     0
  9
$DIMFIT
 70
     2
  9
$DIMUPT
 70
     0
  9
$DIMUNIT
 70
     2
  9
$DIMDEC
 70
     3
  9
$DIMTDEC
 70
     3
  9
$DIMALTU
 70
     2
  9
$DIMALTTD
 70
     2
  9
$DIMTXSTY
  7
STANDARD
  9
$DIMAUNIT
 70
     0
  9
$LUNITS
 70
     2
  9
$LUPREC
 70
     3
  9
$SKETCHINC
 40
1.0
  9
$FILLETRAD
 40
0.0
  9
$AUNITS
 70
     0
  9
$AUPREC
 70
     3
  9
$MENU
  1
.
  9
$ELEVATION
 40
0.0
  9
$PELEVATION
 40
0.0
  9
$THICKNESS
 40
0.0
  9
$LIMCHECK
 70
     0
  9
$BLIPMODE
 70
     0
  9
$CHAMFERA
 40
10.0
  9
$CHAMFERB
 40
10.0
  9
$CHAMFERC
 40
0.0
  9
$CHAMFERD
 40
0.0
  9
$SKPOLY
 70
     0
  9
$TDCREATE
 40
2455383.605798067
  9
$TDUPDATE
 40
2455383.607613021
  9
$TDINDWG
 40
0.0018153125
  9
$TDUSRTIMER
 40
0.0018153125
  9
$USRTIMER
 70
     1
  9
$ANGBASE
 50
0.0
  9
$ANGDIR
 70
     0
  9
$PDMODE
 70
     1
  9
$PDSIZE
 40
-5.0
  9
$PLINEWID
 40
0.0
  9
$COORDS
 70
     1
  9
$SPLFRAME
 70
     0
  9
$SPLINETYPE
 70
     6
  9
$SPLINESEGS
 70
     8
  9
$ATTDIA
 70
     0
  9
$ATTREQ
 70
     1
  9
$HANDLING
 70
-16383
  9
$HANDSEED
  5
D65
  9
$SURFTAB1
 70
     6
  9
$SURFTAB2
 70
     6
  9
$SURFTYPE
 70
     6
  9
$SURFU
 70
     6
  9
$SURFV
 70
     6
  9
$UCSNAME
  2

  9
$UCSORG
 10
0.0
 20
0.0
 30
0.0
  9
$UCSXDIR
 10
1.0
 20
0.0
 30
0.0
  9
$UCSYDIR
 10
0.0
 20
1.0
 30
0.0
  9
$PUCSNAME
  2

  9
$PUCSORG
 10
0.0
 20
0.0
 30
0.0
  9
$PUCSXDIR
 10
1.0
 20
0.0
 30
0.0
  9
$PUCSYDIR
 10
0.0
 20
1.0
 30
0.0
  9
$USERI1
 70
     1
  9
$USERI2
 70
     0
  9
$USERI3
 70
     0
  9
$USERI4
 70
     0
  9
$USERI5
 70
     0
  9
$USERR1
 40
0.0
  9
$USERR2
 40
0.0
  9
$USERR3
 40
0.0
  9
$USERR4
 40
0.0
  9
$USERR5
 40
0.0
  9
$WORLDVIEW
 70
     1
  9
$SHADEDGE
 70
     3
  9
$SHADEDIF
 70
    70
  9
$TILEMODE
 70
     1
  9
$MAXACTVP
 70
    16
  9
$PINSBASE
 10
0.0
 20
0.0
 30
0.0
  9
$PLIMCHECK
 70
     0
  9
$PEXTMIN
 10
1.00000000E+20
 20
1.00000000E+20
 30
1.00000000E+20
  9
$PEXTMAX
 10
-1.00000000E+20
 20
-1.00000000E+20
 30
-1.00000000E+20
  9
$PLIMMIN
 10
0.0
 20
0.0
  9
$PLIMMAX
 10
420.0
 20
297.0
  9
$UNITMODE
 70
     0
  9
$VISRETAIN
 70
     0
  9
$PLINEGEN
 70
     0
  9
$PSLTSCALE
 70
     1
  9
$TREEDEPTH
 70
  3020
  9
$PICKSTYLE
 70
     0
  9
$CMLSTYLE
  2
STANDARD
  9
$CMLJUST
 70
     0
  9
$CMLSCALE
 40
1.0
  9
$PROXYGRAPHICS
 70
     1
  9
$MEASUREMENT
 70
     1
  0
ENDSEC
  0
SECTION
  2
CLASSES
  0
CLASS
  1
XRECORD
  2
AcDbXrecord
  3
AutoCAD 2000
 90
        0
280
     0
281
     0
  0
CLASS
  1
ACDBDICTIONARYWDFLT
  2
AcDbDictionaryWithDefault
  3
AutoCAD 2000
 90
        0
280
     0
281
     0
  0
CLASS
  1
ACDBPLACEHOLDER
  2
AcDbPlaceHolder
  3
AutoCAD 2000
 90
        0
280
     0
281
     0
  0
CLASS
  1
LAYOUT
  2
AcDbLayout
  3
AutoCAD 2000
 90
        0
280
     0
281
     0
  0
CLASS
  1
PLOTSETTINGS
  2
AcDbPlotSettings
  3
AutoCAD 2000
 90
        0
280
     0
281
     0
  0
CLASS
  1
LONG_TRANSACTION
  2
AcDbLongTransaction
  3
AutoCAD 2000
 90
        0
280
     0
281
     0
  0
CLASS
  1
LWPOLYLINE
  2
AcDbPolyline
  3
AutoCAD 2000
 90
        0
280
     0
281
     1
  0
CLASS
  1
HATCH
  2
AcDbHatch
  3
AutoCAD 2000
 90
        0
280
     0
281
     1
  0
CLASS
  1
XRECORD
  2
AcDbXrecord
  3
AutoCAD 2000
 90
        0
280
     0
281
     0
  0
ENDSEC
  0
SECTION
  2
TABLES
  0
TABLE
  2
VPORT
  5
8
330
0
100
AcDbSymbolTable
 70
     3
  0
VPORT
  5
D3E
330
8
100
AcDbSymbolTableRecord
100
AcDbViewportTableRecord
  2
*ACTIVE
 70
     0
 10
0.0
 20
0.0
 11
1.0
 21
1.0
 12
38.149201
 22
13.02726784
 13
0.0
 23
0.0
 14
7.0
 24
7.0
 15
7.0
 25
7.0
 16
0.0
 26
0.0
 36
1.0
 17
0.0
 27
0.0
 37
0.0
 40
111.68200558
 41
1.45595855
 42
50.0
 43
0.0
 44
0.0
 50
0.0
 51
0.0
 71
     0
 72
  2000
 73
     1
 74
     0
 75
     0
 76
     0
 77
     0
 78
     0
  0
ENDTAB
  0
TABLE
  2
LTYPE
  5
5
330
0
100
AcDbSymbolTable
 70
    39
  0
LTYPE
  5
14
330
5
100
AcDbSymbolTableRecord
100
AcDbLinetypeTableRecord
  2
BYBLOCK
 70
     0
  3

 72
    65
 73
     0
 40
0.0
  0
LTYPE
  5
15
330
5
100
AcDbSymbolTableRecord
100
AcDbLinetypeTableRecord
  2
BYLAYER
 70
     0
  3

 72
    65
 73
     0
 40
0.0
  0
LTYPE
  5
16
330
5
100
AcDbSymbolTableRecord
100
AcDbLinetypeTableRecord
  2
CONTINUOUS
 70
     0
  3
Solid line
 72
    65
 73
     0
 40
0.0
  0
LTYPE
  5
258
330
5
100
AcDbSymbolTableRecord
100
AcDbLinetypeTableRecord
  2
CENTER2
 70
     0
  3
___ _ ___ _ ___ _ ___ _ ___ _ ___ _ ___ _ ___ _
 72
    65
 73
     4
 40
1.125
 49
0.75
 74
     0
 49
-0.125
 74
     0
 49
0.125
 74
     0
 49
-0.125
 74
     0
  0
LTYPE
  5
25C
330
5
100
AcDbSymbolTableRecord
100
AcDbLinetypeTableRecord
  2
HIDDEN2
 70
     0
  3
_ _ _ _ _ _ _ _ _ _ _ _ _ _ _ _ _ _ _ _ _ _ _ _
 72
    65
 73
     2
 40
0.1875
 49
0.125
 74
     0
 49
-0.0625
 74
     0
  0
LTYPE
  5
25D
330
5
100
AcDbSymbolTableRecord
100
AcDbLinetypeTableRecord
  2
PHANTOM2
 70
     0
  3
___ _ _ ___ _ _ ___ _ _ ___ _ _ ___ _ _ ___ _ _
 72
    65
 73
     6
 40
1.25
 49
0.625
 74
     0
 49
-0.125
 74
     0
 49
0.125
 74
     0
 49
-0.125
 74
     0
 49
0.125
 74
     0
 49
-0.125
 74
     0
  0
ENDTAB
  0
TABLE
  2
LAYER
  5
2
330
0
100
AcDbSymbolTable
 70
    32
  0
LAYER
  5
F
330
2
100
AcDbSymbolTableRecord
100
AcDbLayerTableRecord
  2
0
 70
     0
 62
     7
  6
CONTINUOUS
  0
LAYER
  5
1AA
330
2
100
AcDbSymbolTableRecord
100
AcDbLayerTableRecord
  2
240
 70
     0
 62
     4
  6
CONTINUOUS
  0
LAYER
  5
1AB
330
2
100
AcDbSymbolTableRecord
100
AcDbLayerTableRecord
  2
241
 70
     0
 62
   211
  6
CONTINUOUS
  0
LAYER
  5
1AC
330
2
100
AcDbSymbolTableRecord
100
AcDbLayerTableRecord
  2
242
 70
     0
 62
     3
  6
CONTINUOUS
  0
LAYER
  5
1AF
330
2
100
AcDbSymbolTableRecord
100
AcDbLayerTableRecord
  2
245
 70
     0
 62
     2
  6
CENTER2
  0
LAYER
  5
21A
330
2
100
AcDbSymbolTableRecord
100
AcDbLayerTableRecord
  2
246
 70
     0
 62
     3
  6
PHANTOM2
  0
LAYER
  5
21E
330
2
100
AcDbSymbolTableRecord
100
AcDbLayerTableRecord
  2
250
 70
     0
 62
     3
  6
CONTINUOUS
  0
LAYER
  5
21F
330
2
100
AcDbSymbolTableRecord
100
AcDbLayerTableRecord
  2
251
 70
     0
 62
    40
  6
CONTINUOUS
  0
LAYER
  5
5C4
330
2
100
AcDbSymbolTableRecord
100
AcDbLayerTableRecord
  2
DEFPOINTS
 70
     0
 62
     7
  6
CONTINUOUS
  0
ENDTAB
  0
TABLE
  2
STYLE
  5
3
330
0
100
AcDbSymbolTable
 70
     3
  0
STYLE
  5
10
330
3
100
AcDbSymbolTableRecord
100
AcDbTextStyleTableRecord
  2
STANDARD
 70
     0
 40
0.0
 41
1.0
 50
0.0
 71
     0
 42
3.0
  3
romans.shx
  4
BIGFONT.SHX
  0
STYLE
  5
339
330
3
100
AcDbSymbolTableRecord
100
AcDbTextStyleTableRecord
  2
YOKO
 70
     0
 40
0.0
 41
1.0
 50
0.0
 71
     0
 42
3.0
  3
romans.shx
  4
extfont.shx
  0
ENDTAB
  0
TABLE
  2
VIEW
  5
6
330
0
100
AcDbSymbolTable
 70
     0
  0
ENDTAB
  0
TABLE
  2
UCS
  5
7
330
0
100
AcDbSymbolTable
 70
     0
  0
ENDTAB
  0
TABLE
  2
APPID
  5
9
330
0
100
AcDbSymbolTable
 70
     9
  0
APPID
  5
11
330
9
100
AcDbSymbolTableRecord
100
AcDbRegAppTableRecord
  2
ACAD
 70
     0
  0
APPID
  5
1B1
330
9
100
AcDbSymbolTableRecord
100
AcDbRegAppTableRecord
  2
GLOBAL
 70
     0
  0
APPID
  5
2A4
330
9
100
AcDbSymbolTableRecord
100
AcDbRegAppTableRecord
  2
DETAIL
 70
     0
  0
APPID
  5
5FD
330
9
100
AcDbSymbolTableRecord
100
AcDbRegAppTableRecord
  2
GRPNAME
 70
     0
  0
APPID
  5
5FE
330
9
100
AcDbSymbolTableRecord
100
AcDbRegAppTableRecord
  2
GPARA
 70
     0
  0
APPID
  5
6C4
330
9
100
AcDbSymbolTableRecord
100
AcDbRegAppTableRecord
  2
DCO15
 70
     0
  0
APPID
  5
6C5
330
9
100
AcDbSymbolTableRecord
100
AcDbRegAppTableRecord
  2
ITEMNAME
 70
     0
  0
APPID
  5
6C6
330
9
100
AcDbSymbolTableRecord
100
AcDbRegAppTableRecord
  2
GRADE_0
 70
     0
  0
APPID
  5
D64
330
9
100
AcDbSymbolTableRecord
100
AcDbRegAppTableRecord
  2
CONTENTBLOCKICON
 70
     0
  0
ENDTAB
  0
TABLE
  2
DIMSTYLE
  5
A
330
0
100
AcDbSymbolTable
 70
    11
  0
DIMSTYLE
105
725
102
{ACAD_REACTORS
330
925
330
92A
330
92B
330
92C
102
}
330
A
100
AcDbSymbolTableRecord
100
AcDbDimStyleTableRecord
  2
BIGT
 70
     0
  3

  4

  5

  6
OPEN
  7
OPEN
 40
1.0
 41
2.23
 42
0.5
 43
2.5
 44
1.0
 45
0.0
 46
0.0
 47
0.0
 48
0.0
140
2.8
141
0.0
142
0.0
143
25.4
144
1.0
145
0.0
146
1.0
147
1.0
 71
     0
 72
     0
 73
     0
 74
     0
 75
     0
 76
     0
 77
     3
 78
     8
170
     0
171
     2
172
     1
173
     1
174
     1
175
     0
176
   256
177
   256
178
    40
270
     2
271
     3
272
     3
273
     2
274
     2
340
10
275
     0
280
     0
281
     0
282
     0
283
     1
284
     8
285
     0
286
     0
287
     2
288
     0
  0
ENDTAB
  0
TABLE
  2
BLOCK_RECORD
  5
1
330
0
100
AcDbSymbolTable
 70
    24
  0
BLOCK_RECORD
  5
1A
102
{ACAD_XDICTIONARY
360
D62
102
}
330
1
100
AcDbSymbolTableRecord
100
AcDbBlockTableRecord
  2
*MODEL_SPACE
  0
BLOCK_RECORD
  5
17
102
{ACAD_XDICTIONARY
360
D60
102
}
330
1
100
AcDbSymbolTableRecord
100
AcDbBlockTableRecord
  2
*PAPER_SPACE
  0
BLOCK_RECORD
  5
594
330
1
100
AcDbSymbolTableRecord
100
AcDbBlockTableRecord
  2
_OPEN
  0
BLOCK_RECORD
  5
6E3
330
1
100
AcDbSymbolTableRecord
100
AcDbBlockTableRecord
  2
矢印なし
  0
BLOCK_RECORD
  5
792
330
1
100
AcDbSymbolTableRecord
100
AcDbBlockTableRecord
  2
1
1001
CONTENTBLOCKICON
1071
        0
1004
2800000020000000200000000100080000000000000400000000000000000000000000000000000000000000000080000080000000808000800000008000800080800000C0C0C000C0DCC000F0CAA6000020400000206000002080000020A0000020C0000020E00000400000004020000040400000406000004080000040A0
1004
000040C0000040E00000600000006020000060400000606000006080000060A0000060C0000060E00000800000008020000080400000806000008080000080A0000080C0000080E00000A0000000A0200000A0400000A0600000A0800000A0A00000A0C00000A0E00000C0000000C0200000C0400000C0600000C0800000C0
1004
A00000C0C00000C0E00000E0000000E0200000E0400000E0600000E0800000E0A00000E0C00000E0E00040000000400020004000400040006000400080004000A0004000C0004000E00040200000402020004020400040206000402080004020A0004020C0004020E000404000004040200040404000404060004040800040
1004
40A0004040C0004040E00040600000406020004060400040606000406080004060A0004060C0004060E00040800000408020004080400040806000408080004080A0004080C0004080E00040A0000040A0200040A0400040A0600040A0800040A0A00040A0C00040A0E00040C0000040C0200040C0400040C0600040C08000
1004
40C0A00040C0C00040C0E00040E0000040E0200040E0400040E0600040E0800040E0A00040E0C00040E0E00080000000800020008000400080006000800080008000A0008000C0008000E00080200000802020008020400080206000802080008020A0008020C0008020E00080400000804020008040400080406000804080
1004
008040A0008040C0008040E00080600000806020008060400080606000806080008060A0008060C0008060E00080800000808020008080400080806000808080008080A0008080C0008080E00080A0000080A0200080A0400080A0600080A0800080A0A00080A0C00080A0E00080C0000080C0200080C0400080C0600080C0
1004
800080C0A00080C0C00080C0E00080E0000080E0200080E0400080E0600080E0800080E0A00080E0C00080E0E000C0000000C0002000C0004000C0006000C0008000C000A000C000C000C000E000C0200000C0202000C0204000C0206000C0208000C020A000C020C000C020E000C0400000C0402000C0404000C0406000C0
1004
408000C040A000C040C000C040E000C0600000C0602000C0604000C0606000C0608000C060A000C060C000C060E000C0800000C0802000C0804000C0806000C0808000C080A000C080C000C080E000C0A00000C0A02000C0A04000C0A06000C0A08000C0A0A000C0A0C000C0A0E000C0C00000C0C02000C0C04000C0C06000
1004
C0C08000C0C0A000F0FBFF00A4A0A000808080000000FF0000FF000000FFFF00FF000000FF00FF00FFFF0000FFFFFF0000000000000000000000000000000000000000000000000000000000000000000000000000000000000000000000000000000000000000000000000000000000000000000000000000000000000000
1004
00000000000000000000000000000000000000000000000000000000000000000000000000000000000000000000000000000000000000000000000000000000000000000000000000000000000000000000000000000000000000000000000000000000000000000000000000000000000000000000000000000000000000
1004
000000000000000000000000000000000000000000000000000000000000000000000000000000000000000000000000000000000000000000000000000000000000000000000000000000000000000000000000000000000000FEFEFEFEFEFE0000000000000000000000000000000000000000000000000000FE0000FEFE
1004
E7E7FE0000000000000000000000000000000000FEFEFEFEFEFEFEFEE7E7E7E7E7FAFE0000000000000000000000000000000000FE000000000000E70000E7E7E7FAE7FEFE000000000000000000000000000000FE000000000000E70000E7E7E7FAE7E7E7FEFEFEFEFEFEFEFEFEFEE7FE000000FEFEE700000000E700E7E7
1004
E7E7E7E7E7E7E700000000000000E7E700FE0000000000E700E7E7E7E7E70000FBE700E7E7E7E7000000000000E7000000FE000000FBFBE7FBE7E7E7E7E7FBFBFBE7FBE7E7E7E7FBFBFBFBFBFBFBE7E7E7FEFB0000FEFEE700000000E700E7E7E7E700E7E7E7E7000000000000000000E7FA000000FE000000000000E70000
1004
E7E7E700E7E7E7E7FEFEFEFEFEFEFEFEFEFEFA000000FE000000000000E70000E7E7E700E7E7FEFE0000000000000000000000000000FEFEFEFEFEFEFEFE0000E7E7E700FEFE0000000000000000000000000000000000000000000000FE0000FEFEFEFEFE000000000000000000000000000000000000000000000000FEFE
1004
FEFEFEFE000000000000000000000000000000000000000000000000000000000000000000000000000000000000000000000000000000000000000000000000000000000000000000000000000000000000000000000000000000000000000000000000000000000000000000000000000000000000000000000000000000
1004
00000000000000000000000000000000000000000000000000000000000000000000000000000000000000000000000000000000000000000000000000000000000000000000000000000000000000000000000000000000000000000000000000000000000000000000000000000000000000000000000000000000000000
1004
0000000000000000000000000000000000000000000000000000000000000000000000000000000000000000000000000000000000000000
  0
BLOCK_RECORD
  5
92D
330
1
100
AcDbSymbolTableRecord
100
AcDbBlockTableRecord
  2
*D18
  0
BLOCK_RECORD
  5
939
330
1
100
AcDbSymbolTableRecord
100
AcDbBlockTableRecord
  2
*D19
  0
BLOCK_RECORD
  5
945
330
1
100
AcDbSymbolTableRecord
100
AcDbBlockTableRecord
  2
*D20
  0
BLOCK_RECORD
  5
951
330
1
100
AcDbSymbolTableRecord
100
AcDbBlockTableRecord
  2
*D21
  0
ENDTAB
  0
ENDSEC
  0
SECTION
  2
BLOCKS
  0
BLOCK
  5
1B
330
1A
100
AcDbEntity
  8
0
100
AcDbBlockBegin
  2
*MODEL_SPACE
 70
     0
 10
0.0
 20
0.0
 30
0.0
  3
*MODEL_SPACE
  1

  0
ENDBLK
  5
1C
330
1A
100
AcDbEntity
  8
0
100
AcDbBlockEnd
  0
BLOCK
  5
18
330
17
100
AcDbEntity
 67
     1
  8
0
100
AcDbBlockBegin
  2
*PAPER_SPACE
 70
     0
 10
0.0
 20
0.0
 30
0.0
  3
*PAPER_SPACE
  1

  0
ENDBLK
  5
19
330
17
100
AcDbEntity
 67
     1
  8
0
100
AcDbBlockEnd
  0
BLOCK
  5
598
330
594
100
AcDbEntity
  8
0
100
AcDbBlockBegin
  2
_OPEN
 70
     0
 10
0.0
 20
0.0
 30
0.0
  3
_OPEN
  1

  0
LINE
  5
595
330
594
100
AcDbEntity
  8
0
  6
BYBLOCK
 62
     0
100
AcDbLine
 10
-1.0
 20
0.16666667
 30
0.0
 11
0.0
 21
0.0
 31
0.0
  0
LINE
  5
596
330
594
100
AcDbEntity
  8
0
  6
BYBLOCK
 62
     0
100
AcDbLine
 10
-1.0
 20
-0.16666667
 30
0.0
 11
0.0
 21
0.0
 31
0.0
  0
LINE
  5
597
330
594
100
AcDbEntity
  8
0
  6
BYBLOCK
 62
     0
100
AcDbLine
 10
0.0
 20
0.0
 30
0.0
 11
-1.0
 21
0.0
 31
0.0
  0
ENDBLK
  5
599
330
594
100
AcDbEntity
  8
0
100
AcDbBlockEnd
  0
BLOCK
  5
6E4
330
6E3
100
AcDbEntity
  8
0
100
AcDbBlockBegin
  2
矢印なし
 70
     0
 10
0.0
 20
0.0
 30
0.0
  3
矢印なし
  1

  0
ENDBLK
  5
6E5
330
6E3
100
AcDbEntity
  8
0
100
AcDbBlockEnd
  0
BLOCK
  5
915
330
792
100
AcDbEntity
  8
0
100
AcDbBlockBegin
  2
1
 70
     0
 10
0.0
 20
0.0
 30
0.0
  3
1
  1

  0
ARC
  5
B94
330
792
100
AcDbEntity
  8
240
  6
CONTINUOUS
100
AcDbCircle
 10
33.0
 20
-25.3
 30
0.0
 40
1.0
100
AcDbArc
 50
270.0
 51
0.0
  0
LINE
  5
B95
330
792
100
AcDbEntity
  8
240
  6
CONTINUOUS
100
AcDbLine
 10
0.0
 20
-30.5
 30
0.0
 11
0.0
 21
-24.215
 31
0.0
  0
LINE
  5
B96
330
792
100
AcDbEntity
  8
241
  6
CONTINUOUS
100
AcDbLine
 10
14.62250093
 20
-24.33618705
 30
0.0
 11
14.62250093
 21
-31.5
 31
0.0
  0
LINE
  5
B97
330
792
100
AcDbEntity
  8
241
  6
CONTINUOUS
100
AcDbLine
 10
21.37749907
 20
-24.33618705
 30
0.0
 11
21.37749907
 21
-31.5
 31
0.0
  0
LINE
  5
B98
330
792
100
AcDbEntity
  8
241
  6
CONTINUOUS
100
AcDbLine
 10
16.125
 20
-8.0
 30
0.0
 11
16.125
 21
-27.5
 31
0.0
  0
LINE
  5
B99
330
792
100
AcDbEntity
  8
241
  6
CONTINUOUS
100
AcDbLine
 10
19.875
 20
-8.0
 30
0.0
 11
19.875
 21
-27.5
 31
0.0
  0
LINE
  5
B9A
330
792
100
AcDbEntity
  8
241
  6
CONTINUOUS
100
AcDbLine
 10
26.0
 20
0.0
 30
0.0
 11
26.0
 21
-26.3
 31
0.0
  0
LINE
  5
B9B
330
792
100
AcDbEntity
  8
245
  6
CENTER2
100
AcDbLine
 10
18.0
 20
-31.5
 30
0.0
 11
18.0
 21
31.5
 31
0.0
  0
LINE
  5
B9C
330
792
100
AcDbEntity
  8
240
  6
CONTINUOUS
100
AcDbLine
 10
1.0
 20
-31.5
 30
0.0
 11
14.62250093
 21
-31.5
 31
0.0
  0
ARC
  5
B9D
330
792
100
AcDbEntity
  8
240
  6
CONTINUOUS
100
AcDbCircle
 10
1.0
 20
-30.5
 30
0.0
 40
1.0
100
AcDbArc
 50
180.0
 51
270.0
  0
LINE
  5
B9E
330
792
100
AcDbEntity
  8
240
  6
CONTINUOUS
100
AcDbLine
 10
26.0
 20
-26.3
 30
0.0
 11
33.0
 21
-26.3
 31
0.0
  0
LINE
  5
B9F
330
792
100
AcDbEntity
  8
240
  6
CONTINUOUS
100
AcDbLine
 10
19.875
 20
-28.89759526
 30
0.0
 11
21.37749907
 21
-31.5
 31
0.0
  0
LINE
  5
BA0
330
792
100
AcDbEntity
  8
240
  6
CONTINUOUS
100
AcDbLine
 10
16.125
 20
-28.89759526
 30
0.0
 11
14.62250093
 21
-31.5
 31
0.0
  0
LINE
  5
BA1
330
792
100
AcDbEntity
  8
240
  6
CONTINUOUS
100
AcDbLine
 10
16.125
 20
-27.5
 30
0.0
 11
19.875
 21
-27.5
 31
0.0
  0
LINE
  5
BA2
330
792
100
AcDbEntity
  8
240
  6
CONTINUOUS
100
AcDbLine
 10
16.125
 20
-27.5
 30
0.0
 11
16.125
 21
-28.89759526
 31
0.0
  0
LINE
  5
BA3
330
792
100
AcDbEntity
  8
240
  6
CONTINUOUS
100
AcDbLine
 10
19.875
 20
-27.5
 30
0.0
 11
19.875
 21
-28.89759526
 31
0.0
  0
LINE
  5
BA4
330
792
100
AcDbEntity
  8
240
  6
CONTINUOUS
100
AcDbLine
 10
26.0
 20
-30.5
 30
0.0
 11
26.0
 21
-26.3
 31
0.0
  0
LINE
  5
BA5
330
792
100
AcDbEntity
  8
240
  6
CONTINUOUS
100
AcDbLine
 10
21.37749907
 20
-31.5
 30
0.0
 11
25.0
 21
-31.5
 31
0.0
  0
ARC
  5
BA6
330
792
100
AcDbEntity
  8
240
  6
CONTINUOUS
100
AcDbCircle
 10
25.0
 20
-30.5
 30
0.0
 40
1.0
100
AcDbArc
 50
270.0
 51
0.0
  0
LINE
  5
BA7
330
792
100
AcDbEntity
  8
240
100
AcDbLine
 10
93.87806342
 20
-11.75
 30
0.0
 11
52.37846615
 21
-11.75
 31
0.0
  0
LINE
  5
BA8
330
792
100
AcDbEntity
  8
240
100
AcDbLine
 10
93.87806342
 20
11.75
 30
0.0
 11
52.37846615
 21
11.75
 31
0.0
  0
LINE
  5
BA9
330
792
100
AcDbEntity
  8
245
100
AcDbLine
 10
-32.0
 20
0.0
 30
0.0
 11
106.0
 21
0.0
 31
0.0
1001
GRPNAME
1000
PASTMD4G
  0
LINE
  5
BAA
330
792
100
AcDbEntity
  8
240
  6
CONTINUOUS
100
AcDbLine
 10
1.0
 20
31.5
 30
0.0
 11
14.62250093
 21
31.5
 31
0.0
  0
ARC
  5
BAB
330
792
100
AcDbEntity
  8
241
  6
CONTINUOUS
100
AcDbCircle
 10
13.0
 20
0.0
 30
0.0
 40
8.0
100
AcDbArc
 50
90.0
 51
180.0
  0
ARC
  5
BAC
330
792
100
AcDbEntity
  8
241
  6
CONTINUOUS
100
AcDbCircle
 10
12.1117139
 20
-28.0
 30
0.0
 40
8.0
100
AcDbArc
 50
90.0
 51
152.74338069
  0
LINE
  5
BAD
330
792
100
AcDbEntity
  8
241
  6
CONTINUOUS
100
AcDbLine
 10
5.0
 20
-24.33618705
 30
0.0
 11
14.62250093
 21
-24.33618705
 31
0.0
  0
ARC
  5
BAE
330
792
100
AcDbEntity
  8
241
  6
CONTINUOUS
100
AcDbCircle
 10
13.0
 20
0.0
 30
0.0
 40
8.0
100
AcDbArc
 50
180.0
 51
270.0
  0
ARC
  5
BAF
330
792
100
AcDbEntity
  8
241
  6
HIDDEN2
100
AcDbCircle
 10
-23.5
 20
4.77
 30
0.0
 40
1.5
100
AcDbArc
 50
0.0
 51
90.0
  0
ARC
  5
BB0
330
792
100
AcDbEntity
  8
240
  6
CONTINUOUS
100
AcDbCircle
 10
-27.5
 20
4.77
 30
0.0
 40
1.5
100
AcDbArc
 50
0.0
 51
90.0
  0
LINE
  5
BB1
330
792
100
AcDbEntity
  8
240
  6
CONTINUOUS
100
AcDbLine
 10
-31.0
 20
6.27
 30
0.0
 11
-32.0
 21
7.27
 31
0.0
  0
LINE
  5
BB2
330
792
100
AcDbEntity
  8
241
  6
CONTINUOUS
100
AcDbLine
 10
-2.0
 20
24.215
 30
0.0
 11
-2.0
 21
0.0
 31
0.0
  0
LINE
  5
BB3
330
792
100
AcDbEntity
  8
241
100
AcDbLine
 10
0.0
 20
24.215
 30
0.0
 11
0.0
 21
0.0
 31
0.0
  0
LINE
  5
BB4
330
792
100
AcDbEntity
  8
240
  6
CONTINUOUS
100
AcDbLine
 10
-2.0
 20
-24.215
 30
0.0
 11
-30.85992514
 21
-22.77200374
 31
0.0
  0
LINE
  5
BB5
330
792
100
AcDbEntity
  8
240
  6
CONTINUOUS
100
AcDbLine
 10
-32.0
 20
-21.57350094
 30
0.0
 11
-32.0
 21
-7.27
 31
0.0
  0
ARC
  5
BB6
330
792
100
AcDbEntity
  8
240
  6
CONTINUOUS
100
AcDbCircle
 10
-30.8
 20
-21.57350094
 30
0.0
 40
1.199999999999988
100
AcDbArc
 50
180.0
 51
267.13759477
  0
LINE
  5
BB7
330
792
100
AcDbEntity
  8
241
  6
HIDDEN2
100
AcDbLine
 10
-27.5
 20
-6.27
 30
0.0
 11
-23.5
 21
-6.27
 31
0.0
  0
LINE
  5
BB8
330
792
100
AcDbEntity
  8
241
  6
HIDDEN2
100
AcDbLine
 10
-27.5
 20
6.27
 30
0.0
 11
-23.5
 21
6.27
 31
0.0
  0
LINE
  5
BB9
330
792
100
AcDbEntity
  8
240
  6
CONTINUOUS
100
AcDbLine
 10
-26.0
 20
-4.77
 30
0.0
 11
-26.0
 21
0.0
 31
0.0
  0
LINE
  5
BBA
330
792
100
AcDbEntity
  8
240
  6
CONTINUOUS
100
AcDbLine
 10
-32.0
 20
-7.27
 30
0.0
 11
-31.0
 21
-6.27
 31
0.0
  0
ARC
  5
BBB
330
792
100
AcDbEntity
  8
240
  6
CONTINUOUS
100
AcDbCircle
 10
-27.5
 20
-4.77
 30
0.0
 40
1.499999999999985
100
AcDbArc
 50
270.0
 51
0.0
  0
LINE
  5
BBC
330
792
100
AcDbEntity
  8
240
  6
CONTINUOUS
100
AcDbLine
 10
-31.0
 20
-6.27
 30
0.0
 11
-27.5
 21
-6.27
 31
0.0
  0
LINE
  5
BBD
330
792
100
AcDbEntity
  8
240
  6
CONTINUOUS
100
AcDbLine
 10
-26.0
 20
4.77
 30
0.0
 11
-26.0
 21
0.0
 31
0.0
  0
LINE
  5
BBE
330
792
100
AcDbEntity
  8
240
  6
CONTINUOUS
100
AcDbLine
 10
-31.0
 20
6.27
 30
0.0
 11
-27.5
 21
6.27
 31
0.0
  0
LINE
  5
BBF
330
792
100
AcDbEntity
  8
241
  6
HIDDEN2
100
AcDbLine
 10
-22.0
 20
-4.77
 30
0.0
 11
-22.0
 21
0.0
 31
0.0
  0
ARC
  5
BC0
330
792
100
AcDbEntity
  8
241
  6
HIDDEN2
100
AcDbCircle
 10
-23.5
 20
-4.77
 30
0.0
 40
1.499999999999985
100
AcDbArc
 50
270.0
 51
0.0
  0
LINE
  5
BC1
330
792
100
AcDbEntity
  8
241
  6
HIDDEN2
100
AcDbLine
 10
-22.0
 20
4.77
 30
0.0
 11
-22.0
 21
0.0
 31
0.0
  0
LINE
  5
BC2
330
792
100
AcDbEntity
  8
241
100
AcDbLine
 10
0.0
 20
-24.215
 30
0.0
 11
0.0
 21
0.0
 31
0.0
  0
LINE
  5
BC3
330
792
100
AcDbEntity
  8
241
  6
CONTINUOUS
100
AcDbLine
 10
-2.0
 20
-24.215
 30
0.0
 11
-2.0
 21
0.0
 31
0.0
  0
LINE
  5
BC4
330
792
100
AcDbEntity
  8
240
100
AcDbLine
 10
-2.0
 20
-24.215
 30
0.0
 11
0.0
 21
-24.215
 31
0.0
  0
LINE
  5
BC5
330
792
100
AcDbEntity
  8
245
  6
CENTER2
100
AcDbLine
 10
-9.0
 20
-4.75
 30
0.0
 11
-9.0
 21
4.75
 31
0.0
  0
CIRCLE
  5
BC6
330
792
100
AcDbEntity
  8
241
  6
CONTINUOUS
100
AcDbCircle
 10
-9.0
 20
0.0
 30
0.0
 40
3.75
  0
LINE
  5
BC7
330
792
100
AcDbEntity
  8
240
  6
CONTINUOUS
100
AcDbLine
 10
-2.0
 20
24.215
 30
0.0
 11
-30.85992514
 21
22.77200374
 31
0.0
  0
ARC
  5
BC8
330
792
100
AcDbEntity
  8
240
  6
CONTINUOUS
100
AcDbCircle
 10
-30.8
 20
21.57350094
 30
0.0
 40
1.199999999999994
100
AcDbArc
 50
92.86240523
 51
180.0
  0
LINE
  5
BC9
330
792
100
AcDbEntity
  8
240
  6
CONTINUOUS
100
AcDbLine
 10
-32.0
 20
7.27
 30
0.0
 11
-32.0
 21
21.57350094
 31
0.0
  0
ARC
  5
BCA
330
792
100
AcDbEntity
  8
240
  6
CONTINUOUS
100
AcDbCircle
 10
1.0
 20
30.5
 30
0.0
 40
1.0
100
AcDbArc
 50
90.0
 51
180.0
  0
LINE
  5
BCB
330
792
100
AcDbEntity
  8
240
  6
CONTINUOUS
100
AcDbLine
 10
0.0
 20
24.215
 30
0.0
 11
0.0
 21
30.5
 31
0.0
  0
LINE
  5
BCC
330
792
100
AcDbEntity
  8
240
100
AcDbLine
 10
-2.0
 20
24.215
 30
0.0
 11
0.0
 21
24.215
 31
0.0
  0
LINE
  5
BCD
330
792
100
AcDbEntity
  8
241
100
AcDbLine
 10
47.25
 20
0.0
 30
0.0
 11
47.25
 21
11.75
 31
0.0
  0
LINE
  5
BCE
330
792
100
AcDbEntity
  8
241
  6
CONTINUOUS
100
AcDbLine
 10
42.98845841
 20
15.05266036
 30
0.0
 11
42.98845841
 21
0.00888513
 31
0.0
1001
GRPNAME
1000
PASTMD01
  0
LINE
  5
BCF
330
792
100
AcDbEntity
  8
241
  6
CONTINUOUS
100
AcDbLine
 10
42.03580834
 20
15.78738736
 30
0.0
 11
42.03580834
 21
0.00893674
 31
0.0
1001
GRPNAME
1000
PASTMD01
  0
LINE
  5
BD0
330
792
100
AcDbEntity
  8
241
  6
CONTINUOUS
100
AcDbLine
 10
38.03580834
 20
18.88461708
 30
0.0
 11
38.03580834
 21
0.00893674
 31
0.0
1001
GRPNAME
1000
PASTMD01
  0
LINE
  5
BD1
330
792
100
AcDbEntity
  8
241
  6
CONTINUOUS
100
AcDbLine
 10
38.98462448
 20
18.14994169
 30
0.0
 11
38.98462448
 21
0.00893674
 31
0.0
1001
GRPNAME
1000
PASTMD01
  0
LINE
  5
BD2
330
792
100
AcDbEntity
  8
241
100
AcDbLine
 10
34.0
 20
22.5
 30
0.0
 11
34.0
 21
0.0
 31
0.0
  0
LINE
  5
BD3
330
792
100
AcDbEntity
  8
241
  6
CONTINUOUS
100
AcDbLine
 10
26.0
 20
0.0
 30
0.0
 11
26.0
 21
26.3
 31
0.0
  0
LINE
  5
BD4
330
792
100
AcDbEntity
  8
241
  6
CONTINUOUS
100
AcDbLine
 10
26.5
 20
-7.51828235
 30
0.0
 11
34.0
 21
-7.51828235
 31
0.0
  0
LINE
  5
BD5
330
792
100
AcDbEntity
  8
241
  6
CONTINUOUS
100
AcDbLine
 10
26.5
 20
-25.70500591
 30
0.0
 11
33.91431406
 21
-25.70500591
 31
0.0
  0
LINE
  5
BD6
330
792
100
AcDbEntity
  8
242
  6
CONTINUOUS
100
AcDbLine
 10
26.5
 20
-7.51828235
 30
0.0
 11
33.95512754
 21
-25.59619484
 31
0.0
  0
LINE
  5
BD7
330
792
100
AcDbEntity
  8
242
  6
CONTINUOUS
100
AcDbLine
 10
26.5
 20
-25.70500591
 30
0.0
 11
34.0
 21
-7.51828235
 31
0.0
  0
LINE
  5
BD8
330
792
100
AcDbEntity
  8
241
  6
CONTINUOUS
100
AcDbLine
 10
26.5
 20
-25.70500591
 30
0.0
 11
26.5
 21
-7.51828235
 31
0.0
  0
LINE
  5
BD9
330
792
100
AcDbEntity
  8
241
  6
CONTINUOUS
100
AcDbLine
 10
14.62250093
 20
-8.0
 30
0.0
 11
14.62250093
 21
-20.0
 31
0.0
  0
LINE
  5
BDA
330
792
100
AcDbEntity
  8
241
  6
CONTINUOUS
100
AcDbLine
 10
21.37749907
 20
-8.0
 30
0.0
 11
21.37749907
 21
-20.0
 31
0.0
  0
LINE
  5
BDB
330
792
100
AcDbEntity
  8
241
  6
CONTINUOUS
100
AcDbLine
 10
21.37749907
 20
-24.33618705
 30
0.0
 11
19.875
 21
-20.85835593
 31
0.0
  0
LINE
  5
BDC
330
792
100
AcDbEntity
  8
241
  6
CONTINUOUS
100
AcDbLine
 10
19.875
 20
-20.0
 30
0.0
 11
26.0
 21
-20.0
 31
0.0
  0
LINE
  5
BDD
330
792
100
AcDbEntity
  8
241
  6
CONTINUOUS
100
AcDbLine
 10
12.1117139
 20
-20.0
 30
0.0
 11
16.125
 21
-20.0
 31
0.0
  0
LINE
  5
BDE
330
792
100
AcDbEntity
  8
241
  6
CONTINUOUS
100
AcDbLine
 10
14.62250093
 20
-24.33618705
 30
0.0
 11
16.125
 21
-20.85835593
 31
0.0
  0
LINE
  5
BDF
330
792
100
AcDbEntity
  8
241
  6
CONTINUOUS
100
AcDbLine
 10
21.37749907
 20
-24.33618705
 30
0.0
 11
26.0
 21
-24.33618705
 31
0.0
  0
LINE
  5
BE0
330
792
100
AcDbEntity
  8
241
  6
CONTINUOUS
100
AcDbLine
 10
13.0
 20
-8.0
 30
0.0
 11
26.0
 21
-8.0
 31
0.0
  0
LINE
  5
BE1
330
792
100
AcDbEntity
  8
241
100
AcDbLine
 10
47.25
 20
0.0
 30
0.0
 11
47.25
 21
-11.75
 31
0.0
  0
LINE
  5
BE2
330
792
100
AcDbEntity
  8
241
  6
CONTINUOUS
100
AcDbLine
 10
38.98462448
 20
-18.14994169
 30
0.0
 11
38.98462448
 21
-0.00893674
 31
0.0
1001
GRPNAME
1000
PASTMD01
  0
LINE
  5
BE3
330
792
100
AcDbEntity
  8
241
  6
CONTINUOUS
100
AcDbLine
 10
38.03580834
 20
-18.88461708
 30
0.0
 11
38.03580834
 21
-0.00893674
 31
0.0
1001
GRPNAME
1000
PASTMD01
  0
LINE
  5
BE4
330
792
100
AcDbEntity
  8
241
  6
CONTINUOUS
100
AcDbLine
 10
42.03580834
 20
-15.78738736
 30
0.0
 11
42.03580834
 21
-0.00893674
 31
0.0
1001
GRPNAME
1000
PASTMD01
  0
LINE
  5
BE5
330
792
100
AcDbEntity
  8
241
  6
CONTINUOUS
100
AcDbLine
 10
42.98845841
 20
-15.05266036
 30
0.0
 11
42.98845841
 21
-0.00888513
 31
0.0
1001
GRPNAME
1000
PASTMD01
  0
LINE
  5
BE6
330
792
100
AcDbEntity
  8
241
100
AcDbLine
 10
34.0
 20
-22.5
 30
0.0
 11
34.0
 21
0.0
 31
0.0
  0
ARC
  5
BE7
330
792
100
AcDbEntity
  8
240
100
AcDbCircle
 10
52.37846615
 20
-26.75
 30
0.0
 40
15.0
100
AcDbArc
 50
90.0
 51
127.75088489
  0
LINE
  5
BE8
330
792
100
AcDbEntity
  8
240
100
AcDbLine
 10
43.19502378
 20
-14.88979822
 30
0.0
 11
34.38777051
 21
-21.70931988
 31
0.0
  0
ARC
  5
BE9
330
792
100
AcDbEntity
  8
240
100
AcDbCircle
 10
35.0
 20
-22.5
 30
0.0
 40
1.0
100
AcDbArc
 50
127.75088489
 51
180.0
  0
LINE
  5
BEA
330
792
100
AcDbEntity
  8
240
  6
CONTINUOUS
100
AcDbLine
 10
34.0
 20
-25.3
 30
0.0
 11
34.0
 21
-22.5
 31
0.0
  0
LINE
  5
BEB
330
792
100
AcDbEntity
  8
240
  6
CONTINUOUS
100
AcDbLine
 10
26.0
 20
26.3
 30
0.0
 11
33.0
 21
26.3
 31
0.0
  0
LINE
  5
BEC
330
792
100
AcDbEntity
  8
241
  6
CONTINUOUS
100
AcDbLine
 10
16.125
 20
8.0
 30
0.0
 11
16.125
 21
27.5
 31
0.0
  0
LINE
  5
BED
330
792
100
AcDbEntity
  8
241
  6
CONTINUOUS
100
AcDbLine
 10
14.62250093
 20
8.0
 30
0.0
 11
14.62250093
 21
31.5
 31
0.0
  0
LINE
  5
BEE
330
792
100
AcDbEntity
  8
241
  6
CONTINUOUS
100
AcDbLine
 10
21.37749907
 20
8.0
 30
0.0
 11
21.37749907
 21
31.5
 31
0.0
  0
LINE
  5
BEF
330
792
100
AcDbEntity
  8
241
  6
CONTINUOUS
100
AcDbLine
 10
19.875
 20
8.0
 30
0.0
 11
19.875
 21
27.5
 31
0.0
  0
LINE
  5
BF0
330
792
100
AcDbEntity
  8
241
  6
CONTINUOUS
100
AcDbLine
 10
13.0
 20
8.0
 30
0.0
 11
26.0
 21
8.0
 31
0.0
  0
LINE
  5
BF1
330
792
100
AcDbEntity
  8
240
  6
CONTINUOUS
100
AcDbLine
 10
19.875
 20
28.89759526
 30
0.0
 11
21.37749907
 21
31.5
 31
0.0
  0
LINE
  5
BF2
330
792
100
AcDbEntity
  8
240
  6
CONTINUOUS
100
AcDbLine
 10
16.125
 20
28.89759526
 30
0.0
 11
14.62250093
 21
31.5
 31
0.0
  0
LINE
  5
BF3
330
792
100
AcDbEntity
  8
240
  6
CONTINUOUS
100
AcDbLine
 10
16.125
 20
27.5
 30
0.0
 11
19.875
 21
27.5
 31
0.0
  0
LINE
  5
BF4
330
792
100
AcDbEntity
  8
240
  6
CONTINUOUS
100
AcDbLine
 10
16.125
 20
27.5
 30
0.0
 11
16.125
 21
28.89759526
 31
0.0
  0
LINE
  5
BF5
330
792
100
AcDbEntity
  8
240
  6
CONTINUOUS
100
AcDbLine
 10
19.875
 20
27.5
 30
0.0
 11
19.875
 21
28.89759526
 31
0.0
  0
ARC
  5
BF6
330
792
100
AcDbEntity
  8
240
  6
CONTINUOUS
100
AcDbCircle
 10
25.0
 20
30.5
 30
0.0
 40
1.0
100
AcDbArc
 50
0.0
 51
90.0
  0
LINE
  5
BF7
330
792
100
AcDbEntity
  8
240
  6
CONTINUOUS
100
AcDbLine
 10
26.0
 20
26.3
 30
0.0
 11
26.0
 21
30.5
 31
0.0
  0
LINE
  5
BF8
330
792
100
AcDbEntity
  8
240
  6
CONTINUOUS
100
AcDbLine
 10
21.37749907
 20
31.5
 30
0.0
 11
25.0
 21
31.5
 31
0.0
  0
LINE
  5
BF9
330
792
100
AcDbEntity
  8
240
  6
CONTINUOUS
100
AcDbLine
 10
34.0
 20
22.5
 30
0.0
 11
34.0
 21
25.3
 31
0.0
  0
ARC
  5
BFA
330
792
100
AcDbEntity
  8
240
100
AcDbCircle
 10
52.37846615
 20
26.75
 30
0.0
 40
15.0
100
AcDbArc
 50
232.24911511
 51
270.0
  0
LINE
  5
BFB
330
792
100
AcDbEntity
  8
240
100
AcDbLine
 10
43.19502378
 20
14.88979822
 30
0.0
 11
34.38777051
 21
21.70931988
 31
0.0
  0
ARC
  5
BFC
330
792
100
AcDbEntity
  8
240
100
AcDbCircle
 10
35.0
 20
22.5
 30
0.0
 40
1.0
100
AcDbArc
 50
180.0
 51
232.24911511
  0
ARC
  5
BFD
330
792
100
AcDbEntity
  8
240
  6
CONTINUOUS
100
AcDbCircle
 10
33.0
 20
25.3
 30
0.0
 40
1.0
100
AcDbArc
 50
0.0
 51
90.0
  0
LINE
  5
BFE
330
792
100
AcDbEntity
  8
246
100
AcDbLine
 10
105.0
 20
12.5
 30
0.0
 11
97.0
 21
12.5
 31
0.0
1001
GRPNAME
1000
PASTMD4G
  0
LINE
  5
BFF
330
792
100
AcDbEntity
  8
240
100
AcDbLine
 10
104.25
 20
11.89776928
 30
0.0
 11
95.18428122
 21
12.1
 31
0.0
  0
LINE
  5
C00
330
792
100
AcDbEntity
  8
241
100
AcDbLine
 10
93.89702364
 20
0.47315291
 30
0.0
 11
104.25
 21
-3.29502232
 31
0.0
  0
LINE
  5
C01
330
792
100
AcDbEntity
  8
241
100
AcDbLine
 10
95.18428121
 20
2.70274844
 30
0.0
 11
104.17379259
 21
1.11765504
 31
0.0
  0
LINE
  5
C02
330
792
100
AcDbEntity
  8
246
100
AcDbLine
 10
105.0
 20
-12.5
 30
0.0
 11
97.0
 21
-12.5
 31
0.0
1001
GRPNAME
1000
PASTMD4G
  0
LINE
  5
C03
330
792
100
AcDbEntity
  8
240
100
AcDbLine
 10
104.25
 20
-11.89776928
 30
0.0
 11
95.18428122
 21
-12.1
 31
0.0
  0
LINE
  5
C04
330
792
100
AcDbEntity
  8
241
100
AcDbLine
 10
86.51931253
 20
-5.04716552
 30
0.0
 11
104.25
 21
-10.60815201
 31
0.0
  0
POLYLINE
  5
C05
330
792
100
AcDbEntity
  8
241
100
AcDb3dPolyline
 66
     1
 10
0.0
 20
0.0
 30
0.0
 70
     8
  0
VERTEX
  5
C06
330
C05
100
AcDbEntity
  8
241
100
AcDbVertex
100
AcDb3dPolylineVertex
 10
98.854
 20
7.59605
 30
0.0
 70
    32
  0
VERTEX
  5
C07
330
C05
100
AcDbEntity
  8
241
100
AcDbVertex
100
AcDb3dPolylineVertex
 10
98.846
 20
7.54959
 30
0.0
 70
    32
  0
VERTEX
  5
C08
330
C05
100
AcDbEntity
  8
241
100
AcDbVertex
100
AcDb3dPolylineVertex
 10
98.839
 20
7.50303
 30
0.0
 70
    32
  0
VERTEX
  5
C09
330
C05
100
AcDbEntity
  8
241
100
AcDbVertex
100
AcDb3dPolylineVertex
 10
98.833
 20
7.45637
 30
0.0
 70
    32
  0
VERTEX
  5
C0A
330
C05
100
AcDbEntity
  8
241
100
AcDbVertex
100
AcDb3dPolylineVertex
 10
98.827
 20
7.40966
 30
0.0
 70
    32
  0
VERTEX
  5
C0B
330
C05
100
AcDbEntity
  8
241
100
AcDbVertex
100
AcDb3dPolylineVertex
 10
98.823
 20
7.36292
 30
0.0
 70
    32
  0
VERTEX
  5
C0C
330
C05
100
AcDbEntity
  8
241
100
AcDbVertex
100
AcDb3dPolylineVertex
 10
98.819
 20
7.31618
 30
0.0
 70
    32
  0
VERTEX
  5
C0D
330
C05
100
AcDbEntity
  8
241
100
AcDbVertex
100
AcDb3dPolylineVertex
 10
98.816
 20
7.26946
 30
0.0
 70
    32
  0
VERTEX
  5
C0E
330
C05
100
AcDbEntity
  8
241
100
AcDbVertex
100
AcDb3dPolylineVertex
 10
98.814
 20
7.2228
 30
0.0
 70
    32
  0
VERTEX
  5
C0F
330
C05
100
AcDbEntity
  8
241
100
AcDbVertex
100
AcDb3dPolylineVertex
 10
98.813
 20
7.17623
 30
0.0
 70
    32
  0
VERTEX
  5
C10
330
C05
100
AcDbEntity
  8
241
100
AcDbVertex
100
AcDb3dPolylineVertex
 10
98.813
 20
7.12977
 30
0.0
 70
    32
  0
VERTEX
  5
C11
330
C05
100
AcDbEntity
  8
241
100
AcDbVertex
100
AcDb3dPolylineVertex
 10
98.813
 20
7.08344
 30
0.0
 70
    32
  0
VERTEX
  5
C12
330
C05
100
AcDbEntity
  8
241
100
AcDbVertex
100
AcDb3dPolylineVertex
 10
98.814
 20
7.03729
 30
0.0
 70
    32
  0
VERTEX
  5
C13
330
C05
100
AcDbEntity
  8
241
100
AcDbVertex
100
AcDb3dPolylineVertex
 10
98.816
 20
6.99132
 30
0.0
 70
    32
  0
VERTEX
  5
C14
330
C05
100
AcDbEntity
  8
241
100
AcDbVertex
100
AcDb3dPolylineVertex
 10
98.819
 20
6.94559
 30
0.0
 70
    32
  0
VERTEX
  5
C15
330
C05
100
AcDbEntity
  8
241
100
AcDbVertex
100
AcDb3dPolylineVertex
 10
98.823
 20
6.9001
 30
0.0
 70
    32
  0
VERTEX
  5
C16
330
C05
100
AcDbEntity
  8
241
100
AcDbVertex
100
AcDb3dPolylineVertex
 10
98.827
 20
6.85489
 30
0.0
 70
    32
  0
VERTEX
  5
C17
330
C05
100
AcDbEntity
  8
241
100
AcDbVertex
100
AcDb3dPolylineVertex
 10
98.833
 20
6.80999
 30
0.0
 70
    32
  0
VERTEX
  5
C18
330
C05
100
AcDbEntity
  8
241
100
AcDbVertex
100
AcDb3dPolylineVertex
 10
98.839
 20
6.76542
 30
0.0
 70
    32
  0
VERTEX
  5
C19
330
C05
100
AcDbEntity
  8
241
100
AcDbVertex
100
AcDb3dPolylineVertex
 10
98.846
 20
6.7212
 30
0.0
 70
    32
  0
VERTEX
  5
C1A
330
C05
100
AcDbEntity
  8
241
100
AcDbVertex
100
AcDb3dPolylineVertex
 10
98.854
 20
6.67738
 30
0.0
 70
    32
  0
VERTEX
  5
C1B
330
C05
100
AcDbEntity
  8
241
100
AcDbVertex
100
AcDb3dPolylineVertex
 10
98.862
 20
6.63396
 30
0.0
 70
    32
  0
VERTEX
  5
C1C
330
C05
100
AcDbEntity
  8
241
100
AcDbVertex
100
AcDb3dPolylineVertex
 10
98.872
 20
6.59099
 30
0.0
 70
    32
  0
VERTEX
  5
C1D
330
C05
100
AcDbEntity
  8
241
100
AcDbVertex
100
AcDb3dPolylineVertex
 10
98.882
 20
6.54847
 30
0.0
 70
    32
  0
VERTEX
  5
C1E
330
C05
100
AcDbEntity
  8
241
100
AcDbVertex
100
AcDb3dPolylineVertex
 10
98.893
 20
6.50645
 30
0.0
 70
    32
  0
VERTEX
  5
C1F
330
C05
100
AcDbEntity
  8
241
100
AcDbVertex
100
AcDb3dPolylineVertex
 10
98.904
 20
6.46495
 30
0.0
 70
    32
  0
VERTEX
  5
C20
330
C05
100
AcDbEntity
  8
241
100
AcDbVertex
100
AcDb3dPolylineVertex
 10
98.917
 20
6.42398
 30
0.0
 70
    32
  0
VERTEX
  5
C21
330
C05
100
AcDbEntity
  8
241
100
AcDbVertex
100
AcDb3dPolylineVertex
 10
98.93
 20
6.38358
 30
0.0
 70
    32
  0
VERTEX
  5
C22
330
C05
100
AcDbEntity
  8
241
100
AcDbVertex
100
AcDb3dPolylineVertex
 10
98.944
 20
6.34376
 30
0.0
 70
    32
  0
VERTEX
  5
C23
330
C05
100
AcDbEntity
  8
241
100
AcDbVertex
100
AcDb3dPolylineVertex
 10
98.959
 20
6.30456
 30
0.0
 70
    32
  0
VERTEX
  5
C24
330
C05
100
AcDbEntity
  8
241
100
AcDbVertex
100
AcDb3dPolylineVertex
 10
98.974
 20
6.266
 30
0.0
 70
    32
  0
VERTEX
  5
C25
330
C05
100
AcDbEntity
  8
241
100
AcDbVertex
100
AcDb3dPolylineVertex
 10
98.991
 20
6.2281
 30
0.0
 70
    32
  0
VERTEX
  5
C26
330
C05
100
AcDbEntity
  8
241
100
AcDbVertex
100
AcDb3dPolylineVertex
 10
99.007
 20
6.19088
 30
0.0
 70
    32
  0
VERTEX
  5
C27
330
C05
100
AcDbEntity
  8
241
100
AcDbVertex
100
AcDb3dPolylineVertex
 10
99.025
 20
6.15436
 30
0.0
 70
    32
  0
VERTEX
  5
C28
330
C05
100
AcDbEntity
  8
241
100
AcDbVertex
100
AcDb3dPolylineVertex
 10
99.043
 20
6.11857
 30
0.0
 70
    32
  0
VERTEX
  5
C29
330
C05
100
AcDbEntity
  8
241
100
AcDbVertex
100
AcDb3dPolylineVertex
 10
99.062
 20
6.08353
 30
0.0
 70
    32
  0
VERTEX
  5
C2A
330
C05
100
AcDbEntity
  8
241
100
AcDbVertex
100
AcDb3dPolylineVertex
 10
99.082
 20
6.04927
 30
0.0
 70
    32
  0
VERTEX
  5
C2B
330
C05
100
AcDbEntity
  8
241
100
AcDbVertex
100
AcDb3dPolylineVertex
 10
99.103
 20
6.01579
 30
0.0
 70
    32
  0
VERTEX
  5
C2C
330
C05
100
AcDbEntity
  8
241
100
AcDbVertex
100
AcDb3dPolylineVertex
 10
99.124
 20
5.98312
 30
0.0
 70
    32
  0
VERTEX
  5
C2D
330
C05
100
AcDbEntity
  8
241
100
AcDbVertex
100
AcDb3dPolylineVertex
 10
99.145
 20
5.95128
 30
0.0
 70
    32
  0
VERTEX
  5
C2E
330
C05
100
AcDbEntity
  8
241
100
AcDbVertex
100
AcDb3dPolylineVertex
 10
99.167
 20
5.92029
 30
0.0
 70
    32
  0
VERTEX
  5
C2F
330
C05
100
AcDbEntity
  8
241
100
AcDbVertex
100
AcDb3dPolylineVertex
 10
99.19
 20
5.89017
 30
0.0
 70
    32
  0
VERTEX
  5
C30
330
C05
100
AcDbEntity
  8
241
100
AcDbVertex
100
AcDb3dPolylineVertex
 10
99.214
 20
5.86094
 30
0.0
 70
    32
  0
VERTEX
  5
C31
330
C05
100
AcDbEntity
  8
241
100
AcDbVertex
100
AcDb3dPolylineVertex
 10
99.238
 20
5.83261
 30
0.0
 70
    32
  0
VERTEX
  5
C32
330
C05
100
AcDbEntity
  8
241
100
AcDbVertex
100
AcDb3dPolylineVertex
 10
99.263
 20
5.8052
 30
0.0
 70
    32
  0
VERTEX
  5
C33
330
C05
100
AcDbEntity
  8
241
100
AcDbVertex
100
AcDb3dPolylineVertex
 10
99.288
 20
5.77873
 30
0.0
 70
    32
  0
VERTEX
  5
C34
330
C05
100
AcDbEntity
  8
241
100
AcDbVertex
100
AcDb3dPolylineVertex
 10
99.314
 20
5.75321
 30
0.0
 70
    32
  0
VERTEX
  5
C35
330
C05
100
AcDbEntity
  8
241
100
AcDbVertex
100
AcDb3dPolylineVertex
 10
99.34
 20
5.72866
 30
0.0
 70
    32
  0
VERTEX
  5
C36
330
C05
100
AcDbEntity
  8
241
100
AcDbVertex
100
AcDb3dPolylineVertex
 10
99.367
 20
5.7051
 30
0.0
 70
    32
  0
VERTEX
  5
C37
330
C05
100
AcDbEntity
  8
241
100
AcDbVertex
100
AcDb3dPolylineVertex
 10
99.394
 20
5.68253
 30
0.0
 70
    32
  0
VERTEX
  5
C38
330
C05
100
AcDbEntity
  8
241
100
AcDbVertex
100
AcDb3dPolylineVertex
 10
99.422
 20
5.66098
 30
0.0
 70
    32
  0
VERTEX
  5
C39
330
C05
100
AcDbEntity
  8
241
100
AcDbVertex
100
AcDb3dPolylineVertex
 10
99.45
 20
5.64044
 30
0.0
 70
    32
  0
VERTEX
  5
C3A
330
C05
100
AcDbEntity
  8
241
100
AcDbVertex
100
AcDb3dPolylineVertex
 10
99.478
 20
5.62095
 30
0.0
 70
    32
  0
VERTEX
  5
C3B
330
C05
100
AcDbEntity
  8
241
100
AcDbVertex
100
AcDb3dPolylineVertex
 10
99.507
 20
5.6025
 30
0.0
 70
    32
  0
VERTEX
  5
C3C
330
C05
100
AcDbEntity
  8
241
100
AcDbVertex
100
AcDb3dPolylineVertex
 10
99.537
 20
5.58512
 30
0.0
 70
    32
  0
VERTEX
  5
C3D
330
C05
100
AcDbEntity
  8
241
100
AcDbVertex
100
AcDb3dPolylineVertex
 10
99.567
 20
5.5688
 30
0.0
 70
    32
  0
VERTEX
  5
C3E
330
C05
100
AcDbEntity
  8
241
100
AcDbVertex
100
AcDb3dPolylineVertex
 10
99.597
 20
5.55356
 30
0.0
 70
    32
  0
VERTEX
  5
C3F
330
C05
100
AcDbEntity
  8
241
100
AcDbVertex
100
AcDb3dPolylineVertex
 10
99.628
 20
5.53942
 30
0.0
 70
    32
  0
VERTEX
  5
C40
330
C05
100
AcDbEntity
  8
241
100
AcDbVertex
100
AcDb3dPolylineVertex
 10
99.658
 20
5.52637
 30
0.0
 70
    32
  0
VERTEX
  5
C41
330
C05
100
AcDbEntity
  8
241
100
AcDbVertex
100
AcDb3dPolylineVertex
 10
99.69
 20
5.51442
 30
0.0
 70
    32
  0
VERTEX
  5
C42
330
C05
100
AcDbEntity
  8
241
100
AcDbVertex
100
AcDb3dPolylineVertex
 10
99.721
 20
5.50359
 30
0.0
 70
    32
  0
VERTEX
  5
C43
330
C05
100
AcDbEntity
  8
241
100
AcDbVertex
100
AcDb3dPolylineVertex
 10
99.753
 20
5.49388
 30
0.0
 70
    32
  0
VERTEX
  5
C44
330
C05
100
AcDbEntity
  8
241
100
AcDbVertex
100
AcDb3dPolylineVertex
 10
99.785
 20
5.48529
 30
0.0
 70
    32
  0
VERTEX
  5
C45
330
C05
100
AcDbEntity
  8
241
100
AcDbVertex
100
AcDb3dPolylineVertex
 10
99.817
 20
5.47783
 30
0.0
 70
    32
  0
VERTEX
  5
C46
330
C05
100
AcDbEntity
  8
241
100
AcDbVertex
100
AcDb3dPolylineVertex
 10
99.85
 20
5.47151
 30
0.0
 70
    32
  0
VERTEX
  5
C47
330
C05
100
AcDbEntity
  8
241
100
AcDbVertex
100
AcDb3dPolylineVertex
 10
99.883
 20
5.46633
 30
0.0
 70
    32
  0
VERTEX
  5
C48
330
C05
100
AcDbEntity
  8
241
100
AcDbVertex
100
AcDb3dPolylineVertex
 10
99.916
 20
5.46229
 30
0.0
 70
    32
  0
VERTEX
  5
C49
330
C05
100
AcDbEntity
  8
241
100
AcDbVertex
100
AcDb3dPolylineVertex
 10
99.949
 20
5.45939
 30
0.0
 70
    32
  0
VERTEX
  5
C4A
330
C05
100
AcDbEntity
  8
241
100
AcDbVertex
100
AcDb3dPolylineVertex
 10
99.982
 20
5.45764
 30
0.0
 70
    32
  0
VERTEX
  5
C4B
330
C05
100
AcDbEntity
  8
241
100
AcDbVertex
100
AcDb3dPolylineVertex
 10
100.015
 20
5.45703
 30
0.0
 70
    32
  0
VERTEX
  5
C4C
330
C05
100
AcDbEntity
  8
241
100
AcDbVertex
100
AcDb3dPolylineVertex
 10
100.049
 20
5.45757
 30
0.0
 70
    32
  0
VERTEX
  5
C4D
330
C05
100
AcDbEntity
  8
241
100
AcDbVertex
100
AcDb3dPolylineVertex
 10
100.082
 20
5.45926
 30
0.0
 70
    32
  0
VERTEX
  5
C4E
330
C05
100
AcDbEntity
  8
241
100
AcDbVertex
100
AcDb3dPolylineVertex
 10
100.116
 20
5.4621
 30
0.0
 70
    32
  0
VERTEX
  5
C4F
330
C05
100
AcDbEntity
  8
241
100
AcDbVertex
100
AcDb3dPolylineVertex
 10
100.149
 20
5.46607
 30
0.0
 70
    32
  0
VERTEX
  5
C50
330
C05
100
AcDbEntity
  8
241
100
AcDbVertex
100
AcDb3dPolylineVertex
 10
100.183
 20
5.4712
 30
0.0
 70
    32
  0
VERTEX
  5
C51
330
C05
100
AcDbEntity
  8
241
100
AcDbVertex
100
AcDb3dPolylineVertex
 10
100.217
 20
5.47746
 30
0.0
 70
    32
  0
VERTEX
  5
C52
330
C05
100
AcDbEntity
  8
241
100
AcDbVertex
100
AcDb3dPolylineVertex
 10
100.25
 20
5.48485
 30
0.0
 70
    32
  0
VERTEX
  5
C53
330
C05
100
AcDbEntity
  8
241
100
AcDbVertex
100
AcDb3dPolylineVertex
 10
100.284
 20
5.49337
 30
0.0
 70
    32
  0
VERTEX
  5
C54
330
C05
100
AcDbEntity
  8
241
100
AcDbVertex
100
AcDb3dPolylineVertex
 10
100.317
 20
5.50302
 30
0.0
 70
    32
  0
VERTEX
  5
C55
330
C05
100
AcDbEntity
  8
241
100
AcDbVertex
100
AcDb3dPolylineVertex
 10
100.351
 20
5.51379
 30
0.0
 70
    32
  0
VERTEX
  5
C56
330
C05
100
AcDbEntity
  8
241
100
AcDbVertex
100
AcDb3dPolylineVertex
 10
100.384
 20
5.52568
 30
0.0
 70
    32
  0
VERTEX
  5
C57
330
C05
100
AcDbEntity
  8
241
100
AcDbVertex
100
AcDb3dPolylineVertex
 10
100.417
 20
5.53867
 30
0.0
 70
    32
  0
VERTEX
  5
C58
330
C05
100
AcDbEntity
  8
241
100
AcDbVertex
100
AcDb3dPolylineVertex
 10
100.45
 20
5.55275
 30
0.0
 70
    32
  0
VERTEX
  5
C59
330
C05
100
AcDbEntity
  8
241
100
AcDbVertex
100
AcDb3dPolylineVertex
 10
100.483
 20
5.56793
 30
0.0
 70
    32
  0
VERTEX
  5
C5A
330
C05
100
AcDbEntity
  8
241
100
AcDbVertex
100
AcDb3dPolylineVertex
 10
100.516
 20
5.58419
 30
0.0
 70
    32
  0
VERTEX
  5
C5B
330
C05
100
AcDbEntity
  8
241
100
AcDbVertex
100
AcDb3dPolylineVertex
 10
100.549
 20
5.60151
 30
0.0
 70
    32
  0
VERTEX
  5
C5C
330
C05
100
AcDbEntity
  8
241
100
AcDbVertex
100
AcDb3dPolylineVertex
 10
100.581
 20
5.6199
 30
0.0
 70
    32
  0
VERTEX
  5
C5D
330
C05
100
AcDbEntity
  8
241
100
AcDbVertex
100
AcDb3dPolylineVertex
 10
100.613
 20
5.63934
 30
0.0
 70
    32
  0
VERTEX
  5
C5E
330
C05
100
AcDbEntity
  8
241
100
AcDbVertex
100
AcDb3dPolylineVertex
 10
100.645
 20
5.65981
 30
0.0
 70
    32
  0
VERTEX
  5
C5F
330
C05
100
AcDbEntity
  8
241
100
AcDbVertex
100
AcDb3dPolylineVertex
 10
100.676
 20
5.68131
 30
0.0
 70
    32
  0
VERTEX
  5
C60
330
C05
100
AcDbEntity
  8
241
100
AcDbVertex
100
AcDb3dPolylineVertex
 10
100.708
 20
5.70383
 30
0.0
 70
    32
  0
VERTEX
  5
C61
330
C05
100
AcDbEntity
  8
241
100
AcDbVertex
100
AcDb3dPolylineVertex
 10
100.738
 20
5.72734
 30
0.0
 70
    32
  0
VERTEX
  5
C62
330
C05
100
AcDbEntity
  8
241
100
AcDbVertex
100
AcDb3dPolylineVertex
 10
100.769
 20
5.75183
 30
0.0
 70
    32
  0
VERTEX
  5
C63
330
C05
100
AcDbEntity
  8
241
100
AcDbVertex
100
AcDb3dPolylineVertex
 10
100.799
 20
5.77729
 30
0.0
 70
    32
  0
VERTEX
  5
C64
330
C05
100
AcDbEntity
  8
241
100
AcDbVertex
100
AcDb3dPolylineVertex
 10
100.829
 20
5.80371
 30
0.0
 70
    32
  0
VERTEX
  5
C65
330
C05
100
AcDbEntity
  8
241
100
AcDbVertex
100
AcDb3dPolylineVertex
 10
100.859
 20
5.83107
 30
0.0
 70
    32
  0
VERTEX
  5
C66
330
C05
100
AcDbEntity
  8
241
100
AcDbVertex
100
AcDb3dPolylineVertex
 10
100.888
 20
5.85935
 30
0.0
 70
    32
  0
VERTEX
  5
C67
330
C05
100
AcDbEntity
  8
241
100
AcDbVertex
100
AcDb3dPolylineVertex
 10
100.916
 20
5.88853
 30
0.0
 70
    32
  0
VERTEX
  5
C68
330
C05
100
AcDbEntity
  8
241
100
AcDbVertex
100
AcDb3dPolylineVertex
 10
100.945
 20
5.91861
 30
0.0
 70
    32
  0
VERTEX
  5
C69
330
C05
100
AcDbEntity
  8
241
100
AcDbVertex
100
AcDb3dPolylineVertex
 10
100.972
 20
5.94955
 30
0.0
 70
    32
  0
VERTEX
  5
C6A
330
C05
100
AcDbEntity
  8
241
100
AcDbVertex
100
AcDb3dPolylineVertex
 10
101.0
 20
5.98134
 30
0.0
 70
    32
  0
VERTEX
  5
C6B
330
C05
100
AcDbEntity
  8
241
100
AcDbVertex
100
AcDb3dPolylineVertex
 10
101.026
 20
6.01396
 30
0.0
 70
    32
  0
VERTEX
  5
C6C
330
C05
100
AcDbEntity
  8
241
100
AcDbVertex
100
AcDb3dPolylineVertex
 10
101.053
 20
6.04739
 30
0.0
 70
    32
  0
VERTEX
  5
C6D
330
C05
100
AcDbEntity
  8
241
100
AcDbVertex
100
AcDb3dPolylineVertex
 10
101.078
 20
6.08162
 30
0.0
 70
    32
  0
VERTEX
  5
C6E
330
C05
100
AcDbEntity
  8
241
100
AcDbVertex
100
AcDb3dPolylineVertex
 10
101.104
 20
6.11662
 30
0.0
 70
    32
  0
VERTEX
  5
C6F
330
C05
100
AcDbEntity
  8
241
100
AcDbVertex
100
AcDb3dPolylineVertex
 10
101.128
 20
6.15236
 30
0.0
 70
    32
  0
VERTEX
  5
C70
330
C05
100
AcDbEntity
  8
241
100
AcDbVertex
100
AcDb3dPolylineVertex
 10
101.152
 20
6.18884
 30
0.0
 70
    32
  0
VERTEX
  5
C71
330
C05
100
AcDbEntity
  8
241
100
AcDbVertex
100
AcDb3dPolylineVertex
 10
101.176
 20
6.22602
 30
0.0
 70
    32
  0
VERTEX
  5
C72
330
C05
100
AcDbEntity
  8
241
100
AcDbVertex
100
AcDb3dPolylineVertex
 10
101.199
 20
6.26389
 30
0.0
 70
    32
  0
VERTEX
  5
C73
330
C05
100
AcDbEntity
  8
241
100
AcDbVertex
100
AcDb3dPolylineVertex
 10
101.221
 20
6.30242
 30
0.0
 70
    32
  0
VERTEX
  5
C74
330
C05
100
AcDbEntity
  8
241
100
AcDbVertex
100
AcDb3dPolylineVertex
 10
101.243
 20
6.34158
 30
0.0
 70
    32
  0
VERTEX
  5
C75
330
C05
100
AcDbEntity
  8
241
100
AcDbVertex
100
AcDb3dPolylineVertex
 10
101.264
 20
6.38136
 30
0.0
 70
    32
  0
VERTEX
  5
C76
330
C05
100
AcDbEntity
  8
241
100
AcDbVertex
100
AcDb3dPolylineVertex
 10
101.284
 20
6.42173
 30
0.0
 70
    32
  0
VERTEX
  5
C77
330
C05
100
AcDbEntity
  8
241
100
AcDbVertex
100
AcDb3dPolylineVertex
 10
101.304
 20
6.46267
 30
0.0
 70
    32
  0
VERTEX
  5
C78
330
C05
100
AcDbEntity
  8
241
100
AcDbVertex
100
AcDb3dPolylineVertex
 10
101.323
 20
6.50414
 30
0.0
 70
    32
  0
VERTEX
  5
C79
330
C05
100
AcDbEntity
  8
241
100
AcDbVertex
100
AcDb3dPolylineVertex
 10
101.341
 20
6.54614
 30
0.0
 70
    32
  0
VERTEX
  5
C7A
330
C05
100
AcDbEntity
  8
241
100
AcDbVertex
100
AcDb3dPolylineVertex
 10
101.359
 20
6.58862
 30
0.0
 70
    32
  0
VERTEX
  5
C7B
330
C05
100
AcDbEntity
  8
241
100
AcDbVertex
100
AcDb3dPolylineVertex
 10
101.376
 20
6.63158
 30
0.0
 70
    32
  0
VERTEX
  5
C7C
330
C05
100
AcDbEntity
  8
241
100
AcDbVertex
100
AcDb3dPolylineVertex
 10
101.392
 20
6.67497
 30
0.0
 70
    32
  0
VERTEX
  5
C7D
330
C05
100
AcDbEntity
  8
241
100
AcDbVertex
100
AcDb3dPolylineVertex
 10
101.407
 20
6.71877
 30
0.0
 70
    32
  0
VERTEX
  5
C7E
330
C05
100
AcDbEntity
  8
241
100
AcDbVertex
100
AcDb3dPolylineVertex
 10
101.422
 20
6.76296
 30
0.0
 70
    32
  0
VERTEX
  5
C7F
330
C05
100
AcDbEntity
  8
241
100
AcDbVertex
100
AcDb3dPolylineVertex
 10
101.436
 20
6.80751
 30
0.0
 70
    32
  0
VERTEX
  5
C80
330
C05
100
AcDbEntity
  8
241
100
AcDbVertex
100
AcDb3dPolylineVertex
 10
101.449
 20
6.8524
 30
0.0
 70
    32
  0
VERTEX
  5
C81
330
C05
100
AcDbEntity
  8
241
100
AcDbVertex
100
AcDb3dPolylineVertex
 10
101.462
 20
6.89759
 30
0.0
 70
    32
  0
VERTEX
  5
C82
330
C05
100
AcDbEntity
  8
241
100
AcDbVertex
100
AcDb3dPolylineVertex
 10
101.474
 20
6.94307
 30
0.0
 70
    32
  0
VERTEX
  5
C83
330
C05
100
AcDbEntity
  8
241
100
AcDbVertex
100
AcDb3dPolylineVertex
 10
101.485
 20
6.98879
 30
0.0
 70
    32
  0
VERTEX
  5
C84
330
C05
100
AcDbEntity
  8
241
100
AcDbVertex
100
AcDb3dPolylineVertex
 10
101.495
 20
7.03474
 30
0.0
 70
    32
  0
VERTEX
  5
C85
330
C05
100
AcDbEntity
  8
241
100
AcDbVertex
100
AcDb3dPolylineVertex
 10
101.504
 20
7.08089
 30
0.0
 70
    32
  0
VERTEX
  5
C86
330
C05
100
AcDbEntity
  8
241
100
AcDbVertex
100
AcDb3dPolylineVertex
 10
101.513
 20
7.1272
 30
0.0
 70
    32
  0
SEQEND
  5
C87
330
C05
100
AcDbEntity
  8
241
  0
LINE
  5
C88
330
792
100
AcDbEntity
  8
240
100
AcDbLine
 10
93.87806342
 20
-11.75
 30
0.0
 11
95.18428122
 21
-12.1
 31
0.0
  0
LINE
  5
C89
330
792
100
AcDbEntity
  8
241
100
AcDbLine
 10
93.75457206
 20
0.22641954
 30
0.0
 11
88.05081664
 21
1.23214551
 31
0.0
  0
ARC
  5
C8A
330
792
100
AcDbEntity
  8
241
100
AcDbCircle
 10
87.48846337
 20
-1.95711833
 30
0.0
 40
3.238463372383664
100
AcDbArc
 50
79.9999824
 51
252.58666619
  0
LINE
  5
C8B
330
792
100
AcDbEntity
  8
241
100
AcDbLine
 10
95.18428121
 20
2.70274844
 30
0.0
 11
93.75457206
 21
0.22641954
 31
0.0
  0
LINE
  5
C8C
330
792
100
AcDbEntity
  8
240
100
AcDbLine
 10
93.87806342
 20
11.75
 30
0.0
 11
95.18428122
 21
12.1
 31
0.0
  0
POLYLINE
  5
C8D
330
792
100
AcDbEntity
  8
241
100
AcDb3dPolyline
 66
     1
 10
0.0
 20
0.0
 30
0.0
 70
     8
  0
VERTEX
  5
C8E
330
C8D
100
AcDbEntity
  8
241
100
AcDbVertex
100
AcDb3dPolylineVertex
 10
101.513
 20
7.1272
 30
0.0
 70
    32
  0
VERTEX
  5
C8F
330
C8D
100
AcDbEntity
  8
241
100
AcDbVertex
100
AcDb3dPolylineVertex
 10
101.518
 20
7.16156
 30
0.0
 70
    32
  0
VERTEX
  5
C90
330
C8D
100
AcDbEntity
  8
241
100
AcDbVertex
100
AcDb3dPolylineVertex
 10
101.523
 20
7.19605
 30
0.0
 70
    32
  0
VERTEX
  5
C91
330
C8D
100
AcDbEntity
  8
241
100
AcDbVertex
100
AcDb3dPolylineVertex
 10
101.527
 20
7.23063
 30
0.0
 70
    32
  0
VERTEX
  5
C92
330
C8D
100
AcDbEntity
  8
241
100
AcDbVertex
100
AcDb3dPolylineVertex
 10
101.53
 20
7.26529
 30
0.0
 70
    32
  0
VERTEX
  5
C93
330
C8D
100
AcDbEntity
  8
241
100
AcDbVertex
100
AcDb3dPolylineVertex
 10
101.533
 20
7.30001
 30
0.0
 70
    32
  0
VERTEX
  5
C94
330
C8D
100
AcDbEntity
  8
241
100
AcDbVertex
100
AcDb3dPolylineVertex
 10
101.534
 20
7.33477
 30
0.0
 70
    32
  0
VERTEX
  5
C95
330
C8D
100
AcDbEntity
  8
241
100
AcDbVertex
100
AcDb3dPolylineVertex
 10
101.535
 20
7.36954
 30
0.0
 70
    32
  0
VERTEX
  5
C96
330
C8D
100
AcDbEntity
  8
241
100
AcDbVertex
100
AcDb3dPolylineVertex
 10
101.535
 20
7.40431
 30
0.0
 70
    32
  0
VERTEX
  5
C97
330
C8D
100
AcDbEntity
  8
241
100
AcDbVertex
100
AcDb3dPolylineVertex
 10
101.534
 20
7.43906
 30
0.0
 70
    32
  0
VERTEX
  5
C98
330
C8D
100
AcDbEntity
  8
241
100
AcDbVertex
100
AcDb3dPolylineVertex
 10
101.533
 20
7.47375
 30
0.0
 70
    32
  0
VERTEX
  5
C99
330
C8D
100
AcDbEntity
  8
241
100
AcDbVertex
100
AcDb3dPolylineVertex
 10
101.53
 20
7.50838
 30
0.0
 70
    32
  0
VERTEX
  5
C9A
330
C8D
100
AcDbEntity
  8
241
100
AcDbVertex
100
AcDb3dPolylineVertex
 10
101.527
 20
7.54292
 30
0.0
 70
    32
  0
VERTEX
  5
C9B
330
C8D
100
AcDbEntity
  8
241
100
AcDbVertex
100
AcDb3dPolylineVertex
 10
101.523
 20
7.57735
 30
0.0
 70
    32
  0
VERTEX
  5
C9C
330
C8D
100
AcDbEntity
  8
241
100
AcDbVertex
100
AcDb3dPolylineVertex
 10
101.518
 20
7.61166
 30
0.0
 70
    32
  0
VERTEX
  5
C9D
330
C8D
100
AcDbEntity
  8
241
100
AcDbVertex
100
AcDb3dPolylineVertex
 10
101.512
 20
7.64581
 30
0.0
 70
    32
  0
VERTEX
  5
C9E
330
C8D
100
AcDbEntity
  8
241
100
AcDbVertex
100
AcDb3dPolylineVertex
 10
101.506
 20
7.67979
 30
0.0
 70
    32
  0
VERTEX
  5
C9F
330
C8D
100
AcDbEntity
  8
241
100
AcDbVertex
100
AcDb3dPolylineVertex
 10
101.499
 20
7.71357
 30
0.0
 70
    32
  0
VERTEX
  5
CA0
330
C8D
100
AcDbEntity
  8
241
100
AcDbVertex
100
AcDb3dPolylineVertex
 10
101.49
 20
7.74715
 30
0.0
 70
    32
  0
VERTEX
  5
CA1
330
C8D
100
AcDbEntity
  8
241
100
AcDbVertex
100
AcDb3dPolylineVertex
 10
101.482
 20
7.78049
 30
0.0
 70
    32
  0
VERTEX
  5
CA2
330
C8D
100
AcDbEntity
  8
241
100
AcDbVertex
100
AcDb3dPolylineVertex
 10
101.472
 20
7.81358
 30
0.0
 70
    32
  0
VERTEX
  5
CA3
330
C8D
100
AcDbEntity
  8
241
100
AcDbVertex
100
AcDb3dPolylineVertex
 10
101.461
 20
7.8464
 30
0.0
 70
    32
  0
VERTEX
  5
CA4
330
C8D
100
AcDbEntity
  8
241
100
AcDbVertex
100
AcDb3dPolylineVertex
 10
101.45
 20
7.87893
 30
0.0
 70
    32
  0
VERTEX
  5
CA5
330
C8D
100
AcDbEntity
  8
241
100
AcDbVertex
100
AcDb3dPolylineVertex
 10
101.438
 20
7.91115
 30
0.0
 70
    32
  0
VERTEX
  5
CA6
330
C8D
100
AcDbEntity
  8
241
100
AcDbVertex
100
AcDb3dPolylineVertex
 10
101.426
 20
7.94303
 30
0.0
 70
    32
  0
VERTEX
  5
CA7
330
C8D
100
AcDbEntity
  8
241
100
AcDbVertex
100
AcDb3dPolylineVertex
 10
101.412
 20
7.97457
 30
0.0
 70
    32
  0
VERTEX
  5
CA8
330
C8D
100
AcDbEntity
  8
241
100
AcDbVertex
100
AcDb3dPolylineVertex
 10
101.398
 20
8.00573
 30
0.0
 70
    32
  0
VERTEX
  5
CA9
330
C8D
100
AcDbEntity
  8
241
100
AcDbVertex
100
AcDb3dPolylineVertex
 10
101.383
 20
8.03651
 30
0.0
 70
    32
  0
VERTEX
  5
CAA
330
C8D
100
AcDbEntity
  8
241
100
AcDbVertex
100
AcDb3dPolylineVertex
 10
101.367
 20
8.06688
 30
0.0
 70
    32
  0
VERTEX
  5
CAB
330
C8D
100
AcDbEntity
  8
241
100
AcDbVertex
100
AcDb3dPolylineVertex
 10
101.351
 20
8.09682
 30
0.0
 70
    32
  0
VERTEX
  5
CAC
330
C8D
100
AcDbEntity
  8
241
100
AcDbVertex
100
AcDb3dPolylineVertex
 10
101.334
 20
8.12633
 30
0.0
 70
    32
  0
VERTEX
  5
CAD
330
C8D
100
AcDbEntity
  8
241
100
AcDbVertex
100
AcDb3dPolylineVertex
 10
101.316
 20
8.15537
 30
0.0
 70
    32
  0
VERTEX
  5
CAE
330
C8D
100
AcDbEntity
  8
241
100
AcDbVertex
100
AcDb3dPolylineVertex
 10
101.298
 20
8.18393
 30
0.0
 70
    32
  0
VERTEX
  5
CAF
330
C8D
100
AcDbEntity
  8
241
100
AcDbVertex
100
AcDb3dPolylineVertex
 10
101.278
 20
8.212
 30
0.0
 70
    32
  0
VERTEX
  5
CB0
330
C8D
100
AcDbEntity
  8
241
100
AcDbVertex
100
AcDb3dPolylineVertex
 10
101.259
 20
8.23956
 30
0.0
 70
    32
  0
VERTEX
  5
CB1
330
C8D
100
AcDbEntity
  8
241
100
AcDbVertex
100
AcDb3dPolylineVertex
 10
101.238
 20
8.26659
 30
0.0
 70
    32
  0
VERTEX
  5
CB2
330
C8D
100
AcDbEntity
  8
241
100
AcDbVertex
100
AcDb3dPolylineVertex
 10
101.217
 20
8.29307
 30
0.0
 70
    32
  0
VERTEX
  5
CB3
330
C8D
100
AcDbEntity
  8
241
100
AcDbVertex
100
AcDb3dPolylineVertex
 10
101.195
 20
8.31899
 30
0.0
 70
    32
  0
VERTEX
  5
CB4
330
C8D
100
AcDbEntity
  8
241
100
AcDbVertex
100
AcDb3dPolylineVertex
 10
101.173
 20
8.34434
 30
0.0
 70
    32
  0
VERTEX
  5
CB5
330
C8D
100
AcDbEntity
  8
241
100
AcDbVertex
100
AcDb3dPolylineVertex
 10
101.15
 20
8.36909
 30
0.0
 70
    32
  0
VERTEX
  5
CB6
330
C8D
100
AcDbEntity
  8
241
100
AcDbVertex
100
AcDb3dPolylineVertex
 10
101.127
 20
8.39324
 30
0.0
 70
    32
  0
VERTEX
  5
CB7
330
C8D
100
AcDbEntity
  8
241
100
AcDbVertex
100
AcDb3dPolylineVertex
 10
101.103
 20
8.41676
 30
0.0
 70
    32
  0
VERTEX
  5
CB8
330
C8D
100
AcDbEntity
  8
241
100
AcDbVertex
100
AcDb3dPolylineVertex
 10
101.078
 20
8.43965
 30
0.0
 70
    32
  0
VERTEX
  5
CB9
330
C8D
100
AcDbEntity
  8
241
100
AcDbVertex
100
AcDb3dPolylineVertex
 10
101.053
 20
8.46189
 30
0.0
 70
    32
  0
VERTEX
  5
CBA
330
C8D
100
AcDbEntity
  8
241
100
AcDbVertex
100
AcDb3dPolylineVertex
 10
101.027
 20
8.48347
 30
0.0
 70
    32
  0
VERTEX
  5
CBB
330
C8D
100
AcDbEntity
  8
241
100
AcDbVertex
100
AcDb3dPolylineVertex
 10
101.001
 20
8.50437
 30
0.0
 70
    32
  0
VERTEX
  5
CBC
330
C8D
100
AcDbEntity
  8
241
100
AcDbVertex
100
AcDb3dPolylineVertex
 10
100.974
 20
8.52458
 30
0.0
 70
    32
  0
VERTEX
  5
CBD
330
C8D
100
AcDbEntity
  8
241
100
AcDbVertex
100
AcDb3dPolylineVertex
 10
100.947
 20
8.54409
 30
0.0
 70
    32
  0
VERTEX
  5
CBE
330
C8D
100
AcDbEntity
  8
241
100
AcDbVertex
100
AcDb3dPolylineVertex
 10
100.92
 20
8.56289
 30
0.0
 70
    32
  0
VERTEX
  5
CBF
330
C8D
100
AcDbEntity
  8
241
100
AcDbVertex
100
AcDb3dPolylineVertex
 10
100.892
 20
8.58097
 30
0.0
 70
    32
  0
VERTEX
  5
CC0
330
C8D
100
AcDbEntity
  8
241
100
AcDbVertex
100
AcDb3dPolylineVertex
 10
100.863
 20
8.59831
 30
0.0
 70
    32
  0
VERTEX
  5
CC1
330
C8D
100
AcDbEntity
  8
241
100
AcDbVertex
100
AcDb3dPolylineVertex
 10
100.834
 20
8.61491
 30
0.0
 70
    32
  0
VERTEX
  5
CC2
330
C8D
100
AcDbEntity
  8
241
100
AcDbVertex
100
AcDb3dPolylineVertex
 10
100.805
 20
8.63075
 30
0.0
 70
    32
  0
VERTEX
  5
CC3
330
C8D
100
AcDbEntity
  8
241
100
AcDbVertex
100
AcDb3dPolylineVertex
 10
100.775
 20
8.64583
 30
0.0
 70
    32
  0
VERTEX
  5
CC4
330
C8D
100
AcDbEntity
  8
241
100
AcDbVertex
100
AcDb3dPolylineVertex
 10
100.745
 20
8.66013
 30
0.0
 70
    32
  0
VERTEX
  5
CC5
330
C8D
100
AcDbEntity
  8
241
100
AcDbVertex
100
AcDb3dPolylineVertex
 10
100.715
 20
8.67365
 30
0.0
 70
    32
  0
VERTEX
  5
CC6
330
C8D
100
AcDbEntity
  8
241
100
AcDbVertex
100
AcDb3dPolylineVertex
 10
100.684
 20
8.68639
 30
0.0
 70
    32
  0
VERTEX
  5
CC7
330
C8D
100
AcDbEntity
  8
241
100
AcDbVertex
100
AcDb3dPolylineVertex
 10
100.653
 20
8.69832
 30
0.0
 70
    32
  0
VERTEX
  5
CC8
330
C8D
100
AcDbEntity
  8
241
100
AcDbVertex
100
AcDb3dPolylineVertex
 10
100.622
 20
8.70945
 30
0.0
 70
    32
  0
VERTEX
  5
CC9
330
C8D
100
AcDbEntity
  8
241
100
AcDbVertex
100
AcDb3dPolylineVertex
 10
100.591
 20
8.71976
 30
0.0
 70
    32
  0
VERTEX
  5
CCA
330
C8D
100
AcDbEntity
  8
241
100
AcDbVertex
100
AcDb3dPolylineVertex
 10
100.559
 20
8.72926
 30
0.0
 70
    32
  0
VERTEX
  5
CCB
330
C8D
100
AcDbEntity
  8
241
100
AcDbVertex
100
AcDb3dPolylineVertex
 10
100.527
 20
8.73794
 30
0.0
 70
    32
  0
VERTEX
  5
CCC
330
C8D
100
AcDbEntity
  8
241
100
AcDbVertex
100
AcDb3dPolylineVertex
 10
100.495
 20
8.74578
 30
0.0
 70
    32
  0
VERTEX
  5
CCD
330
C8D
100
AcDbEntity
  8
241
100
AcDbVertex
100
AcDb3dPolylineVertex
 10
100.462
 20
8.7528
 30
0.0
 70
    32
  0
VERTEX
  5
CCE
330
C8D
100
AcDbEntity
  8
241
100
AcDbVertex
100
AcDb3dPolylineVertex
 10
100.43
 20
8.75897
 30
0.0
 70
    32
  0
VERTEX
  5
CCF
330
C8D
100
AcDbEntity
  8
241
100
AcDbVertex
100
AcDb3dPolylineVertex
 10
100.397
 20
8.7643
 30
0.0
 70
    32
  0
VERTEX
  5
CD0
330
C8D
100
AcDbEntity
  8
241
100
AcDbVertex
100
AcDb3dPolylineVertex
 10
100.364
 20
8.76879
 30
0.0
 70
    32
  0
VERTEX
  5
CD1
330
C8D
100
AcDbEntity
  8
241
100
AcDbVertex
100
AcDb3dPolylineVertex
 10
100.331
 20
8.77243
 30
0.0
 70
    32
  0
VERTEX
  5
CD2
330
C8D
100
AcDbEntity
  8
241
100
AcDbVertex
100
AcDb3dPolylineVertex
 10
100.298
 20
8.77522
 30
0.0
 70
    32
  0
VERTEX
  5
CD3
330
C8D
100
AcDbEntity
  8
241
100
AcDbVertex
100
AcDb3dPolylineVertex
 10
100.265
 20
8.77716
 30
0.0
 70
    32
  0
VERTEX
  5
CD4
330
C8D
100
AcDbEntity
  8
241
100
AcDbVertex
100
AcDb3dPolylineVertex
 10
100.232
 20
8.77824
 30
0.0
 70
    32
  0
VERTEX
  5
CD5
330
C8D
100
AcDbEntity
  8
241
100
AcDbVertex
100
AcDb3dPolylineVertex
 10
100.199
 20
8.77848
 30
0.0
 70
    32
  0
VERTEX
  5
CD6
330
C8D
100
AcDbEntity
  8
241
100
AcDbVertex
100
AcDb3dPolylineVertex
 10
100.166
 20
8.77785
 30
0.0
 70
    32
  0
VERTEX
  5
CD7
330
C8D
100
AcDbEntity
  8
241
100
AcDbVertex
100
AcDb3dPolylineVertex
 10
100.132
 20
8.77638
 30
0.0
 70
    32
  0
VERTEX
  5
CD8
330
C8D
100
AcDbEntity
  8
241
100
AcDbVertex
100
AcDb3dPolylineVertex
 10
100.099
 20
8.77405
 30
0.0
 70
    32
  0
VERTEX
  5
CD9
330
C8D
100
AcDbEntity
  8
241
100
AcDbVertex
100
AcDb3dPolylineVertex
 10
100.066
 20
8.77088
 30
0.0
 70
    32
  0
VERTEX
  5
CDA
330
C8D
100
AcDbEntity
  8
241
100
AcDbVertex
100
AcDb3dPolylineVertex
 10
100.033
 20
8.76685
 30
0.0
 70
    32
  0
VERTEX
  5
CDB
330
C8D
100
AcDbEntity
  8
241
100
AcDbVertex
100
AcDb3dPolylineVertex
 10
100.0
 20
8.76198
 30
0.0
 70
    32
  0
VERTEX
  5
CDC
330
C8D
100
AcDbEntity
  8
241
100
AcDbVertex
100
AcDb3dPolylineVertex
 10
99.967
 20
8.75626
 30
0.0
 70
    32
  0
VERTEX
  5
CDD
330
C8D
100
AcDbEntity
  8
241
100
AcDbVertex
100
AcDb3dPolylineVertex
 10
99.935
 20
8.74971
 30
0.0
 70
    32
  0
VERTEX
  5
CDE
330
C8D
100
AcDbEntity
  8
241
100
AcDbVertex
100
AcDb3dPolylineVertex
 10
99.902
 20
8.74231
 30
0.0
 70
    32
  0
VERTEX
  5
CDF
330
C8D
100
AcDbEntity
  8
241
100
AcDbVertex
100
AcDb3dPolylineVertex
 10
99.87
 20
8.73409
 30
0.0
 70
    32
  0
VERTEX
  5
CE0
330
C8D
100
AcDbEntity
  8
241
100
AcDbVertex
100
AcDb3dPolylineVertex
 10
99.838
 20
8.72504
 30
0.0
 70
    32
  0
VERTEX
  5
CE1
330
C8D
100
AcDbEntity
  8
241
100
AcDbVertex
100
AcDb3dPolylineVertex
 10
99.806
 20
8.71517
 30
0.0
 70
    32
  0
VERTEX
  5
CE2
330
C8D
100
AcDbEntity
  8
241
100
AcDbVertex
100
AcDb3dPolylineVertex
 10
99.774
 20
8.70448
 30
0.0
 70
    32
  0
VERTEX
  5
CE3
330
C8D
100
AcDbEntity
  8
241
100
AcDbVertex
100
AcDb3dPolylineVertex
 10
99.742
 20
8.69298
 30
0.0
 70
    32
  0
VERTEX
  5
CE4
330
C8D
100
AcDbEntity
  8
241
100
AcDbVertex
100
AcDb3dPolylineVertex
 10
99.711
 20
8.68069
 30
0.0
 70
    32
  0
VERTEX
  5
CE5
330
C8D
100
AcDbEntity
  8
241
100
AcDbVertex
100
AcDb3dPolylineVertex
 10
99.68
 20
8.66759
 30
0.0
 70
    32
  0
VERTEX
  5
CE6
330
C8D
100
AcDbEntity
  8
241
100
AcDbVertex
100
AcDb3dPolylineVertex
 10
99.649
 20
8.65371
 30
0.0
 70
    32
  0
VERTEX
  5
CE7
330
C8D
100
AcDbEntity
  8
241
100
AcDbVertex
100
AcDb3dPolylineVertex
 10
99.619
 20
8.63906
 30
0.0
 70
    32
  0
VERTEX
  5
CE8
330
C8D
100
AcDbEntity
  8
241
100
AcDbVertex
100
AcDb3dPolylineVertex
 10
99.589
 20
8.62363
 30
0.0
 70
    32
  0
VERTEX
  5
CE9
330
C8D
100
AcDbEntity
  8
241
100
AcDbVertex
100
AcDb3dPolylineVertex
 10
99.56
 20
8.60744
 30
0.0
 70
    32
  0
VERTEX
  5
CEA
330
C8D
100
AcDbEntity
  8
241
100
AcDbVertex
100
AcDb3dPolylineVertex
 10
99.53
 20
8.5905
 30
0.0
 70
    32
  0
VERTEX
  5
CEB
330
C8D
100
AcDbEntity
  8
241
100
AcDbVertex
100
AcDb3dPolylineVertex
 10
99.501
 20
8.57283
 30
0.0
 70
    32
  0
VERTEX
  5
CEC
330
C8D
100
AcDbEntity
  8
241
100
AcDbVertex
100
AcDb3dPolylineVertex
 10
99.473
 20
8.55442
 30
0.0
 70
    32
  0
VERTEX
  5
CED
330
C8D
100
AcDbEntity
  8
241
100
AcDbVertex
100
AcDb3dPolylineVertex
 10
99.445
 20
8.53529
 30
0.0
 70
    32
  0
VERTEX
  5
CEE
330
C8D
100
AcDbEntity
  8
241
100
AcDbVertex
100
AcDb3dPolylineVertex
 10
99.417
 20
8.51546
 30
0.0
 70
    32
  0
VERTEX
  5
CEF
330
C8D
100
AcDbEntity
  8
241
100
AcDbVertex
100
AcDb3dPolylineVertex
 10
99.39
 20
8.49493
 30
0.0
 70
    32
  0
VERTEX
  5
CF0
330
C8D
100
AcDbEntity
  8
241
100
AcDbVertex
100
AcDb3dPolylineVertex
 10
99.364
 20
8.47372
 30
0.0
 70
    32
  0
VERTEX
  5
CF1
330
C8D
100
AcDbEntity
  8
241
100
AcDbVertex
100
AcDb3dPolylineVertex
 10
99.337
 20
8.45184
 30
0.0
 70
    32
  0
VERTEX
  5
CF2
330
C8D
100
AcDbEntity
  8
241
100
AcDbVertex
100
AcDb3dPolylineVertex
 10
99.312
 20
8.4293
 30
0.0
 70
    32
  0
VERTEX
  5
CF3
330
C8D
100
AcDbEntity
  8
241
100
AcDbVertex
100
AcDb3dPolylineVertex
 10
99.287
 20
8.40612
 30
0.0
 70
    32
  0
VERTEX
  5
CF4
330
C8D
100
AcDbEntity
  8
241
100
AcDbVertex
100
AcDb3dPolylineVertex
 10
99.262
 20
8.38231
 30
0.0
 70
    32
  0
VERTEX
  5
CF5
330
C8D
100
AcDbEntity
  8
241
100
AcDbVertex
100
AcDb3dPolylineVertex
 10
99.238
 20
8.35789
 30
0.0
 70
    32
  0
VERTEX
  5
CF6
330
C8D
100
AcDbEntity
  8
241
100
AcDbVertex
100
AcDb3dPolylineVertex
 10
99.215
 20
8.33287
 30
0.0
 70
    32
  0
VERTEX
  5
CF7
330
C8D
100
AcDbEntity
  8
241
100
AcDbVertex
100
AcDb3dPolylineVertex
 10
99.192
 20
8.30726
 30
0.0
 70
    32
  0
VERTEX
  5
CF8
330
C8D
100
AcDbEntity
  8
241
100
AcDbVertex
100
AcDb3dPolylineVertex
 10
99.17
 20
8.28108
 30
0.0
 70
    32
  0
VERTEX
  5
CF9
330
C8D
100
AcDbEntity
  8
241
100
AcDbVertex
100
AcDb3dPolylineVertex
 10
99.148
 20
8.25434
 30
0.0
 70
    32
  0
VERTEX
  5
CFA
330
C8D
100
AcDbEntity
  8
241
100
AcDbVertex
100
AcDb3dPolylineVertex
 10
99.127
 20
8.22707
 30
0.0
 70
    32
  0
VERTEX
  5
CFB
330
C8D
100
AcDbEntity
  8
241
100
AcDbVertex
100
AcDb3dPolylineVertex
 10
99.106
 20
8.19928
 30
0.0
 70
    32
  0
VERTEX
  5
CFC
330
C8D
100
AcDbEntity
  8
241
100
AcDbVertex
100
AcDb3dPolylineVertex
 10
99.087
 20
8.17099
 30
0.0
 70
    32
  0
VERTEX
  5
CFD
330
C8D
100
AcDbEntity
  8
241
100
AcDbVertex
100
AcDb3dPolylineVertex
 10
99.068
 20
8.1422
 30
0.0
 70
    32
  0
VERTEX
  5
CFE
330
C8D
100
AcDbEntity
  8
241
100
AcDbVertex
100
AcDb3dPolylineVertex
 10
99.049
 20
8.11295
 30
0.0
 70
    32
  0
VERTEX
  5
CFF
330
C8D
100
AcDbEntity
  8
241
100
AcDbVertex
100
AcDb3dPolylineVertex
 10
99.032
 20
8.08324
 30
0.0
 70
    32
  0
VERTEX
  5
D00
330
C8D
100
AcDbEntity
  8
241
100
AcDbVertex
100
AcDb3dPolylineVertex
 10
99.014
 20
8.0531
 30
0.0
 70
    32
  0
VERTEX
  5
D01
330
C8D
100
AcDbEntity
  8
241
100
AcDbVertex
100
AcDb3dPolylineVertex
 10
98.998
 20
8.02254
 30
0.0
 70
    32
  0
VERTEX
  5
D02
330
C8D
100
AcDbEntity
  8
241
100
AcDbVertex
100
AcDb3dPolylineVertex
 10
98.983
 20
7.99158
 30
0.0
 70
    32
  0
VERTEX
  5
D03
330
C8D
100
AcDbEntity
  8
241
100
AcDbVertex
100
AcDb3dPolylineVertex
 10
98.968
 20
7.96025
 30
0.0
 70
    32
  0
VERTEX
  5
D04
330
C8D
100
AcDbEntity
  8
241
100
AcDbVertex
100
AcDb3dPolylineVertex
 10
98.953
 20
7.92855
 30
0.0
 70
    32
  0
VERTEX
  5
D05
330
C8D
100
AcDbEntity
  8
241
100
AcDbVertex
100
AcDb3dPolylineVertex
 10
98.94
 20
7.89651
 30
0.0
 70
    32
  0
VERTEX
  5
D06
330
C8D
100
AcDbEntity
  8
241
100
AcDbVertex
100
AcDb3dPolylineVertex
 10
98.927
 20
7.86415
 30
0.0
 70
    32
  0
VERTEX
  5
D07
330
C8D
100
AcDbEntity
  8
241
100
AcDbVertex
100
AcDb3dPolylineVertex
 10
98.915
 20
7.83149
 30
0.0
 70
    32
  0
VERTEX
  5
D08
330
C8D
100
AcDbEntity
  8
241
100
AcDbVertex
100
AcDb3dPolylineVertex
 10
98.904
 20
7.79855
 30
0.0
 70
    32
  0
VERTEX
  5
D09
330
C8D
100
AcDbEntity
  8
241
100
AcDbVertex
100
AcDb3dPolylineVertex
 10
98.894
 20
7.76534
 30
0.0
 70
    32
  0
VERTEX
  5
D0A
330
C8D
100
AcDbEntity
  8
241
100
AcDbVertex
100
AcDb3dPolylineVertex
 10
98.884
 20
7.73189
 30
0.0
 70
    32
  0
VERTEX
  5
D0B
330
C8D
100
AcDbEntity
  8
241
100
AcDbVertex
100
AcDb3dPolylineVertex
 10
98.875
 20
7.69821
 30
0.0
 70
    32
  0
VERTEX
  5
D0C
330
C8D
100
AcDbEntity
  8
241
100
AcDbVertex
100
AcDb3dPolylineVertex
 10
98.867
 20
7.66433
 30
0.0
 70
    32
  0
VERTEX
  5
D0D
330
C8D
100
AcDbEntity
  8
241
100
AcDbVertex
100
AcDb3dPolylineVertex
 10
98.86
 20
7.63027
 30
0.0
 70
    32
  0
VERTEX
  5
D0E
330
C8D
100
AcDbEntity
  8
241
100
AcDbVertex
100
AcDb3dPolylineVertex
 10
98.854
 20
7.59605
 30
0.0
 70
    32
  0
SEQEND
  5
D0F
330
C8D
100
AcDbEntity
  8
241
  0
LINE
  5
D10
330
792
100
AcDbEntity
  8
240
100
AcDbLine
 10
104.25
 20
11.89776928
 30
0.0
 11
104.25
 21
1.10421762
 31
0.0
  0
LINE
  5
D11
330
792
100
AcDbEntity
  8
246
100
AcDbLine
 10
105.0
 20
-12.5
 30
0.0
 11
105.0
 21
12.5
 31
0.0
1001
GRPNAME
1000
PASTMD3R
  0
LINE
  5
D12
330
792
100
AcDbEntity
  8
240
100
AcDbLine
 10
104.25
 20
-11.89776928
 30
0.0
 11
104.25
 21
-3.29502232
 31
0.0
  0
LINE
  5
D13
330
792
100
AcDbEntity
  8
240
100
AcDbLine
 10
104.17379259
 20
1.11765504
 30
0.0
 11
105.0
 21
-3.568
 31
0.0
  0
LINE
  5
D14
330
792
100
AcDbEntity
  8
240
100
AcDbLine
 10
105.0
 20
-3.568
 30
0.0
 11
104.25
 21
-3.29502232
 31
0.0
  0
LINE
  5
D15
330
792
100
AcDbEntity
  8
240
100
AcDbLine
 10
104.25
 20
1.10421762
 30
0.0
 11
104.17379259
 21
1.11765504
 31
0.0
  0
ENDBLK
  5
916
330
792
100
AcDbEntity
  8
0
100
AcDbBlockEnd
  0
BLOCK
  5
937
330
92D
100
AcDbEntity
  8
0
100
AcDbBlockBegin
  2
*D18
 70
     1
 10
0.0
 20
0.0
 30
0.0
  3
*D18
  1

  0
LINE
  5
B70
330
92D
100
AcDbEntity
  8
250
  6
CONTINUOUS
100
AcDbLine
 10
0.0
 20
31.0
 30
0.0
 11
0.0
 21
43.0
 31
0.0
  0
LINE
  5
B71
330
92D
100
AcDbEntity
  8
250
  6
CONTINUOUS
100
AcDbLine
 10
105.0
 20
13.0
 30
0.0
 11
105.0
 21
43.0
 31
0.0
  0
LINE
  5
B72
330
92D
100
AcDbEntity
  8
250
  6
CONTINUOUS
100
AcDbLine
 10
2.23
 20
42.0
 30
0.0
 11
102.77
 21
42.0
 31
0.0
  0
INSERT
  5
B73
330
92D
100
AcDbEntity
  8
250
  6
CONTINUOUS
100
AcDbBlockReference
  2
_OPEN
 10
0.0
 20
42.0
 30
0.0
 41
2.23
 42
2.23
 43
2.23
 50
180.0
  0
INSERT
  5
B74
330
92D
100
AcDbEntity
  8
250
  6
CONTINUOUS
100
AcDbBlockReference
  2
_OPEN
 10
105.0
 20
42.0
 30
0.0
 41
2.23
 42
2.23
 43
2.23
  0
MTEXT
  5
B75
330
92D
100
AcDbEntity
  8
250
  6
CONTINUOUS
 62
    40
100
AcDbMText
 10
52.5
 20
44.4
 30
0.0
 40
2.8
 41
0.0
 71
     5
 72
     1
  1
\A1;105
1001
ACAD
1000
MTEXTBEGIN
1070
    73
1070
     1
1070
    44
1040
1.0
1070
    74
1070
     0
1000
MTEXTEND
  0
POINT
  5
B76
330
92D
100
AcDbEntity
  8
DEFPOINTS
  6
CONTINUOUS
 62
     0
100
AcDbPoint
 10
0.0
 20
30.5
 30
0.0
  0
POINT
  5
B77
330
92D
100
AcDbEntity
  8
DEFPOINTS
  6
CONTINUOUS
 62
     0
100
AcDbPoint
 10
105.0
 20
12.5
 30
0.0
  0
POINT
  5
B78
330
92D
100
AcDbEntity
  8
DEFPOINTS
  6
CONTINUOUS
 62
     0
100
AcDbPoint
 10
105.0
 20
42.0
 30
0.0
  0
ENDBLK
  5
938
330
92D
100
AcDbEntity
  8
0
100
AcDbBlockEnd
  0
BLOCK
  5
943
330
939
100
AcDbEntity
  8
0
100
AcDbBlockBegin
  2
*D19
 70
     1
 10
0.0
 20
0.0
 30
0.0
  3
*D19
  1

  0
LINE
  5
B79
330
939
100
AcDbEntity
  8
250
  6
CONTINUOUS
100
AcDbLine
 10
50.0
 20
12.43977047
 30
0.0
 11
50.0
 21
36.0
 31
0.0
  0
LINE
  5
B7A
330
939
100
AcDbEntity
  8
250
  6
CONTINUOUS
100
AcDbLine
 10
105.0
 20
13.0
 30
0.0
 11
105.0
 21
36.0
 31
0.0
  0
LINE
  5
B7B
330
939
100
AcDbEntity
  8
250
  6
CONTINUOUS
100
AcDbLine
 10
52.23
 20
35.0
 30
0.0
 11
102.77
 21
35.0
 31
0.0
  0
INSERT
  5
B7C
330
939
100
AcDbEntity
  8
250
  6
CONTINUOUS
100
AcDbBlockReference
  2
_OPEN
 10
50.0
 20
35.0
 30
0.0
 41
2.23
 42
2.23
 43
2.23
 50
180.0
  0
INSERT
  5
B7D
330
939
100
AcDbEntity
  8
250
  6
CONTINUOUS
100
AcDbBlockReference
  2
_OPEN
 10
105.0
 20
35.0
 30
0.0
 41
2.23
 42
2.23
 43
2.23
  0
MTEXT
  5
B7E
330
939
100
AcDbEntity
  8
250
  6
CONTINUOUS
 62
    40
100
AcDbMText
 10
77.5
 20
37.4
 30
0.0
 40
2.8
 41
0.0
 71
     5
 72
     1
  1
\A1;55
1001
ACAD
1000
MTEXTBEGIN
1070
    73
1070
     1
1070
    44
1040
1.0
1070
    74
1070
     0
1000
MTEXTEND
  0
POINT
  5
B7F
330
939
100
AcDbEntity
  8
DEFPOINTS
  6
CONTINUOUS
 62
     0
100
AcDbPoint
 10
50.0
 20
11.93977047
 30
0.0
  0
POINT
  5
B80
330
939
100
AcDbEntity
  8
DEFPOINTS
  6
CONTINUOUS
 62
     0
100
AcDbPoint
 10
105.0
 20
12.5
 30
0.0
  0
POINT
  5
B81
330
939
100
AcDbEntity
  8
DEFPOINTS
  6
CONTINUOUS
 62
     0
100
AcDbPoint
 10
105.0
 20
35.0
 30
0.0
  0
ENDBLK
  5
944
330
939
100
AcDbEntity
  8
0
100
AcDbBlockEnd
  0
BLOCK
  5
94F
330
945
100
AcDbEntity
  8
0
100
AcDbBlockBegin
  2
*D20
 70
     1
 10
0.0
 20
0.0
 30
0.0
  3
*D20
  1

  0
LINE
  5
B82
330
945
100
AcDbEntity
  8
250
  6
CONTINUOUS
100
AcDbLine
 10
97.0
 20
13.0
 30
0.0
 11
97.0
 21
29.0
 31
0.0
  0
LINE
  5
B83
330
945
100
AcDbEntity
  8
250
  6
CONTINUOUS
100
AcDbLine
 10
105.0
 20
13.0
 30
0.0
 11
105.0
 21
29.0
 31
0.0
  0
LINE
  5
B84
330
945
100
AcDbEntity
  8
250
  6
CONTINUOUS
100
AcDbLine
 10
99.23
 20
28.0
 30
0.0
 11
102.77
 21
28.0
 31
0.0
  0
INSERT
  5
B85
330
945
100
AcDbEntity
  8
250
  6
CONTINUOUS
100
AcDbBlockReference
  2
_OPEN
 10
97.0
 20
28.0
 30
0.0
 41
2.23
 42
2.23
 43
2.23
 50
180.0
  0
INSERT
  5
B86
330
945
100
AcDbEntity
  8
250
  6
CONTINUOUS
100
AcDbBlockReference
  2
_OPEN
 10
105.0
 20
28.0
 30
0.0
 41
2.23
 42
2.23
 43
2.23
  0
MTEXT
  5
B87
330
945
100
AcDbEntity
  8
250
  6
CONTINUOUS
 62
    40
100
AcDbMText
 10
101.0
 20
30.4
 30
0.0
 40
2.8
 41
0.0
 71
     5
 72
     1
  1
\A1;8
1001
ACAD
1000
MTEXTBEGIN
1070
    73
1070
     1
1070
    44
1040
1.0
1070
    74
1070
     0
1000
MTEXTEND
  0
POINT
  5
B88
330
945
100
AcDbEntity
  8
DEFPOINTS
  6
CONTINUOUS
 62
     0
100
AcDbPoint
 10
97.0
 20
12.5
 30
0.0
  0
POINT
  5
B89
330
945
100
AcDbEntity
  8
DEFPOINTS
  6
CONTINUOUS
 62
     0
100
AcDbPoint
 10
105.0
 20
12.5
 30
0.0
  0
POINT
  5
B8A
330
945
100
AcDbEntity
  8
DEFPOINTS
  6
CONTINUOUS
 62
     0
100
AcDbPoint
 10
105.0
 20
28.0
 30
0.0
  0
ENDBLK
  5
950
330
945
100
AcDbEntity
  8
0
100
AcDbBlockEnd
  0
BLOCK
  5
95B
330
951
100
AcDbEntity
  8
0
100
AcDbBlockBegin
  2
*D21
 70
     1
 10
0.0
 20
0.0
 30
0.0
  3
*D21
  1

  0
LINE
  5
B8B
330
951
100
AcDbEntity
  8
250
  6
CONTINUOUS
100
AcDbLine
 10
105.5
 20
-12.5
 30
0.0
 11
119.0
 21
-12.5
 31
0.0
  0
LINE
  5
B8C
330
951
100
AcDbEntity
  8
250
  6
CONTINUOUS
100
AcDbLine
 10
105.5
 20
12.5
 30
0.0
 11
119.0
 21
12.5
 31
0.0
  0
LINE
  5
B8D
330
951
100
AcDbEntity
  8
250
  6
CONTINUOUS
100
AcDbLine
 10
118.0
 20
-10.27
 30
0.0
 11
118.0
 21
10.27
 31
0.0
  0
INSERT
  5
B8E
330
951
100
AcDbEntity
  8
250
  6
CONTINUOUS
100
AcDbBlockReference
  2
_OPEN
 10
118.0
 20
-12.5
 30
0.0
 41
2.23
 42
2.23
 43
2.23
 50
270.0
  0
INSERT
  5
B8F
330
951
100
AcDbEntity
  8
250
  6
CONTINUOUS
100
AcDbBlockReference
  2
_OPEN
 10
118.0
 20
12.5
 30
0.0
 41
2.23
 42
2.23
 43
2.23
 50
90.0
  0
MTEXT
  5
B90
330
951
100
AcDbEntity
  8
250
  6
CONTINUOUS
 62
    40
100
AcDbMText
 10
115.6
 20
0.0
 30
0.0
 40
2.8
 41
0.0
 71
     5
 72
     1
  1
\A1;{\H2.8;\U+2205}25
 11
0.0
 21
1.0
 31
0.0
1001
ACAD
1000
MTEXTBEGIN
1070
    73
1070
     1
1070
    44
1040
1.0
1070
    74
1070
     0
1000
MTEXTEND
  0
POINT
  5
B91
330
951
100
AcDbEntity
  8
DEFPOINTS
  6
CONTINUOUS
 62
     0
100
AcDbPoint
 10
105.0
 20
-12.5
 30
0.0
  0
POINT
  5
B92
330
951
100
AcDbEntity
  8
DEFPOINTS
  6
CONTINUOUS
 62
     0
100
AcDbPoint
 10
105.0
 20
12.5
 30
0.0
  0
POINT
  5
B93
330
951
100
AcDbEntity
  8
DEFPOINTS
  6
CONTINUOUS
 62
     0
100
AcDbPoint
 10
118.0
 20
12.5
 30
0.0
  0
ENDBLK
  5
95C
330
951
100
AcDbEntity
  8
0
100
AcDbBlockEnd
  0
ENDSEC
  0
SECTION
  2
ENTITIES
  0
INSERT
  5
6E6
330
1A
100
AcDbEntity
  8
245
100
AcDbBlockReference
  2
矢印なし
 10
175.62382697
 20
90.55123572
 30
0.0
  0
DIMENSION
  5
925
330
1A
100
AcDbEntity
  8
250
  6
CONTINUOUS
100
AcDbDimension
  2
*D18
 10
105.0
 20
42.0
 30
0.0
 11
52.5
 21
44.4
 31
0.0
 70
    32
  3
BIGT
100
AcDbAlignedDimension
 13
0.0
 23
30.5
 33
0.0
 14
105.0
 24
12.5
 34
0.0
100
AcDbRotatedDimension
  0
TEXT
  5
926
330
1A
100
AcDbEntity
  8
241
100
AcDbText
 10
-32.0
 20
56.0
 30
0.0
 40
5.0
  1
HSK-A63-FCR25082L-105
  7
YOKO
 11
-32.0
 21
56.0
 31
0.0
100
AcDbText
 73
     1
1001
GRPNAME
1000
PASTMD0C
  0
LINE
  5
927
330
1A
100
AcDbEntity
  8
250
  6
CONTINUOUS
100
AcDbLine
 10
-18.44991262
 20
-34.94501046
 30
0.0
 11
-42.71657929
 21
-34.94501046
 31
0.0
1001
ITEMNAME
1000
LNSP2
  0
MTEXT
  5
928
330
1A
100
AcDbEntity
  8
251
  6
CONTINUOUS
100
AcDbMText
 10
-39.91657929
 20
-33.94501046
 30
0.0
 40
2.8
 41
0.0
 71
     7
 72
     1
  1
HSK-A63
  7
YOKO
1001
ITEMNAME
1000
LNSP3
1001
ACAD
1000
MTEXTBEGIN
1070
    73
1070
     1
1070
    44
1040
1.0
1070
    74
1070
     0
1000
MTEXTEND
1000
MTEXTBEGIN
1070
    73
1070
     1
1070
    44
1040
1.0
1070
    74
1070
     0
1000
MTEXTEND
1000
MTEXTBEGIN
1070
    73
1070
     1
1070
    44
1040
1.0
1070
    74
1070
     0
1000
MTEXTEND
1000
MTEXTBEGIN
1070
    73
1070
     1
1070
    44
1040
1.0
1070
    74
1070
     0
1000
MTEXTEND
1000
MTEXTBEGIN
1070
    73
1070
     1
1070
    44
1040
1.0
1070
    74
1070
     0
1000
MTEXTEND
  0
LEADER
  5
929
330
1A
100
AcDbEntity
  8
250
  6
CONTINUOUS
100
AcDbLeader
  3
BIGT
 76
     2
 10
-11.96720963
 20
-23.71663952
 30
0.0
 10
-18.44991262
 20
-34.94501046
 30
0.0
1001
ACAD
1000
DSTYLE
1002
{
1070
     6
1000
OPEN
1070
   343
1005
594
1002
}
  0
DIMENSION
  5
92A
330
1A
100
AcDbEntity
  8
250
  6
CONTINUOUS
100
AcDbDimension
  2
*D19
 10
105.0
 20
35.0
 30
0.0
 11
77.5
 21
37.4
 31
0.0
 70
    32
  3
BIGT
100
AcDbAlignedDimension
 13
50.0
 23
11.93977047
 33
0.0
 14
105.0
 24
12.5
 34
0.0
100
AcDbRotatedDimension
  0
DIMENSION
  5
92B
330
1A
100
AcDbEntity
  8
250
  6
CONTINUOUS
100
AcDbDimension
  2
*D20
 10
105.0
 20
28.0
 30
0.0
 11
101.0
 21
30.4
 31
0.0
 70
    32
  3
BIGT
100
AcDbAlignedDimension
 13
97.0
 23
12.5
 33
0.0
 14
105.0
 24
12.5
 34
0.0
100
AcDbRotatedDimension
  0
DIMENSION
  5
92C
330
1A
100
AcDbEntity
  8
250
  6
CONTINUOUS
100
AcDbDimension
  2
*D21
 10
118.0
 20
12.5
 30
0.0
 11
115.6
 21
0.0
 31
0.0
 70
    32
  1
{\H2.8;\U+2205}<>
  3
BIGT
100
AcDbAlignedDimension
 13
105.0
 23
-12.5
 33
0.0
 14
105.0
 24
12.5
 34
0.0
 50
90.0
100
AcDbRotatedDimension
  0
INSERT
  5
D16
330
1A
100
AcDbEntity
  8
245
100
AcDbBlockReference
  2
1
 10
0.0
 20
0.0
 30
0.0
  0
VIEWPORT
  5
22
330
17
100
AcDbEntity
 67
     1
  8
0
100
AcDbViewport
 10
261.51769912
 20
148.5
 30
0.0
 40
523.03539823
 41
297.0
 68
     1
 69
     1
1001
ACAD
1000
MVIEW
1002
{
1070
    16
1010
0.0
1020
0.0
1030
0.0
1010
0.0
1020
0.0
1030
1.0
1040
0.0
1040
297.0
1040
261.51769912
1040
148.5
1040
50.0
1040
0.0
1040
0.0
1070
     0
1070
   100
1070
     1
1070
     1
1070
     0
1070
     0
1070
     0
1070
     0
1040
0.0
1040
0.0
1040
0.0
1040
1.0
1040
1.0
1040
10.0
1040
10.0
1070
     0
1002
{
1002
}
1002
}
  0
ENDSEC
  0
SECTION
  2
OBJECTS
  0
DICTIONARY
  5
C
330
0
100
AcDbDictionary
  3
ACAD_GROUP
350
D
  3
ACAD_LAYOUT
350
565
  3
ACAD_MLINESTYLE
350
E
  3
ACAD_PLOTSETTINGS
350
566
  3
ACAD_PLOTSTYLENAME
350
563
  3
ACDBHEADERROUNDTRIPXREC
350
D3F
  3
GRADE_DWG
350
540
  0
DICTIONARY
  5
D62
330
1A
100
AcDbDictionary
280
     1
  3
ACAD_LAYOUTSELFREF
360
D63
  0
DICTIONARY
  5
D60
330
17
100
AcDbDictionary
280
     1
  3
ACAD_LAYOUTSELFREF
360
D61
  0
DICTIONARY
  5
D
102
{ACAD_REACTORS
330
C
102
}
330
C
100
AcDbDictionary
  3
*A1
350
6C7
  3
*A2
350
6C8
  3
*A3
350
6D4
  3
*A4
350
6D5
  3
DREC-1
350
5FC
  3
DREC-2
350
654
  3
DREC-3
350
673
  0
DICTIONARY
  5
565
102
{ACAD_REACTORS
330
C
102
}
330
C
100
AcDbDictionary
  0
DICTIONARY
  5
E
102
{ACAD_REACTORS
330
C
102
}
330
C
100
AcDbDictionary
  3
STANDARD
350
13
  0
DICTIONARY
  5
566
102
{ACAD_REACTORS
330
C
102
}
330
C
100
AcDbDictionary
  3
A3_0_5倍_
350
758
  3
A3_1倍_
350
757
  3
A3_1倍__2000_
350
707
  3
A3_2倍_
350
759
  3
A4_0_5倍_
350
755
  3
A4_1倍_
350
754
  3
A4_1倍__2000_
350
708
  3
A4_2倍_
350
756
  0
ACDBDICTIONARYWDFLT
  5
563
102
{ACAD_REACTORS
330
C
102
}
330
C
100
AcDbDictionary
281
     1
  3
Normal
350
564
100
AcDbDictionaryWithDefault
340
564
  0
DICTIONARY
  5
D3F
102
{ACAD_REACTORS
330
C
102
}
330
C
100
AcDbDictionary
  3
CEPSNTYPE
350
D49
  3
DIMSTYLEDATA
350
D4D
  3
FINGERPRINTGUID
350
D4A
  3
HYPERLINKBASE
350
D42
  3
INSUNITS
350
D48
  3
LAYOUTDICT
350
D44
  3
LWETCUNION
350
D47
  3
PLOTSETDICT
350
D45
  3
PLOTSTYLNAMDICT
350
D46
  3
PSVPSCALE
350
D4C
  3
PUCSBASE
350
D50
  3
PUCSORGBACK
350
D56
  3
PUCSORGBOTTOM
350
D52
  3
PUCSORGFRONT
350
D55
  3
PUCSORGLEFT
350
D53
  3
PUCSORGRIGHT
350
D54
  3
PUCSORGTOP
350
D51
  3
PUCSORTHOREF
350
D4E
  3
PUCSORTHOVIEW
350
D4F
  3
STYLESHEET
350
D43
  3
TSTACKALIGN
350
D40
  3
TSTACKSIZE
350
D41
  3
UCSBASE
350
D59
  3
UCSORGBACK
350
D5F
  3
UCSORGBOTTOM
350
D5B
  3
UCSORGFRONT
350
D5E
  3
UCSORGLEFT
350
D5C
  3
UCSORGRIGHT
350
D5D
  3
UCSORGTOP
350
D5A
  3
UCSORTHOREF
350
D57
  3
UCSORTHOVIEW
350
D58
  3
VERSIONGUID
350
D4B
  0
DICTIONARY
  5
540
102
{ACAD_REACTORS
330
C
102
}
330
C
100
AcDbDictionary
  3
VERSION
350
560
  0
XRECORD
  5
D63
102
{ACAD_REACTORS
330
D62
102
}
330
D62
100
AcDbXrecord
340
1A
  0
XRECORD
  5
D61
102
{ACAD_REACTORS
330
D60
102
}
330
D60
100
AcDbXrecord
340
17
  0
GROUP
  5
6C7
102
{ACAD_REACTORS
330
D
102
}
330
D
100
AcDbGroup
300

 70
     0
 71
     1
1001
GRPNAME
1000
DMA00
  0
GROUP
  5
6C8
102
{ACAD_REACTORS
330
D
102
}
330
D
100
AcDbGroup
300

 70
     0
 71
     1
1001
GRPNAME
1000
DMA00
  0
GROUP
  5
6D4
102
{ACAD_REACTORS
330
D
102
}
330
D
100
AcDbGroup
300

 70
     0
 71
     1
1001
GRPNAME
1000
DMA00
  0
GROUP
  5
6D5
102
{ACAD_REACTORS
330
D
102
}
330
D
100
AcDbGroup
300

 70
     0
 71
     1
1001
GRPNAME
1000
DMA00
  0
GROUP
  5
5FC
102
{ACAD_REACTORS
330
D
102
}
330
D
100
AcDbGroup
300

 70
     0
 71
     1
1001
GRPNAME
1000
DREC-
1001
GPARA
1000
xsiz
1000
44.182
1000
ysiz
1000
40.677
1000
angl
1000
0
1000
ctyp
1000
0
1000
csiz
1000
5
1000
lfnt
1000
cont
1000
hcnt
1000
hoff
1000
vcnt
1000
voff
1000
opnt
1000
4
1000
dxpt
1000
0
1000
dypt
1000
0
  0
GROUP
  5
654
102
{ACAD_REACTORS
330
D
102
}
330
D
100
AcDbGroup
300

 70
     0
 71
     1
1001
GRPNAME
1000
DREC-
1001
GPARA
1000
xsiz
1000
54.592
1000
ysiz
1000
53.036
1000
angl
1000
0
1000
ctyp
1000
0
1000
csiz
1000
5
1000
lfnt
1000
cont
1000
hcnt
1000
hoff
1000
vcnt
1000
voff
1000
opnt
1000
4
1000
dxpt
1000
0
1000
dypt
1000
0
  0
GROUP
  5
673
102
{ACAD_REACTORS
330
D
102
}
330
D
100
AcDbGroup
300

 70
     0
 71
     1
1001
GRPNAME
1000
DREC-
1001
GPARA
1000
xsiz
1000
30.363
1000
ysiz
1000
36.175
1000
angl
1000
0
1000
ctyp
1000
0
1000
csiz
1000
5
1000
lfnt
1000
cont
1000
hcnt
1000
hoff
1000
vcnt
1000
voff
1000
opnt
1000
4
1000
dxpt
1000
0
1000
dypt
1000
0
  0
MLINESTYLE
  5
13
102
{ACAD_REACTORS
330
E
102
}
330
E
100
AcDbMlineStyle
  2
STANDARD
 70
     0
  3

 62
     0
 51
90.0
 52
90.0
 71
     2
 49
0.5
 62
   256
  6
BYLAYER
 49
-0.5
 62
   256
  6
BYLAYER
  0
PLOTSETTINGS
  5
758
102
{ACAD_REACTORS
330
566
102
}
330
566
100
AcDbPlotSettings
  1
A3(0.5倍)
  2
\\AWTECPC05\HP DeskJet 1120C
  4
A3
  6

 40
5.95841646
 41
13.49375153
 42
6.04309082
 43
3.67242432
 44
296.92599487
 45
419.94665527
 46
89.96
 47
127.14
 48
0.0
 49
0.0
140
0.0
141
0.0
142
1.0
143
2.0
 70
  1716
 72
     1
 73
     1
 74
     2
  7
big.ctb
 75
    17
147
0.5
148
0.0
149
0.0
  0
PLOTSETTINGS
  5
757
102
{ACAD_REACTORS
330
566
102
}
330
566
100
AcDbPlotSettings
  1
A3(1倍)
  2
\\AWTECPC05\HP DeskJet 1120C
  4
A3
  6

 40
5.95841646
 41
13.49375153
 42
6.04309082
 43
3.67242432
 44
296.92599487
 45
419.94665527
 46
37.46
 47
52.89
 48
0.0
 49
0.0
140
0.0
141
0.0
142
1.0
143
1.0
 70
  1716
 72
     1
 73
     1
 74
     2
  7
big.ctb
 75
    16
147
1.0
148
0.0
149
0.0
  0
PLOTSETTINGS
  5
707
102
{ACAD_REACTORS
330
566
102
}
330
566
100
AcDbPlotSettings
  1
A3(1倍)(2000)
  2
SII LS-1300 (D-SCAN)
  4
User258
  6

 40
3.17499995
 41
3.17499995
 42
3.17498779
 43
3.17498779
 44
419.98898315
 45
296.98950195
 46
58.32
 47
40.32
 48
0.0
 49
0.0
140
0.0
141
0.0
142
1.0
143
1.0
 70
  1716
 72
     1
 73
     0
 74
     2
  7
big.ctb
 75
    16
147
1.0
148
0.0
149
0.0
  0
PLOTSETTINGS
  5
759
102
{ACAD_REACTORS
330
566
102
}
330
566
100
AcDbPlotSettings
  1
A3(2倍)
  2
\\AWTECPC05\HP DeskJet 1120C
  4
A3
  6

 40
5.95841646
 41
13.49375153
 42
6.04309082
 43
3.67242432
 44
296.92599487
 45
419.94665527
 46
-67.54
 47
-95.61
 48
0.0
 49
0.0
140
0.0
141
0.0
142
1.0
143
0.5
 70
  1716
 72
     1
 73
     1
 74
     2
  7
big.ctb
 75
    27
147
2.0
148
0.0
149
0.0
  0
PLOTSETTINGS
  5
755
102
{ACAD_REACTORS
330
566
102
}
330
566
100
AcDbPlotSettings
  1
A4(0.5倍)
  2
\\AWTECPC05\HP DeskJet 1120C
  4
A4
  6

 40
4.18041658
 41
13.49374962
 42
4.18040466
 43
3.92642212
 44
209.97332764
 45
296.92599487
 46
48.31
 47
65.5
 48
0.0
 49
0.0
140
0.0
141
0.0
142
1.0
143
2.0
 70
  1716
 72
     1
 73
     1
 74
     2
  7
big.ctb
 75
    17
147
0.5
148
0.0
149
0.0
  0
PLOTSETTINGS
  5
754
102
{ACAD_REACTORS
330
566
102
}
330
566
100
AcDbPlotSettings
  1
A4(1倍)
  2
\\AWTECPC05\HP DeskJet 1120C
  4
A4
  6

 40
4.18041658
 41
13.49374962
 42
4.18040466
 43
3.92642212
 44
209.97332764
 45
296.92599487
 46
-4.19
 47
-8.75
 48
0.0
 49
0.0
140
0.0
141
0.0
142
1.0
143
1.0
 70
  1716
 72
     1
 73
     1
 74
     2
  7
big.ctb
 75
    16
147
1.0
148
0.0
149
0.0
  0
PLOTSETTINGS
  5
708
102
{ACAD_REACTORS
330
566
102
}
330
566
100
AcDbPlotSettings
  1
A4(1倍)(2000)
  2
SII LS-1300 (D-SCAN)
  4
User259
  6

 40
3.17499995
 41
3.17499995
 42
3.17498779
 43
3.17500305
 44
296.98950195
 45
209.99449158
 46
-3.18
 47
-3.18
 48
0.0
 49
0.0
140
0.0
141
0.0
142
1.0
143
1.0
 70
  1716
 72
     1
 73
     0
 74
     2
  7
big.ctb
 75
    16
147
1.0
148
0.0
149
0.0
  0
PLOTSETTINGS
  5
756
102
{ACAD_REACTORS
330
566
102
}
330
566
100
AcDbPlotSettings
  1
A4(2倍)
  2
\\AWTECPC05\HP DeskJet 1120C
  4
A4
  6

 40
4.18041658
 41
13.49374962
 42
4.18040466
 43
3.92642212
 44
209.97332764
 45
296.92599487
 46
-109.19
 47
-157.25
 48
0.0
 49
0.0
140
0.0
141
0.0
142
1.0
143
0.5
 70
  1716
 72
     1
 73
     1
 74
     2
  7
big.ctb
 75
    27
147
2.0
148
0.0
149
0.0
  0
ACDBPLACEHOLDER
  5
564
102
{ACAD_REACTORS
330
563
102
}
330
563
100
AcDbPlaceHolder
280
     0
  0
XRECORD
  5
D49
102
{ACAD_REACTORS
330
D3F
102
}
330
D3F
100
AcDbXrecord
 90
        0
  0
XRECORD
  5
D4D
102
{ACAD_REACTORS
330
D3F
102
}
330
D3F
100
AcDbXrecord
1000
DSTYLE
1002
{
1070
    79
 70
     2
1070
   179
 70
     3
1070
   289
 70
     2
1070
   341
340
594
1070
   343
340
594
1070
   344
340
594
1070
   371
 70
    -1
1070
   372
 70
    -1
1002
}
  0
XRECORD
  5
D4A
102
{ACAD_REACTORS
330
D3F
102
}
330
D3F
100
AcDbXrecord
  1
{51294030-9CB4-11D3-8E18-00A0C925D94D}
  0
XRECORD
  5
D42
102
{ACAD_REACTORS
330
D3F
102
}
330
D3F
100
AcDbXrecord
  1

  0
XRECORD
  5
D48
102
{ACAD_REACTORS
330
D3F
102
}
330
D3F
100
AcDbXrecord
 90
        0
  0
XRECORD
  5
D44
102
{ACAD_REACTORS
330
D3F
102
}
330
D3F
100
AcDbXrecord
340
565
  0
XRECORD
  5
D47
102
{ACAD_REACTORS
330
D3F
102
}
330
D3F
100
AcDbXrecord
 90
    10781
  0
XRECORD
  5
D45
102
{ACAD_REACTORS
330
D3F
102
}
330
D3F
100
AcDbXrecord
340
566
  0
XRECORD
  5
D46
102
{ACAD_REACTORS
330
D3F
102
}
330
D3F
100
AcDbXrecord
340
563
  0
XRECORD
  5
D4C
102
{ACAD_REACTORS
330
D3F
102
}
330
D3F
100
AcDbXrecord
 40
0.0
  0
XRECORD
  5
D50
102
{ACAD_REACTORS
330
D3F
102
}
330
D3F
100
AcDbXrecord
340
0
  0
XRECORD
  5
D56
102
{ACAD_REACTORS
330
D3F
102
}
330
D3F
100
AcDbXrecord
 10
0.0
 20
0.0
 30
0.0
  0
XRECORD
  5
D52
102
{ACAD_REACTORS
330
D3F
102
}
330
D3F
100
AcDbXrecord
 10
0.0
 20
0.0
 30
0.0
  0
XRECORD
  5
D55
102
{ACAD_REACTORS
330
D3F
102
}
330
D3F
100
AcDbXrecord
 10
0.0
 20
0.0
 30
0.0
  0
XRECORD
  5
D53
102
{ACAD_REACTORS
330
D3F
102
}
330
D3F
100
AcDbXrecord
 10
0.0
 20
0.0
 30
0.0
  0
XRECORD
  5
D54
102
{ACAD_REACTORS
330
D3F
102
}
330
D3F
100
AcDbXrecord
 10
0.0
 20
0.0
 30
0.0
  0
XRECORD
  5
D51
102
{ACAD_REACTORS
330
D3F
102
}
330
D3F
100
AcDbXrecord
 10
0.0
 20
0.0
 30
0.0
  0
XRECORD
  5
D4E
102
{ACAD_REACTORS
330
D3F
102
}
330
D3F
100
AcDbXrecord
340
0
  0
XRECORD
  5
D4F
102
{ACAD_REACTORS
330
D3F
102
}
330
D3F
100
AcDbXrecord
 70
     0
  0
XRECORD
  5
D43
102
{ACAD_REACTORS
330
D3F
102
}
330
D3F
100
AcDbXrecord
  1
big.ctb
  0
XRECORD
  5
D40
102
{ACAD_REACTORS
330
D3F
102
}
330
D3F
100
AcDbXrecord
 90
        1
  0
XRECORD
  5
D41
102
{ACAD_REACTORS
330
D3F
102
}
330
D3F
100
AcDbXrecord
 90
       70
  0
XRECORD
  5
D59
102
{ACAD_REACTORS
330
D3F
102
}
330
D3F
100
AcDbXrecord
340
0
  0
XRECORD
  5
D5F
102
{ACAD_REACTORS
330
D3F
102
}
330
D3F
100
AcDbXrecord
 10
0.0
 20
0.0
 30
0.0
  0
XRECORD
  5
D5B
102
{ACAD_REACTORS
330
D3F
102
}
330
D3F
100
AcDbXrecord
 10
0.0
 20
0.0
 30
0.0
  0
XRECORD
  5
D5E
102
{ACAD_REACTORS
330
D3F
102
}
330
D3F
100
AcDbXrecord
 10
0.0
 20
0.0
 30
0.0
  0
XRECORD
  5
D5C
102
{ACAD_REACTORS
330
D3F
102
}
330
D3F
100
AcDbXrecord
 10
0.0
 20
0.0
 30
0.0
  0
XRECORD
  5
D5D
102
{ACAD_REACTORS
330
D3F
102
}
330
D3F
100
AcDbXrecord
 10
0.0
 20
0.0
 30
0.0
  0
XRECORD
  5
D5A
102
{ACAD_REACTORS
330
D3F
102
}
330
D3F
100
AcDbXrecord
 10
0.0
 20
0.0
 30
0.0
  0
XRECORD
  5
D57
102
{ACAD_REACTORS
330
D3F
102
}
330
D3F
100
AcDbXrecord
340
0
  0
XRECORD
  5
D58
102
{ACAD_REACTORS
330
D3F
102
}
330
D3F
100
AcDbXrecord
 70
     0
  0
XRECORD
  5
D4B
102
{ACAD_REACTORS
330
D3F
102
}
330
D3F
100
AcDbXrecord
  1
{8563CF21-2672-42F0-ADF2-EA5B0A81051D}
  0
XRECORD
  5
560
102
{ACAD_REACTORS
330
540
102
}
330
540
100
AcDbXrecord
  1
2.0.0
  0
ENDSEC
  0
EOF
